osu file format v14

[General]
AudioFilename: audio.mp3
AudioLeadIn: 0
PreviewTime: 88873
Countdown: 1
SampleSet: Soft
StackLeniency: 0.7
Mode: 0
LetterboxInBreaks: 0
WidescreenStoryboard: 1

[Editor]
Bookmarks: 58256,110491
DistanceSpacing: 1
BeatDivisor: 4
GridSize: 8
TimelineZoom: 2.5

[Metadata]
Title:Great Days (Surreal Dave Eurobeat Remix)
TitleUnicode:Great Days (Surreal Dave Eurobeat Remix)
Artist:Karen Aoki & Daisuke Hasegawa
ArtistUnicode:Karen Aoki & Daisuke Hasegawa
Creator:- - Makrica - -
Version:DIO
Source:JOJO
Tags:JOJO Karen Aoki & Daisuke Hasegawa Great Days Surreal Dave Eurobeat Remix
BeatmapID:1738968
BeatmapSetID:829869

[Difficulty]
HPDrainRate:6
CircleSize:4
OverallDifficulty:8
ApproachRate:9.3
SliderMultiplier:2.5
SliderTickRate:1

[Events]
//Background and Video events
0,0,"bg.png",0,0
//Break Periods
2,1632,12172
//Storyboard Layer 0 (Background)
//Storyboard Layer 1 (Fail)
//Storyboard Layer 2 (Pass)
//Storyboard Layer 3 (Foreground)
//Storyboard Sound Samples

[TimingPoints]
21,352.941176470588,4,2,0,60,1,0
12726,-200,4,2,0,60,0,0
18373,-133.333333333333,4,2,0,60,0,0
35316,-100,4,2,0,60,0,0
60640,-100,4,2,0,60,0,1
70875,-100,4,2,0,60,0,0
86138,-83.3333333333333,4,2,0,60,0,0
87550,-100,4,2,0,60,0,0
88875,-100,4,2,0,60,0,1
114110,-100,4,2,0,60,0,0
135463,-100,4,2,0,60,0,1
145697,-100,4,2,0,60,0,0
160960,-83.3333333333333,4,2,0,60,0,0
161493,-100,4,2,0,60,0,0
163697,-100,4,2,0,60,0,1
186287,-100,4,2,0,60,0,0
220169,-285.714285714286,4,2,0,60,0,0
225110,-142.857142857143,4,2,0,60,0,0
231463,-100,4,2,0,60,0,0
232962,-83.3333333333333,4,2,0,60,0,1
252462,-100,4,2,0,60,0,1
257138,-100,4,2,0,60,0,0

[HitObjects]
250,0,21,5,0,0:0:0:0:
300,85,373,1,0,0:0:0:0:
192,177,726,5,0,0:0:0:0:
337,275,903,5,0,0:0:0:0:
380,273,991,1,0,0:0:0:0:
412,245,1079,1,0,0:0:0:0:
418,202,1167,1,0,0:0:0:0:
396,165,1256,1,0,0:0:0:0:
356,150,1344,1,0,0:0:0:0:
316,165,1432,1,0,0:0:0:0:
98,32,12726,6,0,L|27:45,2,62.5,0|0|0,0:0|0:0|0:0,0:0:0:0:
186,112,13432,2,0,L|256:125,2,62.5,0|0|0,0:0|0:0|0:0,0:0:0:0:
74,198,13962,2,0,L|4:211,3,62.5,0|0|0|0,0:0|0:0|0:0|0:0,0:0:0:0:
180,290,14844,2,0,L|250:303,2,62.5,0|0|0,0:0|0:0|0:0,0:0:0:0:
411,138,15550,6,0,L|481:151,2,62.5,0|0|0,0:0|0:0|0:0,0:0:0:0:
323,218,16256,2,0,L|252:231,2,62.5,0|0|0,0:0|0:0|0:0,0:0:0:0:
448,289,16785,2,0,L|518:302,3,62.5,0|0|0|0,0:0|0:0|0:0|0:0,0:0:0:0:
308,324,17668,2,0,L|237:337,2,62.5,0|0|0,0:0|0:0|0:0,0:0:0:0:
416,173,18373,5,0,0:0:0:0:
293,65,18550,2,0,P|200:63|152:140,1,187.500007152558,0|0,0:0|0:0,0:0:0:0:
155,346,19079,5,0,0:0:0:0:
307,283,19256,2,0,P|313:190|238:138,1,187.500007152558,0|0,0:0|0:0,0:0:0:0:
69,169,19785,5,0,0:0:0:0:
99,327,19962,2,0,P|171:383|256:350,1,187.500007152558,0|0,0:0|0:0,0:0:0:0:
319,211,20491,5,0,0:0:0:0:
272,60,20668,2,0,P|199:3|114:36,1,187.500007152558,0|0,0:0|0:0,0:0:0:0:
54,164,21197,5,0,0:0:0:0:
195,227,21373,2,0,P|238:308|191:386,1,187.500007152558,0|0,0:0|0:0,0:0:0:0:
369,308,21903,5,0,0:0:0:0:
436,160,22079,2,0,P|428:67|345:28,1,187.500007152558,0|0,0:0|0:0,0:0:0:0:
204,0,22609,5,0,0:0:0:0:
169,71,22962,1,0,0:0:0:0:
303,173,23315,6,0,L|369:208,3,46.8750017881394,0|0|0|0,0:0|0:0|0:0|0:0,0:0:0:0:
189,284,23668,2,0,L|123:319,3,46.8750017881394,0|0|0|0,0:0|0:0|0:0|0:0,0:0:0:0:
145,384,24021,5,0,0:0:0:0:
203,384,24109,1,0,0:0:0:0:
249,345,24197,1,0,0:0:0:0:
263,283,24285,1,0,0:0:0:0:
233,229,24373,1,0,0:0:0:0:
178,204,24462,1,0,0:0:0:0:
118,220,24550,1,0,0:0:0:0:
82,270,24638,1,0,0:0:0:0:
108,328,24727,5,0,0:0:0:0:
165,349,24815,1,0,0:0:0:0:
224,330,24903,1,0,0:0:0:0:
257,278,24991,1,0,0:0:0:0:
250,218,25079,1,0,0:0:0:0:
208,174,25168,1,0,0:0:0:0:
146,166,25256,1,0,0:0:0:0:
95,200,25344,1,0,0:0:0:0:
87,262,25432,5,0,0:0:0:0:
122,308,25521,1,0,0:0:0:0:
184,322,25609,1,0,0:0:0:0:
237,294,25697,1,0,0:0:0:0:
264,238,25785,1,0,0:0:0:0:
248,179,25874,1,0,0:0:0:0:
201,141,25962,1,0,0:0:0:0:
139,143,26050,1,0,0:0:0:0:
100,194,26138,5,0,0:0:0:0:
106,252,26227,1,0,0:0:0:0:
152,293,26315,1,0,0:0:0:0:
213,295,26403,1,0,0:0:0:0:
262,259,26491,1,0,0:0:0:0:
277,201,26580,1,0,0:0:0:0:
256,143,26668,1,0,0:0:0:0:
201,115,26756,1,0,0:0:0:0:
147,143,26845,5,0,0:0:0:0:
133,203,26933,1,0,0:0:0:0:
141,265,27021,1,0,0:0:0:0:
170,320,27109,1,0,0:0:0:0:
216,361,27197,1,0,0:0:0:0:
274,383,27286,1,0,0:0:0:0:
336,384,27374,1,0,0:0:0:0:
395,362,27462,1,0,0:0:0:0:
442,322,27550,1,0,0:0:0:0:
472,268,27639,1,0,0:0:0:0:
482,206,27727,1,0,0:0:0:0:
469,146,27815,1,0,0:0:0:0:
435,93,27903,1,0,0:0:0:0:
386,56,27992,1,0,0:0:0:0:
326,38,28080,1,0,0:0:0:0:
264,42,28168,1,0,0:0:0:0:
208,68,28256,5,0,0:0:0:0:
179,126,28345,1,0,0:0:0:0:
191,186,28433,1,0,0:0:0:0:
235,227,28521,1,0,0:0:0:0:
295,239,28609,1,0,0:0:0:0:
352,215,28697,1,0,0:0:0:0:
386,163,28786,1,0,0:0:0:0:
385,102,28874,1,0,0:0:0:0:
351,51,28962,1,0,0:0:0:0:
294,18,29051,1,0,0:0:0:0:
232,11,29139,1,0,0:0:0:0:
172,28,29227,1,0,0:0:0:0:
121,64,29315,1,0,0:0:0:0:
87,116,29403,1,0,0:0:0:0:
74,177,29492,1,0,0:0:0:0:
83,238,29580,1,0,0:0:0:0:
113,293,29668,5,0,0:0:0:0:
166,315,29756,1,0,0:0:0:0:
224,299,29844,1,0,0:0:0:0:
261,248,29932,1,0,0:0:0:0:
255,186,30020,1,0,0:0:0:0:
215,141,30109,1,0,0:0:0:0:
155,131,30197,1,0,0:0:0:0:
101,163,30285,1,0,0:0:0:0:
102,225,30374,5,0,0:0:0:0:
145,268,30462,1,0,0:0:0:0:
206,274,30550,1,0,0:0:0:0:
257,240,30638,1,0,0:0:0:0:
276,184,30726,1,0,0:0:0:0:
255,126,30815,1,0,0:0:0:0:
202,93,30903,1,0,0:0:0:0:
142,103,30991,1,0,0:0:0:0:
121,164,31080,5,0,0:0:0:0:
145,217,31168,1,0,0:0:0:0:
202,243,31256,1,0,0:0:0:0:
260,229,31344,1,0,0:0:0:0:
299,181,31432,1,0,0:0:0:0:
297,119,31521,1,0,0:0:0:0:
260,72,31609,1,0,0:0:0:0:
198,60,31697,1,0,0:0:0:0:
164,114,31786,5,0,0:0:0:0:
179,171,31874,1,0,0:0:0:0:
230,206,31962,1,0,0:0:0:0:
291,196,32050,1,0,0:0:0:0:
335,154,32138,1,0,0:0:0:0:
340,94,32227,1,0,0:0:0:0:
310,40,32315,1,0,0:0:0:0:
250,22,32403,1,0,0:0:0:0:
198,57,32491,5,0,0:0:0:0:
185,117,32579,1,0,0:0:0:0:
246,130,32668,1,0,0:0:0:0:
258,69,32756,1,0,0:0:0:0:
198,57,32844,5,0,0:0:0:0:
185,117,32932,1,0,0:0:0:0:
246,130,33021,1,0,0:0:0:0:
258,69,33109,1,0,0:0:0:0:
198,57,33197,5,0,0:0:0:0:
185,117,33285,1,0,0:0:0:0:
246,130,33374,1,0,0:0:0:0:
258,69,33462,1,0,0:0:0:0:
198,57,33550,5,0,0:0:0:0:
185,117,33638,1,0,0:0:0:0:
246,130,33727,1,0,0:0:0:0:
258,69,33815,1,0,0:0:0:0:
200,44,33903,5,0,0:0:0:0:
137,41,33991,1,0,0:0:0:0:
79,62,34079,1,0,0:0:0:0:
32,103,34167,1,0,0:0:0:0:
8,158,34255,1,0,0:0:0:0:
8,220,34344,1,0,0:0:0:0:
14,280,34432,1,0,0:0:0:0:
270,342,34609,5,0,0:0:0:0:
57,380,34785,1,0,0:0:0:0:
178,191,35316,6,0,L|220:311,1,125,0|0,0:0|0:0,0:0:0:0:
118,117,35669,2,0,L|85:245,1,125,0|0,0:0|0:0,0:0:0:0:
212,62,36022,2,0,L|266:197,1,125,0|0,0:0|0:0,0:0:0:0:
350,0,36373,5,0,0:0:0:0:
395,42,36462,1,0,0:0:0:0:
417,100,36550,1,0,0:0:0:0:
409,160,36638,1,0,0:0:0:0:
391,217,36728,6,0,P|411:278|468:310,1,125,0|0,0:0|0:0,0:0:0:0:
273,339,37079,2,0,L|127:359,1,125,0|0,0:0|0:0,0:0:0:0:
148,355,37344,1,0,0:0:0:0:
148,355,37432,1,0,0:0:0:0:
230,130,37610,1,0,0:0:0:0:
26,223,37786,5,0,0:0:0:0:
26,223,37874,1,0,0:0:0:0:
26,223,37963,2,0,P|0:135|56:79,1,125,0|0,0:0|0:0,0:0:0:0:
131,156,38316,6,0,L|187:214,1,62.5,0|0,0:0|0:0,0:0:0:0:
333,339,38492,2,0,L|257:275,1,62.5,0|0,0:0|0:0,0:0:0:0:
100,217,38668,2,0,L|182:243,1,62.5,0|0,0:0|0:0,0:0:0:0:
362,293,38844,2,0,L|272:267,1,62.5,0|0,0:0|0:0,0:0:0:0:
102,269,39021,2,0,L|188:262,1,62.5,0|0,0:0|0:0,0:0:0:0:
164,131,39195,5,0,0:0:0:0:
220,105,39284,1,0,0:0:0:0:
282,108,39372,1,0,0:0:0:0:
334,139,39460,1,0,0:0:0:0:
379,178,39550,6,0,P|388:118|381:33,1,125,0|0,0:0|0:0,0:0:0:0:
507,198,39903,2,0,P|516:259|512:322,1,125,0|0,0:0|0:0,0:0:0:0:
512,322,40168,1,0,0:0:0:0:
512,322,40256,1,0,0:0:0:0:
325,265,40434,1,0,0:0:0:0:
507,198,40610,5,0,0:0:0:0:
507,198,40698,1,0,0:0:0:0:
507,198,40787,2,0,L|380:179,1,125,0|0,0:0|0:0,0:0:0:0:
96,277,41138,6,0,L|152:218,1,62.5,0|0,0:0|0:0,0:0:0:0:
298,94,41314,2,0,L|222:157,1,62.5,0|0,0:0|0:0,0:0:0:0:
65,216,41490,2,0,L|147:189,1,62.5,0|0,0:0|0:0,0:0:0:0:
327,140,41666,2,0,L|237:165,1,62.5,0|0,0:0|0:0,0:0:0:0:
67,164,41843,2,0,L|153:170,1,62.5,0|0,0:0|0:0,0:0:0:0:
405,24,42021,5,0,0:0:0:0:
345,7,42109,1,0,0:0:0:0:
284,19,42197,1,0,0:0:0:0:
237,58,42285,1,0,0:0:0:0:
208,114,42375,6,0,P|204:178|244:229,1,125,0|0,0:0|0:0,0:0:0:0:
459,319,42726,2,0,L|310:340,1,125,0|0,0:0|0:0,0:0:0:0:
335,336,42991,1,0,0:0:0:0:
335,336,43079,1,0,0:0:0:0:
405,178,43256,1,0,0:0:0:0:
242,256,43433,5,0,0:0:0:0:
242,256,43521,1,0,0:0:0:0:
242,256,43610,2,0,P|235:187|245:131,1,125,0|0,0:0|0:0,0:0:0:0:
500,111,43962,6,0,L|419:98,1,62.5,0|0,0:0|0:0,0:0:0:0:
234,50,44138,2,0,L|329:76,1,62.5,0|0,0:0|0:0,0:0:0:0:
467,171,44314,2,0,L|397:119,1,62.5,0|0,0:0|0:0,0:0:0:0:
255,0,44490,2,0,L|327:59,1,62.5,0|0,0:0|0:0,0:0:0:0:
424,199,44667,2,0,L|379:125,1,62.5,0|0,0:0|0:0,0:0:0:0:
102,129,44845,5,0,0:0:0:0:
162,112,44933,1,0,0:0:0:0:
223,124,45021,1,0,0:0:0:0:
270,163,45109,1,0,0:0:0:0:
309,209,45199,6,0,P|372:224|429:193,1,125,0|0,0:0|0:0,0:0:0:0:
512,46,45550,2,0,L|363:62,1,125,0|0,0:0|0:0,0:0:0:0:
387,59,45815,1,0,0:0:0:0:
387,59,45904,1,0,0:0:0:0:
512,182,46081,1,0,0:0:0:0:
244,201,46257,5,0,0:0:0:0:
244,201,46345,1,0,0:0:0:0:
244,201,46434,2,0,L|394:189,1,125,0|0,0:0|0:0,0:0:0:0:
92,226,46785,6,0,L|169:253,1,62.5,0|0,0:0|0:0,0:0:0:0:
355,297,46961,2,0,L|258:275,1,62.5,0|0,0:0|0:0,0:0:0:0:
92,294,47137,2,0,L|177:280,1,62.5,0|0,0:0|0:0,0:0:0:0:
356,248,47315,5,0,0:0:0:0:
117,340,47491,1,0,0:0:0:0:
365,35,48022,6,0,P|424:21|490:33,1,125,0|0,0:0|0:0,0:0:0:0:
369,211,48375,2,0,P|305:229|218:202,1,125,0|0,0:0|0:0,0:0:0:0:
487,32,48728,2,0,P|511:87|510:154,1,125,0|0,0:0|0:0,0:0:0:0:
338,353,49081,5,0,0:0:0:0:
280,377,49169,1,0,0:0:0:0:
218,383,49257,1,0,0:0:0:0:
160,362,49345,1,0,0:0:0:0:
104,333,49434,1,0,0:0:0:0:
31,233,49610,5,0,0:0:0:0:
54,111,49786,1,0,0:0:0:0:
163,48,49963,1,0,0:0:0:0:
283,85,50139,1,0,0:0:0:0:
452,68,50845,5,0,0:0:0:0:
330,54,51021,1,0,0:0:0:0:
224,116,51197,1,0,0:0:0:0:
175,229,51374,1,0,0:0:0:0:
201,349,51550,1,0,0:0:0:0:
323,155,52257,6,0,P|385:151|455:160,1,125,0|0,0:0|0:0,0:0:0:0:
137,42,52610,2,0,P|14:129|158:113,1,375,0|0,0:0|0:0,0:0:0:0:
316,22,53315,2,0,P|360:9|334:54,1,125,0|0,0:0|0:0,0:0:0:0:
337,55,53669,1,0,0:0:0:0:
337,55,54021,1,0,0:0:0:0:
337,55,54373,1,0,0:0:0:0:
381,183,54726,5,0,0:0:0:0:
382,244,54814,1,0,0:0:0:0:
359,302,54902,1,0,0:0:0:0:
315,345,54990,1,0,0:0:0:0:
258,375,55081,6,0,P|148:367|56:255,1,250,0|0,0:0|0:0,0:0:0:0:
313,0,55610,2,0,P|494:73|430:253,1,375,0|0,0:0|0:0,0:0:0:0:
178,343,56226,5,0,0:0:0:0:
237,357,56314,1,0,0:0:0:0:
294,337,56402,1,0,0:0:0:0:
344,299,56492,6,0,P|401:189|355:59,1,250,0|0,0:0|0:0,0:0:0:0:
512,15,57022,2,0,P|472:209|500:401,1,375,0|0,0:0|0:0,0:0:0:0:
262,307,57728,5,0,0:0:0:0:
356,129,57904,2,0,P|370:193|377:267,1,125,0|0,0:0|0:0,0:0:0:0:
205,335,58256,5,0,0:0:0:0:
143,338,58344,1,0,0:0:0:0:
85,317,58432,1,0,0:0:0:0:
40,275,58520,1,0,0:0:0:0:
8,219,58611,6,0,P|11:109|119:14,1,250,0|0,0:0|0:0,0:0:0:0:
314,41,59139,5,0,0:0:0:0:
230,233,59316,2,0,P|291:217|375:194,1,125,0|0,0:0|0:0,0:0:0:0:
149,180,59668,5,0,0:0:0:0:
310,127,59844,2,0,P|371:111|455:88,1,125,0|0,0:0|0:0,0:0:0:0:
279,320,60197,5,0,0:0:0:0:
217,318,60285,1,0,0:0:0:0:
161,290,60373,1,0,0:0:0:0:
124,240,60461,1,0,0:0:0:0:
111,180,60549,1,0,0:0:0:0:
125,119,60638,1,0,0:0:0:0:
153,64,60726,6,0,P|208:26|298:23,1,125,0|0,0:0|0:0,0:0:0:0:
359,307,61081,5,0,0:0:0:0:
442,58,61257,1,0,0:0:0:0:
469,334,61434,5,0,0:0:0:0:
358,92,61610,1,0,0:0:0:0:
221,314,61787,5,0,0:0:0:0:
497,221,61963,1,0,0:0:0:0:
213,195,62139,5,0,0:0:0:0:
508,315,62316,1,0,0:0:0:0:
248,359,62492,5,0,0:0:0:0:
372,125,62669,1,0,0:0:0:0:
377,360,62845,5,0,0:0:0:0:
246,81,63022,1,0,0:0:0:0:
257,284,63198,5,0,0:0:0:0:
361,48,63375,1,0,0:0:0:0:
182,157,63551,6,0,P|119:181|46:178,1,125,0|0,0:0|0:0,0:0:0:0:
301,344,63903,5,0,0:0:0:0:
49,313,64079,1,0,0:0:0:0:
294,225,64256,5,0,0:0:0:0:
46,185,64434,1,0,0:0:0:0:
356,147,64610,5,0,0:0:0:0:
105,261,64787,1,0,0:0:0:0:
384,261,64963,5,0,0:0:0:0:
85,153,65139,1,0,0:0:0:0:
347,62,65316,5,0,0:0:0:0:
252,320,65491,2,0,P|243:247|244:165,1,125,0|0,0:0|0:0,0:0:0:0:
432,25,65844,5,0,0:0:0:0:
278,133,66020,1,0,0:0:0:0:
463,252,66197,1,0,0:0:0:0:
218,314,66373,6,0,P|291:323|369:323,1,125,0|0,0:0|0:0,0:0:0:0:
147,196,66728,5,0,0:0:0:0:
446,152,66904,1,0,0:0:0:0:
159,82,67081,5,0,0:0:0:0:
431,244,67256,1,0,0:0:0:0:
134,255,67432,5,0,0:0:0:0:
301,36,67609,2,0,P|292:100|292:179,1,125,0|0,0:0|0:0,0:0:0:0:
162,376,67962,6,0,P|226:369|305:372,1,125,0|0,0:0|0:0,0:0:0:0:
512,281,68315,2,0,B|369:233|338:314|243:241|252:273,1,250,0|0,0:0|0:0,0:0:0:0:
395,29,68844,2,0,P|403:97|401:167,1,125,0|0,0:0|0:0,0:0:0:0:
350,376,69197,6,0,P|285:369|206:372,1,125,0|0,0:0|0:0,0:0:0:0:
11,384,69550,1,0,0:0:0:0:
11,384,69638,1,0,0:0:0:0:
11,384,69726,1,0,0:0:0:0:
169,235,69903,5,0,0:0:0:0:
169,235,69991,1,0,0:0:0:0:
169,235,70081,2,0,P|171:165|149:94,1,125,0|0,0:0|0:0,0:0:0:0:
307,39,70432,6,0,P|328:179|381:328,1,250,0|0,0:0|0:0,0:0:0:0:
411,384,70962,1,0,0:0:0:0:
156,350,71316,5,0,0:0:0:0:
156,350,71492,1,0,0:0:0:0:
136,28,72020,6,0,P|119:88|116:151,1,125,0|0,0:0|0:0,0:0:0:0:
116,150,72285,1,0,0:0:0:0:
116,150,72373,1,0,0:0:0:0:
245,274,72550,2,0,P|182:281|101:279,1,125,0|0,0:0|0:0,0:0:0:0:
0,278,72903,1,0,0:0:0:0:
156,167,73079,1,0,0:0:0:0:
160,377,73255,1,0,0:0:0:0:
66,224,73432,6,0,P|64:161|70:99,1,125,0|0,0:0|0:0,0:0:0:0:
70,99,73697,1,0,0:0:0:0:
70,99,73785,1,0,0:0:0:0:
274,24,73963,5,0,0:0:0:0:
186,210,74139,1,0,0:0:0:0:
359,148,74315,1,0,0:0:0:0:
169,50,74492,1,0,0:0:0:0:
397,15,74668,1,0,0:0:0:0:
272,171,74844,6,0,P|263:242|267:302,1,125,0|0,0:0|0:0,0:0:0:0:
457,235,75197,1,0,0:0:0:0:
342,88,75373,2,0,P|275:62|216:78,1,125,0|0,0:0|0:0,0:0:0:0:
78,203,75726,1,0,0:0:0:0:
97,42,75903,1,0,0:0:0:0:
97,42,75991,1,0,0:0:0:0:
97,42,76079,1,0,0:0:0:0:
210,176,76257,6,0,P|237:230|238:293,1,125,0|0,0:0|0:0,0:0:0:0:
28,289,76609,2,0,P|0:234|0:171,1,125,0|0,0:0|0:0,0:0:0:0:
244,41,76962,5,0,0:0:0:0:
0,40,77139,1,0,0:0:0:0:
302,26,77669,6,0,P|372:37|442:100,1,125,0|0,0:0|0:0,0:0:0:0:
145,258,78022,2,0,P|100:304|91:372,1,125,0|0,0:0|0:0,0:0:0:0:
273,223,78375,2,0,P|291:163|277:103,1,125,0|0,0:0|0:0,0:0:0:0:
470,253,78728,2,0,P|503:309|504:403,1,125,0|0,0:0|0:0,0:0:0:0:
284,378,79081,6,0,L|209:386,2,62.5,0|0|0,0:0|0:0|0:0,0:0:0:0:
367,83,79434,2,0,P|386:212|360:354,1,250,0|0,0:0|0:0,0:0:0:0:
122,251,79962,5,0,0:0:0:0:
122,251,80050,1,0,0:0:0:0:
122,251,80139,2,0,P|184:244|255:277,1,125,0|0,0:0|0:0,0:0:0:0:
326,70,80492,6,0,P|334:130|322:200,1,125,0|0,0:0|0:0,0:0:0:0:
486,309,80844,1,0,0:0:0:0:
486,309,80932,1,0,0:0:0:0:
486,309,81020,1,0,0:0:0:0:
512,127,81197,1,0,0:0:0:0:
512,127,81285,1,0,0:0:0:0:
512,127,81373,1,0,0:0:0:0:
324,193,81551,2,0,P|255:199|184:188,1,125,0|0,0:0|0:0,0:0:0:0:
61,256,81904,6,0,L|-21:273,2,62.5,0|0|0,0:0|0:0|0:0,0:0:0:0:
137,119,82257,2,0,P|151:56|130:-5,1,125,0|0,0:0|0:0,0:0:0:0:
346,46,82610,2,0,P|399:80|427:140,1,125,0|0,0:0|0:0,0:0:0:0:
298,320,82963,2,0,P|264:264|265:198,1,125,0|0,0:0|0:0,0:0:0:0:
96,235,83316,6,0,L|20:252,2,62.5,0|0|0,0:0|0:0|0:0,0:0:0:0:
157,76,83668,1,0,0:0:0:0:
200,233,83844,2,0,P|198:294|169:355,1,125,0|0,0:0|0:0,0:0:0:0:
141,163,84198,2,0,P|106:228|113:285,1,125,0|0,0:0|0:0,0:0:0:0:
200,233,84551,2,0,P|179:77|49:164,1,375,0|0,0:0|0:0,0:0:0:0:
87,261,85257,5,0,0:0:0:0:
149,336,85433,1,0,0:0:0:0:
243,367,85609,1,0,0:0:0:0:
339,344,85786,1,0,0:0:0:0:
409,273,85962,1,0,0:0:0:0:
460,170,86138,2,0,B|404:95|404:95|436:1|436:1|344:33|344:33|269:-22|269:-22|272:72|272:72|193:123|193:123|284:152|284:152|307:242|307:242|363:166|363:166|410:169,1,899.99997253418,0|0,0:0|0:0,0:0:0:0:
418,170,87550,5,0,0:0:0:0:
431,172,87903,1,0,0:0:0:0:
440,170,88256,1,0,0:0:0:0:
326,96,88520,5,0,0:0:0:0:
264,80,88608,1,0,0:0:0:0:
202,85,88696,1,0,0:0:0:0:
144,108,88784,1,0,0:0:0:0:
96,147,88872,1,0,0:0:0:0:
54,196,88963,6,0,P|19:253|43:349,1,125,0|0,0:0|0:0,0:0:0:0:
0,115,89316,1,0,0:0:0:0:
4,119,89404,1,0,0:0:0:0:
8,122,89492,1,0,0:0:0:0:
242,132,89669,2,0,P|188:102|121:101,1,125,0|0,0:0|0:0,0:0:0:0:
230,242,90022,5,0,0:0:0:0:
29,191,90198,1,0,0:0:0:0:
242,132,90374,1,0,0:0:0:0:
44,29,90551,1,0,0:0:0:0:
44,29,90638,1,0,0:0:0:0:
44,29,90726,1,0,0:0:0:0:
168,289,90904,5,0,0:0:0:0:
226,271,90991,1,0,0:0:0:0:
286,255,91079,2,0,P|347:249|422:252,1,125,0|0,0:0|0:0,0:0:0:0:
264,140,91432,5,0,0:0:0:0:
269,347,91610,1,0,0:0:0:0:
286,255,91785,2,0,P|223:248|161:250,1,125,0|0,0:0|0:0,0:0:0:0:
161,250,92050,1,0,0:0:0:0:
161,250,92138,1,0,0:0:0:0:
301,122,92315,5,0,0:0:0:0:
424,319,92491,1,0,0:0:0:0:
471,117,92668,1,0,0:0:0:0:
265,242,92844,1,0,0:0:0:0:
387,53,93021,1,0,0:0:0:0:
213,70,93198,5,0,0:0:0:0:
398,222,93375,1,0,0:0:0:0:
398,222,93462,1,0,0:0:0:0:
398,222,93550,2,0,P|419:287|414:355,1,125,0|0,0:0|0:0,0:0:0:0:
110,248,93903,5,0,0:0:0:0:
110,185,93991,1,0,0:0:0:0:
133,127,94079,1,0,0:0:0:0:
173,80,94167,1,0,0:0:0:0:
227,49,94255,1,0,0:0:0:0:
288,39,94344,1,0,0:0:0:0:
350,50,94432,1,0,0:0:0:0:
403,81,94520,1,0,0:0:0:0:
446,129,94610,6,0,P|464:187|447:246,1,125,0|0,0:0|0:0,0:0:0:0:
512,14,94963,1,0,0:0:0:0:
512,14,95050,1,0,0:0:0:0:
512,14,95139,1,0,0:0:0:0:
342,133,95316,1,0,0:0:0:0:
430,50,95491,6,0,P|378:16|316:18,1,125,0|0,0:0|0:0,0:0:0:0:
215,194,95845,2,0,P|321:241|260:339,1,250,0|0,0:0|0:0,0:0:0:0:
271,336,96285,1,0,0:0:0:0:
271,336,96373,1,0,0:0:0:0:
438,375,96551,5,0,0:0:0:0:
438,375,96638,1,0,0:0:0:0:
438,375,96728,2,0,P|460:317|455:255,1,125,0|0,0:0|0:0,0:0:0:0:
297,130,97081,2,0,P|237:111|176:120,1,125,0|0,0:0|0:0,0:0:0:0:
58,162,97434,1,0,0:0:0:0:
172,4,97610,5,0,0:0:0:0:
172,4,97697,1,0,0:0:0:0:
172,4,97786,1,0,0:0:0:0:
332,18,97962,2,0,P|401:35|463:108,1,125,0|0,0:0|0:0,0:0:0:0:
251,214,98315,5,0,0:0:0:0:
251,214,98403,1,0,0:0:0:0:
251,214,98491,2,0,P|224:157|226:95,1,125,0|0,0:0|0:0,0:0:0:0:
479,170,98845,2,0,P|409:358|294:267,1,375,0|0,0:0|0:0,0:0:0:0:
221,97,99551,1,0,0:0:0:0:
512,52,99728,1,0,0:0:0:0:
244,365,100080,5,0,0:0:0:0:
182,372,100168,1,0,0:0:0:0:
122,370,100257,2,0,B|74:352|74:352|73:278|152:289,1,125,0|0,0:0|0:0,0:0:0:0:
268,233,100610,5,0,0:0:0:0:
268,233,100697,1,0,0:0:0:0:
268,233,100787,1,0,0:0:0:0:
57,198,100963,1,0,0:0:0:0:
254,88,101139,1,0,0:0:0:0:
150,313,101316,1,0,0:0:0:0:
388,206,101491,6,0,P|265:227|138:216,1,250,0|0,0:0|0:0,0:0:0:0:
140,217,101932,1,0,0:0:0:0:
140,217,102020,1,0,0:0:0:0:
242,31,102197,5,0,0:0:0:0:
242,31,102286,1,0,0:0:0:0:
242,31,102373,2,0,P|271:97|247:186,1,125,0|0,0:0|0:0,0:0:0:0:
408,74,102726,2,0,P|462:25|553:20,1,125,0|0,0:0|0:0,0:0:0:0:
406,218,103079,2,0,P|386:276|397:337,1,125,0|0,0:0|0:0,0:0:0:0:
397,337,103344,1,0,0:0:0:0:
397,337,103432,1,0,0:0:0:0:
282,160,103609,5,0,0:0:0:0:
159,357,103785,1,0,0:0:0:0:
112,155,103962,1,0,0:0:0:0:
318,280,104138,1,0,0:0:0:0:
196,91,104315,1,0,0:0:0:0:
370,108,104492,5,0,0:0:0:0:
185,260,104669,1,0,0:0:0:0:
185,260,104756,1,0,0:0:0:0:
184,259,104844,2,0,P|163:317|165:380,1,125,0|0,0:0|0:0,0:0:0:0:
473,286,105197,5,0,0:0:0:0:
473,223,105285,1,0,0:0:0:0:
450,165,105373,1,0,0:0:0:0:
410,118,105461,1,0,0:0:0:0:
356,87,105549,1,0,0:0:0:0:
295,77,105638,1,0,0:0:0:0:
233,88,105726,1,0,0:0:0:0:
180,119,105814,1,0,0:0:0:0:
136,167,105904,2,0,P|117:225|135:284,1,125,0|0,0:0|0:0,0:0:0:0:
295,384,106256,5,0,0:0:0:0:
324,330,106344,1,0,0:0:0:0:
329,268,106432,2,0,P|315:207|270:165,1,125,0|0,0:0|0:0,0:0:0:0:
0,51,106785,6,0,L|161:73,1,125,0|0,0:0|0:0,0:0:0:0:
313,38,107139,1,0,0:0:0:0:
159,187,107316,2,0,P|130:242|129:303,1,125,0|0,0:0|0:0,0:0:0:0:
130,304,107580,1,0,0:0:0:0:
130,304,107668,1,0,0:0:0:0:
407,353,107844,6,0,P|339:368|246:375,1,125,0|0,0:0|0:0,0:0:0:0:
361,147,108197,2,0,P|381:208|392:273,1,125,0|0,0:0|0:0,0:0:0:0:
234,77,108551,2,0,B|224:183|224:183|311:257|311:257|202:279|202:279|161:379|161:379|107:284|107:284|-1:280|-1:280|72:198|72:198|42:96|42:96|141:137|141:137|189:104,1,1000,0|0,0:0|0:0,0:0:0:0:
390,51,110139,2,0,P|452:49|512:64,1,125,0|0,0:0|0:0,0:0:0:0:
264,0,110491,2,0,P|201:4|143:25,1,125,0|0,0:0|0:0,0:0:0:0:
394,171,110844,1,0,0:0:0:0:
141,213,111021,1,0,0:0:0:0:
162,0,111197,5,0,0:0:0:0:
117,42,111286,1,0,0:0:0:0:
95,100,111374,1,0,0:0:0:0:
103,160,111462,1,0,0:0:0:0:
121,217,111552,6,0,P|101:278|44:310,1,125,0|0,0:0|0:0,0:0:0:0:
239,339,111903,2,0,L|385:359,1,125,0|0,0:0|0:0,0:0:0:0:
364,355,112168,1,0,0:0:0:0:
364,355,112256,1,0,0:0:0:0:
282,130,112434,1,0,0:0:0:0:
486,223,112610,5,0,0:0:0:0:
486,223,112698,1,0,0:0:0:0:
486,223,112787,2,0,P|512:135|456:79,1,125,0|0,0:0|0:0,0:0:0:0:
381,156,113140,6,0,L|325:214,1,62.5,0|0,0:0|0:0,0:0:0:0:
179,339,113316,2,0,L|255:275,1,62.5,0|0,0:0|0:0,0:0:0:0:
412,217,113492,2,0,L|330:243,1,62.5,0|0,0:0|0:0,0:0:0:0:
150,293,113668,2,0,L|240:267,1,62.5,0|0,0:0|0:0,0:0:0:0:
410,269,113845,2,0,L|324:262,1,62.5,0|0,0:0|0:0,0:0:0:0:
348,131,114019,5,0,0:0:0:0:
292,105,114108,1,0,0:0:0:0:
230,108,114196,1,0,0:0:0:0:
178,139,114284,1,0,0:0:0:0:
133,178,114374,6,0,P|124:118|131:33,1,125,0|0,0:0|0:0,0:0:0:0:
5,198,114727,2,0,P|-4:259|0:322,1,125,0|0,0:0|0:0,0:0:0:0:
0,322,114992,1,0,0:0:0:0:
0,322,115080,1,0,0:0:0:0:
187,265,115258,1,0,0:0:0:0:
5,198,115434,5,0,0:0:0:0:
5,198,115522,1,0,0:0:0:0:
5,198,115611,2,0,L|132:179,1,125,0|0,0:0|0:0,0:0:0:0:
416,277,115962,6,0,L|360:218,1,62.5,0|0,0:0|0:0,0:0:0:0:
214,94,116138,2,0,L|290:157,1,62.5,0|0,0:0|0:0,0:0:0:0:
447,216,116314,2,0,L|365:189,1,62.5,0|0,0:0|0:0,0:0:0:0:
185,140,116490,2,0,L|275:165,1,62.5,0|0,0:0|0:0,0:0:0:0:
445,164,116667,2,0,L|359:170,1,62.5,0|0,0:0|0:0,0:0:0:0:
107,24,116845,5,0,0:0:0:0:
167,7,116933,1,0,0:0:0:0:
228,19,117021,1,0,0:0:0:0:
275,58,117109,1,0,0:0:0:0:
304,114,117199,6,0,P|308:178|268:229,1,125,0|0,0:0|0:0,0:0:0:0:
53,319,117550,2,0,L|202:340,1,125,0|0,0:0|0:0,0:0:0:0:
177,336,117815,1,0,0:0:0:0:
177,336,117903,1,0,0:0:0:0:
107,178,118080,1,0,0:0:0:0:
270,256,118257,5,0,0:0:0:0:
270,256,118345,1,0,0:0:0:0:
270,256,118434,2,0,P|277:187|267:131,1,125,0|0,0:0|0:0,0:0:0:0:
12,111,118786,6,0,L|93:98,1,62.5,0|0,0:0|0:0,0:0:0:0:
278,50,118962,2,0,L|183:76,1,62.5,0|0,0:0|0:0,0:0:0:0:
45,171,119138,2,0,L|115:119,1,62.5,0|0,0:0|0:0,0:0:0:0:
257,0,119314,2,0,L|185:59,1,62.5,0|0,0:0|0:0,0:0:0:0:
88,199,119491,2,0,L|133:125,1,62.5,0|0,0:0|0:0,0:0:0:0:
410,129,119669,5,0,0:0:0:0:
350,112,119757,1,0,0:0:0:0:
289,124,119845,1,0,0:0:0:0:
242,163,119933,1,0,0:0:0:0:
203,209,120023,6,0,P|140:224|83:193,1,125,0|0,0:0|0:0,0:0:0:0:
0,46,120374,2,0,L|149:62,1,125,0|0,0:0|0:0,0:0:0:0:
125,59,120639,1,0,0:0:0:0:
125,59,120728,1,0,0:0:0:0:
0,182,120905,1,0,0:0:0:0:
268,201,121081,5,0,0:0:0:0:
268,201,121169,1,0,0:0:0:0:
268,201,121258,2,0,L|118:189,1,125,0|0,0:0|0:0,0:0:0:0:
420,226,121609,6,0,L|343:253,1,62.5,0|0,0:0|0:0,0:0:0:0:
157,297,121785,2,0,L|254:275,1,62.5,0|0,0:0|0:0,0:0:0:0:
420,294,121961,2,0,L|335:280,1,62.5,0|0,0:0|0:0,0:0:0:0:
156,248,122139,5,0,0:0:0:0:
395,340,122315,5,0,0:0:0:0:
147,35,122844,6,0,P|88:21|22:33,1,125,0|0,0:0|0:0,0:0:0:0:
143,211,123197,2,0,P|207:229|294:202,1,125,0|0,0:0|0:0,0:0:0:0:
25,32,123550,2,0,P|1:87|2:154,1,125,0|0,0:0|0:0,0:0:0:0:
195,304,123904,6,0,P|234:298|258:264,1,62.5,0|0,0:0|0:0,0:0:0:0:
190,248,124080,2,0,P|164:220|123:213,1,62.5,0|0,0:0|0:0,0:0:0:0:
144,278,124257,2,0,P|166:363|241:391,1,125,0|0,0:0|0:0,0:0:0:0:
272,134,124610,6,0,P|354:173|358:253,1,125,0|0,0:0|0:0,0:0:0:0:
245,240,124963,2,0,P|183:272|150:371,1,125,0|0,0:0|0:0,0:0:0:0:
120,106,125315,6,0,P|131:67|168:49,1,62.5,0|0,0:0|0:0,0:0:0:0:
173,119,125491,2,0,P|195:148|196:189,1,62.5,0|0,0:0|0:0,0:0:0:0:
136,159,125668,2,0,P|55:122|38:45,1,125,0|0,0:0|0:0,0:0:0:0:
0,226,126022,2,0,P|0:316|71:354,1,125,0|0,0:0|0:0,0:0:0:0:
269,213,126375,2,0,P|275:151|249:95,1,125,0|0,0:0|0:0,0:0:0:0:
462,193,126727,6,0,P|480:226|480:266,1,62.5,0|0,0:0|0:0,0:0:0:0:
416,237,126904,2,0,P|378:238|345:215,1,62.5,0|0,0:0|0:0,0:0:0:0:
400,173,127080,2,0,P|464:134|547:147,1,125,0|0,0:0|0:0,0:0:0:0:
303,148,127432,6,0,P|245:187|217:267,1,125,0|0,0:0|0:0,0:0:0:0:
354,384,127786,2,0,P|420:348|449:253,1,125,0|0,0:0|0:0,0:0:0:0:
176,187,128138,6,0,P|138:184|102:201,1,62.5,0|0,0:0|0:0,0:0:0:0:
155,247,128315,2,0,P|169:281|204:302,1,62.5,0|0,0:0|0:0,0:0:0:0:
220,234,128491,2,0,P|227:159|180:89,1,125,0|0,0:0|0:0,0:0:0:0:
21,204,128845,6,0,P|-6:268|13:350,1,125,0|0,0:0|0:0,0:0:0:0:
253,384,129198,1,0,0:0:0:0:
253,384,129286,1,0,0:0:0:0:
253,384,129374,1,0,0:0:0:0:
448,139,129551,5,0,0:0:0:0:
412,87,129639,1,0,0:0:0:0:
360,51,129727,1,0,0:0:0:0:
298,36,129816,1,0,0:0:0:0:
235,41,129904,2,0,P|171:69|115:143,1,125,0|0,0:0|0:0,0:0:0:0:
123,301,130257,6,0,P|183:309|237:280,1,125,0|0,0:0|0:0,0:0:0:0:
133,108,130610,2,0,P|57:134|2:213,1,125,0|0,0:0|0:0,0:0:0:0:
279,161,130962,6,0,P|282:123|266:86,1,62.5,0|0,0:0|0:0,0:0:0:0:
218,139,131139,2,0,P|183:152|162:187,1,62.5,0|0,0:0|0:0,0:0:0:0:
231,204,131315,2,0,P|305:212|376:166,1,125,0|0,0:0|0:0,0:0:0:0:
480,16,131669,6,0,P|501:103|442:157,1,125,0|0,0:0|0:0,0:0:0:0:
307,79,132022,2,0,P|243:50|145:87,1,125,0|0,0:0|0:0,0:0:0:0:
231,204,132373,6,0,P|237:241|224:279,1,62.5,0|0,0:0|0:0,0:0:0:0:
172,231,132550,2,0,P|136:220|112:188,1,62.5,0|0,0:0|0:0,0:0:0:0:
179,165,132726,2,0,P|252:150|327:189,1,125,0|0,0:0|0:0,0:0:0:0:
510,377,133079,5,0,0:0:0:0:
510,377,133168,1,0,0:0:0:0:
510,377,133256,1,0,0:0:0:0:
435,229,133433,2,0,P|419:155|472:71,1,125,0|0,0:0|0:0,0:0:0:0:
328,301,133785,6,0,P|290:305|253:289,1,62.5,0|0,0:0|0:0,0:0:0:0:
305,240,133962,2,0,P|317:205|352:183,1,62.5,0|0,0:0|0:0,0:0:0:0:
370,251,134138,2,0,P|379:325|335:397,1,125,0|0,0:0|0:0,0:0:0:0:
151,210,134492,2,0,P|140:140|183:67,1,125,0|0,0:0|0:0,0:0:0:0:
359,0,134845,5,0,0:0:0:0:
375,60,134933,1,0,0:0:0:0:
359,120,135021,1,0,0:0:0:0:
202,266,135197,5,0,0:0:0:0:
263,273,135285,1,0,0:0:0:0:
325,281,135373,1,0,0:0:0:0:
387,289,135461,1,0,0:0:0:0:
450,297,135551,6,0,L|513:304,1,62.5,0|0,0:0|0:0,0:0:0:0:
348,51,135727,1,0,0:0:0:0:
511,226,135904,6,0,L|444:200,1,62.5,0|0,0:0|0:0,0:0:0:0:
239,136,136080,1,0,0:0:0:0:
486,123,136257,6,0,P|414:122|351:151,1,125,0|0,0:0|0:0,0:0:0:0:
167,301,136610,1,0,0:0:0:0:
187,71,136785,6,0,L|212:141,1,62.5,0|0,0:0|0:0,0:0:0:0:
289,365,136962,1,0,0:0:0:0:
74,136,137139,6,0,L|137:166,1,62.5,0|0,0:0|0:0,0:0:0:0:
363,250,137315,1,0,0:0:0:0:
51,284,137492,6,0,L|120:241,1,62.5,0|0,0:0|0:0,0:0:0:0:
313,116,137669,1,0,0:0:0:0:
42,148,137845,5,0,0:0:0:0:
304,206,138021,1,0,0:0:0:0:
106,23,138198,5,0,0:0:0:0:
104,250,138374,2,0,L|99:397,1,125,0|0,0:0|0:0,0:0:0:0:
305,61,138728,6,0,L|252:117,1,62.5,0|0,0:0|0:0,0:0:0:0:
162,208,138904,1,0,0:0:0:0:
362,129,139081,6,0,L|307:187,1,62.5,0|0,0:0|0:0,0:0:0:0:
163,333,139257,1,0,0:0:0:0:
402,260,139432,5,0,0:0:0:0:
143,246,139609,2,0,L|35:243,1,62.5,0|0,0:0|0:0,0:0:0:0:
321,359,139787,5,0,0:0:0:0:
187,158,139963,2,0,L|124:74,1,62.5,0|0,0:0|0:0,0:0:0:0:
146,333,140139,5,0,0:0:0:0:
288,104,140316,1,0,0:0:0:0:
337,318,140492,6,0,L|355:381,1,62.5,0|0,0:0|0:0,0:0:0:0:
251,84,140669,1,0,0:0:0:0:
510,256,140845,5,0,0:0:0:0:
210,171,141021,1,0,0:0:0:0:
477,334,141198,5,0,0:0:0:0:
172,268,141375,1,0,0:0:0:0:
480,213,141551,1,0,0:0:0:0:
175,148,141727,1,0,0:0:0:0:
486,116,141904,1,0,0:0:0:0:
239,309,142081,5,0,0:0:0:0:
360,22,142257,1,0,0:0:0:0:
120,224,142434,1,0,0:0:0:0:
425,160,142610,1,0,0:0:0:0:
122,78,142787,5,0,0:0:0:0:
334,305,142963,1,0,0:0:0:0:
33,221,143139,1,0,0:0:0:0:
339,155,143316,1,0,0:0:0:0:
69,65,143492,1,0,0:0:0:0:
215,315,143669,5,0,0:0:0:0:
223,34,143845,1,0,0:0:0:0:
162,376,144020,6,0,P|227:369|306:372,1,125,0|0,0:0|0:0,0:0:0:0:
501,384,144373,1,0,0:0:0:0:
501,384,144461,1,0,0:0:0:0:
501,384,144549,1,0,0:0:0:0:
343,235,144726,5,0,0:0:0:0:
343,235,144814,1,0,0:0:0:0:
343,235,144904,2,0,P|341:165|363:94,1,125,0|0,0:0|0:0,0:0:0:0:
205,39,145255,6,0,P|184:179|131:328,1,250,0|0,0:0|0:0,0:0:0:0:
101,384,145785,1,0,0:0:0:0:
356,350,146139,5,0,0:0:0:0:
356,350,146315,1,0,0:0:0:0:
376,28,146843,6,0,P|393:88|396:151,1,125,0|0,0:0|0:0,0:0:0:0:
396,150,147108,1,0,0:0:0:0:
396,150,147196,1,0,0:0:0:0:
267,274,147373,2,0,P|330:281|411:279,1,125,0|0,0:0|0:0,0:0:0:0:
512,278,147726,1,0,0:0:0:0:
356,167,147902,1,0,0:0:0:0:
352,377,148078,1,0,0:0:0:0:
446,224,148255,6,0,P|448:161|442:99,1,125,0|0,0:0|0:0,0:0:0:0:
442,99,148520,1,0,0:0:0:0:
442,99,148608,1,0,0:0:0:0:
238,24,148786,5,0,0:0:0:0:
326,210,148962,1,0,0:0:0:0:
153,148,149138,1,0,0:0:0:0:
343,50,149315,1,0,0:0:0:0:
115,15,149491,1,0,0:0:0:0:
240,171,149667,6,0,P|249:242|245:302,1,125,0|0,0:0|0:0,0:0:0:0:
55,235,150020,1,0,0:0:0:0:
170,88,150196,2,0,P|237:62|296:78,1,125,0|0,0:0|0:0,0:0:0:0:
434,203,150549,1,0,0:0:0:0:
415,42,150726,1,0,0:0:0:0:
415,42,150814,1,0,0:0:0:0:
415,42,150902,1,0,0:0:0:0:
302,176,151080,6,0,P|275:230|274:293,1,125,0|0,0:0|0:0,0:0:0:0:
484,289,151432,2,0,P|512:234|512:171,1,125,0|0,0:0|0:0,0:0:0:0:
268,41,151785,5,0,0:0:0:0:
512,40,151962,1,0,0:0:0:0:
210,26,152492,6,0,P|140:37|70:100,1,125,0|0,0:0|0:0,0:0:0:0:
367,258,152845,2,0,P|412:304|421:372,1,125,0|0,0:0|0:0,0:0:0:0:
239,223,153198,2,0,P|221:163|235:103,1,125,0|0,0:0|0:0,0:0:0:0:
42,253,153551,2,0,P|9:309|8:403,1,125,0|0,0:0|0:0,0:0:0:0:
228,378,153904,6,0,L|303:386,2,62.5,0|0|0,0:0|0:0|0:0,0:0:0:0:
145,83,154257,2,0,P|126:212|152:354,1,250,0|0,0:0|0:0,0:0:0:0:
390,251,154785,5,0,0:0:0:0:
390,251,154873,1,0,0:0:0:0:
390,251,154962,2,0,P|328:244|257:277,1,125,0|0,0:0|0:0,0:0:0:0:
186,70,155315,6,0,P|178:130|190:200,1,125,0|0,0:0|0:0,0:0:0:0:
61,294,155668,2,0,L|-17:310,2,62.5,0|0|0,0:0|0:0|0:0,0:0:0:0:
0,127,156020,1,0,0:0:0:0:
0,127,156108,1,0,0:0:0:0:
0,127,156196,1,0,0:0:0:0:
188,193,156374,2,0,P|257:199|328:188,1,125,0|0,0:0|0:0,0:0:0:0:
451,256,156727,6,0,L|533:273,2,62.5,0|0|0,0:0|0:0|0:0,0:0:0:0:
375,119,157080,2,0,P|361:56|382:-5,1,125,0|0,0:0|0:0,0:0:0:0:
166,46,157433,2,0,P|113:80|85:140,1,125,0|0,0:0|0:0,0:0:0:0:
214,320,157786,2,0,P|248:264|247:198,1,125,0|0,0:0|0:0,0:0:0:0:
416,235,158139,6,0,L|492:252,2,62.5,0|0|0,0:0|0:0|0:0,0:0:0:0:
355,76,158491,1,0,0:0:0:0:
312,233,158667,2,0,P|314:294|343:355,1,125,0|0,0:0|0:0,0:0:0:0:
371,163,159021,2,0,P|406:228|399:285,1,125,0|0,0:0|0:0,0:0:0:0:
312,233,159374,2,0,P|333:77|463:164,1,375,0|0,0:0|0:0,0:0:0:0:
425,261,160080,5,0,0:0:0:0:
363,336,160256,1,0,0:0:0:0:
269,367,160432,1,0,0:0:0:0:
173,344,160609,1,0,0:0:0:0:
103,273,160785,1,0,0:0:0:0:
52,170,160961,2,0,B|108:95|108:95|76:1|76:1|168:33|168:33|243:-22|243:-22|240:72|240:72|319:123|319:123|228:152|228:152|205:242|205:242|149:166|149:166|102:169,1,899.99997253418,0|0,0:0|0:0,0:0:0:0:
94,170,162373,5,0,0:0:0:0:
81,172,162726,1,0,0:0:0:0:
72,170,163079,1,0,0:0:0:0:
186,96,163343,5,0,0:0:0:0:
248,80,163431,1,0,0:0:0:0:
310,85,163519,1,0,0:0:0:0:
368,108,163607,1,0,0:0:0:0:
416,147,163695,1,0,0:0:0:0:
458,196,163786,6,0,P|493:253|469:349,1,125,0|0,0:0|0:0,0:0:0:0:
512,115,164139,1,0,0:0:0:0:
508,119,164227,1,0,0:0:0:0:
504,122,164315,1,0,0:0:0:0:
270,132,164492,6,0,P|324:102|391:101,1,125,0|0,0:0|0:0,0:0:0:0:
282,242,164845,5,0,0:0:0:0:
483,191,165021,1,0,0:0:0:0:
270,132,165197,1,0,0:0:0:0:
468,29,165374,1,0,0:0:0:0:
468,29,165462,1,0,0:0:0:0:
468,29,165550,1,0,0:0:0:0:
344,289,165726,5,0,0:0:0:0:
286,271,165813,1,0,0:0:0:0:
226,255,165901,2,0,P|165:249|90:252,1,125,0|0,0:0|0:0,0:0:0:0:
248,140,166255,5,0,0:0:0:0:
243,347,166433,1,0,0:0:0:0:
226,255,166608,2,0,P|289:248|351:250,1,125,0|0,0:0|0:0,0:0:0:0:
351,250,166873,1,0,0:0:0:0:
351,250,166961,1,0,0:0:0:0:
211,122,167138,5,0,0:0:0:0:
88,319,167314,1,0,0:0:0:0:
41,117,167491,1,0,0:0:0:0:
247,242,167667,1,0,0:0:0:0:
125,53,167844,1,0,0:0:0:0:
299,70,168021,5,0,0:0:0:0:
114,222,168198,1,0,0:0:0:0:
114,222,168285,1,0,0:0:0:0:
114,222,168373,2,0,P|93:287|98:355,1,125,0|0,0:0|0:0,0:0:0:0:
402,248,168726,5,0,0:0:0:0:
402,185,168814,1,0,0:0:0:0:
379,127,168902,1,0,0:0:0:0:
339,80,168990,1,0,0:0:0:0:
285,49,169078,1,0,0:0:0:0:
224,39,169167,1,0,0:0:0:0:
162,50,169255,1,0,0:0:0:0:
109,81,169343,1,0,0:0:0:0:
66,129,169433,6,0,P|48:187|65:246,1,125,0|0,0:0|0:0,0:0:0:0:
0,14,169786,1,0,0:0:0:0:
0,14,169873,1,0,0:0:0:0:
0,14,169962,1,0,0:0:0:0:
170,133,170139,1,0,0:0:0:0:
82,50,170314,6,0,P|134:16|196:18,1,125,0|0,0:0|0:0,0:0:0:0:
297,194,170668,2,0,P|191:241|252:339,1,250,0|0,0:0|0:0,0:0:0:0:
241,336,171108,1,0,0:0:0:0:
241,336,171196,1,0,0:0:0:0:
74,375,171374,5,0,0:0:0:0:
74,375,171461,1,0,0:0:0:0:
74,375,171551,2,0,P|52:317|57:255,1,125,0|0,0:0|0:0,0:0:0:0:
215,130,171904,2,0,P|275:111|336:120,1,125,0|0,0:0|0:0,0:0:0:0:
454,162,172257,1,0,0:0:0:0:
340,4,172433,5,0,0:0:0:0:
340,4,172520,1,0,0:0:0:0:
340,4,172609,1,0,0:0:0:0:
180,18,172785,2,0,P|111:35|49:108,1,125,0|0,0:0|0:0,0:0:0:0:
261,214,173138,5,0,0:0:0:0:
261,214,173226,1,0,0:0:0:0:
261,214,173314,2,0,P|288:157|286:95,1,125,0|0,0:0|0:0,0:0:0:0:
33,170,173668,2,0,P|103:358|218:267,1,375,0|0,0:0|0:0,0:0:0:0:
291,97,174374,1,0,0:0:0:0:
0,52,174551,1,0,0:0:0:0:
268,365,174903,5,0,0:0:0:0:
330,372,174991,1,0,0:0:0:0:
390,370,175080,2,0,B|438:352|438:352|439:278|360:289,1,125,0|0,0:0|0:0,0:0:0:0:
244,233,175433,5,0,0:0:0:0:
244,233,175520,1,0,0:0:0:0:
244,233,175610,1,0,0:0:0:0:
455,198,175786,1,0,0:0:0:0:
258,88,175962,1,0,0:0:0:0:
362,313,176139,1,0,0:0:0:0:
124,206,176314,6,0,P|247:227|374:216,1,250,0|0,0:0|0:0,0:0:0:0:
372,217,176755,1,0,0:0:0:0:
372,217,176843,1,0,0:0:0:0:
270,31,177020,5,0,0:0:0:0:
270,31,177109,1,0,0:0:0:0:
270,31,177196,2,0,P|241:97|265:186,1,125,0|0,0:0|0:0,0:0:0:0:
104,74,177549,2,0,P|50:25|-41:20,1,125,0|0,0:0|0:0,0:0:0:0:
106,218,177902,2,0,P|126:276|115:337,1,125,0|0,0:0|0:0,0:0:0:0:
115,337,178167,1,0,0:0:0:0:
115,337,178255,1,0,0:0:0:0:
230,160,178432,5,0,0:0:0:0:
353,357,178608,1,0,0:0:0:0:
400,155,178785,1,0,0:0:0:0:
194,280,178961,1,0,0:0:0:0:
316,91,179138,1,0,0:0:0:0:
142,108,179315,5,0,0:0:0:0:
327,260,179492,1,0,0:0:0:0:
327,260,179579,1,0,0:0:0:0:
328,259,179667,2,0,P|349:317|347:380,1,125,0|0,0:0|0:0,0:0:0:0:
39,286,180020,5,0,0:0:0:0:
39,223,180108,1,0,0:0:0:0:
62,165,180196,1,0,0:0:0:0:
102,118,180284,1,0,0:0:0:0:
156,87,180372,1,0,0:0:0:0:
217,77,180461,1,0,0:0:0:0:
279,88,180549,1,0,0:0:0:0:
332,119,180637,1,0,0:0:0:0:
376,167,180727,2,0,P|395:225|377:284,1,125,0|0,0:0|0:0,0:0:0:0:
217,384,181079,5,0,0:0:0:0:
188,330,181167,1,0,0:0:0:0:
183,268,181255,2,0,P|197:207|242:165,1,125,0|0,0:0|0:0,0:0:0:0:
512,51,181608,6,0,L|351:73,1,125,0|0,0:0|0:0,0:0:0:0:
199,38,181962,1,0,0:0:0:0:
353,187,182139,2,0,P|382:242|383:303,1,125,0|0,0:0|0:0,0:0:0:0:
382,304,182403,1,0,0:0:0:0:
382,304,182491,1,0,0:0:0:0:
105,353,182667,6,0,P|173:368|266:375,1,125,0|0,0:0|0:0,0:0:0:0:
151,147,183020,2,0,P|131:208|120:273,1,125,0|0,0:0|0:0,0:0:0:0:
278,77,183374,2,0,B|288:183|288:183|201:257|201:257|310:279|310:279|351:379|351:379|405:284|405:284|513:280|513:280|440:198|440:198|470:96|470:96|371:137|371:137|323:104,1,1000,0|0,0:0|0:0,0:0:0:0:
122,51,184962,6,0,P|60:49|0:64,1,125,0|0,0:0|0:0,0:0:0:0:
248,0,185314,2,0,P|311:4|369:25,1,125,0|0,0:0|0:0,0:0:0:0:
118,171,185667,1,0,0:0:0:0:
371,213,185844,5,0,0:0:0:0:
246,104,186373,5,0,0:0:0:0:
73,175,186551,1,0,0:0:0:0:
252,231,186726,5,0,0:0:0:0:
253,236,186815,1,0,0:0:0:0:
253,236,186903,1,0,0:0:0:0:
85,316,187079,5,0,0:0:0:0:
173,149,187256,1,0,0:0:0:0:
234,325,187432,1,0,0:0:0:0:
313,154,187609,1,0,0:0:0:0:
139,223,187785,1,0,0:0:0:0:
320,270,187962,5,0,0:0:0:0:
320,270,188050,1,0,0:0:0:0:
320,270,188138,1,0,0:0:0:0:
394,124,188315,5,0,0:0:0:0:
394,124,188403,1,0,0:0:0:0:
394,124,188491,1,0,0:0:0:0:
216,220,188668,5,0,0:0:0:0:
389,288,188844,1,0,0:0:0:0:
290,127,189021,1,0,0:0:0:0:
466,188,189197,1,0,0:0:0:0:
363,30,189374,5,0,0:0:0:0:
363,30,189462,1,0,0:0:0:0:
363,30,189550,1,0,0:0:0:0:
339,215,189726,5,0,0:0:0:0:
234,62,189903,1,0,0:0:0:0:
195,240,190079,1,0,0:0:0:0:
348,131,190256,1,0,0:0:0:0:
334,317,190432,5,0,0:0:0:0:
334,317,190520,1,0,0:0:0:0:
334,317,190609,1,0,0:0:0:0:
474,192,190785,5,0,0:0:0:0:
474,192,190873,1,0,0:0:0:0:
474,192,190962,1,0,0:0:0:0:
287,204,191138,5,0,0:0:0:0:
431,83,191315,1,0,0:0:0:0:
417,269,191491,1,0,0:0:0:0:
313,111,191668,1,0,0:0:0:0:
293,297,191845,1,0,0:0:0:0:
209,129,192021,1,0,0:0:0:0:
151,308,192198,1,0,0:0:0:0:
304,200,192374,5,0,0:0:0:0:
304,200,192462,1,0,0:0:0:0:
304,200,192550,1,0,0:0:0:0:
116,185,192727,5,0,0:0:0:0:
275,86,192903,1,0,0:0:0:0:
89,53,193080,1,0,0:0:0:0:
222,184,193256,1,0,0:0:0:0:
38,144,193432,1,0,0:0:0:0:
218,93,193608,5,0,0:0:0:0:
218,93,193697,1,0,0:0:0:0:
218,93,193785,1,0,0:0:0:0:
132,223,193962,5,0,0:0:0:0:
132,223,194050,1,0,0:0:0:0:
132,223,194138,1,0,0:0:0:0:
70,56,194315,5,0,0:0:0:0:
0,192,194491,1,0,0:0:0:0:
177,91,194668,1,0,0:0:0:0:
130,267,194844,1,0,0:0:0:0:
290,101,195020,5,0,0:0:0:0:
290,101,195109,1,0,0:0:0:0:
290,101,195197,1,0,0:0:0:0:
105,132,195373,5,0,0:0:0:0:
274,211,195549,1,0,0:0:0:0:
97,274,195726,5,0,0:0:0:0:
97,274,195815,1,0,0:0:0:0:
97,274,195903,1,0,0:0:0:0:
272,338,196079,5,0,0:0:0:0:
457,205,196256,2,0,B|303:157|206:254|77:202,1,375,0|0,0:0|0:0,0:0:0:0:
209,300,196962,5,0,0:0:0:0:
373,116,197138,1,0,0:0:0:0:
256,192,199081,8,0,201816,0:0:0:0:
256,192,201904,8,0,204639,0:0:0:0:
256,192,204728,8,0,207463,0:0:0:0:
256,192,207551,8,0,209228,0:0:0:0:
256,192,209316,8,0,210198,0:0:0:0:
206,227,210375,6,0,L|164:369,1,125,0|0,0:0|0:0,0:0:0:0:
336,121,210728,2,0,L|372:255,1,125,0|0,0:0|0:0,0:0:0:0:
157,42,211081,2,0,L|118:183,1,125,0|0,0:0|0:0,0:0:0:0:
389,0,211432,5,0,0:0:0:0:
400,59,211520,1,0,0:0:0:0:
412,120,211608,1,0,0:0:0:0:
425,182,211696,1,0,0:0:0:0:
437,245,211787,2,0,L|463:370,1,125,0|0,0:0|0:0,0:0:0:0:
223,298,212138,2,0,L|360:260,1,125,0|0,0:0|0:0,0:0:0:0:
110,167,212492,2,0,L|235:197,1,125,0|0,0:0|0:0,0:0:0:0:
73,4,212844,5,0,0:0:0:0:
62,63,212932,1,0,0:0:0:0:
50,124,213020,1,0,0:0:0:0:
37,186,213108,1,0,0:0:0:0:
25,249,213199,6,0,L|-1:374,1,125,0|0,0:0|0:0,0:0:0:0:
136,185,213551,2,0,L|168:306,1,125,0|0,0:0|0:0,0:0:0:0:
231,105,213904,2,0,L|363:172,1,125,0|0,0:0|0:0,0:0:0:0:
512,384,214256,5,0,0:0:0:0:
502,324,214344,1,0,0:0:0:0:
491,262,214432,1,0,0:0:0:0:
479,200,214520,1,0,0:0:0:0:
469,137,214611,2,0,L|445:11,1,125,0|0,0:0|0:0,0:0:0:0:
289,86,214962,2,0,L|152:124,1,125,0|0,0:0|0:0,0:0:0:0:
402,217,215316,2,0,L|277:187,1,125,0|0,0:0|0:0,0:0:0:0:
445,14,215668,5,0,0:0:0:0:
457,75,215756,1,0,0:0:0:0:
469,137,215844,1,0,0:0:0:0:
479,200,215935,1,0,0:0:0:0:
491,262,216023,1,0,0:0:0:0:
256,192,217434,8,0,219904,0:0:0:0:
374,119,220257,6,0,B|325:151|218:76|413:-12|386:-30|474:91|532:128|498:186|463:247|356:263|269:218|257:203|222:179|194:115|214:153|141:-45|61:16|23:68|100:63|133:48|174:80|180:102|183:111|188:130|176:188|156:243|61:185|103:136|-6:406|125:354|179:387|234:354|334:372|272:274|310:154|134:212|202:276,1,1137.49996528626,0|0,0:0|0:0,0:0:0:0:
336,369,225198,2,0,B|417:365|497:341|486:255|486:255|400:331|339:245|339:245|301:301|279:341|279:374|159:406|169:373|135:354|100:380|117:296|79:321|100:241|100:241|52:226|24:191|24:158|10:102|25:46|45:13|138:35|133:-19|155:-21|164:58|280:-10|326:32|332:82|342:107|342:107|417:45|438:73|488:110|486:148|461:163|466:194|397:232|315:347|492:212|397:201|395:165|408:140|334:192|238:108|311:216|291:210|233:223|292:262|190:311|215:296|215:296|164:324|149:288|157:251|195:258|121:261|232:175|240:141|260:105|260:105|270:96|163:82|153:53|104:65|74:120|84:161|112:181|124:183|134:173|134:173|159:140,1,2449.99992523194,0|0,0:0|0:0,0:0:0:0:
349,108,231551,6,0,L|380:251,1,125,0|0,0:0|0:0,0:0:0:0:
128,38,231904,2,0,L|51:188,1,125,0|0,0:0|0:0,0:0:0:0:
375,226,232257,2,0,L|465:337,1,125,0|0,0:0|0:0,0:0:0:0:
366,115,232520,5,0,0:0:0:0:
291,95,232608,1,0,0:0:0:0:
217,101,232696,1,0,0:0:0:0:
147,129,232784,1,0,0:0:0:0:
90,176,232872,1,0,0:0:0:0:
39,234,232963,6,0,P|-3:302|25:417,1,149.999995422363,0|0,0:0|0:0,0:0:0:0:
39,92,233316,1,0,0:0:0:0:
43,96,233404,1,0,0:0:0:0:
47,99,233492,1,0,0:0:0:0:
347,124,233669,2,0,P|282:88|201:86,1,149.999995422363,0|0,0:0|0:0,0:0:0:0:
332,255,234022,5,0,0:0:0:0:
91,194,234198,1,0,0:0:0:0:
347,124,234374,1,0,0:0:0:0:
109,0,234551,1,0,0:0:0:0:
109,0,234638,1,0,0:0:0:0:
109,0,234726,1,0,0:0:0:0:
150,308,234904,5,0,0:0:0:0:
219,287,234991,1,0,0:0:0:0:
292,267,235079,2,0,P|365:260|455:264,1,149.999995422363,0|0,0:0|0:0,0:0:0:0:
265,129,235432,5,0,0:0:0:0:
271,378,235610,1,0,0:0:0:0:
292,267,235785,2,0,P|216:259|141:261,1,149.999995422363,0|0,0:0|0:0,0:0:0:0:
141,261,236050,1,0,0:0:0:0:
141,261,236138,1,0,0:0:0:0:
234,98,236315,5,0,0:0:0:0:
382,335,236491,1,0,0:0:0:0:
438,92,236668,1,0,0:0:0:0:
191,242,236844,1,0,0:0:0:0:
337,15,237021,1,0,0:0:0:0:
128,35,237198,5,0,0:0:0:0:
350,218,237375,1,0,0:0:0:0:
350,218,237462,1,0,0:0:0:0:
350,218,237550,2,0,P|376:296|370:378,1,149.999995422363,0|0,0:0|0:0,0:0:0:0:
45,284,237903,5,0,0:0:0:0:
45,208,237991,1,0,0:0:0:0:
73,139,238079,1,0,0:0:0:0:
121,82,238167,1,0,0:0:0:0:
186,45,238255,1,0,0:0:0:0:
259,33,238344,1,0,0:0:0:0:
334,46,238432,1,0,0:0:0:0:
397,83,238520,1,0,0:0:0:0:
449,141,238610,6,0,P|470:211|452:287,1,149.999995422363,0|0,0:0|0:0,0:0:0:0:
512,14,238963,1,0,0:0:0:0:
512,14,239050,1,0,0:0:0:0:
512,14,239139,1,0,0:0:0:0:
290,169,239316,1,0,0:0:0:0:
394,42,239491,6,0,P|331:1|257:3,1,149.999995422363,0|0,0:0|0:0,0:0:0:0:
180,195,239845,2,0,P|292:245|234:387,1,299.999990844727,0|0,0:0|0:0,0:0:0:0:
242,384,240285,1,0,0:0:0:0:
242,384,240373,1,0,0:0:0:0:
476,384,240551,5,0,0:0:0:0:
476,384,240638,1,0,0:0:0:0:
476,384,240728,2,0,P|502:314|496:239,1,149.999995422363,0|0,0:0|0:0,0:0:0:0:
287,129,241081,2,0,P|214:106|141:117,1,149.999995422363,0|0,0:0|0:0,0:0:0:0:
0,167,241434,1,0,0:0:0:0:
172,4,241610,5,0,0:0:0:0:
172,4,241697,1,0,0:0:0:0:
172,4,241786,1,0,0:0:0:0:
380,11,241962,2,0,P|464:31|539:120,1,149.999995422363,0|0,0:0|0:0,0:0:0:0:
251,214,242315,5,0,0:0:0:0:
251,214,242403,1,0,0:0:0:0:
251,214,242491,2,0,P|218:145|220:70,1,149.999995422363,0|0,0:0|0:0,0:0:0:0:
479,170,242845,2,0,P|409:358|294:267,1,375,0|0,0:0|0:0,0:0:0:0:
221,97,243551,1,0,0:0:0:0:
512,52,243728,1,0,0:0:0:0:
254,377,244080,5,0,0:0:0:0:
180,384,244168,1,0,0:0:0:0:
110,382,244257,2,0,B|53:360|53:360|52:274|145:287,1,149.999995422363,0|0,0:0|0:0,0:0:0:0:
306,207,244610,5,0,0:0:0:0:
306,207,244697,1,0,0:0:0:0:
306,207,244787,1,0,0:0:0:0:
52,165,244963,1,0,0:0:0:0:
289,32,245139,1,0,0:0:0:0:
164,302,245316,1,0,0:0:0:0:
415,208,245491,6,0,P|266:234|113:220,1,299.999990844727,0|0,0:0|0:0,0:0:0:0:
116,222,245932,1,0,0:0:0:0:
116,222,246020,1,0,0:0:0:0:
220,0,246197,5,0,0:0:0:0:
220,0,246286,1,0,0:0:0:0:
220,0,246373,2,0,P|254:79|225:185,1,149.999995422363,0|0,0:0|0:0,0:0:0:0:
384,74,246726,2,0,P|438:25|529:20,1,149.999995422363,0|0,0:0|0:0,0:0:0:0:
316,240,247079,2,0,P|291:309|305:383,1,149.999995422363,0|0,0:0|0:0,0:0:0:0:
305,383,247344,1,0,0:0:0:0:
305,383,247432,1,0,0:0:0:0:
294,121,247609,5,0,0:0:0:0:
146,357,247785,1,0,0:0:0:0:
89,114,247962,1,0,0:0:0:0:
337,265,248138,1,0,0:0:0:0:
190,38,248315,1,0,0:0:0:0:
399,58,248492,5,0,0:0:0:0:
177,241,248669,1,0,0:0:0:0:
177,241,248756,1,0,0:0:0:0:
176,239,248844,2,0,P|150:308|153:384,1,149.999995422363,0|0,0:0|0:0,0:0:0:0:
486,278,249197,5,0,0:0:0:0:
486,202,249285,1,0,0:0:0:0:
458,132,249373,1,0,0:0:0:0:
410,75,249461,1,0,0:0:0:0:
345,38,249549,1,0,0:0:0:0:
271,26,249638,1,0,0:0:0:0:
197,39,249726,1,0,0:0:0:0:
133,77,249814,1,0,0:0:0:0:
80,134,249904,2,0,P|57:203|78:274,1,149.999995422363,0|0,0:0|0:0,0:0:0:0:
303,384,250256,5,0,0:0:0:0:
337,319,250344,1,0,0:0:0:0:
343,245,250432,2,0,P|326:171|272:121,1,149.999995422363,0|0,0:0|0:0,0:0:0:0:
0,24,250785,6,0,L|161:46,1,149.999995422363,0|0,0:0|0:0,0:0:0:0:
362,73,251139,1,0,0:0:0:0:
132,243,251316,2,0,P|97:309|95:382,1,149.999995422363,0|0,0:0|0:0,0:0:0:0:
97,383,251580,1,0,0:0:0:0:
97,383,251668,1,0,0:0:0:0:
417,359,251844,6,0,P|335:377|223:385,1,149.999995422363,0|0,0:0|0:0,0:0:0:0:
214,234,252197,6,0,P|221:163|286:116,1,149.999995422363,0|0,0:0|0:0,0:0:0:0:
188,25,252463,5,0,0:0:0:0:
145,34,252551,1,0,0:0:0:0:
106,52,252639,1,0,0:0:0:0:
69,76,252727,1,0,0:0:0:0:
40,109,252816,1,0,0:0:0:0:
19,146,252904,1,0,0:0:0:0:
5,189,252992,1,0,0:0:0:0:
0,232,253080,5,0,0:0:0:0:
5,276,253169,1,0,0:0:0:0:
20,317,253257,1,0,0:0:0:0:
46,350,253345,1,0,0:0:0:0:
83,372,253433,1,0,0:0:0:0:
127,374,253521,1,0,0:0:0:0:
165,356,253609,1,0,0:0:0:0:
191,321,253697,1,0,0:0:0:0:
198,278,253786,5,0,0:0:0:0:
184,237,253874,1,0,0:0:0:0:
152,207,253962,1,0,0:0:0:0:
110,195,254051,1,0,0:0:0:0:
72,217,254139,5,0,0:0:0:0:
51,262,254227,1,0,0:0:0:0:
60,310,254315,1,0,0:0:0:0:
93,346,254403,1,0,0:0:0:0:
142,356,254491,1,0,0:0:0:0:
192,347,254580,1,0,0:0:0:0:
238,328,254669,1,0,0:0:0:0:
275,295,254756,1,0,0:0:0:0:
308,258,254845,5,0,0:0:0:0:
323,211,254933,1,0,0:0:0:0:
321,161,255021,1,0,0:0:0:0:
301,115,255110,1,0,0:0:0:0:
267,80,255198,1,0,0:0:0:0:
216,74,255286,1,0,0:0:0:0:
167,89,255375,1,0,0:0:0:0:
127,119,255463,1,0,0:0:0:0:
110,166,255550,5,0,0:0:0:0:
108,222,255639,1,0,0:0:0:0:
130,274,255727,1,0,0:0:0:0:
172,311,255815,1,0,0:0:0:0:
224,328,255903,1,0,0:0:0:0:
280,322,255992,1,0,0:0:0:0:
326,290,256080,1,0,0:0:0:0:
349,241,256169,1,0,0:0:0:0:
353,185,256257,5,0,0:0:0:0:
324,142,256345,1,0,0:0:0:0:
279,109,256433,1,0,0:0:0:0:
225,93,256521,1,0,0:0:0:0:
170,94,256610,5,0,0:0:0:0:
116,109,256698,1,0,0:0:0:0:
73,154,256785,2,0,P|39:227|48:302,1,125,0|0,0:0|0:0,0:0:0:0:
69,342,257138,5,0,0:0:0:0:
94,359,257491,1,0,0:0:0:0:
119,369,257844,1,0,0:0:0:0:
349,0,258020,5,0,0:0:0:0:
394,42,258109,1,0,0:0:0:0:
416,100,258197,1,0,0:0:0:0:
408,160,258285,1,0,0:0:0:0:
390,217,258375,6,0,P|410:278|467:310,1,125,0|0,0:0|0:0,0:0:0:0:
272,339,258726,2,0,L|126:359,1,125,0|0,0:0|0:0,0:0:0:0:
147,355,258991,1,0,0:0:0:0:
147,355,259079,1,0,0:0:0:0:
229,130,259257,1,0,0:0:0:0:
25,223,259433,5,0,0:0:0:0:
25,223,259521,1,0,0:0:0:0:
25,223,259610,2,0,P|-1:135|55:79,1,125,0|0,0:0|0:0,0:0:0:0:
130,156,259963,6,0,L|186:214,1,62.5,0|0,0:0|0:0,0:0:0:0:
332,339,260139,2,0,L|256:275,1,62.5,0|0,0:0|0:0,0:0:0:0:
99,217,260315,2,0,L|181:243,1,62.5,0|0,0:0|0:0,0:0:0:0:
361,293,260491,2,0,L|271:267,1,62.5,0|0,0:0|0:0,0:0:0:0:
101,269,260668,2,0,L|187:262,1,62.5,0|0,0:0|0:0,0:0:0:0:
163,131,260842,5,0,0:0:0:0:
219,105,260931,1,0,0:0:0:0:
281,108,261019,1,0,0:0:0:0:
333,139,261107,1,0,0:0:0:0:
378,178,261197,6,0,P|387:118|380:33,1,125,0|0,0:0|0:0,0:0:0:0:
506,198,261550,2,0,P|515:259|511:322,1,125,0|0,0:0|0:0,0:0:0:0:
511,322,261815,1,0,0:0:0:0:
511,322,261903,1,0,0:0:0:0:
324,265,262081,1,0,0:0:0:0:
506,198,262257,5,0,0:0:0:0:
506,198,262345,1,0,0:0:0:0:
506,198,262434,2,0,L|379:179,1,125,0|0,0:0|0:0,0:0:0:0:
95,277,262785,6,0,L|151:218,1,62.5,0|0,0:0|0:0,0:0:0:0:
297,94,262961,2,0,L|221:157,1,62.5,0|0,0:0|0:0,0:0:0:0:
64,216,263137,2,0,L|146:189,1,62.5,0|0,0:0|0:0,0:0:0:0:
326,140,263313,2,0,L|236:165,1,62.5,0|0,0:0|0:0,0:0:0:0:
66,164,263490,2,0,L|152:170,1,62.5,0|0,0:0|0:0,0:0:0:0:
404,24,263668,5,0,0:0:0:0:
344,7,263756,1,0,0:0:0:0:
283,19,263844,1,0,0:0:0:0:
236,58,263932,1,0,0:0:0:0:
207,114,264022,6,0,P|203:178|243:229,1,125,0|0,0:0|0:0,0:0:0:0:
458,319,264373,2,0,L|309:340,1,125,0|0,0:0|0:0,0:0:0:0:
334,336,264638,1,0,0:0:0:0:
334,336,264726,1,0,0:0:0:0:
404,178,264903,1,0,0:0:0:0:
241,256,265080,5,0,0:0:0:0:
241,256,265168,1,0,0:0:0:0:
241,256,265257,2,0,P|234:187|244:131,1,125,0|0,0:0|0:0,0:0:0:0:
499,111,265609,6,0,L|418:98,1,62.5,0|0,0:0|0:0,0:0:0:0:
233,50,265785,2,0,L|328:76,1,62.5,0|0,0:0|0:0,0:0:0:0:
466,171,265961,2,0,L|396:119,1,62.5,0|0,0:0|0:0,0:0:0:0:
254,0,266137,2,0,L|326:59,1,62.5,0|0,0:0|0:0,0:0:0:0:
423,199,266314,2,0,L|378:125,1,62.5,0|0,0:0|0:0,0:0:0:0:
101,129,266492,5,0,0:0:0:0:
161,112,266580,1,0,0:0:0:0:
222,124,266668,1,0,0:0:0:0:
269,163,266756,1,0,0:0:0:0:
308,209,266846,6,0,P|371:224|428:193,1,125,0|0,0:0|0:0,0:0:0:0:
511,46,267197,2,0,L|362:62,1,125,0|0,0:0|0:0,0:0:0:0:
386,59,267462,1,0,0:0:0:0:
386,59,267551,1,0,0:0:0:0:
511,182,267728,1,0,0:0:0:0:
243,201,267904,5,0,0:0:0:0:
243,201,267992,1,0,0:0:0:0:
243,201,268081,2,0,L|393:189,1,125,0|0,0:0|0:0,0:0:0:0:
91,226,268432,6,0,L|168:253,1,62.5,0|0,0:0|0:0,0:0:0:0:
354,297,268608,2,0,L|257:275,1,62.5,0|0,0:0|0:0,0:0:0:0:
91,294,268784,2,0,L|176:280,1,62.5,0|0,0:0|0:0,0:0:0:0:
355,248,268962,5,0,0:0:0:0:
116,340,269138,1,0,0:0:0:0:
256,192,269668,5,0,0:0:0:0:
256,192,269845,12,0,272316,0:0:0:0:
231,175,272492,6,0,L|286:144,2,62.5,0|0|0,0:0|0:0|0:0,0:0:0:0:
