osu file format v14

[General]
AudioFilename: audio.mp3
AudioLeadIn: 0
PreviewTime: 146881
Countdown: 0
SampleSet: Normal
StackLeniency: 0.7
Mode: 0
LetterboxInBreaks: 0
WidescreenStoryboard: 1

[Editor]
Bookmarks: 7680,26880,46080,67688,86881,106081,125281,133681,149281,169681,182881,202081,211681,250081,269273,288473,307673,317273
DistanceSpacing: 1.2
BeatDivisor: 2
GridSize: 32
TimelineZoom: 2.5

[Metadata]
Title:Glass Phantoms
TitleUnicode:Glass Phantoms
Artist:Kardashev
ArtistUnicode:Kardashev
Creator:IQ_Cookie
Version:Give Me Back My Mind
Source:
Tags:symphonic emotional melodic metal 225 bpm
BeatmapID:3632428
BeatmapSetID:1774051

[Difficulty]
HPDrainRate:6
CircleSize:4.3
OverallDifficulty:9
ApproachRate:9.6
SliderMultiplier:2
SliderTickRate:1

[Events]
//Background and Video events
0,0,"bg.jpg",0,0
//Break Periods
2,127881,133038
2,207081,211172
//Storyboard Layer 0 (Background)
//Storyboard Layer 1 (Fail)
//Storyboard Layer 2 (Pass)
//Storyboard Layer 3 (Foreground)
//Storyboard Layer 4 (Overlay)
//Storyboard Sound Samples

[TimingPoints]
7680,400,3,1,0,100,1,0
7680,-83.3333333333333,3,1,0,100,0,0
31680,-71.4285714285714,3,1,0,100,0,0
35280,-83.3333333333333,3,1,0,100,0,0
41280,-71.4285714285714,3,1,0,100,0,0
44880,-66.6666666666667,3,1,0,100,0,0
45280,-71.4285714285714,3,1,0,100,0,0
45680,-83.3333333333333,3,1,0,100,0,0
48480,-100,3,1,0,100,0,0
53280,394.736842105263,3,1,0,100,1,0
55648,402.684563758389,3,1,0,100,1,0
61688,400,3,1,0,100,1,0
73688,387.096774193548,3,1,0,100,1,0
74849,402.684563758389,3,1,0,100,1,0
79681,400,3,1,0,100,1,0
86881,-83.3333333333333,3,1,0,100,0,0
88081,394.736842105263,3,1,0,100,1,0
88081,-83.3333333333333,3,1,0,100,0,0
89265,402.684563758389,3,1,0,100,1,0
89265,-83.3333333333333,3,1,0,100,0,0
91681,400,3,1,0,100,1,0
91681,-83.3333333333333,3,1,0,100,0,0
127681,-83.3333333333333,3,1,0,25,0,0
149281,-83.3333333333333,3,1,0,100,0,1
168481,-83.3333333333333,3,1,0,100,0,0
169681,-71.4285714285714,3,1,0,100,0,1
182881,-166.666666666667,3,1,0,100,0,1
199681,-100,3,1,0,100,0,1
202081,-100,3,1,0,100,0,0
206881,-100,3,1,0,5,0,0
211681,-166.666666666667,3,1,0,100,0,0
250081,-83.3333333333333,3,1,0,100,0,0
251281,397.350993377483,3,1,0,100,1,0
251281,-83.3333333333333,3,1,0,100,0,0
252473,400,3,1,0,100,1,0
252473,-83.3333333333333,3,1,0,100,0,0
258473,389.610389610389,3,1,0,100,1,0
258473,-83.3333333333333,3,1,0,100,0,0
259657,405.405405405405,3,1,0,100,1,0
259657,-83.3333333333333,3,1,0,100,0,0
260873,400,3,1,0,100,1,0
260873,-83.3333333333333,3,1,0,100,0,0
307673,-500.000000000003,3,1,0,5,0,0

[Colours]
Combo1 : 237,188,116
Combo2 : 215,57,57
Combo3 : 191,164,164
Combo4 : 174,81,81
Combo5 : 128,128,128
Combo6 : 223,190,145

[HitObjects]
66,167,7680,6,0,B|100:152|100:152|182:170,1,119.999996337891
184,254,7980,1,0,0:0:0:0:
184,254,8080,2,0,L|167:321,1,59.9999981689454
283,157,8280,2,0,L|266:90,1,59.9999981689454
209,235,8480,6,0,P|218:271|243:300,1,59.9999981689454
236,90,8680,1,0,0:0:0:0:
70,234,8880,6,0,P|137:236|195:200,1,119.999996337891
189,136,9180,1,0,0:0:0:0:
189,136,9280,2,0,P|159:121|120:119,1,59.9999981689454
234,262,9480,2,0,P|264:277|303:279,1,59.9999981689454
282,188,9680,6,0,L|272:117,1,59.9999981689454
200,270,9880,2,0,L|190:341,1,59.9999981689454
400,162,10080,6,0,P|445:169|440:235,1,119.999996337891
353,288,10380,1,0,0:0:0:0:
353,288,10480,2,0,L|279:263,1,59.9999981689454
174,227,10680,2,0,L|248:202,1,59.9999981689454
335,263,10880,6,0,L|261:238,1,59.9999981689454
161,209,11080,1,0,0:0:0:0:
320,179,11280,5,0,0:0:0:0:
346,167,11380,1,0,0:0:0:0:
356,147,11480,2,0,P|348:116|314:96,1,59.9999981689454
204,182,11680,5,0,0:0:0:0:
226,235,11780,1,0,0:0:0:0:
281,253,11880,1,0,0:0:0:0:
331,223,11980,1,0,0:0:0:0:
342,182,12080,5,0,0:0:0:0:
287,138,12180,1,0,0:0:0:0:
220,154,12280,1,0,0:0:0:0:
192,218,12380,1,0,0:0:0:0:
217,285,12480,6,0,B|263:293|263:293|332:233,1,119.999996337891
211,202,12780,1,0,0:0:0:0:
211,202,12880,2,0,P|177:209|141:236,1,59.9999981689454
319,227,13080,2,0,P|353:220|389:193,1,59.9999981689454
204,278,13280,6,0,L|204:346,1,59.9999981689454
256,192,13480,1,0,0:0:0:0:
100,217,13680,6,0,B|88:237|88:237|143:230|186:255,1,119.999996337891
117,323,13980,1,0,0:0:0:0:
117,323,14080,2,0,L|46:335,1,59.9999981689454
261,219,14280,2,0,L|332:231,1,59.9999981689454
129,294,14480,6,0,P|117:265|124:215,1,59.9999981689454
280,300,14680,2,0,P|292:271|285:221,1,59.9999981689454
199,140,14880,6,0,B|167:133|167:133|130:168|116:238,1,119.999996337891
279,225,15180,1,0,0:0:0:0:
279,225,15280,2,0,L|356:190,1,59.9999981689454
170,189,15480,2,0,L|120:120,1,59.9999981689454
259,38,15680,6,0,L|232:117,1,59.9999981689454
189,212,15880,1,0,0:0:0:0:
421,137,16080,5,0,0:0:0:0:
375,100,16180,1,0,0:0:0:0:
318,112,16280,1,0,0:0:0:0:
291,163,16380,1,0,0:0:0:0:
297,198,16480,5,0,0:0:0:0:
326,201,16580,1,0,0:0:0:0:
353,186,16680,2,0,P|374:157|378:128,1,59.9999981689454
319,30,16880,5,0,0:0:0:0:
264,7,16980,1,0,0:0:0:0:
206,20,17080,1,0,0:0:0:0:
167,65,17180,1,0,0:0:0:0:
173,124,17280,6,0,B|192:168|192:168|208:175|208:175|211:248,1,119.999996337891
91,256,17580,1,0,0:0:0:0:
91,256,17680,2,0,L|66:327,1,59.9999981689454
236,257,17880,2,0,L|261:328,1,59.9999981689454
93,287,18080,6,0,L|68:358,1,59.9999981689454
226,233,18280,1,0,0:0:0:0:
133,147,18480,6,0,B|113:132|113:132|16:167,1,119.999996337891
124,245,18780,1,0,0:0:0:0:
124,245,18880,2,0,P|158:248|189:228,1,59.9999981689454
227,89,19080,6,0,B|293:101|293:101|317:151,1,119.999996337891
181,207,19380,1,0,0:0:0:0:
181,207,19480,2,0,B|177:174|177:174|189:140,1,59.9999981689454
312,228,19680,6,0,B|288:246|277:277|277:277|236:277|200:288,1,119.999996337891
128,196,20080,5,0,0:0:0:0:
121,174,20180,1,0,0:0:0:0:
125,149,20280,1,0,0:0:0:0:
145,133,20380,1,0,0:0:0:0:
171,125,20480,5,0,0:0:0:0:
216,133,20580,1,0,0:0:0:0:
248,100,20680,1,0,0:0:0:0:
239,54,20780,1,0,0:0:0:0:
185,45,20880,1,0,0:0:0:0:
142,83,20980,1,0,0:0:0:0:
147,139,21080,1,0,0:0:0:0:
197,169,21180,1,0,0:0:0:0:
249,144,21280,2,0,P|256:113|250:79,3,59.9999981689454
398,180,21680,5,0,0:0:0:0:
437,139,21780,1,0,0:0:0:0:
417,86,21880,1,0,0:0:0:0:
360,82,21980,1,0,0:0:0:0:
325,123,22080,6,0,B|324:140|316:170|316:170|344:208|349:254,1,119.999996337891
344,334,22480,1,0,0:0:0:0:
285,322,22580,1,0,0:0:0:0:
226,311,22680,1,0,0:0:0:0:
167,299,22780,1,0,0:0:0:0:
146,320,22880,5,0,0:0:0:0:
130,329,22980,1,0,0:0:0:0:
115,338,23080,1,0,0:0:0:0:
99,347,23180,1,0,0:0:0:0:
65,339,23280,5,0,0:0:0:0:
87,296,23380,1,0,0:0:0:0:
110,254,23480,1,0,0:0:0:0:
133,212,23580,1,0,0:0:0:0:
126,182,23680,5,0,0:0:0:0:
108,177,23780,1,0,0:0:0:0:
91,172,23880,1,0,0:0:0:0:
73,167,23980,1,0,0:0:0:0:
58,135,24080,5,0,0:0:0:0:
116,120,24180,1,0,0:0:0:0:
174,106,24280,1,0,0:0:0:0:
232,92,24380,1,0,0:0:0:0:
263,112,24480,2,0,B|269:129|269:129|242:183,1,59.9999981689454
281,305,24680,5,0,0:0:0:0:
332,332,24780,1,0,0:0:0:0:
388,315,24880,1,0,0:0:0:0:
414,263,24980,1,0,0:0:0:0:
386,209,25080,2,0,P|332:242|334:258,1,59.9999981689454
452,343,25280,6,0,L|465:268,3,59.9999981689454
436,119,25680,1,0,0:0:0:0:
406,122,25746,1,0,0:0:0:0:
377,126,25813,1,0,0:0:0:0:
349,130,25880,1,0,0:0:0:0:
320,134,25946,1,0,0:0:0:0:
292,139,26013,1,0,0:0:0:0:
270,153,26080,5,0,0:0:0:0:
245,153,26146,1,0,0:0:0:0:
233,132,26213,1,0,0:0:0:0:
247,112,26280,1,0,0:0:0:0:
271,115,26346,1,0,0:0:0:0:
279,138,26413,1,0,0:0:0:0:
270,153,26480,6,0,P|243:154|216:150,5,39.9999987792969
170,63,26880,1,0,0:0:0:0:
140,75,26946,1,0,0:0:0:0:
118,98,27013,1,0,0:0:0:0:
106,128,27080,1,0,0:0:0:0:
106,159,27146,1,0,0:0:0:0:
118,189,27213,1,0,0:0:0:0:
140,213,27280,1,0,0:0:0:0:
158,238,27346,1,0,0:0:0:0:
161,270,27413,1,0,0:0:0:0:
149,299,27480,1,0,0:0:0:0:
124,318,27546,1,0,0:0:0:0:
93,323,27613,1,0,0:0:0:0:
63,312,27680,2,0,L|50:266,5,39.9999987792969
91,163,28080,5,0,0:0:0:0:
121,155,28146,1,0,0:0:0:0:
153,159,28213,1,0,0:0:0:0:
181,174,28280,1,0,0:0:0:0:
202,198,28346,1,0,0:0:0:0:
213,227,28413,1,0,0:0:0:0:
203,253,28480,5,0,0:0:0:0:
176,257,28546,1,0,0:0:0:0:
157,238,28613,1,0,0:0:0:0:
158,214,28680,5,0,0:0:0:0:
189,206,28746,1,0,0:0:0:0:
220,210,28813,1,0,0:0:0:0:
247,226,28880,1,0,0:0:0:0:
266,252,28946,1,0,0:0:0:0:
273,283,29013,1,0,0:0:0:0:
267,314,29080,1,0,0:0:0:0:
250,341,29146,1,0,0:0:0:0:
224,359,29213,1,0,0:0:0:0:
196,361,29280,2,0,P|177:354|158:333,5,39.9999987792969
81,237,29680,5,0,0:0:0:0:
90,219,29746,1,0,0:0:0:0:
99,201,29813,1,0,0:0:0:0:
110,186,29880,5,0,0:0:0:0:
137,170,29946,1,0,0:0:0:0:
169,169,30013,1,0,0:0:0:0:
198,181,30080,1,0,0:0:0:0:
214,209,30146,1,0,0:0:0:0:
228,237,30212,1,0,0:0:0:0:
253,257,30279,1,0,0:0:0:0:
283,267,30346,1,0,0:0:0:0:
315,265,30412,1,0,0:0:0:0:
343,252,30480,2,0,L|360:197,5,39.9999987792969
324,49,30880,5,0,0:0:0:0:
281,27,30946,1,0,0:0:0:0:
234,31,31013,1,0,0:0:0:0:
195,58,31080,1,0,0:0:0:0:
175,101,31146,1,0,0:0:0:0:
181,148,31213,1,0,0:0:0:0:
208,174,31280,5,0,0:0:0:0:
230,166,31346,1,0,0:0:0:0:
248,150,31413,1,0,0:0:0:0:
257,128,31480,1,0,0:0:0:0:
255,104,31546,1,0,0:0:0:0:
243,84,31613,1,0,0:0:0:0:
217,75,31680,5,0,0:0:0:0:
173,89,31746,1,0,0:0:0:0:
148,127,31813,1,0,0:0:0:0:
152,173,31880,1,0,0:0:0:0:
184,206,31946,1,0,0:0:0:0:
230,212,32013,1,0,0:0:0:0:
271,234,32080,1,0,0:0:0:0:
301,268,32146,1,0,0:0:0:0:
303,314,32213,1,0,0:0:0:0:
276,351,32280,1,0,0:0:0:0:
232,362,32346,1,0,0:0:0:0:
190,343,32413,1,0,0:0:0:0:
181,300,32480,5,0,0:0:0:0:
207,295,32546,1,0,0:0:0:0:
231,309,32613,1,0,0:0:0:0:
240,335,32680,1,0,0:0:0:0:
230,360,32746,1,0,0:0:0:0:
205,372,32813,1,0,0:0:0:0:
180,360,32880,5,0,0:0:0:0:
167,314,32946,1,0,0:0:0:0:
183,271,33013,1,0,0:0:0:0:
221,244,33079,1,0,0:0:0:0:
267,243,33146,1,0,0:0:0:0:
305,268,33213,1,0,0:0:0:0:
324,310,33280,1,0,0:0:0:0:
354,344,33346,1,0,0:0:0:0:
399,354,33413,1,0,0:0:0:0:
441,335,33479,1,0,0:0:0:0:
463,295,33546,1,0,0:0:0:0:
458,249,33613,1,0,0:0:0:0:
427,213,33680,2,0,L|366:212,5,46.6666652425131
286,320,34080,5,0,0:0:0:0:
244,299,34146,1,0,0:0:0:0:
219,261,34213,1,0,0:0:0:0:
217,215,34279,1,0,0:0:0:0:
239,174,34346,1,0,0:0:0:0:
278,151,34413,1,0,0:0:0:0:
319,128,34480,1,0,0:0:0:0:
343,89,34546,1,0,0:0:0:0:
335,44,34613,1,0,0:0:0:0:
299,17,34679,1,0,0:0:0:0:
254,18,34746,1,0,0:0:0:0:
221,51,34813,1,0,0:0:0:0:
228,97,34880,2,0,P|255:104|278:95,5,46.6666652425131
136,42,35280,5,0,0:0:0:0:
119,78,35346,1,0,0:0:0:0:
102,114,35413,1,0,0:0:0:0:
86,150,35479,1,0,0:0:0:0:
70,188,35546,1,0,0:0:0:0:
53,224,35613,1,0,0:0:0:0:
66,253,35680,5,0,0:0:0:0:
83,247,35746,1,0,0:0:0:0:
100,243,35813,1,0,0:0:0:0:
117,238,35879,1,0,0:0:0:0:
134,234,35946,1,0,0:0:0:0:
150,229,36013,1,0,0:0:0:0:
168,253,36080,5,0,0:0:0:0:
180,255,36146,1,0,0:0:0:0:
192,257,36213,1,0,0:0:0:0:
203,260,36279,1,0,0:0:0:0:
215,262,36346,1,0,0:0:0:0:
227,265,36413,1,0,0:0:0:0:
253,249,36480,5,0,0:0:0:0:
281,235,36546,1,0,0:0:0:0:
299,209,36613,1,0,0:0:0:0:
302,177,36679,1,0,0:0:0:0:
289,148,36746,1,0,0:0:0:0:
264,129,36813,1,0,0:0:0:0:
243,103,36880,1,0,0:0:0:0:
230,75,36946,1,0,0:0:0:0:
236,43,37013,1,0,0:0:0:0:
257,19,37079,1,0,0:0:0:0:
287,13,37146,1,0,0:0:0:0:
315,24,37213,1,0,0:0:0:0:
326,53,37280,2,0,L|316:105,5,39.9999987792969
175,151,37680,5,0,0:0:0:0:
144,160,37746,1,0,0:0:0:0:
114,150,37813,1,0,0:0:0:0:
96,125,37879,1,0,0:0:0:0:
95,93,37946,1,0,0:0:0:0:
113,67,38013,1,0,0:0:0:0:
143,56,38080,5,0,0:0:0:0:
173,64,38146,1,0,0:0:0:0:
194,87,38213,1,0,0:0:0:0:
200,118,38279,1,0,0:0:0:0:
188,147,38346,1,0,0:0:0:0:
163,166,38413,1,0,0:0:0:0:
140,188,38480,5,0,0:0:0:0:
127,216,38546,1,0,0:0:0:0:
128,249,38613,1,0,0:0:0:0:
143,276,38679,1,0,0:0:0:0:
168,296,38746,1,0,0:0:0:0:
199,302,38813,1,0,0:0:0:0:
229,292,38880,2,0,L|235:234,5,39.9999987792969
324,218,39280,2,0,L|287:172,5,39.9999987792969
212,122,39680,5,0,0:0:0:0:
233,98,39746,1,0,0:0:0:0:
262,84,39813,1,0,0:0:0:0:
293,79,39879,1,0,0:0:0:0:
325,85,39946,1,0,0:0:0:0:
352,100,40013,1,0,0:0:0:0:
373,125,40080,1,0,0:0:0:0:
396,146,40146,1,0,0:0:0:0:
427,153,40213,1,0,0:0:0:0:
457,144,40279,1,0,0:0:0:0:
479,121,40346,1,0,0:0:0:0:
487,91,40413,1,0,0:0:0:0:
481,59,40480,5,0,0:0:0:0:
439,36,40546,1,0,0:0:0:0:
391,36,40613,1,0,0:0:0:0:
348,57,40679,1,0,0:0:0:0:
320,95,40746,1,0,0:0:0:0:
312,142,40813,1,0,0:0:0:0:
333,170,40880,5,0,0:0:0:0:
356,171,40946,1,0,0:0:0:0:
375,157,41013,1,0,0:0:0:0:
382,135,41079,1,0,0:0:0:0:
374,112,41146,1,0,0:0:0:0:
354,100,41213,1,0,0:0:0:0:
325,91,41280,5,0,0:0:0:0:
280,91,41346,1,0,0:0:0:0:
240,114,41413,1,0,0:0:0:0:
216,154,41479,1,0,0:0:0:0:
215,200,41546,1,0,0:0:0:0:
238,240,41613,1,0,0:0:0:0:
263,279,41680,1,0,0:0:0:0:
266,324,41746,1,0,0:0:0:0:
243,364,41813,1,0,0:0:0:0:
201,383,41879,1,0,0:0:0:0:
156,375,41946,1,0,0:0:0:0:
124,343,42013,1,0,0:0:0:0:
135,309,42080,5,0,0:0:0:0:
162,305,42146,1,0,0:0:0:0:
185,320,42213,1,0,0:0:0:0:
193,346,42279,1,0,0:0:0:0:
182,372,42346,1,0,0:0:0:0:
158,384,42413,1,0,0:0:0:0:
134,382,42480,5,0,0:0:0:0:
99,351,42546,1,0,0:0:0:0:
84,307,42613,1,0,0:0:0:0:
92,262,42679,1,0,0:0:0:0:
121,226,42746,1,0,0:0:0:0:
163,208,42813,1,0,0:0:0:0:
208,195,42880,1,0,0:0:0:0:
245,168,42946,1,0,0:0:0:0:
263,126,43013,1,0,0:0:0:0:
255,81,43080,1,0,0:0:0:0:
223,47,43146,1,0,0:0:0:0:
178,36,43213,1,0,0:0:0:0:
136,55,43280,2,0,L|120:111,5,46.6666652425131
162,215,43680,5,0,0:0:0:0:
208,220,43746,1,0,0:0:0:0:
254,225,43813,1,0,0:0:0:0:
301,230,43879,1,0,0:0:0:0:
347,235,43946,1,0,0:0:0:0:
393,240,44013,1,0,0:0:0:0:
417,220,44080,5,0,0:0:0:0:
402,185,44146,1,0,0:0:0:0:
388,150,44213,1,0,0:0:0:0:
374,116,44279,1,0,0:0:0:0:
360,81,44346,1,0,0:0:0:0:
346,47,44413,1,0,0:0:0:0:
359,21,44480,5,0,0:0:0:0:
385,28,44546,1,0,0:0:0:0:
412,36,44613,1,0,0:0:0:0:
439,44,44679,1,0,0:0:0:0:
466,52,44746,1,0,0:0:0:0:
493,59,44813,1,0,0:0:0:0:
512,83,44880,6,0,B|473:268|473:268|460:190,1,250.000009536744
389,115,45280,6,0,P|302:133|354:255,1,233.333326212565
418,263,45680,6,0,B|432:244|432:244|507:242|507:242|441:276|441:276|418:263,1,199.999993896485
383,270,46080,5,0,0:0:0:0:
256,192,46146,12,0,48080,0:0:0:0:
253,254,48480,6,0,B|199:301|121:260|154:224|83:181|6:232,1,250
17,247,49080,1,0,0:0:0:0:
156,308,49280,5,0,0:0:0:0:
204,206,49480,1,0,0:0:0:0:
35,132,49680,6,0,B|78:158|78:158|245:123,1,200
177,0,50280,2,0,B|125:12|125:12|87:71,1,100
124,184,50680,5,0,0:0:0:0:
279,112,50880,2,0,B|295:96|283:62|283:62|279:82|265:98|275:111,1,100
150,173,51280,1,0,0:0:0:0:
323,164,51480,2,0,B|344:158|351:123|351:123|338:138|317:144|320:160,1,100
222,267,51880,5,0,0:0:0:0:
268,368,52080,2,0,B|332:384|332:384|462:303,2,200
100,212,53080,1,0,0:0:0:0:
31,295,53280,6,0,B|100:349|180:318|147:272|247:229|316:306,1,300
304,317,54266,1,0,0:0:0:0:
381,146,54464,6,0,B|406:159|406:159|420:203|455:239,1,100
254,210,54858,2,0,P|230:164|239:113,1,100
384,194,55253,2,0,B|401:220|401:220|374:296,1,100
272,192,55648,5,0,0:0:0:0:
294,61,55849,2,0,B|251:53|251:53|118:159,2,200
431,144,56856,5,0,0:0:0:0:
477,231,57057,1,0,0:0:0:0:
305,140,57258,5,0,0:0:0:0:
259,227,57460,1,0,0:0:0:0:
384,113,57661,5,0,0:0:0:0:
338,26,57862,1,0,0:0:0:0:
65,128,58064,5,0,0:0:0:0:
138,207,58265,1,0,0:0:0:0:
265,124,58466,2,0,P|253:48|171:94,1,200
176,119,59070,5,0,0:0:0:0:
383,173,59272,1,0,0:0:0:0:
181,142,59473,1,0,0:0:0:0:
338,88,59674,6,0,B|324:46|324:46|324:111|324:111|303:156|303:156|310:205|310:205|293:252,1,250
262,257,60278,1,0,0:0:0:0:
90,149,60480,6,0,P|149:140|191:170,1,100
188,187,60882,1,0,0:0:0:0:
213,346,61084,2,0,P|272:355|314:325,1,100
312,310,61486,5,0,0:0:0:0:
255,137,61688,2,0,B|234:112|234:112|160:163|162:259,1,200
213,384,62288,5,0,0:0:0:0:
194,276,62488,1,0,0:0:0:0:
286,207,62688,1,0,0:0:0:0:
181,295,62888,6,0,P|132:311|76:293,1,100
161,197,63288,2,0,B|195:180|195:180|268:200,1,100
114,276,63688,2,0,P|77:243|78:165,1,100
82,174,64088,1,0,0:0:0:0:
192,92,64288,5,0,0:0:0:0:
192,92,64388,1,0,0:0:0:0:
192,92,64488,2,0,B|203:131|203:131|183:207,2,100
33,111,65088,5,0,0:0:0:0:
167,64,65288,1,0,0:0:0:0:
249,134,65488,2,0,B|271:235|271:235|229:325,1,200
72,229,66088,2,0,P|130:221|190:227,1,100
85,369,66488,5,0,0:0:0:0:
8,331,66688,1,0,0:0:0:0:
56,200,66888,5,0,0:0:0:0:
103,184,66988,1,0,0:0:0:0:
152,193,67088,1,0,0:0:0:0:
186,228,67188,1,0,0:0:0:0:
184,264,67288,5,0,0:0:0:0:
200,294,67388,1,0,0:0:0:0:
229,313,67488,1,0,0:0:0:0:
263,317,67588,1,0,0:0:0:0:
296,306,67688,6,0,P|332:173|346:67,2,200
266,311,68688,5,0,0:0:0:0:
120,90,68888,2,0,P|207:30|230:158,1,250
229,148,69488,1,0,0:0:0:0:
24,251,69888,5,0,0:0:0:0:
108,351,70088,2,0,B|200:343|252:262|252:262|210:280|170:264,1,250
165,243,70688,1,0,0:0:0:0:
320,162,70888,5,0,0:0:0:0:
267,236,71088,1,0,0:0:0:0:
175,99,71288,2,0,B|252:106|252:106|302:82|302:82|394:85,1,200
495,174,71888,2,0,B|447:250|447:250|303:251,1,200
309,68,72488,6,0,P|370:44|358:143,1,200
192,101,73088,2,0,P|228:53|308:67,1,150
316,92,73488,5,0,0:0:0:0:
262,229,73688,2,0,B|272:256|294:270|294:270|136:242,1,200
94,100,74268,5,0,0:0:0:0:
143,217,74462,1,0,0:0:0:0:
45,315,74655,1,0,0:0:0:0:
142,204,74849,5,0,0:0:0:0:
169,183,75049,2,0,B|224:149|224:149|360:206,2,200
92,289,76057,5,0,0:0:0:0:
111,380,76258,1,0,0:0:0:0:
142,204,76459,5,0,0:0:0:0:
230,174,76660,1,0,0:0:0:0:
389,218,76862,5,0,0:0:0:0:
301,248,77063,1,0,0:0:0:0:
265,102,77265,6,0,P|316:40|392:137,2,200
278,126,78271,5,0,0:0:0:0:
371,262,78473,2,0,B|400:282|442:276|442:276|509:193|444:94,1,250
425,103,79077,1,0,0:0:0:0:
257,201,79278,5,0,0:0:0:0:
210,118,79479,1,0,0:0:0:0:
297,22,79681,2,0,B|325:50|325:50|296:164,1,150
268,168,80081,5,0,0:0:0:0:
183,67,80281,2,0,P|216:23|269:1,1,100
282,13,80681,1,0,0:0:0:0:
244,162,80881,2,0,B|222:181|187:193|187:193|114:188|69:124,1,200
204,64,81481,5,0,0:0:0:0:
83,110,81681,1,0,0:0:0:0:
4,22,81881,1,0,0:0:0:0:
214,85,82081,6,0,P|214:191|135:264,2,200
185,71,83081,1,0,0:0:0:0:
17,141,83281,2,0,P|122:137|109:85,1,150
70,24,83681,5,0,0:0:0:0:
70,24,83881,2,0,B|130:4|130:4|255:75,1,200
204,217,84481,5,0,0:0:0:0:
204,217,84581,1,0,0:0:0:0:
204,217,84681,1,0,0:0:0:0:
327,207,84881,5,0,0:0:0:0:
340,225,84981,1,0,0:0:0:0:
357,247,85081,1,0,0:0:0:0:
382,106,85281,5,0,0:0:0:0:
418,93,85381,1,0,0:0:0:0:
461,80,85481,1,0,0:0:0:0:
314,2,85681,5,0,0:0:0:0:
265,8,85781,1,0,0:0:0:0:
234,46,85881,1,0,0:0:0:0:
237,95,85981,1,0,0:0:0:0:
267,114,86081,5,0,0:0:0:0:
286,148,86181,1,0,0:0:0:0:
291,186,86281,1,0,0:0:0:0:
279,224,86381,1,0,0:0:0:0:
255,244,86481,5,0,0:0:0:0:
226,252,86581,1,0,0:0:0:0:
197,244,86681,1,0,0:0:0:0:
175,222,86781,1,0,0:0:0:0:
173,192,86881,6,0,B|224:178|224:178|318:210,1,119.999996337891
220,327,87281,5,0,0:0:0:0:
220,327,87481,1,0,0:0:0:0:
102,244,87681,5,0,0:0:0:0:
102,244,87881,1,0,0:0:0:0:
176,118,88081,2,0,B|210:103|240:117|230:139|271:149|316:132,1,119.999996337891
345,8,88475,5,0,0:0:0:0:
345,8,88673,1,0,0:0:0:0:
212,56,88870,5,0,0:0:0:0:
212,56,89067,1,0,0:0:0:0:
325,140,89265,6,0,P|328:204|286:243,1,119.999996337891
174,263,89667,2,0,P|117:233|104:177,1,119.999996337891
143,74,90070,2,0,P|196:39|251:56,1,119.999996337891
315,185,90473,5,0,0:0:0:0:
315,185,90674,1,0,0:0:0:0:
194,261,90875,5,0,0:0:0:0:
171,118,91077,1,0,0:0:0:0:
247,159,91278,5,0,0:0:0:0:
102,244,91479,1,0,0:0:0:0:
120,75,91681,2,0,B|124:44|124:44|147:136,1,119.999996337891
48,237,92081,5,0,0:0:0:0:
48,237,92281,1,0,0:0:0:0:
168,325,92481,5,0,0:0:0:0:
168,325,92681,1,0,0:0:0:0:
253,209,92881,2,0,B|221:186|221:186|125:208,1,119.999996337891
183,346,93281,5,0,0:0:0:0:
183,346,93481,1,0,0:0:0:0:
271,233,93681,5,0,0:0:0:0:
271,233,93881,1,0,0:0:0:0:
154,148,94081,6,0,B|176:85|176:85|262:68,1,119.999996337891
333,102,94481,2,0,B|376:152|376:152|348:235,1,119.999996337891
277,268,94881,2,0,B|211:280|211:280|153:214,1,119.999996337891
220,102,95281,5,0,0:0:0:0:
220,102,95481,1,0,0:0:0:0:
306,217,95681,5,0,0:0:0:0:
351,64,95881,1,0,0:0:0:0:
410,200,96081,5,0,0:0:0:0:
410,200,96281,1,0,0:0:0:0:
270,165,96481,2,0,P|274:98|347:61,1,119.999996337891
448,125,96881,5,0,0:0:0:0:
448,125,97081,1,0,0:0:0:0:
327,202,97281,5,0,0:0:0:0:
327,202,97481,1,0,0:0:0:0:
423,309,97681,2,0,B|430:328|430:328|377:317|316:342,1,119.999996337891
203,280,98081,5,0,0:0:0:0:
203,280,98281,1,0,0:0:0:0:
311,184,98481,5,0,0:0:0:0:
311,184,98681,1,0,0:0:0:0:
180,123,98881,6,0,B|183:94|209:70|209:70|251:64|291:77,1,119.999996337891
364,121,99281,2,0,B|387:138|395:172|395:172|379:211|348:240,1,119.999996337891
265,264,99681,2,0,B|238:275|204:265|204:265|178:232|169:190,1,119.999996337891
233,81,100081,5,0,0:0:0:0:
233,81,100281,1,0,0:0:0:0:
338,179,100481,5,0,0:0:0:0:
214,252,100681,1,0,0:0:0:0:
182,180,100881,5,0,0:0:0:0:
329,259,101081,1,0,0:0:0:0:
180,336,101281,2,0,B|163:314|163:314|179:221,1,119.999996337891
318,176,101681,5,0,0:0:0:0:
318,176,101881,1,0,0:0:0:0:
199,102,102081,5,0,0:0:0:0:
199,102,102281,1,0,0:0:0:0:
87,193,102481,2,0,B|71:223|71:223|184:202,1,119.999996337891
283,137,102881,5,0,0:0:0:0:
283,137,103081,1,0,0:0:0:0:
288,284,103281,5,0,0:0:0:0:
288,284,103481,1,0,0:0:0:0:
157,224,103681,6,0,B|115:227|102:192|102:192|120:203|149:194|156:223,1,119.999996337891
285,161,104081,2,0,B|303:123|339:129|339:129|320:139|314:168|285:161,1,119.999996337891
255,298,104481,2,0,B|278:332|255:361|255:361|255:339|233:319|254:298,1,119.999996337891
205,173,104881,5,0,0:0:0:0:
205,173,105081,1,0,0:0:0:0:
344,138,105281,5,0,0:0:0:0:
419,288,105481,1,0,0:0:0:0:
124,291,105681,5,0,0:0:0:0:
199,141,105881,1,0,0:0:0:0:
359,190,106081,6,0,P|425:193|462:143,1,119.999996337891
383,9,106481,5,0,0:0:0:0:
383,9,106681,1,0,0:0:0:0:
286,147,106881,5,0,0:0:0:0:
286,147,107081,1,0,0:0:0:0:
203,0,107281,5,0,0:0:0:0:
129,151,107481,1,0,0:0:0:0:
205,189,107681,5,0,0:0:0:0:
131,38,107881,1,0,0:0:0:0:
41,179,108081,5,0,0:0:0:0:
209,87,108281,1,0,0:0:0:0:
52,27,108481,2,0,B|37:45|37:45|29:153,1,119.999996337891
170,234,108881,5,0,0:0:0:0:
170,234,109081,1,0,0:0:0:0:
39,339,109281,5,0,0:0:0:0:
39,339,109481,1,0,0:0:0:0:
63,172,109681,5,0,0:0:0:0:
174,297,109881,1,0,0:0:0:0:
90,297,110081,5,0,0:0:0:0:
198,168,110281,1,0,0:0:0:0:
254,326,110481,5,0,0:0:0:0:
177,176,110681,1,0,0:0:0:0:
342,207,110881,5,0,0:0:0:0:
342,207,111081,1,0,0:0:0:0:
229,332,111281,6,0,P|178:340|113:297,1,119.999996337891
246,195,111681,2,0,P|297:187|362:230,1,119.999996337891
275,367,112081,5,0,0:0:0:0:
275,367,112281,1,0,0:0:0:0:
178,229,112481,6,0,L|135:352,1,119.999996337891
319,252,112881,2,0,L|362:375,1,119.999996337891
182,287,113281,5,0,0:0:0:0:
182,287,113481,1,0,0:0:0:0:
120,130,113681,6,0,B|183:146|183:146|250:130,1,119.999996337891
307,286,114081,2,0,B|243:269|243:269|176:285,1,119.999996337891
292,147,114481,5,0,0:0:0:0:
292,147,114681,1,0,0:0:0:0:
422,252,114881,5,0,0:0:0:0:
476,92,115081,1,0,0:0:0:0:
324,18,115281,5,0,0:0:0:0:
378,178,115481,1,0,0:0:0:0:
468,36,115681,2,0,B|451:26|424:17|424:17|382:26|357:58,1,119.999996337891
422,213,116081,5,0,0:0:0:0:
422,213,116281,1,0,0:0:0:0:
484,57,116481,5,0,0:0:0:0:
484,57,116681,1,0,0:0:0:0:
320,96,116881,5,0,0:0:0:0:
394,247,117081,1,0,0:0:0:0:
471,173,117281,5,0,0:0:0:0:
311,118,117481,1,0,0:0:0:0:
386,268,117681,5,0,0:0:0:0:
491,108,117881,1,0,0:0:0:0:
326,141,118081,2,0,P|299:102|360:93,1,119.999996337891
476,203,118481,5,0,0:0:0:0:
476,203,118681,1,0,0:0:0:0:
373,336,118881,5,0,0:0:0:0:
373,336,119081,1,0,0:0:0:0:
316,177,119281,6,0,B|291:157|304:121|304:121|310:144|335:159|319:178,1,119.999996337891
283,337,119681,2,0,B|278:368|240:374|240:374|257:358|258:329|282:332,1,119.999996337891
425,251,120081,2,0,B|454:239|478:269|478:269|456:262|430:276|421:253,1,119.999996337891
277,185,120481,5,0,0:0:0:0:
277,185,120681,1,0,0:0:0:0:
176,320,120881,5,0,0:0:0:0:
176,320,121081,1,0,0:0:0:0:
342,341,121281,5,0,0:0:0:0:
342,341,121481,1,0,0:0:0:0:
219,226,121681,2,0,B|198:274|215:319|215:319|248:288,1,119.999996337891
365,197,122081,5,0,0:0:0:0:
365,197,122281,1,0,0:0:0:0:
233,100,122481,5,0,0:0:0:0:
233,100,122681,1,0,0:0:0:0:
112,217,122881,5,0,0:0:0:0:
112,217,123081,1,0,0:0:0:0:
262,292,123281,6,0,B|312:253|312:253|306:183,1,119.999996337891
285,177,123681,1,0,0:0:0:0:
117,159,123881,6,0,B|125:221|125:221|189:251,1,119.999996337891
206,235,124281,1,0,0:0:0:0:
174,69,124481,5,0,0:0:0:0:
174,69,124681,1,0,0:0:0:0:
50,183,124881,5,0,0:0:0:0:
50,183,125081,1,0,0:0:0:0:
206,235,125281,5,0,0:0:0:0:
256,192,125381,12,0,127681,0:0:0:0:
155,185,133547,5,0,0:0:0:0:
155,185,133614,1,0,0:0:0:0:
155,185,133681,1,0,0:0:0:0:
198,250,133881,5,0,0:0:0:0:
239,135,134081,1,0,0:0:0:0:
340,236,134281,5,0,0:0:0:0:
460,222,134481,1,0,0:0:0:0:
424,336,134681,1,0,0:0:0:0:
305,351,134881,6,0,B|257:376|211:351|211:351|230:305|196:263,1,179.999994506836
118,201,135281,2,0,P|103:249|125:323,1,119.999996337891
257,215,135681,5,0,0:0:0:0:
219,100,135881,1,0,0:0:0:0:
74,192,136081,2,0,B|108:230|108:230|234:205,1,179.999994506836
309,86,136481,6,0,B|258:57|258:57|205:86,1,119.999996337891
164,195,136881,2,0,B|164:253|164:253|216:285,1,119.999996337891
339,295,137281,6,0,P|401:237|379:144,1,179.999994506836
205,180,137681,2,0,L|328:213,1,119.999996337891
479,248,138081,5,0,0:0:0:0:
363,279,138281,1,0,0:0:0:0:
377,132,138481,2,0,B|401:115|425:110|425:110|485:150|497:225,1,179.999994506836
430,309,138881,6,0,B|406:323|365:306|384:288|338:273|304:288,1,119.999996337891
199,359,139281,2,0,B|223:345|264:362|245:380|291:395|325:380,1,119.999996337891
392,239,139681,6,0,P|363:172|306:248,1,179.999994506836
373,332,140081,2,0,B|416:341|416:341|490:268,1,119.999996337891
423,146,140481,5,0,0:0:0:0:
379,251,140681,1,0,0:0:0:0:
504,143,140881,2,0,B|506:112|506:112|427:78|351:131,1,179.999994506836
317,242,141281,6,0,B|329:278|301:306|301:306|308:287|300:258|311:239,1,119.999996337891
251,146,141681,2,0,B|213:138|203:100|203:100|215:116|244:123|255:142,1,119.999996337891
390,177,142081,6,0,B|410:183|427:199|427:199|389:57,1,179.999994506836
263,110,142481,2,0,P|199:98|165:46,1,119.999996337891
355,18,142881,5,0,0:0:0:0:
286,94,143081,1,0,0:0:0:0:
399,29,143281,2,0,P|443:84|367:78,1,179.999994506836
367,57,143681,5,0,0:0:0:0:
340,198,143881,2,0,B|289:221|289:221|232:194,1,119.999996337891
207,75,144281,5,0,0:0:0:0:
221,60,144481,2,0,B|259:35|259:35|391:78,1,179.999994506836
496,184,144881,2,0,B|436:165|436:165|379:193,1,119.999996337891
386,338,145281,5,0,0:0:0:0:
441,246,145481,1,0,0:0:0:0:
369,153,145681,2,0,B|318:137|273:160|273:160|258:204|204:228,1,179.999994506836
79,182,146081,6,0,B|79:172|79:172|133:146|197:139,1,119.999996337891
232,270,146481,2,0,B|232:280|232:280|178:306|114:313,1,119.999996337891
168,171,146881,2,0,B|207:142|251:147|251:147|261:144|261:144|315:165|342:232,1,179.999994506836
323,216,147281,5,0,0:0:0:0:
252,295,147481,1,0,0:0:0:0:
162,193,147681,1,0,0:0:0:0:
371,138,147881,5,0,0:0:0:0:
93,137,148081,1,0,0:0:0:0:
352,277,148281,1,0,0:0:0:0:
235,75,148481,5,0,0:0:0:0:
189,333,148681,1,0,0:0:0:0:
112,154,148881,2,0,B|148:134|148:134|211:136,2,79.9999975585938
95,260,149281,5,0,0:0:0:0:
101,298,149347,1,0,0:0:0:0:
130,325,149414,1,0,0:0:0:0:
169,327,149480,1,0,0:0:0:0:
201,305,149547,1,0,0:0:0:0:
212,267,149614,1,0,0:0:0:0:
197,231,149680,1,0,0:0:0:0:
166,206,149747,1,0,0:0:0:0:
133,171,149813,1,0,0:0:0:0:
122,125,149880,1,0,0:0:0:0:
135,79,149946,1,0,0:0:0:0:
169,45,150013,1,0,0:0:0:0:
214,32,150080,1,0,0:0:0:0:
261,45,150147,1,0,0:0:0:0:
299,72,150213,1,0,0:0:0:0:
313,117,150280,1,0,0:0:0:0:
303,163,150346,1,0,0:0:0:0:
268,196,150413,1,0,0:0:0:0:
220,204,150480,5,0,0:0:0:0:
175,184,150547,1,0,0:0:0:0:
127,185,150613,1,0,0:0:0:0:
88,212,150680,1,0,0:0:0:0:
71,256,150746,1,0,0:0:0:0:
80,302,150813,1,0,0:0:0:0:
113,336,150880,1,0,0:0:0:0:
160,342,150947,1,0,0:0:0:0:
205,329,151013,1,0,0:0:0:0:
235,292,151080,1,0,0:0:0:0:
240,245,151146,1,0,0:0:0:0:
218,203,151213,1,0,0:0:0:0:
177,181,151280,1,0,0:0:0:0:
128,179,151347,1,0,0:0:0:0:
84,162,151413,1,0,0:0:0:0:
57,124,151480,1,0,0:0:0:0:
56,76,151546,1,0,0:0:0:0:
82,37,151613,1,0,0:0:0:0:
126,19,151680,5,0,0:0:0:0:
173,26,151747,1,0,0:0:0:0:
212,53,151813,1,0,0:0:0:0:
228,98,151880,1,0,0:0:0:0:
215,143,151946,1,0,0:0:0:0:
179,173,152013,1,0,0:0:0:0:
150,212,152081,1,0,0:0:0:0:
137,258,152147,1,0,0:0:0:0:
149,304,152214,1,0,0:0:0:0:
183,336,152280,1,0,0:0:0:0:
229,346,152347,1,0,0:0:0:0:
274,331,152414,1,0,0:0:0:0:
305,295,152480,1,0,0:0:0:0:
316,247,152547,1,0,0:0:0:0:
340,207,152613,1,0,0:0:0:0:
382,185,152680,1,0,0:0:0:0:
430,187,152746,1,0,0:0:0:0:
469,213,152813,1,0,0:0:0:0:
490,255,152880,5,0,0:0:0:0:
487,303,152946,1,0,0:0:0:0:
459,341,153013,1,0,0:0:0:0:
416,361,153080,1,0,0:0:0:0:
369,356,153146,1,0,0:0:0:0:
331,327,153213,1,0,0:0:0:0:
329,283,153281,2,0,L|345:220,5,39.9999987792969
429,118,153681,5,0,0:0:0:0:
397,82,153747,1,0,0:0:0:0:
353,64,153814,1,0,0:0:0:0:
305,68,153880,1,0,0:0:0:0:
265,92,153947,1,0,0:0:0:0:
239,133,154014,1,0,0:0:0:0:
232,180,154081,1,0,0:0:0:0:
195,210,154147,1,0,0:0:0:0:
148,218,154214,1,0,0:0:0:0:
103,204,154280,1,0,0:0:0:0:
70,170,154347,1,0,0:0:0:0:
57,124,154414,1,0,0:0:0:0:
68,77,154480,1,0,0:0:0:0:
100,42,154547,1,0,0:0:0:0:
144,26,154614,1,0,0:0:0:0:
192,35,154681,1,0,0:0:0:0:
227,66,154747,1,0,0:0:0:0:
244,111,154814,1,0,0:0:0:0:
237,158,154880,5,0,0:0:0:0:
210,196,154947,1,0,0:0:0:0:
169,222,155014,1,0,0:0:0:0:
143,261,155081,1,0,0:0:0:0:
135,308,155147,1,0,0:0:0:0:
156,350,155214,1,0,0:0:0:0:
197,373,155280,1,0,0:0:0:0:
244,368,155347,1,0,0:0:0:0:
279,336,155414,1,0,0:0:0:0:
287,288,155481,1,0,0:0:0:0:
265,249,155547,1,0,0:0:0:0:
221,232,155614,1,0,0:0:0:0:
175,244,155680,1,0,0:0:0:0:
145,279,155747,1,0,0:0:0:0:
140,326,155814,1,0,0:0:0:0:
166,367,155881,1,0,0:0:0:0:
211,379,155947,1,0,0:0:0:0:
256,365,156014,1,0,0:0:0:0:
287,329,156080,5,0,0:0:0:0:
299,282,156147,1,0,0:0:0:0:
330,245,156214,1,0,0:0:0:0:
371,222,156280,1,0,0:0:0:0:
417,229,156347,1,0,0:0:0:0:
449,264,156413,1,0,0:0:0:0:
453,311,156480,1,0,0:0:0:0:
427,350,156547,1,0,0:0:0:0:
380,363,156614,1,0,0:0:0:0:
337,342,156680,1,0,0:0:0:0:
317,299,156747,1,0,0:0:0:0:
328,254,156813,1,0,0:0:0:0:
363,219,156881,1,0,0:0:0:0:
392,181,156947,1,0,0:0:0:0:
399,134,157014,1,0,0:0:0:0:
382,90,157080,1,0,0:0:0:0:
344,61,157147,1,0,0:0:0:0:
298,53,157214,1,0,0:0:0:0:
253,71,157280,5,0,0:0:0:0:
229,111,157347,1,0,0:0:0:0:
232,158,157413,1,0,0:0:0:0:
260,196,157480,1,0,0:0:0:0:
304,213,157546,1,0,0:0:0:0:
351,203,157613,1,0,0:0:0:0:
385,170,157680,1,0,0:0:0:0:
395,124,157746,1,0,0:0:0:0:
381,77,157814,1,0,0:0:0:0:
343,48,157880,1,0,0:0:0:0:
295,44,157947,1,0,0:0:0:0:
253,65,158013,1,0,0:0:0:0:
228,105,158080,1,0,0:0:0:0:
213,151,158147,1,0,0:0:0:0:
188,191,158213,1,0,0:0:0:0:
146,213,158280,1,0,0:0:0:0:
98,209,158346,1,0,0:0:0:0:
60,182,158413,1,0,0:0:0:0:
49,134,158481,5,0,0:0:0:0:
70,124,158547,1,0,0:0:0:0:
94,122,158614,1,0,0:0:0:0:
117,129,158680,1,0,0:0:0:0:
136,144,158747,1,0,0:0:0:0:
148,164,158814,1,0,0:0:0:0:
144,195,158881,5,0,0:0:0:0:
130,240,158947,1,0,0:0:0:0:
144,285,159014,1,0,0:0:0:0:
181,315,159080,1,0,0:0:0:0:
228,319,159147,1,0,0:0:0:0:
269,296,159214,1,0,0:0:0:0:
291,255,159280,1,0,0:0:0:0:
286,208,159347,1,0,0:0:0:0:
266,164,159414,1,0,0:0:0:0:
259,116,159480,1,0,0:0:0:0:
276,72,159547,1,0,0:0:0:0:
310,39,159613,1,0,0:0:0:0:
356,26,159680,1,0,0:0:0:0:
403,36,159747,1,0,0:0:0:0:
440,65,159813,1,0,0:0:0:0:
459,109,159880,1,0,0:0:0:0:
457,156,159947,1,0,0:0:0:0:
433,197,160013,1,0,0:0:0:0:
389,219,160081,5,0,0:0:0:0:
353,249,160147,1,0,0:0:0:0:
341,295,160214,1,0,0:0:0:0:
357,340,160280,1,0,0:0:0:0:
396,367,160347,1,0,0:0:0:0:
443,367,160414,1,0,0:0:0:0:
482,341,160480,1,0,0:0:0:0:
497,295,160547,1,0,0:0:0:0:
481,250,160613,1,0,0:0:0:0:
443,223,160680,1,0,0:0:0:0:
395,223,160746,1,0,0:0:0:0:
357,251,160813,1,0,0:0:0:0:
343,296,160881,5,0,0:0:0:0:
362,310,160947,1,0,0:0:0:0:
385,317,161014,1,0,0:0:0:0:
409,314,161080,1,0,0:0:0:0:
430,303,161147,1,0,0:0:0:0:
445,285,161214,1,0,0:0:0:0:
456,255,161281,5,0,0:0:0:0:
434,212,161347,1,0,0:0:0:0:
396,183,161414,1,0,0:0:0:0:
349,174,161480,1,0,0:0:0:0:
303,187,161547,1,0,0:0:0:0:
268,219,161614,1,0,0:0:0:0:
257,266,161681,1,0,0:0:0:0:
242,311,161747,1,0,0:0:0:0:
209,345,161814,1,0,0:0:0:0:
163,360,161880,1,0,0:0:0:0:
116,353,161947,1,0,0:0:0:0:
77,327,162014,1,0,0:0:0:0:
54,285,162080,1,0,0:0:0:0:
51,238,162147,1,0,0:0:0:0:
70,194,162214,1,0,0:0:0:0:
110,167,162281,1,0,0:0:0:0:
139,130,162347,1,0,0:0:0:0:
140,83,162414,1,0,0:0:0:0:
111,45,162480,5,0,0:0:0:0:
66,33,162547,1,0,0:0:0:0:
23,52,162614,1,0,0:0:0:0:
0,93,162680,1,0,0:0:0:0:
7,141,162747,1,0,0:0:0:0:
40,173,162813,1,0,0:0:0:0:
87,178,162880,1,0,0:0:0:0:
122,162,162946,1,0,0:0:0:0:
142,132,163013,1,0,0:0:0:0:
147,100,163081,1,0,0:0:0:0:
140,78,163147,1,0,0:0:0:0:
126,63,163214,1,0,0:0:0:0:
108,58,163281,2,0,P|81:72|64:98,5,39.9999987792969
98,231,163681,5,0,0:0:0:0:
130,253,163747,1,0,0:0:0:0:
170,257,163814,1,0,0:0:0:0:
207,243,163880,1,0,0:0:0:0:
233,213,163947,1,0,0:0:0:0:
242,175,164014,1,0,0:0:0:0:
242,135,164081,1,0,0:0:0:0:
255,97,164147,1,0,0:0:0:0:
283,70,164214,1,0,0:0:0:0:
322,60,164280,1,0,0:0:0:0:
360,68,164347,1,0,0:0:0:0:
391,93,164414,1,0,0:0:0:0:
400,132,164481,5,0,0:0:0:0:
384,150,164547,1,0,0:0:0:0:
361,155,164614,1,0,0:0:0:0:
340,146,164680,1,0,0:0:0:0:
327,126,164747,1,0,0:0:0:0:
329,103,164814,1,0,0:0:0:0:
356,84,164881,5,0,0:0:0:0:
387,83,164947,1,0,0:0:0:0:
418,92,165014,1,0,0:0:0:0:
444,110,165080,1,0,0:0:0:0:
464,135,165147,1,0,0:0:0:0:
475,165,165214,1,0,0:0:0:0:
477,197,165280,1,0,0:0:0:0:
469,228,165347,1,0,0:0:0:0:
452,255,165414,1,0,0:0:0:0:
427,275,165480,1,0,0:0:0:0:
398,287,165547,2,0,L|345:272,1,39.9999987792969
319,160,165681,2,0,P|348:142|374:143,5,39.9999987792969
344,292,166081,5,0,0:0:0:0:
316,330,166147,1,0,0:0:0:0:
272,347,166214,1,0,0:0:0:0:
226,337,166280,1,0,0:0:0:0:
193,303,166347,1,0,0:0:0:0:
183,257,166414,1,0,0:0:0:0:
197,211,166481,1,0,0:0:0:0:
223,171,166547,1,0,0:0:0:0:
232,124,166613,1,0,0:0:0:0:
216,79,166680,1,0,0:0:0:0:
181,47,166746,1,0,0:0:0:0:
135,37,166813,1,0,0:0:0:0:
89,51,166881,5,0,0:0:0:0:
78,98,166947,1,0,0:0:0:0:
67,144,167014,1,0,0:0:0:0:
55,191,167080,1,0,0:0:0:0:
44,238,167147,1,0,0:0:0:0:
33,284,167214,1,0,0:0:0:0:
45,320,167281,5,0,0:0:0:0:
84,312,167347,1,0,0:0:0:0:
123,305,167414,1,0,0:0:0:0:
162,297,167480,1,0,0:0:0:0:
202,290,167547,1,0,0:0:0:0:
241,283,167614,1,0,0:0:0:0:
258,308,167681,5,0,0:0:0:0:
289,313,167747,1,0,0:0:0:0:
321,319,167814,1,0,0:0:0:0:
352,324,167880,1,0,0:0:0:0:
384,330,167947,1,0,0:0:0:0:
415,335,168014,1,0,0:0:0:0:
441,317,168081,5,0,0:0:0:0:
424,294,168147,1,0,0:0:0:0:
407,271,168214,1,0,0:0:0:0:
391,249,168280,1,0,0:0:0:0:
374,226,168347,1,0,0:0:0:0:
357,204,168414,1,0,0:0:0:0:
330,201,168481,6,0,L|321:265,1,39.9999987792969
254,356,169147,5,0,0:0:0:0:
254,356,169214,1,0,0:0:0:0:
254,356,169281,1,0,0:0:0:0:
124,253,169681,5,0,0:0:0:0:
130,207,169747,1,0,0:0:0:0:
159,171,169814,1,0,0:0:0:0:
202,156,169880,1,0,0:0:0:0:
248,165,169947,1,0,0:0:0:0:
281,197,170014,1,0,0:0:0:0:
298,240,170081,1,0,0:0:0:0:
334,281,170147,1,0,0:0:0:0:
386,298,170214,1,0,0:0:0:0:
440,284,170280,1,0,0:0:0:0:
478,244,170347,1,0,0:0:0:0:
490,190,170414,1,0,0:0:0:0:
471,138,170481,5,0,0:0:0:0:
439,133,170547,1,0,0:0:0:0:
411,148,170614,1,0,0:0:0:0:
398,177,170680,1,0,0:0:0:0:
407,208,170747,1,0,0:0:0:0:
431,225,170814,1,0,0:0:0:0:
476,214,170881,5,0,0:0:0:0:
491,161,170947,1,0,0:0:0:0:
473,108,171014,1,0,0:0:0:0:
429,76,171080,1,0,0:0:0:0:
374,75,171147,1,0,0:0:0:0:
328,106,171214,1,0,0:0:0:0:
307,148,171281,1,0,0:0:0:0:
286,189,171347,1,0,0:0:0:0:
250,217,171414,1,0,0:0:0:0:
204,226,171480,1,0,0:0:0:0:
160,214,171547,1,0,0:0:0:0:
125,184,171614,1,0,0:0:0:0:
108,141,171680,1,0,0:0:0:0:
112,95,171747,1,0,0:0:0:0:
142,59,171814,1,0,0:0:0:0:
186,45,171881,1,0,0:0:0:0:
231,54,171947,1,0,0:0:0:0:
262,88,172014,1,0,0:0:0:0:
263,134,172081,5,0,0:0:0:0:
232,179,172147,1,0,0:0:0:0:
229,235,172214,1,0,0:0:0:0:
256,283,172280,1,0,0:0:0:0:
305,310,172347,1,0,0:0:0:0:
360,307,172414,1,0,0:0:0:0:
406,276,172480,1,0,0:0:0:0:
429,225,172547,1,0,0:0:0:0:
416,170,172614,1,0,0:0:0:0:
373,150,172681,5,0,0:0:0:0:
328,161,172747,1,0,0:0:0:0:
292,191,172814,1,0,0:0:0:0:
273,233,172880,1,0,0:0:0:0:
273,279,172947,1,0,0:0:0:0:
293,321,173014,1,0,0:0:0:0:
329,350,173080,1,0,0:0:0:0:
374,361,173147,1,0,0:0:0:0:
420,351,173214,1,0,0:0:0:0:
457,322,173281,5,0,0:0:0:0:
428,275,173347,1,0,0:0:0:0:
379,249,173414,1,0,0:0:0:0:
324,252,173480,1,0,0:0:0:0:
278,283,173547,1,0,0:0:0:0:
250,332,173614,1,0,0:0:0:0:
202,361,173680,1,0,0:0:0:0:
147,364,173747,1,0,0:0:0:0:
97,340,173813,1,0,0:0:0:0:
64,295,173880,1,0,0:0:0:0:
57,241,173947,1,0,0:0:0:0:
72,194,174013,1,0,0:0:0:0:
106,170,174081,5,0,0:0:0:0:
131,180,174147,1,0,0:0:0:0:
150,201,174214,1,0,0:0:0:0:
158,227,174280,1,0,0:0:0:0:
155,255,174347,1,0,0:0:0:0:
141,279,174414,1,0,0:0:0:0:
124,289,174481,2,0,P|99:294|69:285,5,46.6666652425131
82,181,174881,2,0,P|60:166|45:139,5,46.6666652425131
143,74,175281,2,0,P|138:49|147:19,5,46.6666652425131
281,38,175681,5,0,0:0:0:0:
323,57,175747,1,0,0:0:0:0:
350,94,175814,1,0,0:0:0:0:
354,140,175880,1,0,0:0:0:0:
335,182,175947,1,0,0:0:0:0:
298,209,176014,1,0,0:0:0:0:
273,248,176081,1,0,0:0:0:0:
266,293,176147,1,0,0:0:0:0:
278,329,176214,1,0,0:0:0:0:
302,349,176280,1,0,0:0:0:0:
336,354,176347,1,0,0:0:0:0:
363,345,176414,1,0,0:0:0:0:
377,326,176481,5,0,0:0:0:0:
364,281,176547,1,0,0:0:0:0:
331,249,176614,1,0,0:0:0:0:
286,238,176680,1,0,0:0:0:0:
242,250,176747,1,0,0:0:0:0:
210,283,176814,1,0,0:0:0:0:
175,314,176881,1,0,0:0:0:0:
128,316,176947,1,0,0:0:0:0:
85,301,177014,1,0,0:0:0:0:
50,270,177080,1,0,0:0:0:0:
31,227,177147,1,0,0:0:0:0:
29,181,177214,1,0,0:0:0:0:
46,138,177281,5,0,0:0:0:0:
92,140,177347,1,0,0:0:0:0:
134,159,177414,1,0,0:0:0:0:
165,194,177480,1,0,0:0:0:0:
181,237,177547,1,0,0:0:0:0:
178,284,177614,1,0,0:0:0:0:
158,325,177681,5,0,0:0:0:0:
119,300,177747,1,0,0:0:0:0:
95,260,177814,1,0,0:0:0:0:
89,215,177880,1,0,0:0:0:0:
102,170,177947,1,0,0:0:0:0:
133,136,178014,1,0,0:0:0:0:
178,124,178081,5,0,0:0:0:0:
232,133,178147,1,0,0:0:0:0:
272,171,178214,1,0,0:0:0:0:
282,225,178280,1,0,0:0:0:0:
260,276,178347,1,0,0:0:0:0:
212,304,178414,1,0,0:0:0:0:
157,300,178480,1,0,0:0:0:0:
115,265,178547,1,0,0:0:0:0:
99,210,178614,1,0,0:0:0:0:
114,155,178681,1,0,0:0:0:0:
157,120,178747,1,0,0:0:0:0:
213,123,178814,1,0,0:0:0:0:
236,155,178881,5,0,0:0:0:0:
235,182,178947,1,0,0:0:0:0:
217,203,179014,1,0,0:0:0:0:
190,207,179080,1,0,0:0:0:0:
166,193,179147,1,0,0:0:0:0:
157,168,179214,1,0,0:0:0:0:
166,133,179281,1,0,0:0:0:0:
205,93,179347,1,0,0:0:0:0:
258,81,179414,1,0,0:0:0:0:
311,99,179480,1,0,0:0:0:0:
345,142,179547,1,0,0:0:0:0:
352,197,179614,1,0,0:0:0:0:
325,246,179681,1,0,0:0:0:0:
311,299,179747,1,0,0:0:0:0:
335,348,179814,1,0,0:0:0:0:
385,372,179880,1,0,0:0:0:0:
438,358,179947,1,0,0:0:0:0:
471,314,180014,1,0,0:0:0:0:
468,259,180080,5,0,0:0:0:0:
430,218,180147,1,0,0:0:0:0:
378,199,180213,1,0,0:0:0:0:
349,152,180280,1,0,0:0:0:0:
357,98,180346,1,0,0:0:0:0:
397,60,180413,1,0,0:0:0:0:
452,56,180480,1,0,0:0:0:0:
496,92,180547,1,0,0:0:0:0:
504,146,180613,1,0,0:0:0:0:
478,194,180680,1,0,0:0:0:0:
427,215,180746,1,0,0:0:0:0:
374,200,180813,1,0,0:0:0:0:
342,155,180880,1,0,0:0:0:0:
311,108,180947,1,0,0:0:0:0:
261,84,181013,1,0,0:0:0:0:
206,93,181080,1,0,0:0:0:0:
167,132,181146,1,0,0:0:0:0:
156,186,181213,1,0,0:0:0:0:
179,236,181281,5,0,0:0:0:0:
205,229,181347,1,0,0:0:0:0:
224,209,181414,1,0,0:0:0:0:
230,182,181480,1,0,0:0:0:0:
219,156,181547,1,0,0:0:0:0:
197,140,181614,1,0,0:0:0:0:
169,142,181681,5,0,0:0:0:0:
125,176,181747,1,0,0:0:0:0:
104,227,181814,1,0,0:0:0:0:
112,282,181880,1,0,0:0:0:0:
145,326,181947,1,0,0:0:0:0:
196,348,182014,1,0,0:0:0:0:
228,337,182081,5,0,0:0:0:0:
236,310,182147,1,0,0:0:0:0:
244,283,182214,1,0,0:0:0:0:
252,256,182280,1,0,0:0:0:0:
261,229,182347,1,0,0:0:0:0:
269,203,182414,1,0,0:0:0:0:
255,180,182481,5,0,0:0:0:0:
250,161,182547,1,0,0:0:0:0:
246,143,182614,1,0,0:0:0:0:
242,125,182680,1,0,0:0:0:0:
238,107,182747,1,0,0:0:0:0:
234,89,182814,1,0,0:0:0:0:
244,65,182881,5,0,0:0:0:0:
261,54,182947,1,0,0:0:0:0:
280,50,183014,1,0,0:0:0:0:
300,51,183080,1,0,0:0:0:0:
319,55,183147,1,0,0:0:0:0:
337,65,183214,1,0,0:0:0:0:
351,79,183280,1,0,0:0:0:0:
361,96,183347,1,0,0:0:0:0:
366,116,183414,1,0,0:0:0:0:
367,135,183481,1,0,0:0:0:0:
368,154,183547,1,0,0:0:0:0:
375,173,183614,1,0,0:0:0:0:
388,189,183680,5,0,0:0:0:0:
402,202,183747,1,0,0:0:0:0:
421,210,183814,1,0,0:0:0:0:
440,214,183880,1,0,0:0:0:0:
460,213,183947,1,0,0:0:0:0:
479,206,184014,1,0,0:0:0:0:
494,192,184081,2,0,L|498:158,17,19.9999993896485
479,45,185281,5,0,0:0:0:0:
459,41,185347,1,0,0:0:0:0:
439,43,185414,1,0,0:0:0:0:
422,53,185480,1,0,0:0:0:0:
408,67,185547,1,0,0:0:0:0:
401,86,185614,1,0,0:0:0:0:
402,106,185681,5,0,0:0:0:0:
389,121,185747,1,0,0:0:0:0:
372,131,185814,1,0,0:0:0:0:
352,134,185880,1,0,0:0:0:0:
333,129,185947,1,0,0:0:0:0:
316,118,186014,1,0,0:0:0:0:
308,99,186081,5,0,0:0:0:0:
291,88,186147,1,0,0:0:0:0:
272,82,186214,1,0,0:0:0:0:
252,82,186280,1,0,0:0:0:0:
233,88,186347,1,0,0:0:0:0:
216,99,186414,1,0,0:0:0:0:
215,119,186481,5,0,0:0:0:0:
223,137,186547,1,0,0:0:0:0:
224,156,186614,1,0,0:0:0:0:
217,175,186680,1,0,0:0:0:0:
204,190,186747,1,0,0:0:0:0:
187,200,186814,1,0,0:0:0:0:
167,198,186881,2,0,L|141:183,5,19.9999993896485
81,64,187281,5,0,0:0:0:0:
74,103,187347,1,0,0:0:0:0:
68,142,187414,1,0,0:0:0:0:
62,182,187480,1,0,0:0:0:0:
55,221,187547,1,0,0:0:0:0:
49,261,187614,1,0,0:0:0:0:
63,288,187681,5,0,0:0:0:0:
69,306,187747,1,0,0:0:0:0:
82,322,187814,1,0,0:0:0:0:
99,332,187880,1,0,0:0:0:0:
118,337,187947,1,0,0:0:0:0:
138,335,188014,1,0,0:0:0:0:
156,327,188080,1,0,0:0:0:0:
170,313,188147,1,0,0:0:0:0:
183,298,188214,1,0,0:0:0:0:
197,284,188280,1,0,0:0:0:0:
215,276,188347,1,0,0:0:0:0:
235,274,188413,1,0,0:0:0:0:
254,279,188480,5,0,0:0:0:0:
271,290,188547,1,0,0:0:0:0:
283,305,188613,1,0,0:0:0:0:
289,324,188680,1,0,0:0:0:0:
288,344,188747,1,0,0:0:0:0:
281,363,188813,1,0,0:0:0:0:
266,376,188881,2,0,P|256:378|241:379,11,19.9999993896485
143,296,189681,5,0,0:0:0:0:
156,281,189747,1,0,0:0:0:0:
174,272,189814,1,0,0:0:0:0:
193,270,189880,1,0,0:0:0:0:
213,275,189947,1,0,0:0:0:0:
229,286,190014,1,0,0:0:0:0:
239,303,190081,2,0,L|237:339,2,19.9999993896485
98,367,190281,5,0,0:0:0:0:
80,350,190347,1,0,0:0:0:0:
68,330,190414,1,0,0:0:0:0:
61,307,190480,1,0,0:0:0:0:
60,283,190547,1,0,0:0:0:0:
66,260,190614,1,0,0:0:0:0:
79,243,190681,2,0,L|111:232,8,19.9999993896485
185,287,191281,5,0,0:0:0:0:
202,295,191347,1,0,0:0:0:0:
222,300,191414,1,0,0:0:0:0:
242,299,191480,1,0,0:0:0:0:
261,294,191547,1,0,0:0:0:0:
279,285,191614,1,0,0:0:0:0:
296,269,191681,5,0,0:0:0:0:
297,249,191747,1,0,0:0:0:0:
298,229,191814,1,0,0:0:0:0:
300,209,191880,1,0,0:0:0:0:
301,189,191947,1,0,0:0:0:0:
302,169,192014,1,0,0:0:0:0:
273,151,192081,5,0,0:0:0:0:
269,135,192147,1,0,0:0:0:0:
265,120,192214,1,0,0:0:0:0:
261,105,192280,1,0,0:0:0:0:
256,89,192347,1,0,0:0:0:0:
252,73,192414,1,0,0:0:0:0:
261,50,192481,5,0,0:0:0:0:
287,40,192547,1,0,0:0:0:0:
314,39,192614,1,0,0:0:0:0:
341,46,192680,1,0,0:0:0:0:
364,62,192747,1,0,0:0:0:0:
381,85,192814,1,0,0:0:0:0:
389,111,192880,1,0,0:0:0:0:
389,139,192947,1,0,0:0:0:0:
380,165,193014,1,0,0:0:0:0:
363,187,193080,1,0,0:0:0:0:
339,201,193147,1,0,0:0:0:0:
311,207,193214,1,0,0:0:0:0:
283,199,193281,5,0,0:0:0:0:
266,176,193347,1,0,0:0:0:0:
243,161,193414,1,0,0:0:0:0:
215,156,193480,1,0,0:0:0:0:
188,162,193547,1,0,0:0:0:0:
165,177,193614,1,0,0:0:0:0:
153,203,193681,2,0,L|148:237,17,19.9999993896485
262,301,194881,5,0,0:0:0:0:
281,305,194947,1,0,0:0:0:0:
300,300,195014,1,0,0:0:0:0:
316,288,195080,1,0,0:0:0:0:
325,271,195147,1,0,0:0:0:0:
326,251,195214,1,0,0:0:0:0:
319,233,195280,1,0,0:0:0:0:
305,219,195347,1,0,0:0:0:0:
286,213,195414,1,0,0:0:0:0:
266,215,195480,1,0,0:0:0:0:
249,225,195547,1,0,0:0:0:0:
238,241,195614,1,0,0:0:0:0:
236,261,195681,2,0,L|246:296,5,19.9999993896485
155,349,196081,5,0,0:0:0:0:
137,358,196147,1,0,0:0:0:0:
117,362,196214,1,0,0:0:0:0:
98,360,196280,1,0,0:0:0:0:
79,352,196347,1,0,0:0:0:0:
64,340,196414,1,0,0:0:0:0:
61,320,196481,5,0,0:0:0:0:
69,301,196547,1,0,0:0:0:0:
72,282,196614,1,0,0:0:0:0:
71,262,196680,1,0,0:0:0:0:
66,243,196747,1,0,0:0:0:0:
56,225,196814,1,0,0:0:0:0:
41,211,196881,6,0,L|11:191,1,19.9999993896485
44,73,197014,2,0,L|51:106,1,19.9999993896485
44,73,197147,2,0,L|51:106,1,19.9999993896485
148,205,197281,5,0,0:0:0:0:
163,217,197347,1,0,0:0:0:0:
181,225,197414,1,0,0:0:0:0:
201,229,197480,1,0,0:0:0:0:
221,229,197547,1,0,0:0:0:0:
240,223,197614,1,0,0:0:0:0:
257,214,197680,1,0,0:0:0:0:
272,200,197747,1,0,0:0:0:0:
283,184,197814,1,0,0:0:0:0:
292,166,197881,1,0,0:0:0:0:
303,150,197947,1,0,0:0:0:0:
319,137,198014,1,0,0:0:0:0:
338,131,198080,5,0,0:0:0:0:
358,129,198147,1,0,0:0:0:0:
377,134,198214,1,0,0:0:0:0:
395,143,198280,1,0,0:0:0:0:
408,158,198347,1,0,0:0:0:0:
417,175,198414,1,0,0:0:0:0:
419,196,198481,2,0,L|415:228,17,19.9999993896485
434,323,199681,5,0,0:0:0:0:
401,317,199747,1,0,0:0:0:0:
368,312,199814,1,0,0:0:0:0:
335,306,199880,1,0,0:0:0:0:
302,301,199947,1,0,0:0:0:0:
269,295,200014,1,0,0:0:0:0:
244,315,200081,5,0,0:0:0:0:
217,318,200147,1,0,0:0:0:0:
191,321,200214,1,0,0:0:0:0:
164,324,200280,1,0,0:0:0:0:
138,327,200347,1,0,0:0:0:0:
111,331,200414,1,0,0:0:0:0:
83,319,200481,5,0,0:0:0:0:
85,299,200547,1,0,0:0:0:0:
101,289,200614,1,0,0:0:0:0:
118,297,200680,1,0,0:0:0:0:
123,316,200747,1,0,0:0:0:0:
110,330,200814,1,0,0:0:0:0:
92,325,200881,5,0,0:0:0:0:
85,299,200947,1,0,0:0:0:0:
78,273,201014,1,0,0:0:0:0:
71,247,201080,1,0,0:0:0:0:
64,222,201147,1,0,0:0:0:0:
57,196,201214,1,0,0:0:0:0:
75,170,201281,5,0,0:0:0:0:
96,178,201347,1,0,0:0:0:0:
118,186,201414,1,0,0:0:0:0:
139,195,201480,1,0,0:0:0:0:
161,203,201547,1,0,0:0:0:0:
184,211,201614,1,0,0:0:0:0:
212,194,201681,5,0,0:0:0:0:
251,188,201747,1,0,0:0:0:0:
291,182,201814,1,0,0:0:0:0:
330,176,201880,1,0,0:0:0:0:
370,170,201947,1,0,0:0:0:0:
409,165,202014,1,0,0:0:0:0:
448,187,202081,5,0,0:0:0:0:
256,192,202181,12,0,206881,0:0:0:0:
153,66,211681,6,0,B|76:149|132:242|178:198|206:271|178:354|106:390|20:318|56:256|56:256|62:283|91:304,1,479.999985351563
171,201,213681,5,0,0:0:0:0:
335,272,213881,1,0,0:0:0:0:
69,258,214081,6,0,B|37:203|57:147|57:147|113:110|93:32,1,239.999992675781
142,197,215281,2,0,B|151:205|151:205|236:181,1,89.9999972534181
241,160,215681,5,0,0:0:0:0:
172,65,215881,1,0,0:0:0:0:
147,236,216081,5,0,0:0:0:0:
254,283,216281,1,0,0:0:0:0:
269,84,216481,6,0,P|244:45|229:145,1,239.999992675781
314,213,217681,2,0,B|348:226|378:211|359:189|398:176|442:193,1,119.999996337891
352,341,218481,5,0,0:0:0:0:
328,114,218681,1,0,0:0:0:0:
237,307,218881,6,0,B|184:327|124:286|124:286|151:246|145:193|145:193|129:185|129:185|121:129|149:92,1,329.9999899292
179,82,220081,1,0,0:0:0:0:
353,151,220481,5,0,0:0:0:0:
402,272,220681,1,0,0:0:0:0:
226,148,220881,5,0,0:0:0:0:
177,269,221081,1,0,0:0:0:0:
351,100,221281,6,0,B|295:62|226:90|266:111|203:132|148:104|148:104|214:140|224:229|158:266|95:254|77:195,1,479.999985351563
197,40,223281,5,0,0:0:0:0:
326,244,223481,1,0,0:0:0:0:
94,222,223681,6,0,P|59:266|186:300,1,239.999992675781
168,155,224881,2,0,P|128:131|63:136,1,89.9999972534181
61,153,225281,5,0,0:0:0:0:
172,246,225481,1,0,0:0:0:0:
311,144,225681,5,0,0:0:0:0:
173,166,225881,1,0,0:0:0:0:
220,320,226081,2,0,B|238:378|238:378|371:59|371:59|306:95,1,479.999985351563
126,179,228081,5,0,0:0:0:0:
287,359,228281,1,0,0:0:0:0:
335,179,228481,2,0,B|370:128|370:128|354:68|354:68|321:119|321:119|335:179,1,239.999992675781
265,294,229481,5,0,0:0:0:0:
167,247,229681,1,0,0:0:0:0:
250,180,229881,1,0,0:0:0:0:
124,264,230081,5,0,0:0:0:0:
41,197,230281,1,0,0:0:0:0:
159,32,230481,5,0,0:0:0:0:
142,136,230681,1,0,0:0:0:0:
35,70,230881,6,0,B|109:10|234:31|300:99|300:99|306:202|202:256,1,479.999985351563
105,186,232881,5,0,0:0:0:0:
310,48,233081,1,0,0:0:0:0:
384,315,233281,6,0,B|334:343|261:316|311:278|231:222|149:277,1,239.999992675781
112,349,234481,2,0,P|167:360|223:340,1,89.9999972534181
223,321,234881,5,0,0:0:0:0:
136,231,235081,1,0,0:0:0:0:
303,350,235281,5,0,0:0:0:0:
390,260,235481,1,0,0:0:0:0:
214,213,235681,2,0,B|231:214|249:206|249:206|211:244|160:244|105:200|120:125|194:89|303:77|374:157|390:262,1,479.999985351563
201,195,237681,5,0,0:0:0:0:
92,360,237881,1,0,0:0:0:0:
75,138,238081,6,0,B|105:96|60:64|51:24|51:24|29:92|73:141,1,239.999992675781
129,254,239281,2,0,P|176:262|232:231,1,89.9999972534181
227,225,239681,5,0,0:0:0:0:
194,100,239881,1,0,0:0:0:0:
338,0,240081,5,0,0:0:0:0:
305,125,240281,1,0,0:0:0:0:
208,25,240481,6,0,B|132:20|132:20|29:121|29:121|33:203|33:203|114:224|114:224|183:159,1,479.999985351563
226,42,242481,5,0,0:0:0:0:
338,284,242681,1,0,0:0:0:0:
76,259,242881,6,0,B|98:203|168:201|168:201|210:159|169:78,1,239.999992675781
155,281,244081,2,0,B|179:303|179:303|288:288,1,119.999996337891
347,182,244881,5,0,0:0:0:0:
131,105,245081,1,0,0:0:0:0:
158,279,245281,6,0,B|133:349|133:349|123:316,1,89.9999972534181
137,160,245681,2,0,B|88:103|88:103|122:111,1,89.9999972534181
233,207,246081,2,0,B|306:193|306:193|282:218,1,89.9999972534181
115,273,246481,6,0,B|83:223|99:163|145:192|176:114|153:45|80:23|23:56|21:119,1,329.9999899292
27,128,247681,2,0,B|24:142|24:142|40:173|40:173|40:138|40:138|27:128,1,89.9999972534181
162,32,248081,2,0,P|204:31|191:76,1,89.9999972534181
182,83,248481,5,0,0:0:0:0:
140,210,248681,1,0,0:0:0:0:
121,26,248881,5,0,0:0:0:0:
55,83,249081,1,0,0:0:0:0:
239,236,249281,5,0,0:0:0:0:
258,144,249481,1,0,0:0:0:0:
49,241,249681,5,0,0:0:0:0:
109,314,249881,1,0,0:0:0:0:
256,192,250081,5,0,0:0:0:0:
256,192,250281,1,0,0:0:0:0:
89,216,250481,5,0,0:0:0:0:
89,216,250681,1,0,0:0:0:0:
185,359,250881,5,0,0:0:0:0:
185,359,251081,1,0,0:0:0:0:
202,191,251281,6,0,B|147:224|147:224|135:281,1,119.999996337891
185,359,251678,2,0,B|241:390|241:390|296:372,1,119.999996337891
342,297,252075,2,0,B|340:232|340:232|297:193,1,119.999996337891
148,271,252473,5,0,0:0:0:0:
148,271,252673,1,0,0:0:0:0:
68,126,252873,5,0,0:0:0:0:
68,126,253073,1,0,0:0:0:0:
218,48,253273,5,0,0:0:0:0:
176,235,253473,1,0,0:0:0:0:
55,117,253673,2,0,B|77:95|77:95|180:107,1,119.999996337891
202,269,254073,5,0,0:0:0:0:
202,269,254273,1,0,0:0:0:0:
352,193,254473,5,0,0:0:0:0:
352,193,254673,1,0,0:0:0:0:
335,360,254873,5,0,0:0:0:0:
335,360,255073,1,0,0:0:0:0:
245,223,255273,5,0,0:0:0:0:
245,223,255473,1,0,0:0:0:0:
343,87,255673,5,0,0:0:0:0:
343,87,255873,1,0,0:0:0:0:
470,196,256073,6,0,B|479:227|478:256|478:256|450:291|406:298,1,119.999996337891
322,305,256473,2,0,B|290:297|266:281|266:281|249:240|265:198,1,119.999996337891
303,131,256873,2,0,B|325:107|350:94|350:94|395:100|423:135,1,119.999996337891
442,280,257273,5,0,0:0:0:0:
442,280,257473,1,0,0:0:0:0:
293,359,257673,5,0,0:0:0:0:
293,359,257873,1,0,0:0:0:0:
253,195,258073,5,0,0:0:0:0:
134,346,258273,1,0,0:0:0:0:
291,286,258473,2,0,P|309:263|250:245,1,119.999996337891
361,378,258862,5,0,0:0:0:0:
361,378,259057,1,0,0:0:0:0:
452,238,259252,5,0,0:0:0:0:
452,238,259447,1,0,0:0:0:0:
286,268,259657,5,0,0:0:0:0:
286,268,259859,1,0,0:0:0:0:
331,106,260062,5,0,0:0:0:0:
331,106,260265,1,0,0:0:0:0:
451,230,260467,5,0,0:0:0:0:
451,230,260670,1,0,0:0:0:0:
292,292,260873,6,0,B|229:230|229:230|271:242,1,119.999996337891
274,136,261273,2,0,B|359:112|359:112|327:142,1,119.999996337891
408,195,261673,2,0,B|385:280|385:280|375:238,1,119.999996337891
215,203,262073,5,0,0:0:0:0:
215,203,262273,1,0,0:0:0:0:
112,336,262473,5,0,0:0:0:0:
112,336,262673,1,0,0:0:0:0:
46,181,262873,5,0,0:0:0:0:
203,290,263073,1,0,0:0:0:0:
45,349,263273,2,0,B|22:337|22:337|25:275|68:244,1,119.999996337891
217,318,263673,5,0,0:0:0:0:
217,318,263873,1,0,0:0:0:0:
343,206,264073,5,0,0:0:0:0:
343,206,264273,1,0,0:0:0:0:
217,94,264473,6,0,P|184:131|180:207,1,119.999996337891
242,276,264873,2,0,P|290:286|358:251,1,119.999996337891
369,168,265273,5,0,0:0:0:0:
369,168,265473,1,0,0:0:0:0:
165,117,265673,6,0,L|193:243,1,119.999996337891
349,180,266073,2,0,L|321:306,1,119.999996337891
211,244,266473,5,0,0:0:0:0:
211,244,266673,1,0,0:0:0:0:
277,371,266873,6,0,B|214:372|214:372|166:342,1,119.999996337891
136,247,267273,2,0,B|166:191|166:191|216:165,1,119.999996337891
328,202,267673,5,0,0:0:0:0:
328,202,267873,1,0,0:0:0:0:
411,284,268073,6,0,B|443:297|434:340|434:340|430:323|407:309|411:284,1,119.999996337891
243,233,268473,2,0,B|215:254|183:224|183:224|199:229|223:217|243:233,1,119.999996337891
383,143,268873,2,0,B|378:108|419:95|419:95|407:107|406:133|383:143,1,119.999996337891
397,275,269273,5,0,0:0:0:0:
385,285,269473,1,0,0:0:0:0:
362,294,269673,1,0,0:0:0:0:
335,291,269873,1,0,0:0:0:0:
307,264,270073,1,0,0:0:0:0:
310,225,270273,1,0,0:0:0:0:
341,48,270473,5,0,0:0:0:0:
376,52,270673,1,0,0:0:0:0:
406,68,270873,1,0,0:0:0:0:
424,98,271073,1,0,0:0:0:0:
429,142,271273,1,0,0:0:0:0:
408,181,271473,1,0,0:0:0:0:
158,147,271673,5,0,0:0:0:0:
167,127,271873,1,0,0:0:0:0:
190,111,272073,1,0,0:0:0:0:
226,108,272273,1,0,0:0:0:0:
260,126,272473,1,0,0:0:0:0:
278,172,272673,1,0,0:0:0:0:
147,284,272873,6,0,B|115:297|124:340|124:340|128:323|151:309|147:284,1,119.999996337891
315,233,273273,2,0,B|342:254|374:224|374:224|358:229|334:217|315:233,1,119.999996337891
175,143,273673,2,0,B|179:108|138:95|138:95|150:107|151:133|175:143,1,119.999996337891
162,282,274073,5,0,0:0:0:0:
174,294,274273,1,0,0:0:0:0:
195,301,274473,1,0,0:0:0:0:
240,298,274673,1,0,0:0:0:0:
268,275,274873,1,0,0:0:0:0:
273,229,275073,1,0,0:0:0:0:
135,74,275273,5,0,0:0:0:0:
112,90,275473,1,0,0:0:0:0:
97,115,275673,1,0,0:0:0:0:
97,147,275873,1,0,0:0:0:0:
111,192,276073,1,0,0:0:0:0:
141,217,276273,1,0,0:0:0:0:
289,114,276473,5,0,0:0:0:0:
307,97,276673,1,0,0:0:0:0:
317,69,276873,1,0,0:0:0:0:
310,36,277073,1,0,0:0:0:0:
276,22,277273,1,0,0:0:0:0:
230,22,277473,1,0,0:0:0:0:
113,143,277673,6,0,B|86:201|86:201|153:166,1,119.999996337891
252,197,278073,2,0,B|315:190|315:190|252:150,1,119.999996337891
217,57,278473,2,0,B|179:5|179:5|176:80,1,119.999996337891
256,207,278873,5,0,0:0:0:0:
277,213,279073,1,0,0:0:0:0:
322,209,279273,1,0,0:0:0:0:
352,192,279473,1,0,0:0:0:0:
379,155,279673,1,0,0:0:0:0:
387,107,279873,1,0,0:0:0:0:
137,153,280073,5,0,0:0:0:0:
121,182,280273,1,0,0:0:0:0:
119,213,280473,1,0,0:0:0:0:
130,245,280673,1,0,0:0:0:0:
163,276,280873,1,0,0:0:0:0:
214,286,281073,1,0,0:0:0:0:
251,101,281273,5,0,0:0:0:0:
237,87,281473,1,0,0:0:0:0:
201,73,281673,1,0,0:0:0:0:
156,79,281873,1,0,0:0:0:0:
117,106,282073,1,0,0:0:0:0:
100,150,282273,1,0,0:0:0:0:
321,145,282473,6,0,L|356:274,1,119.999996337891
182,183,282873,2,0,L|147:312,1,119.999996337891
308,188,283273,2,0,L|273:59,1,119.999996337891
141,153,283673,5,0,0:0:0:0:
115,237,283873,1,0,0:0:0:0:
397,237,284073,5,0,0:0:0:0:
371,153,284273,1,0,0:0:0:0:
169,92,284473,5,0,0:0:0:0:
85,118,284673,1,0,0:0:0:0:
279,179,284873,5,0,0:0:0:0:
363,153,285073,1,0,0:0:0:0:
172,184,285273,5,0,0:0:0:0:
146,268,285473,1,0,0:0:0:0:
326,383,285673,5,0,0:0:0:0:
300,299,285873,1,0,0:0:0:0:
140,275,286073,6,0,B|105:279|94:314|94:314|107:303|135:303|141:275,1,119.999996337891
264,283,286473,2,0,B|285:310|320:302|320:302|304:296|290:272|264:281,1,119.999996337891
201,179,286873,2,0,B|214:146|189:120|189:120|192:136|178:160|199:179,1,119.999996337891
194,316,287273,5,0,0:0:0:0:
306,350,287473,1,0,0:0:0:0:
204,85,287673,5,0,0:0:0:0:
92,119,287873,1,0,0:0:0:0:
299,323,288073,5,0,0:0:0:0:
403,268,288273,1,0,0:0:0:0:
99,152,288473,6,0,L|63:283,1,119.999996337891
220,327,288873,5,0,0:0:0:0:
220,327,289073,1,0,0:0:0:0:
102,244,289273,5,0,0:0:0:0:
102,244,289473,1,0,0:0:0:0:
176,118,289673,2,0,B|210:103|240:117|230:139|271:149|316:132,1,119.999996337891
345,8,290073,5,0,0:0:0:0:
345,8,290273,1,0,0:0:0:0:
212,56,290473,5,0,0:0:0:0:
212,56,290673,1,0,0:0:0:0:
325,140,290873,6,0,P|328:204|286:243,1,119.999996337891
174,263,291273,2,0,P|117:233|104:177,1,119.999996337891
143,74,291673,2,0,P|196:39|251:56,1,119.999996337891
315,185,292073,5,0,0:0:0:0:
315,185,292273,1,0,0:0:0:0:
194,261,292473,5,0,0:0:0:0:
171,118,292673,1,0,0:0:0:0:
247,159,292873,5,0,0:0:0:0:
102,244,293073,1,0,0:0:0:0:
120,75,293273,2,0,B|124:44|124:44|147:136,1,119.999996337891
48,237,293673,5,0,0:0:0:0:
48,237,293873,1,0,0:0:0:0:
168,325,294073,5,0,0:0:0:0:
168,325,294273,1,0,0:0:0:0:
253,209,294473,2,0,B|221:186|221:186|125:208,1,119.999996337891
183,346,294873,5,0,0:0:0:0:
183,346,295073,1,0,0:0:0:0:
271,233,295273,5,0,0:0:0:0:
271,233,295473,1,0,0:0:0:0:
154,148,295673,6,0,B|176:85|176:85|262:68,1,119.999996337891
333,102,296073,2,0,B|376:152|376:152|348:235,1,119.999996337891
277,268,296473,2,0,B|211:280|211:280|153:214,1,119.999996337891
220,102,296873,5,0,0:0:0:0:
220,102,297073,1,0,0:0:0:0:
306,217,297273,5,0,0:0:0:0:
351,64,297473,1,0,0:0:0:0:
410,200,297673,5,0,0:0:0:0:
410,200,297873,1,0,0:0:0:0:
270,165,298073,2,0,P|274:98|347:61,1,119.999996337891
448,125,298473,5,0,0:0:0:0:
448,125,298673,1,0,0:0:0:0:
327,202,298873,5,0,0:0:0:0:
327,202,299073,1,0,0:0:0:0:
423,309,299273,2,0,B|430:328|430:328|377:317|316:342,1,119.999996337891
203,280,299673,5,0,0:0:0:0:
203,280,299873,1,0,0:0:0:0:
311,184,300073,5,0,0:0:0:0:
311,184,300273,1,0,0:0:0:0:
180,123,300473,6,0,B|183:94|209:70|209:70|251:64|291:77,1,119.999996337891
364,121,300873,2,0,B|387:138|395:172|395:172|379:211|348:240,1,119.999996337891
265,264,301273,2,0,B|238:275|204:265|204:265|178:232|169:190,1,119.999996337891
233,81,301673,5,0,0:0:0:0:
233,81,301873,1,0,0:0:0:0:
338,179,302073,5,0,0:0:0:0:
214,252,302273,1,0,0:0:0:0:
182,180,302473,5,0,0:0:0:0:
329,259,302673,1,0,0:0:0:0:
180,336,302873,2,0,B|163:314|163:314|179:221,1,119.999996337891
318,176,303273,5,0,0:0:0:0:
318,176,303473,1,0,0:0:0:0:
199,102,303673,5,0,0:0:0:0:
199,102,303873,1,0,0:0:0:0:
87,193,304073,2,0,B|71:223|71:223|184:202,1,119.999996337891
283,137,304473,5,0,0:0:0:0:
283,137,304673,1,0,0:0:0:0:
288,284,304873,5,0,0:0:0:0:
288,284,305073,1,0,0:0:0:0:
156,225,305273,5,0,0:0:0:0:
156,225,305473,1,0,0:0:0:0:
278,149,305673,5,0,0:0:0:0:
278,149,305873,1,0,0:0:0:0:
271,292,306073,5,0,0:0:0:0:
271,292,306273,1,0,0:0:0:0:
137,160,306473,5,0,0:0:0:0:
255,124,306673,1,0,0:0:0:0:
148,324,306873,5,0,0:0:0:0:
30,288,307073,1,0,0:0:0:0:
214,250,307273,5,0,0:0:0:0:
332,286,307473,1,0,0:0:0:0:
471,238,307673,6,0,B|386:201|386:201|379:174|379:174|317:198|209:161|120:120|45:66|45:66|65:101|65:101|313:223|313:223|341:237|350:259|350:259|363:235|363:235|399:223|430:239|443:268,1,960
