osu file format v14

[General]
AudioFilename: audio.ogg
AudioLeadIn: 0
PreviewTime: 59332
Countdown: 0
SampleSet: Normal
StackLeniency: 0.7
Mode: 1
LetterboxInBreaks: 0
WidescreenStoryboard: 1

[Editor]
DistanceSpacing: 4.3
BeatDivisor: 4
GridSize: 32
TimelineZoom: 2.680001

[Metadata]
Title:A Wandering Melody of Love
TitleUnicode:迷える音色は恋の唄
Artist:KaratoPanchiiShounen feat. Haruno
ArtistUnicode:からとPαnchii少年 feat. はるの
Creator:KyeX
Version:Oni
Source:Arcaea
Tags:japanese rock jrock j-rock electronic video game Mayoeru neiro wa koi no uta Kanae side story sunset radiance オンゲキ ongeki plus red o.n.g.e.k.i. r.e.d.
BeatmapID:3576719
BeatmapSetID:1748598

[Difficulty]
HPDrainRate:5
CircleSize:3
OverallDifficulty:6
ApproachRate:10
SliderMultiplier:1.4
SliderTickRate:1

[Events]
//Background and Video events
0,0,"bg.jpg",0,70
//Break Periods
2,104652,105704
//Storyboard Layer 0 (Background)
//Storyboard Layer 1 (Fail)
//Storyboard Layer 2 (Pass)
//Storyboard Layer 3 (Foreground)
//Storyboard Layer 4 (Overlay)
//Storyboard Sound Samples

[TimingPoints]
1427,363.636363636364,4,1,0,90,1,0
1427,-90.909090909091,4,1,0,90,0,1
7245,-90.909090909091,4,1,0,90,0,0
7608,-95.238095238095,4,1,0,90,0,0
7790,-97.560975609756,4,1,0,90,0,0
7972,-100,4,1,0,90,0,0
8699,-99.009900990099,4,1,0,90,0,0
8881,-98.039215686275,4,1,0,90,0,0
9063,-97.087378640777,4,1,0,90,0,0
9245,-96.153846153846,4,1,0,90,0,0
9427,-95.238095238095,4,1,0,90,0,0
9517,-94.679950511168,4,1,0,90,0,0
9608,-94.122216468151,4,1,0,90,0,0
9790,-93.026231605886,4,1,0,90,0,0
9881,-92.487755231855,4,1,0,90,0,0
9972,-91.955476853023,4,1,0,90,0,0
10154,-90.909090909091,4,1,0,90,0,1
11608,-88.888888888889,4,1,0,90,0,1
11790,-86.95652173913,4,1,0,90,0,1
11972,-85.106382978723,4,1,0,90,0,1
12336,-100,4,1,0,90,0,1
12427,-98.763754924603,4,1,0,90,0,1
12517,-97.570795866327,4,1,0,90,0,1
12608,-96.393529567754,4,1,0,90,0,1
12699,-95.244333813704,4,1,0,90,0,1
12881,-93.026231605886,4,1,0,90,0,1
13063,-90.909090909091,4,1,0,90,0,0
23245,-88.888888888889,4,1,0,90,0,0
23427,-86.95652173913,4,1,0,90,0,0
23608,-85.106382978723,4,1,0,90,0,0
23972,-83.333333333333,4,1,0,90,0,0
24699,-100,4,1,0,85,0,0
35336,-99.172802472502,4,1,0,85,0,0
35427,-98.359177785792,4,1,0,85,0,0
35517,-97.56751922733,4,1,0,85,0,0
35608,-96.779916614921,4,1,0,85,0,0
35790,-95.242252291576,4,1,0,85,0,0
35881,-94.491598822103,4,1,0,85,0,0
35972,-93.752685400017,4,1,0,85,0,0
36154,-92.308993992724,4,1,0,85,0,0
36336,-90.909090909091,4,1,0,90,0,0
46699,-89.886946314944,4,1,0,90,0,0
46790,-89.384445263546,4,1,0,90,0,0
46881,-88.887531309182,4,1,0,90,0,0
47063,-87.910096066703,4,1,0,90,0,0
47245,-86.953923384928,4,1,0,90,0,0
47336,-86.483594864479,4,1,0,90,0,0
47427,-86.018326928761,4,1,0,90,0,0
47517,-85.563069685387,4,1,0,90,0,0
47608,-85.107627515208,4,1,0,90,0,0
47790,-84.211135548096,4,1,0,90,0,0
47972,-80,4,1,0,90,0,0
48063,-125,4,1,0,60,0,0
52336,-125,4,1,0,65,0,0
52517,-121.22728030682,4,1,0,65,0,0
52699,-117.656578734423,4,1,0,65,0,0
52881,-114.290205942462,4,1,0,70,0,0
52972,-112.678239305642,4,1,0,70,0,0
53063,-111.111111111111,4,1,0,70,0,0
53245,-108.104089219331,4,1,0,70,0,0
53427,-105.255537860142,4,1,0,70,0,0
53608,-102.567720090293,4,1,0,70,0,0
53790,-100,4,1,0,85,0,0
56517,-98.047675547406,4,1,0,90,0,0
56699,-96.159949222469,4,1,0,90,0,0
56790,-95.24308466052,4,1,0,90,0,0
56881,-94.343539180073,4,1,0,90,0,0
56972,-93.460826650216,4,1,0,90,0,0
57063,-92.594478965061,4,1,0,90,0,0
57154,-91.744045215987,4,1,0,90,0,0
57245,-90.909090909091,4,1,0,90,0,0
57427,-89.28396031824,4,1,0,90,0,0
57608,-87.724377533295,4,1,0,90,0,0
57699,-86.960681144169,4,1,0,90,0,0
57790,-86.210166919575,4,1,0,90,0,0
57972,-84.74734290509,4,1,0,90,0,0
58154,-81.632653061225,4,1,0,90,0,0
58427,-80,4,1,0,90,0,0
58699,-78.43137254902,4,1,0,90,0,0
59608,-90.909090909091,4,1,0,90,0,1
69790,-88.888888888889,4,1,0,90,0,1
69972,-86.95652173913,4,1,0,90,0,1
70154,-85.106382978723,4,1,0,90,0,1
70517,-100,4,1,0,90,0,1
70608,-98.763754924603,4,1,0,90,0,1
70698,-97.570795866327,4,1,0,90,0,1
70789,-96.393529567754,4,1,0,90,0,1
70880,-95.244333813704,4,1,0,90,0,1
71245,-83.333333333333,4,1,0,90,0,1
77063,-83.333333333333,4,1,0,90,0,0
77427,-90.909090909091,4,1,0,90,0,0
77608,-95.238095238095,4,1,0,90,0,0
77790,-100,4,1,0,90,0,0
78517,-99.009900990099,4,1,0,90,0,0
78699,-98.039215686275,4,1,0,90,0,0
78881,-97.087378640777,4,1,0,90,0,0
79063,-96.153846153846,4,1,0,90,0,0
79245,-95.238095238095,4,1,0,90,0,0
79335,-94.679950511168,4,1,0,90,0,0
79426,-94.122216468151,4,1,0,90,0,0
79608,-93.026231605886,4,1,0,90,0,0
79972,-90.909090909091,4,1,0,90,0,1
81427,-88.888888888889,4,1,0,90,0,1
81608,-86.95652173913,4,1,0,90,0,1
81790,-85.106382978723,4,1,0,90,0,1
82154,-100,4,1,0,90,0,1
82336,-97.557702630166,4,1,0,90,0,1
82517,-95.244333813704,4,1,0,90,0,1
82608,-94.122216468151,4,1,0,90,0,1
82699,-93.026231605886,4,1,0,90,0,1
82881,-90.909090909091,4,1,0,90,0,0
93063,-88.8888888888889,4,1,0,90,0,0
93245,-86.9565217391304,4,1,0,90,0,0
93427,-85.1063829787234,4,1,0,90,0,0
93790,-83.3333333333333,4,1,0,90,0,0
94517,-125,4,1,0,50,0,0
106154,-100,4,1,0,10,0,0
106177,-100,4,1,0,12,0,0
106199,-100,4,1,0,13,0,0
106222,-100,4,1,0,15,0,0
106245,-100,4,1,0,17,0,0
106267,-100,4,1,0,18,0,0
106290,-100,4,1,0,20,0,0
106313,-100,4,1,0,22,0,0
106336,-100,4,1,0,23,0,0
106358,-100,4,1,0,25,0,0
106381,-100,4,1,0,27,0,0
106404,-100,4,1,0,28,0,0
106427,-100,4,1,0,30,0,0
106449,-100,4,1,0,32,0,0
106472,-100,4,1,0,33,0,0
106495,-100,4,1,0,35,0,0
106517,-100,4,1,0,37,0,0
106540,-100,4,1,0,38,0,0
106563,-100,4,1,0,40,0,0
106586,-100,4,1,0,42,0,0
106608,-100,4,1,0,43,0,0
106631,-100,4,1,0,45,0,0
106654,-100,4,1,0,47,0,0
106677,-100,4,1,0,48,0,0
106699,-100,4,1,0,50,0,0
106722,-100,4,1,0,52,0,0
106745,-100,4,1,0,53,0,0
106767,-100,4,1,0,55,0,0
106790,-100,4,1,0,57,0,0
106813,-100,4,1,0,58,0,0
106836,-100,4,1,0,60,0,0
106858,-100,4,1,0,62,0,0
106881,-100,4,1,0,63,0,0
106904,-100,4,1,0,65,0,0
106927,-100,4,1,0,67,0,0
106949,-100,4,1,0,68,0,0
106972,-100,4,1,0,70,0,0
106995,-100,4,1,0,72,0,0
107017,-100,4,1,0,73,0,0
107040,-100,4,1,0,75,0,0
107063,-100,4,1,0,77,0,0
107086,-100,4,1,0,78,0,0
107108,-100,4,1,0,80,0,0
107131,-100,4,1,0,82,0,0
107154,-100,4,1,0,83,0,0
107177,-100,4,1,0,85,0,0
107199,-100,4,1,0,87,0,0
107222,-100,4,1,0,88,0,0
107245,-100,4,1,0,90,0,0
107608,-90.9090909090909,4,1,0,90,0,1
113427,-90.9090909090909,4,1,0,90,0,0
113790,-95.238095238095,4,1,0,90,0,0
113972,-97.560975609756,4,1,0,90,0,0
114154,-100,4,1,0,90,0,0
114881,-99.009900990099,4,1,0,90,0,0
115063,-98.039215686275,4,1,0,90,0,0
115245,-97.087378640777,4,1,0,90,0,0
115427,-96.153846153846,4,1,0,90,0,0
115608,-95.238095238095,4,1,0,90,0,0
115699,-94.679950511168,4,1,0,90,0,0
115790,-94.122216468151,4,1,0,90,0,0
115972,-93.026231605886,4,1,0,90,0,0
116063,-92.487755231855,4,1,0,90,0,0
116154,-91.955476853023,4,1,0,90,0,0
116336,-90.9090909090909,4,1,0,90,0,1
117790,-90.9090909090909,4,1,0,90,0,0
129427,-88.8888888888889,4,1,0,90,0,0
129608,-86.9565217391304,4,1,0,90,0,0
129790,-85.1063829787234,4,1,0,90,0,0
130154,-83.3333333333333,4,1,0,90,0,0
130517,-100,4,1,0,90,0,0

[HitObjects]
256,192,1427,5,12,0:0:0:0:
256,192,1608,1,0,0:0:0:0:
256,192,1699,1,8,0:0:0:0:
256,192,1881,1,0,0:0:0:0:
256,192,1972,1,8,0:0:0:0:
256,192,2063,1,8,0:0:0:0:
256,192,2154,1,0,0:0:0:0:
256,192,2336,1,8,0:0:0:0:
256,192,2517,1,0,0:0:0:0:
256,192,2699,1,0,0:0:0:0:
256,192,2790,1,0,0:0:0:0:
256,192,2881,1,8,0:0:0:0:
256,192,3063,1,0,0:0:0:0:
256,192,3245,1,8,0:0:0:0:
256,192,3336,1,0,0:0:0:0:
256,192,3427,1,8,0:0:0:0:
256,192,3517,1,8,0:0:0:0:
256,192,3608,1,0,0:0:0:0:
256,192,3790,1,8,0:0:0:0:
256,192,3881,1,8,0:0:0:0:
256,192,3972,1,0,0:0:0:0:
256,192,4154,1,8,0:0:0:0:
256,192,4336,1,4,0:0:0:0:
256,192,4517,1,8,0:0:0:0:
256,192,4608,1,0,0:0:0:0:
256,192,4790,1,0,0:0:0:0:
256,192,4881,1,8,0:0:0:0:
256,192,5063,1,0,0:0:0:0:
256,192,5245,1,8,0:0:0:0:
256,192,5336,1,0,0:0:0:0:
256,192,5427,1,8,0:0:0:0:
256,192,5608,1,0,0:0:0:0:
256,192,5790,1,8,0:0:0:0:
256,192,5972,1,8,0:0:0:0:
256,192,6063,1,0,0:0:0:0:
256,192,6245,1,0,0:0:0:0:
256,192,6336,1,8,0:0:0:0:
256,192,6427,1,8,0:0:0:0:
256,192,6517,1,0,0:0:0:0:
256,192,6699,1,12,0:0:0:0:
256,192,6881,1,8,0:0:0:0:
256,192,7063,1,8,0:0:0:0:
256,192,7245,1,4,0:0:0:0:
256,192,7608,1,8,0:0:0:0:
256,192,7790,1,8,0:0:0:0:
256,192,7972,1,4,0:0:0:0:
256,192,8336,1,8,0:0:0:0:
256,192,8517,1,8,0:0:0:0:
256,192,8699,1,4,0:0:0:0:
256,192,8881,1,4,0:0:0:0:
256,192,9063,1,12,0:0:0:0:
256,192,9245,1,12,0:0:0:0:
256,192,9427,1,8,0:0:0:0:
256,192,9517,1,0,0:0:0:0:
256,192,9608,1,0,0:0:0:0:
256,192,9790,1,8,0:0:0:0:
256,192,9881,1,0,0:0:0:0:
256,192,9972,1,0,0:0:0:0:
256,192,10154,1,12,0:0:0:0:
256,192,10336,1,0,0:0:0:0:
256,192,10517,1,8,0:0:0:0:
256,192,10699,1,8,0:0:0:0:
256,192,10790,1,8,0:0:0:0:
256,192,10881,1,0,0:0:0:0:
256,192,11063,1,0,0:0:0:0:
256,192,11245,1,8,0:0:0:0:
256,192,11336,1,0,0:0:0:0:
256,192,11427,1,8,0:0:0:0:
256,192,11608,1,12,0:0:0:0:
256,192,11790,1,12,0:0:0:0:
256,192,11972,1,12,0:0:0:0:
256,192,12336,1,8,0:0:0:0:
256,192,12427,1,8,0:0:0:0:
256,192,12517,1,0,0:0:0:0:
256,192,12608,1,0,0:0:0:0:
256,192,12699,1,8,0:0:0:0:
256,192,12881,1,8,0:0:0:0:
256,192,13063,1,4,0:0:0:0:
256,192,13245,1,8,0:0:0:0:
256,192,13427,1,0,0:0:0:0:
256,192,13517,1,8,0:0:0:0:
256,192,13608,1,0,0:0:0:0:
256,192,13699,1,0,0:0:0:0:
256,192,13790,1,8,0:0:0:0:
256,192,13972,1,0,0:0:0:0:
256,192,14063,1,0,0:0:0:0:
256,192,14154,1,8,0:0:0:0:
256,192,14336,1,8,0:0:0:0:
256,192,14517,1,0,0:0:0:0:
256,192,14608,1,0,0:0:0:0:
256,192,14699,1,8,0:0:0:0:
256,192,14790,1,8,0:0:0:0:
256,192,14881,1,0,0:0:0:0:
256,192,15063,1,8,0:0:0:0:
256,192,15245,1,0,0:0:0:0:
256,192,15336,1,8,0:0:0:0:
256,192,15427,1,0,0:0:0:0:
256,192,15608,1,8,0:0:0:0:
256,192,15790,1,0,0:0:0:0:
256,192,15881,1,0,0:0:0:0:
256,192,15972,1,8,0:0:0:0:
256,192,16336,1,8,0:0:0:0:
256,192,16517,1,8,0:0:0:0:
256,192,16608,1,8,0:0:0:0:
256,192,16699,1,0,0:0:0:0:
256,192,16881,1,0,0:0:0:0:
256,192,16972,1,0,0:0:0:0:
256,192,17063,1,8,0:0:0:0:
256,192,17245,1,0,0:0:0:0:
256,192,17427,1,8,0:0:0:0:
256,192,17517,1,8,0:0:0:0:
256,192,17608,1,0,0:0:0:0:
256,192,17699,1,0,0:0:0:0:
256,192,17790,1,8,0:0:0:0:
256,192,17972,1,8,0:0:0:0:
256,192,18154,1,0,0:0:0:0:
256,192,18245,1,8,0:0:0:0:
256,192,18336,1,0,0:0:0:0:
256,192,18427,1,0,0:0:0:0:
256,192,18517,1,8,0:0:0:0:
256,192,18699,1,0,0:0:0:0:
256,192,18881,1,12,0:0:0:0:
256,192,19245,1,8,0:0:0:0:
256,192,19336,1,8,0:0:0:0:
256,192,19427,1,0,0:0:0:0:
256,192,19608,1,8,0:0:0:0:
256,192,19790,1,0,0:0:0:0:
256,192,19881,1,8,0:0:0:0:
256,192,19972,1,0,0:0:0:0:
256,192,20154,1,8,0:0:0:0:
256,192,20336,1,0,0:0:0:0:
256,192,20457,1,0,0:0:0:0:
256,192,20578,1,8,0:0:0:0:
256,192,20699,1,8,0:0:0:0:
256,192,20820,1,0,0:0:0:0:
256,192,20942,1,0,0:0:0:0:
256,192,21063,1,8,0:0:0:0:
256,192,21427,1,8,0:0:0:0:
256,192,21608,1,0,0:0:0:0:
256,192,21790,1,8,0:0:0:0:
256,192,21881,1,0,0:0:0:0:
256,192,21972,1,8,0:0:0:0:
256,192,22063,1,8,0:0:0:0:
256,192,22154,1,0,0:0:0:0:
256,192,22336,1,0,0:0:0:0:
256,192,22517,1,8,0:0:0:0:
256,192,22608,1,8,0:0:0:0:
256,192,22699,1,0,0:0:0:0:
256,192,22790,1,0,0:0:0:0:
256,192,22881,1,8,0:0:0:0:
256,192,23063,1,0,0:0:0:0:
256,192,23245,1,12,0:0:0:0:
256,192,23427,1,4,0:0:0:0:
256,192,23608,1,12,0:0:0:0:
256,192,23972,1,4,0:0:0:0:
256,192,24699,1,12,0:0:0:0:
256,192,25063,1,8,0:0:0:0:
256,192,25245,1,0,0:0:0:0:
256,192,25336,1,0,0:0:0:0:
256,192,25427,1,8,0:0:0:0:
256,192,25608,1,0,0:0:0:0:
256,192,25790,1,8,0:0:0:0:
256,192,25972,1,8,0:0:0:0:
256,192,26154,1,0,0:0:0:0:
256,192,26336,1,0,0:0:0:0:
256,192,26517,1,8,0:0:0:0:
256,192,26608,1,0,0:0:0:0:
256,192,26699,1,8,0:0:0:0:
256,192,26790,1,8,0:0:0:0:
256,192,26881,1,0,0:0:0:0:
256,192,27245,1,8,0:0:0:0:
256,192,27427,1,8,0:0:0:0:
256,192,27517,1,8,0:0:0:0:
256,192,27608,1,0,0:0:0:0:
256,192,27790,1,0,0:0:0:0:
256,192,27972,1,8,0:0:0:0:
256,192,28154,1,0,0:0:0:0:
256,192,28245,1,0,0:0:0:0:
256,192,28336,1,8,0:0:0:0:
256,192,28517,1,0,0:0:0:0:
256,192,28699,1,8,0:0:0:0:
256,192,28881,1,8,0:0:0:0:
256,192,28972,1,0,0:0:0:0:
256,192,29063,1,8,0:0:0:0:
256,192,29245,1,0,0:0:0:0:
256,192,29427,1,8,0:0:0:0:
256,192,29517,1,8,0:0:0:0:
256,192,29608,1,0,0:0:0:0:
256,192,29699,1,0,0:0:0:0:
256,192,29790,1,8,0:0:0:0:
256,192,29972,1,0,0:0:0:0:
256,192,30154,1,8,0:0:0:0:
256,192,30517,1,12,0:0:0:0:
256,192,30699,1,0,0:0:0:0:
256,192,30881,1,8,0:0:0:0:
256,192,30972,1,8,0:0:0:0:
256,192,31063,1,0,0:0:0:0:
256,192,31245,1,8,0:0:0:0:
256,192,31427,1,0,0:0:0:0:
256,192,31608,1,8,0:0:0:0:
256,192,31699,1,8,0:0:0:0:
256,192,31790,1,8,0:0:0:0:
256,192,31972,1,8,0:0:0:0:
256,192,32154,1,0,0:0:0:0:
256,192,32245,1,0,0:0:0:0:
256,192,32336,1,8,0:0:0:0:
256,192,32517,1,0,0:0:0:0:
256,192,32699,1,8,0:0:0:0:
256,192,32881,1,8,0:0:0:0:
256,192,33063,1,0,0:0:0:0:
256,192,33427,1,8,0:0:0:0:
256,192,33517,1,0,0:0:0:0:
256,192,33608,1,8,0:0:0:0:
256,192,33790,1,8,0:0:0:0:
256,192,33972,1,0,0:0:0:0:
256,192,34063,1,0,0:0:0:0:
256,192,34154,1,8,0:0:0:0:
256,192,34336,1,8,0:0:0:0:
256,192,34517,1,0,0:0:0:0:
256,192,34608,1,8,0:0:0:0:
256,192,34699,1,0,0:0:0:0:
256,192,34881,1,8,0:0:0:0:
256,192,35063,1,0,0:0:0:0:
256,192,35245,1,8,0:0:0:0:
256,192,35336,1,8,0:0:0:0:
256,192,35427,1,0,0:0:0:0:
256,192,35517,1,8,0:0:0:0:
256,192,35608,1,0,0:0:0:0:
256,192,35790,1,8,0:0:0:0:
256,192,35881,1,0,0:0:0:0:
256,192,35972,1,8,0:0:0:0:
256,192,36154,1,0,0:0:0:0:
256,192,36336,1,12,0:0:0:0:
256,192,36699,1,8,0:0:0:0:
256,192,36790,1,8,0:0:0:0:
256,192,36881,1,0,0:0:0:0:
256,192,36972,1,0,0:0:0:0:
256,192,37063,1,8,0:0:0:0:
256,192,37245,1,0,0:0:0:0:
256,192,37427,1,8,0:0:0:0:
256,192,37608,1,0,0:0:0:0:
256,192,37699,1,0,0:0:0:0:
256,192,37790,1,8,0:0:0:0:
256,192,37972,1,8,0:0:0:0:
256,192,38063,1,8,0:0:0:0:
256,192,38154,1,0,0:0:0:0:
256,192,38336,1,0,0:0:0:0:
256,192,38517,1,8,0:0:0:0:
256,192,38881,1,8,0:0:0:0:
256,192,39063,1,8,0:0:0:0:
256,192,39154,1,8,0:0:0:0:
256,192,39245,1,0,0:0:0:0:
256,192,39427,1,0,0:0:0:0:
256,192,39608,1,8,0:0:0:0:
256,192,39699,1,8,0:0:0:0:
256,192,39790,1,8,0:0:0:0:
256,192,39881,1,8,0:0:0:0:
256,192,39972,1,0,0:0:0:0:
256,192,40154,1,0,0:0:0:0:
256,192,40336,1,8,0:0:0:0:
256,192,40517,1,0,0:0:0:0:
256,192,40608,1,0,0:0:0:0:
256,192,40699,1,8,0:0:0:0:
256,192,40881,1,8,0:0:0:0:
256,192,40972,1,8,0:0:0:0:
256,192,41063,1,0,0:0:0:0:
256,192,41245,1,0,0:0:0:0:
256,192,41427,1,8,0:0:0:0:
256,192,41608,1,0,0:0:0:0:
256,192,41790,1,8,0:0:0:0:
256,192,41881,1,8,0:0:0:0:
256,192,41972,1,0,0:0:0:0:
256,192,42154,1,12,0:0:0:0:
256,192,42517,1,8,0:0:0:0:
256,192,42699,1,0,0:0:0:0:
256,192,42790,1,0,0:0:0:0:
256,192,42881,1,8,0:0:0:0:
256,192,43063,1,0,0:0:0:0:
256,192,43245,1,8,0:0:0:0:
256,192,43336,1,8,0:0:0:0:
256,192,43427,1,0,0:0:0:0:
256,192,43517,1,0,0:0:0:0:
256,192,43608,1,8,0:0:0:0:
256,192,43790,1,0,0:0:0:0:
256,192,43972,1,8,0:0:0:0:
256,192,44154,1,0,0:0:0:0:
256,192,44245,1,0,0:0:0:0:
256,192,44336,1,8,0:0:0:0:
256,192,44517,1,0,0:0:0:0:
256,192,44699,1,8,0:0:0:0:
256,192,45063,1,8,0:0:0:0:
256,192,45245,1,0,0:0:0:0:
256,192,45336,1,0,0:0:0:0:
256,192,45427,1,8,0:0:0:0:
256,192,45608,1,0,0:0:0:0:
256,192,45790,1,8,0:0:0:0:
256,192,45972,1,0,0:0:0:0:
256,192,46063,1,8,0:0:0:0:
256,192,46154,1,0,0:0:0:0:
256,192,46336,1,12,0:0:0:0:
256,192,46517,1,0,0:0:0:0:
256,192,46699,1,8,0:0:0:0:
256,192,46790,1,8,0:0:0:0:
256,192,46881,1,0,0:0:0:0:
256,192,47063,1,8,0:0:0:0:
256,192,47245,1,8,0:0:0:0:
256,192,47336,1,8,0:0:0:0:
256,192,47427,1,0,0:0:0:0:
256,192,47517,1,0,0:0:0:0:
256,192,47608,1,8,0:0:0:0:
256,192,47790,1,8,0:0:0:0:
256,192,47972,1,4,0:0:0:0:
256,192,48517,1,0,0:0:0:0:
256,192,48699,1,8,0:0:0:0:
256,192,49063,1,0,0:0:0:0:
256,192,49245,1,0,0:0:0:0:
256,192,49608,1,0,0:0:0:0:
256,192,49790,1,0,0:0:0:0:
256,192,49972,1,0,0:0:0:0:
256,192,50063,1,0,0:0:0:0:
256,192,50154,1,8,0:0:0:0:
256,192,50517,1,0,0:0:0:0:
256,192,50699,1,0,0:0:0:0:
256,192,50881,1,8,0:0:0:0:
256,192,51245,1,8,0:0:0:0:
256,192,51427,1,0,0:0:0:0:
256,192,51608,1,8,0:0:0:0:
256,192,51972,1,0,0:0:0:0:
256,192,52336,1,0,0:0:0:0:
256,192,52517,1,8,0:0:0:0:
256,192,52699,1,8,0:0:0:0:
256,192,52881,1,0,0:0:0:0:
256,192,52972,1,0,0:0:0:0:
256,192,53063,1,8,0:0:0:0:
256,192,53245,1,8,0:0:0:0:
256,192,53427,1,0,0:0:0:0:
256,192,53608,1,0,0:0:0:0:
256,192,53790,1,12,0:0:0:0:
256,192,54154,1,8,0:0:0:0:
256,192,54336,1,8,0:0:0:0:
256,192,54427,1,8,0:0:0:0:
256,192,54517,1,0,0:0:0:0:
256,192,54699,1,0,0:0:0:0:
256,192,54881,1,8,0:0:0:0:
256,192,54972,1,0,0:0:0:0:
256,192,55063,1,8,0:0:0:0:
256,192,55245,1,0,0:0:0:0:
256,192,55427,1,8,0:0:0:0:
256,192,55608,1,8,0:0:0:0:
256,192,55699,1,8,0:0:0:0:
256,192,55790,1,0,0:0:0:0:
256,192,55972,1,8,0:0:0:0:
256,192,56154,1,0,0:0:0:0:
256,192,56245,1,0,0:0:0:0:
256,192,56336,1,8,0:0:0:0:
256,192,56517,1,0,0:0:0:0:
256,192,56699,1,8,0:0:0:0:
256,192,56790,1,8,0:0:0:0:
256,192,56881,1,0,0:0:0:0:
256,192,56972,1,0,0:0:0:0:
256,192,57063,1,8,0:0:0:0:
256,192,57154,1,8,0:0:0:0:
256,192,57245,1,0,0:0:0:0:
256,192,57427,1,8,0:0:0:0:
256,192,57608,1,8,0:0:0:0:
256,192,57699,1,8,0:0:0:0:
256,192,57790,1,0,0:0:0:0:
256,192,57972,1,0,0:0:0:0:
256,192,58154,1,12,0:0:0:0:
256,192,58427,1,12,0:0:0:0:
256,192,58699,1,4,0:0:0:0:
256,192,59608,1,12,0:0:0:0:
256,192,59790,1,0,0:0:0:0:
256,192,59881,1,8,0:0:0:0:
256,192,60063,1,0,0:0:0:0:
256,192,60154,1,8,0:0:0:0:
256,192,60245,1,8,0:0:0:0:
256,192,60336,1,0,0:0:0:0:
256,192,60517,1,8,0:0:0:0:
256,192,60699,1,0,0:0:0:0:
256,192,60881,1,8,0:0:0:0:
256,192,60972,1,0,0:0:0:0:
256,192,61063,1,8,0:0:0:0:
256,192,61245,1,0,0:0:0:0:
256,192,61427,1,8,0:0:0:0:
256,192,61517,1,0,0:0:0:0:
256,192,61608,1,8,0:0:0:0:
256,192,61699,1,8,0:0:0:0:
256,192,61790,1,0,0:0:0:0:
256,192,61972,1,8,0:0:0:0:
256,192,62154,1,0,0:0:0:0:
256,192,62245,1,0,0:0:0:0:
256,192,62336,1,8,0:0:0:0:
256,192,62517,1,4,0:0:0:0:
256,192,62699,1,8,0:0:0:0:
256,192,62790,1,0,0:0:0:0:
256,192,62972,1,0,0:0:0:0:
256,192,63063,1,8,0:0:0:0:
256,192,63245,1,0,0:0:0:0:
256,192,63427,1,8,0:0:0:0:
256,192,63517,1,8,0:0:0:0:
256,192,63608,1,8,0:0:0:0:
256,192,63790,1,0,0:0:0:0:
256,192,63972,1,8,0:0:0:0:
256,192,64154,1,8,0:0:0:0:
256,192,64245,1,0,0:0:0:0:
256,192,64427,1,0,0:0:0:0:
256,192,64517,1,8,0:0:0:0:
256,192,64608,1,8,0:0:0:0:
256,192,64699,1,0,0:0:0:0:
256,192,64881,1,12,0:0:0:0:
256,192,65063,1,8,0:0:0:0:
256,192,65245,1,8,0:0:0:0:
256,192,65427,1,4,0:0:0:0:
256,192,65790,1,8,0:0:0:0:
256,192,65972,1,8,0:0:0:0:
256,192,66063,1,8,0:0:0:0:
256,192,66154,1,0,0:0:0:0:
256,192,66336,1,8,0:0:0:0:
256,192,66517,1,0,0:0:0:0:
256,192,66608,1,8,0:0:0:0:
256,192,66699,1,0,0:0:0:0:
256,192,66790,1,0,0:0:0:0:
256,192,66881,1,8,0:0:0:0:
256,192,67063,1,8,0:0:0:0:
256,192,67245,1,0,0:0:0:0:
256,192,67336,1,0,0:0:0:0:
256,192,67427,1,8,0:0:0:0:
256,192,67517,1,0,0:0:0:0:
256,192,67608,1,8,0:0:0:0:
256,192,67790,1,0,0:0:0:0:
256,192,67972,1,8,0:0:0:0:
256,192,68063,1,8,0:0:0:0:
256,192,68154,1,0,0:0:0:0:
256,192,68336,1,12,0:0:0:0:
256,192,68517,1,0,0:0:0:0:
256,192,68699,1,8,0:0:0:0:
256,192,68790,1,0,0:0:0:0:
256,192,68881,1,8,0:0:0:0:
256,192,68972,1,8,0:0:0:0:
256,192,69063,1,0,0:0:0:0:
256,192,69245,1,0,0:0:0:0:
256,192,69427,1,8,0:0:0:0:
256,192,69517,1,0,0:0:0:0:
256,192,69608,1,8,0:0:0:0:
256,192,69790,1,12,0:0:0:0:
256,192,69972,1,12,0:0:0:0:
256,192,70154,1,12,0:0:0:0:
256,192,70517,1,8,0:0:0:0:
256,192,70608,1,8,0:0:0:0:
256,192,70699,1,0,0:0:0:0:
256,192,70790,1,0,0:0:0:0:
256,192,70881,1,8,0:0:0:0:
256,192,71245,1,12,0:0:0:0:
256,192,71427,1,8,0:0:0:0:
256,192,71517,1,8,0:0:0:0:
256,192,71608,1,0,0:0:0:0:
256,192,71699,1,0,0:0:0:0:
256,192,71790,1,8,0:0:0:0:
256,192,71881,1,8,0:0:0:0:
256,192,71972,1,0,0:0:0:0:
256,192,72154,1,8,0:0:0:0:
256,192,72336,1,0,0:0:0:0:
256,192,72427,1,8,0:0:0:0:
256,192,72517,1,0,0:0:0:0:
256,192,72608,1,0,0:0:0:0:
256,192,72699,1,8,0:0:0:0:
256,192,72881,1,0,0:0:0:0:
256,192,72972,1,0,0:0:0:0:
256,192,73063,1,8,0:0:0:0:
256,192,73245,1,8,0:0:0:0:
256,192,73336,1,0,0:0:0:0:
256,192,73427,1,8,0:0:0:0:
256,192,73608,1,0,0:0:0:0:
256,192,73790,1,8,0:0:0:0:
256,192,73881,1,8,0:0:0:0:
256,192,73972,1,0,0:0:0:0:
256,192,74154,1,12,0:0:0:0:
256,192,74336,1,0,0:0:0:0:
256,192,74427,1,0,0:0:0:0:
256,192,74517,1,8,0:0:0:0:
256,192,74608,1,0,0:0:0:0:
256,192,74699,1,8,0:0:0:0:
256,192,74790,1,8,0:0:0:0:
256,192,74881,1,0,0:0:0:0:
256,192,75063,1,8,0:0:0:0:
256,192,75154,1,8,0:0:0:0:
256,192,75245,1,0,0:0:0:0:
256,192,75336,1,0,0:0:0:0:
256,192,75427,1,8,0:0:0:0:
256,192,75608,1,8,0:0:0:0:
256,192,75790,1,0,0:0:0:0:
256,192,75881,1,8,0:0:0:0:
256,192,75972,1,0,0:0:0:0:
256,192,76154,1,8,0:0:0:0:
256,192,76245,1,8,0:0:0:0:
256,192,76336,1,0,0:0:0:0:
256,192,76517,1,12,0:0:0:0:
256,192,76699,1,8,0:0:0:0:
256,192,76790,1,8,0:0:0:0:
256,192,76881,1,8,0:0:0:0:
256,192,77063,1,4,0:0:0:0:
256,192,77427,1,8,0:0:0:0:
256,192,77608,1,8,0:0:0:0:
256,192,77790,1,4,0:0:0:0:
256,192,78154,1,8,0:0:0:0:
256,192,78336,1,8,0:0:0:0:
256,192,78517,1,4,0:0:0:0:
256,192,78699,1,4,0:0:0:0:
256,192,78881,1,12,0:0:0:0:
256,192,79063,1,12,0:0:0:0:
256,192,79245,1,8,0:0:0:0:
256,192,79336,1,8,0:0:0:0:
256,192,79427,1,0,0:0:0:0:
256,192,79608,1,8,0:0:0:0:
256,192,79972,1,12,0:0:0:0:
256,192,80154,1,0,0:0:0:0:
256,192,80336,1,8,0:0:0:0:
256,192,80517,1,8,0:0:0:0:
256,192,80608,1,8,0:0:0:0:
256,192,80699,1,0,0:0:0:0:
256,192,80881,1,0,0:0:0:0:
256,192,81063,1,8,0:0:0:0:
256,192,81154,1,0,0:0:0:0:
256,192,81245,1,8,0:0:0:0:
256,192,81427,1,12,0:0:0:0:
256,192,81608,1,12,0:0:0:0:
256,192,81790,1,12,0:0:0:0:
256,192,82154,1,8,0:0:0:0:
256,192,82336,1,0,0:0:0:0:
256,192,82517,1,8,0:0:0:0:
256,192,82608,1,8,0:0:0:0:
256,192,82699,1,8,0:0:0:0:
256,192,82881,1,4,0:0:0:0:
256,192,83154,1,8,0:0:0:0:
256,192,83245,1,0,0:0:0:0:
256,192,83427,1,8,0:0:0:0:
256,192,83608,1,0,0:0:0:0:
256,192,83790,1,8,0:0:0:0:
256,192,83881,1,0,0:0:0:0:
256,192,83972,1,8,0:0:0:0:
256,192,84154,1,0,0:0:0:0:
256,192,84336,1,8,0:0:0:0:
256,192,84427,1,8,0:0:0:0:
256,192,84517,1,0,0:0:0:0:
256,192,84608,1,0,0:0:0:0:
256,192,84699,1,8,0:0:0:0:
256,192,84881,1,8,0:0:0:0:
256,192,85063,1,0,0:0:0:0:
256,192,85245,1,0,0:0:0:0:
256,192,85336,1,0,0:0:0:0:
256,192,85427,1,8,0:0:0:0:
256,192,85608,1,8,0:0:0:0:
256,192,85790,1,0,0:0:0:0:
256,192,85881,1,8,0:0:0:0:
256,192,85972,1,0,0:0:0:0:
256,192,86063,1,0,0:0:0:0:
256,192,86154,1,8,0:0:0:0:
256,192,86336,1,0,0:0:0:0:
256,192,86517,1,8,0:0:0:0:
256,192,86608,1,8,0:0:0:0:
256,192,86699,1,0,0:0:0:0:
256,192,86790,1,0,0:0:0:0:
256,192,86881,1,8,0:0:0:0:
256,192,87063,1,0,0:0:0:0:
256,192,87154,1,0,0:0:0:0:
256,192,87245,1,8,0:0:0:0:
256,192,87427,1,0,0:0:0:0:
256,192,87608,1,8,0:0:0:0:
256,192,87790,1,8,0:0:0:0:
256,192,87972,1,0,0:0:0:0:
256,192,88063,1,0,0:0:0:0:
256,192,88154,1,8,0:0:0:0:
256,192,88245,1,8,0:0:0:0:
256,192,88336,1,8,0:0:0:0:
256,192,88517,1,0,0:0:0:0:
256,192,88699,1,12,0:0:0:0:
256,192,89063,1,8,0:0:0:0:
256,192,89154,1,8,0:0:0:0:
256,192,89245,1,0,0:0:0:0:
256,192,89427,1,8,0:0:0:0:
256,192,89608,1,0,0:0:0:0:
256,192,89699,1,8,0:0:0:0:
256,192,89790,1,0,0:0:0:0:
256,192,89972,1,8,0:0:0:0:
256,192,90154,1,0,0:0:0:0:
256,192,90275,1,0,0:0:0:0:
256,192,90396,1,8,0:0:0:0:
256,192,90517,1,8,0:0:0:0:
256,192,90639,1,0,0:0:0:0:
256,192,90760,1,0,0:0:0:0:
256,192,90881,1,8,0:0:0:0:
256,192,91245,1,8,0:0:0:0:
256,192,91427,1,0,0:0:0:0:
256,192,91608,1,8,0:0:0:0:
256,192,91699,1,0,0:0:0:0:
256,192,91790,1,8,0:0:0:0:
256,192,91881,1,8,0:0:0:0:
256,192,91972,1,0,0:0:0:0:
256,192,92154,1,0,0:0:0:0:
256,192,92336,1,8,0:0:0:0:
256,192,92427,1,8,0:0:0:0:
256,192,92517,1,0,0:0:0:0:
256,192,92608,1,0,0:0:0:0:
256,192,92699,1,8,0:0:0:0:
256,192,92881,1,0,0:0:0:0:
256,192,93063,1,12,0:0:0:0:
256,192,93245,1,4,0:0:0:0:
256,192,93427,1,12,0:0:0:0:
256,192,93790,1,4,0:0:0:0:
256,192,94517,1,0,0:0:0:0:
256,192,94881,1,8,0:0:0:0:
256,192,95063,1,0,0:0:0:0:
256,192,95427,1,8,0:0:0:0:
256,192,95790,1,0,0:0:0:0:
256,192,95972,1,8,0:0:0:0:
256,192,96245,1,0,0:0:0:0:
256,192,96517,1,8,0:0:0:0:
256,192,96699,1,0,0:0:0:0:
256,192,96972,1,8,0:0:0:0:
256,192,97245,1,8,0:0:0:0:
256,192,97427,1,0,0:0:0:0:
256,192,98154,1,8,0:0:0:0:
256,192,98881,1,0,0:0:0:0:
256,192,99427,1,0,0:0:0:0:
256,192,99608,1,8,0:0:0:0:
256,192,99972,1,0,0:0:0:0:
256,192,100336,1,8,0:0:0:0:
256,192,101063,1,8,0:0:0:0:
256,192,101790,1,0,0:0:0:0:
256,192,102154,1,8,0:0:0:0:
256,192,102517,1,8,0:0:0:0:
256,192,102881,1,0,0:0:0:0:
256,192,103063,1,0,0:0:0:0:
256,192,103245,1,8,0:0:0:0:
256,192,103972,1,0,0:0:0:0:
256,192,106154,12,0,107245,0:0:0:0:
256,192,107608,5,12,0:0:0:0:
256,192,107790,1,0,0:0:0:0:
256,192,107881,1,8,0:0:0:0:
256,192,108063,1,0,0:0:0:0:
256,192,108154,1,8,0:0:0:0:
256,192,108245,1,8,0:0:0:0:
256,192,108336,1,0,0:0:0:0:
256,192,108517,1,8,0:0:0:0:
256,192,108699,1,0,0:0:0:0:
256,192,108881,1,8,0:0:0:0:
256,192,108972,1,0,0:0:0:0:
256,192,109063,1,8,0:0:0:0:
256,192,109245,1,0,0:0:0:0:
256,192,109427,1,8,0:0:0:0:
256,192,109517,1,0,0:0:0:0:
256,192,109608,1,8,0:0:0:0:
256,192,109699,1,8,0:0:0:0:
256,192,109790,1,0,0:0:0:0:
256,192,109972,1,8,0:0:0:0:
256,192,110154,1,0,0:0:0:0:
256,192,110245,1,0,0:0:0:0:
256,192,110336,1,8,0:0:0:0:
256,192,110517,1,4,0:0:0:0:
256,192,110699,1,8,0:0:0:0:
256,192,110790,1,0,0:0:0:0:
256,192,110972,1,0,0:0:0:0:
256,192,111063,1,8,0:0:0:0:
256,192,111245,1,0,0:0:0:0:
256,192,111427,1,8,0:0:0:0:
256,192,111517,1,8,0:0:0:0:
256,192,111608,1,8,0:0:0:0:
256,192,111790,1,0,0:0:0:0:
256,192,111972,1,8,0:0:0:0:
256,192,112154,1,8,0:0:0:0:
256,192,112245,1,0,0:0:0:0:
256,192,112427,1,0,0:0:0:0:
256,192,112517,1,8,0:0:0:0:
256,192,112608,1,8,0:0:0:0:
256,192,112699,1,0,0:0:0:0:
256,192,112881,1,12,0:0:0:0:
256,192,113063,1,8,0:0:0:0:
256,192,113245,1,8,0:0:0:0:
256,192,113427,1,4,0:0:0:0:
256,192,113790,1,8,0:0:0:0:
256,192,113972,1,8,0:0:0:0:
256,192,114154,1,4,0:0:0:0:
256,192,114517,1,8,0:0:0:0:
256,192,114699,1,8,0:0:0:0:
256,192,114881,1,4,0:0:0:0:
256,192,115063,1,4,0:0:0:0:
256,192,115245,1,12,0:0:0:0:
256,192,115427,1,12,0:0:0:0:
256,192,115608,1,8,0:0:0:0:
256,192,115699,1,0,0:0:0:0:
256,192,115790,1,0,0:0:0:0:
256,192,115972,1,8,0:0:0:0:
256,192,116063,1,0,0:0:0:0:
256,192,116154,1,0,0:0:0:0:
256,192,116336,1,12,0:0:0:0:
256,192,116517,1,0,0:0:0:0:
256,192,116699,1,8,0:0:0:0:
256,192,116881,1,8,0:0:0:0:
256,192,116972,1,8,0:0:0:0:
256,192,117063,1,0,0:0:0:0:
256,192,117245,1,0,0:0:0:0:
256,192,117427,1,8,0:0:0:0:
256,192,117517,1,0,0:0:0:0:
256,192,117608,1,8,0:0:0:0:
256,192,117699,1,8,0:0:0:0:
256,192,119245,1,4,0:0:0:0:
256,192,119427,1,8,0:0:0:0:
256,192,119608,1,0,0:0:0:0:
256,192,119699,1,8,0:0:0:0:
256,192,119790,1,0,0:0:0:0:
256,192,119881,1,0,0:0:0:0:
256,192,119972,1,8,0:0:0:0:
256,192,120154,1,0,0:0:0:0:
256,192,120245,1,0,0:0:0:0:
256,192,120336,1,8,0:0:0:0:
256,192,120517,1,8,0:0:0:0:
256,192,120699,1,0,0:0:0:0:
256,192,120790,1,0,0:0:0:0:
256,192,120881,1,8,0:0:0:0:
256,192,120972,1,8,0:0:0:0:
256,192,121063,1,0,0:0:0:0:
256,192,121245,1,8,0:0:0:0:
256,192,121427,1,0,0:0:0:0:
256,192,121517,1,8,0:0:0:0:
256,192,121608,1,0,0:0:0:0:
256,192,121790,1,8,0:0:0:0:
256,192,121972,1,0,0:0:0:0:
256,192,122063,1,0,0:0:0:0:
256,192,122154,1,8,0:0:0:0:
256,192,122517,1,8,0:0:0:0:
256,192,122699,1,8,0:0:0:0:
256,192,122790,1,8,0:0:0:0:
256,192,122881,1,0,0:0:0:0:
256,192,123063,1,0,0:0:0:0:
256,192,123154,1,0,0:0:0:0:
256,192,123245,1,8,0:0:0:0:
256,192,123427,1,0,0:0:0:0:
256,192,123608,1,8,0:0:0:0:
256,192,123699,1,8,0:0:0:0:
256,192,123790,1,0,0:0:0:0:
256,192,123881,1,0,0:0:0:0:
256,192,123972,1,8,0:0:0:0:
256,192,124154,1,8,0:0:0:0:
256,192,124336,1,0,0:0:0:0:
256,192,124427,1,8,0:0:0:0:
256,192,124517,1,0,0:0:0:0:
256,192,124608,1,0,0:0:0:0:
256,192,124699,1,8,0:0:0:0:
256,192,124881,1,0,0:0:0:0:
256,192,125063,1,12,0:0:0:0:
256,192,125427,1,8,0:0:0:0:
256,192,125517,1,8,0:0:0:0:
256,192,125608,1,0,0:0:0:0:
256,192,125790,1,8,0:0:0:0:
256,192,125972,1,0,0:0:0:0:
256,192,126063,1,8,0:0:0:0:
256,192,126154,1,0,0:0:0:0:
256,192,126336,1,8,0:0:0:0:
256,192,126517,1,0,0:0:0:0:
256,192,126639,1,0,0:0:0:0:
256,192,126760,1,8,0:0:0:0:
256,192,126881,1,8,0:0:0:0:
256,192,127002,1,0,0:0:0:0:
256,192,127123,1,0,0:0:0:0:
256,192,127245,1,8,0:0:0:0:
256,192,127427,1,8,0:0:0:0:
256,192,127608,1,0,0:0:0:0:
256,192,127699,1,0,0:0:0:0:
256,192,127790,1,8,0:0:0:0:
256,192,127972,1,8,0:0:0:0:
256,192,128063,1,0,0:0:0:0:
256,192,128154,1,8,0:0:0:0:
256,192,128245,1,8,0:0:0:0:
256,192,128336,1,0,0:0:0:0:
256,192,128517,1,0,0:0:0:0:
256,192,128699,1,8,0:0:0:0:
256,192,128790,1,8,0:0:0:0:
256,192,128881,1,0,0:0:0:0:
256,192,128972,1,0,0:0:0:0:
256,192,129063,1,8,0:0:0:0:
256,192,129245,1,0,0:0:0:0:
256,192,129427,1,12,0:0:0:0:
256,192,129608,1,4,0:0:0:0:
256,192,129790,1,12,0:0:0:0:
256,192,130154,1,4,0:0:0:0:
256,192,130517,12,0,130881,0:0:0:0:
