osu file format v14

[General]
AudioFilename: audio.ogg
AudioLeadIn: 0
PreviewTime: 59332
Countdown: 0
SampleSet: Normal
StackLeniency: 0.7
Mode: 1
LetterboxInBreaks: 0
WidescreenStoryboard: 1

[Editor]
DistanceSpacing: 4.4
BeatDivisor: 6
GridSize: 32
TimelineZoom: 3.780001

[Metadata]
Title:A Wandering Melody of Love
TitleUnicode:迷える音色は恋の唄
Artist:KaratoPanchiiShounen feat. Haruno
ArtistUnicode:からとPαnchii少年 feat. はるの
Creator:KyeX
Version:Hell Oni
Source:Arcaea
Tags:japanese rock jrock j-rock electronic video game Mayoeru neiro wa koi no uta Kanae side story sunset radiance オンゲキ ongeki plus red o.n.g.e.k.i. r.e.d.
BeatmapID:3576714
BeatmapSetID:1748598

[Difficulty]
HPDrainRate:5.5
CircleSize:3
OverallDifficulty:7.5
ApproachRate:10
SliderMultiplier:1.4
SliderTickRate:1

[Events]
//Background and Video events
0,0,"bg.jpg",0,70
//Break Periods
2,104652,105704
//Storyboard Layer 0 (Background)
//Storyboard Layer 1 (Fail)
//Storyboard Layer 2 (Pass)
//Storyboard Layer 3 (Foreground)
//Storyboard Layer 4 (Overlay)
//Storyboard Sound Samples

[TimingPoints]
1427,363.636363636364,4,1,0,90,1,0
1427,-52.631578947368,4,1,0,90,0,1
7245,-52.631578947368,4,1,0,90,0,0
7608,-58.823529411765,4,1,0,90,0,0
7790,-62.5,4,1,0,90,0,0
7972,-66.666666666667,4,1,0,90,0,0
8699,-64.935064935065,4,1,0,90,0,0
8881,-63.291139240506,4,1,0,90,0,0
9063,-61.728395061728,4,1,0,90,0,0
9245,-60.240963855422,4,1,0,90,0,0
9427,-58.823529411765,4,1,0,90,0,0
9487,-58.257873227021,4,1,0,90,0,0
9548,-57.693833822712,4,1,0,90,0,0
9608,-57.149595157613,4,1,0,90,0,0
9669,-56.606711827455,4,1,0,90,0,0
9730,-56.074045507135,4,1,0,90,0,0
9790,-55.559801299198,4,1,0,90,0,0
9851,-55.046566214886,4,1,0,90,0,0
9911,-54.550911683049,4,1,0,90,0,0
9972,-54.056063647855,4,1,0,90,0,0
10154,-52.631578947368,4,1,0,90,0,1
11608,-51.282051282051,4,1,0,90,0,1
11790,-50,4,1,0,90,0,1
11972,-48.780487804878,4,1,0,90,0,1
12154,-58.823529411765,4,1,0,90,0,1
12245,-58.393574297189,4,1,0,90,0,1
12336,-57.96985886293,4,1,0,90,0,1
12396,-57.693833822712,4,1,0,90,0,1
12457,-57.415890064761,4,1,0,90,0,1
12517,-57.145102971231,4,1,0,90,0,1
12578,-56.872408667762,4,1,0,90,0,1
12639,-56.602304578013,4,1,0,90,0,1
12699,-56.339119652821,4,1,0,90,0,1
12881,-55.555555555556,4,1,0,90,0,1
13063,-52.631578947368,4,1,0,90,0,0
18245,-51.947123972847,4,1,0,90,0,0
18290,-51.615193468229,4,1,0,90,0,0
18336,-51.28024264654,4,1,0,90,0,0
18427,-50.630266731667,4,1,0,90,0,0
18517,-50.003439026068,4,1,0,90,0,0
18563,-49.689016471875,4,1,0,90,0,0
18608,-49.385231981523,4,1,0,90,0,0
18654,-49.078512117734,4,1,0,90,0,0
18699,-48.782124404482,4,1,0,90,0,0
18790,-48.193569771296,4,1,0,90,0,0
18881,-47.619047619048,4,1,0,90,0,0
19063,-52.631578947368,4,1,0,90,0,0
23245,-51.282051282051,4,1,0,90,0,0
23427,-50,4,1,0,90,0,0
23608,-48.780487804878,4,1,0,90,0,0
23790,-52.631578947368,4,1,0,90,0,0
23881,-51.282051282051,4,1,0,90,0,0
23972,-50,4,1,0,90,0,0
24699,-71.428571428571,4,1,0,85,0,0
30517,-68.965517241379,4,1,0,85,0,0
30699,-71.428571428571,4,1,0,85,0,0
35063,-68.963882832496,4,1,0,85,0,0
35245,-66.663612205626,4,1,0,85,0,0
35336,-65.570076611086,4,1,0,85,0,0
35427,-64.511838254855,4,1,0,85,0,0
35517,-63.498297983765,4,1,0,85,0,0
35608,-62.505369877137,4,1,0,85,0,0
35790,-60.609847538115,4,1,0,85,0,0
35881,-59.704554780468,4,1,0,85,0,0
35972,-58.825907657476,4,1,0,85,0,0
36063,-57.972746832417,4,1,0,85,0,0
36154,-57.143979263216,4,1,0,85,0,0
36245,-56.338573530551,4,1,0,85,0,0
36336,-52.631578947369,4,1,0,90,0,0
46608,-52.458898182867,4,1,0,90,0,0
46654,-52.372039450004,4,1,0,90,0,0
46699,-52.287346821432,4,1,0,90,0,0
46790,-52.116913819041,4,1,0,90,0,0
46881,-51.947588275197,4,1,0,90,0,0
46972,-51.779359430605,4,1,0,90,0,0
47063,-51.612216664893,4,1,0,90,0,0
47154,-51.446149494378,4,1,0,90,0,0
47245,-51.281147569873,4,1,0,90,0,0
47305,-51.172932859705,4,1,0,90,0,0
47366,-51.063381764582,4,1,0,90,0,0
47427,-50.954298721765,4,1,0,90,0,0
47487,-50.847457627119,4,1,0,90,0,0
47548,-50.739294183289,4,1,0,90,0,0
47608,-50.633351893096,4,1,0,90,0,0
47669,-50.526096468382,4,1,0,90,0,0
47730,-50.419294476402,4,1,0,90,0,0
47790,-50.314682896466,4,1,0,90,0,0
47972,-50,4,1,0,90,0,0
48063,-83.333333333333,4,1,0,60,0,0
52336,-83.333333333333,4,1,0,65,0,0
52517,-80.818186871213,4,1,0,65,0,0
52699,-78.437719156282,4,1,0,65,0,0
52881,-76.193470628308,4,1,0,70,0,0
52972,-75.118826203761,4,1,0,70,0,0
53063,-74.074074074074,4,1,0,70,0,0
53154,-73.057984122199,4,1,0,70,0,0
53245,-72.069392812887,4,1,0,70,0,0
53336,-71.107198748044,4,1,0,70,0,0
53427,-70.170358573428,4,1,0,70,0,0
53608,-68.378480060196,4,1,0,70,0,0
53790,-62.5,4,1,0,85,0,0
56517,-58.823529411765,4,1,0,90,0,0
56578,-58.566777575042,4,1,0,90,0,0
56639,-58.312257329106,4,1,0,90,0,0
56699,-58.064058454226,4,1,0,90,0,0
56760,-57.813879569133,4,1,0,90,0,0
56820,-57.569896254616,4,1,0,90,0,0
56881,-57.32394859404,4,1,0,90,0,0
56942,-57.080093448168,4,1,0,90,0,0
57002,-56.842251467065,4,1,0,90,0,0
57063,-56.602468794302,4,1,0,90,0,0
57123,-56.368582349093,4,1,0,90,0,0
57184,-56.132770976923,4,1,0,90,0,0
57245,-55.898924364009,4,1,0,90,0,0
57305,-55.670804284986,4,1,0,90,0,0
57366,-55.440783012158,4,1,0,90,0,0
57427,-55.212654726972,4,1,0,90,0,0
57487,-54.990090362458,4,1,0,90,0,0
57548,-54.765648522967,4,1,0,90,0,0
57608,-54.546666222385,4,1,0,90,0,0
57699,-54.217865068062,4,1,0,90,0,0
57790,-53.893004115226,4,1,0,90,0,0
57881,-53.572012959387,4,1,0,90,0,0
57972,-53.254822863463,4,1,0,90,0,0
58063,-52.941366708709,4,1,0,90,0,0
58154,-51.282051282051,4,1,0,90,0,0
58427,-50,4,1,0,90,0,0
58699,-48.780487804878,4,1,0,90,0,0
59608,-52.631578947368,4,1,0,90,0,1
69790,-51.282051282051,4,1,0,90,0,1
69972,-50,4,1,0,90,0,1
70154,-48.780487804878,4,1,0,90,0,1
70336,-58.823529411765,4,1,0,90,0,1
70427,-58.479155944416,4,1,0,90,0,1
70517,-58.142509914289,4,1,0,90,0,1
70578,-57.916533928003,4,1,0,90,0,1
70639,-57.692307692308,4,1,0,90,0,1
70699,-57.47344461305,4,1,0,90,0,1
70760,-57.252629589973,4,1,0,90,0,1
70820,-57.037083516346,4,1,0,90,0,1
70881,-56.819602450306,4,1,0,90,0,1
71063,-56.180469715698,4,1,0,90,0,1
71245,-50,4,1,0,90,0,1
77063,-50,4,1,0,90,0,0
77427,-58.823529411765,4,1,0,90,0,0
77608,-62.48924083319,4,1,0,90,0,0
77790,-66.666666666667,4,1,0,90,0,0
78517,-64.942487675931,4,1,0,90,0,0
78699,-63.29642782536,4,1,0,90,0,0
78881,-61.731748726655,4,1,0,90,0,0
79063,-60.242560805885,4,1,0,90,0,0
79245,-58.823529411765,4,1,0,90,0,0
79305,-58.257873227021,4,1,0,90,0,0
79366,-57.693833822712,4,1,0,90,0,0
79427,-57.140611491001,4,1,0,90,0,0
79487,-56.606711827455,4,1,0,90,0,0
79548,-56.074045507135,4,1,0,90,0,0
79608,-55.559801299198,4,1,0,90,0,0
79790,-54.056063647855,4,1,0,90,0,0
79972,-52.631578947368,4,1,0,90,0,1
81427,-51.282051282051,4,1,0,90,0,1
81608,-50,4,1,0,90,0,1
81790,-48.780487804878,4,1,0,90,0,1
81972,-58.823529411765,4,1,0,90,0,1
82154,-58.138791173649,4,1,0,90,0,1
82245,-57.802365509348,4,1,0,90,0,1
82336,-57.469810962888,4,1,0,90,0,1
82427,-57.141061101333,4,1,0,90,0,1
82517,-56.819602450306,4,1,0,90,0,1
82608,-56.498228603394,4,1,0,90,0,1
82699,-56.180469715698,4,1,0,90,0,1
82790,-55.866265134288,4,1,0,90,0,1
82881,-52.6315789473687,4,1,0,90,0,0
88063,-52.287111622555,4,1,0,90,0,0
88108,-52.118431428776,4,1,0,90,0,0
88154,-51.947123972847,4,1,0,90,0,0
88245,-51.611529177907,4,1,0,90,0,0
88336,-51.28024264654,4,1,0,90,0,0
88381,-51.117986218535,4,1,0,90,0,0
88427,-50.953181945613,4,1,0,90,0,0
88517,-50.633793007383,4,1,0,90,0,0
88608,-50.314900685169,4,1,0,90,0,0
88699,-50,4,1,0,90,0,0
88881,-52.631578947369,4,1,0,90,0,0
93063,-51.282051282051,4,1,0,90,0,0
93245,-50,4,1,0,90,0,0
93427,-48.780487804878,4,1,0,90,0,0
93608,-52.631578947368,4,1,0,90,0,0
93699,-51.282051282051,4,1,0,90,0,0
93790,-50,4,1,0,90,0,0
94154,-76.923076923077,4,1,0,85,0,0
94517,-100,4,1,0,50,0,0
106154,-100,4,1,0,10,0,0
106177,-100,4,1,0,12,0,0
106199,-100,4,1,0,13,0,0
106222,-100,4,1,0,15,0,0
106245,-100,4,1,0,17,0,0
106267,-100,4,1,0,18,0,0
106290,-100,4,1,0,20,0,0
106313,-100,4,1,0,22,0,0
106336,-100,4,1,0,23,0,0
106358,-100,4,1,0,25,0,0
106381,-100,4,1,0,27,0,0
106404,-100,4,1,0,28,0,0
106427,-100,4,1,0,30,0,0
106449,-100,4,1,0,32,0,0
106472,-100,4,1,0,33,0,0
106495,-100,4,1,0,35,0,0
106517,-100,4,1,0,37,0,0
106540,-100,4,1,0,38,0,0
106563,-100,4,1,0,40,0,0
106586,-100,4,1,0,42,0,0
106608,-100,4,1,0,43,0,0
106631,-100,4,1,0,45,0,0
106654,-100,4,1,0,47,0,0
106677,-100,4,1,0,48,0,0
106699,-100,4,1,0,50,0,0
106722,-100,4,1,0,52,0,0
106745,-100,4,1,0,53,0,0
106767,-100,4,1,0,55,0,0
106790,-100,4,1,0,57,0,0
106813,-100,4,1,0,58,0,0
106836,-100,4,1,0,60,0,0
106858,-100,4,1,0,62,0,0
106881,-100,4,1,0,63,0,0
106904,-100,4,1,0,65,0,0
106927,-100,4,1,0,67,0,0
106949,-100,4,1,0,68,0,0
106972,-100,4,1,0,70,0,0
106995,-100,4,1,0,72,0,0
107017,-100,4,1,0,73,0,0
107040,-100,4,1,0,75,0,0
107063,-100,4,1,0,77,0,0
107086,-100,4,1,0,78,0,0
107108,-100,4,1,0,80,0,0
107131,-100,4,1,0,82,0,0
107154,-100,4,1,0,83,0,0
107177,-100,4,1,0,85,0,0
107199,-100,4,1,0,87,0,0
107222,-100,4,1,0,88,0,0
107245,-100,4,1,0,90,0,0
107608,-52.631578947368,4,1,0,90,0,1
113427,-52.631578947368,4,1,0,90,0,0
113790,-58.823529411765,4,1,0,90,0,0
113972,-62.5,4,1,0,90,0,0
114154,-66.666666666667,4,1,0,90,0,0
114881,-64.933209514965,4,1,0,90,0,0
115063,-63.287614008216,4,1,0,90,0,0
115245,-61.723365247505,4,1,0,90,0,0
115427,-60.234576900139,4,1,0,90,0,0
115608,-58.823529411765,4,1,0,90,0,0
115669,-58.249319891183,4,1,0,90,0,0
115730,-57.686212361331,4,1,0,90,0,0
115790,-57.142857142857,4,1,0,90,0,0
115851,-56.600839682787,4,1,0,90,0,0
115911,-56.077645971345,4,1,0,90,0,0
115972,-55.555555555556,4,1,0,90,0,0
116033,-55.043096930289,4,1,0,90,0,0
116093,-54.548179229732,4,1,0,90,0,0
116154,-54.054054054054,4,1,0,90,0,0
116336,-52.631578947368,4,1,0,90,0,1
117790,-52.631578947368,4,1,0,90,0,0
124427,-51.947123972847,4,1,0,90,0,0
124472,-51.615193468229,4,1,0,90,0,0
124517,-51.287477954145,4,1,0,90,0,0
124608,-50.637319774326,4,1,0,90,0,0
124699,-50.003439026068,4,1,0,90,0,0
124745,-49.689016471875,4,1,0,90,0,0
124790,-49.385231981523,4,1,0,90,0,0
124836,-49.078512117734,4,1,0,90,0,0
124881,-48.782124404482,4,1,0,90,0,0
124972,-48.193569771296,4,1,0,90,0,0
125063,-47.619047619048,4,1,0,90,0,0
125245,-52.631578947369,4,1,0,90,0,0
129427,-51.282051282051,4,1,0,90,0,0
129608,-50,4,1,0,90,0,0
129790,-48.780487804878,4,1,0,90,0,0
129972,-52.631578947368,4,1,0,90,0,0
130063,-51.282051282051,4,1,0,90,0,0
130154,-50,4,1,0,90,0,0
130517,-66.666666666667,4,1,0,90,0,0

[HitObjects]
256,192,1427,5,12,0:0:0:0:
256,192,1608,1,8,0:0:0:0:
256,192,1699,1,0,0:0:0:0:
256,192,1745,1,0,0:0:0:0:
256,192,1790,1,8,0:0:0:0:
256,192,1881,1,0,0:0:0:0:
256,192,1972,1,8,0:0:0:0:
256,192,2017,1,8,0:0:0:0:
256,192,2063,1,8,0:0:0:0:
256,192,2154,1,0,0:0:0:0:
256,192,2245,1,0,0:0:0:0:
256,192,2336,1,8,0:0:0:0:
256,192,2427,1,0,0:0:0:0:
256,192,2517,1,8,0:0:0:0:
256,192,2608,1,0,0:0:0:0:
256,192,2654,1,0,0:0:0:0:
256,192,2699,1,8,0:0:0:0:
256,192,2790,1,8,0:0:0:0:
256,192,2881,1,0,0:0:0:0:
256,192,2972,1,0,0:0:0:0:
256,192,3063,1,8,0:0:0:0:
256,192,3154,1,0,0:0:0:0:
256,192,3245,1,8,0:0:0:0:
256,192,3290,1,8,0:0:0:0:
256,192,3336,1,0,0:0:0:0:
256,192,3427,1,8,0:0:0:0:
256,192,3517,1,0,0:0:0:0:
256,192,3608,1,8,0:0:0:0:
256,192,3654,1,8,0:0:0:0:
256,192,3699,1,8,0:0:0:0:
256,192,3790,1,0,0:0:0:0:
256,192,3881,1,0,0:0:0:0:
256,192,3972,1,8,0:0:0:0:
256,192,4063,1,0,0:0:0:0:
256,192,4154,1,8,0:0:0:0:
256,192,4245,1,8,0:0:0:0:
256,192,4336,1,4,0:0:0:0:
256,192,4517,1,8,0:0:0:0:
256,192,4608,1,8,0:0:0:0:
256,192,4654,1,8,0:0:0:0:
256,192,4699,1,0,0:0:0:0:
256,192,4790,1,0,0:0:0:0:
256,192,4881,1,8,0:0:0:0:
256,192,4927,1,8,0:0:0:0:
256,192,4972,1,8,0:0:0:0:
256,192,5063,1,0,0:0:0:0:
256,192,5154,1,0,0:0:0:0:
256,192,5245,1,8,0:0:0:0:
256,192,5336,1,0,0:0:0:0:
256,192,5427,1,8,0:0:0:0:
256,192,5472,1,8,0:0:0:0:
256,192,5517,1,0,0:0:0:0:
256,192,5608,1,8,0:0:0:0:
256,192,5699,1,0,0:0:0:0:
256,192,5790,1,8,0:0:0:0:
256,192,5836,1,8,0:0:0:0:
256,192,5881,1,0,0:0:0:0:
256,192,5972,1,0,0:0:0:0:
256,192,6063,1,8,0:0:0:0:
256,192,6108,1,0,0:0:0:0:
256,192,6154,1,0,0:0:0:0:
256,192,6245,1,0,0:0:0:0:
256,192,6336,1,8,0:0:0:0:
256,192,6427,1,8,0:0:0:0:
256,192,6517,1,0,0:0:0:0:
256,192,6608,1,0,0:0:0:0:
256,192,6699,1,12,0:0:0:0:
256,192,6881,1,8,0:0:0:0:
256,192,6972,1,0,0:0:0:0:
256,192,7063,1,8,0:0:0:0:
256,192,7154,1,8,0:0:0:0:
256,192,7245,1,4,0:0:0:0:
256,192,7608,1,8,0:0:0:0:
256,192,7790,1,8,0:0:0:0:
256,192,7972,1,4,0:0:0:0:
256,192,8336,1,8,0:0:0:0:
256,192,8517,1,8,0:0:0:0:
256,192,8699,1,4,0:0:0:0:
256,192,8881,1,4,0:0:0:0:
256,192,9063,1,12,0:0:0:0:
256,192,9245,1,12,0:0:0:0:
256,192,9427,1,8,0:0:0:0:
256,192,9487,1,8,0:0:0:0:
256,192,9548,1,0,0:0:0:0:
256,192,9608,1,0,0:0:0:0:
256,192,9669,1,0,0:0:0:0:
256,192,9730,1,0,0:0:0:0:
256,192,9790,1,8,0:0:0:0:
256,192,9851,1,8,0:0:0:0:
256,192,9911,1,0,0:0:0:0:
256,192,9972,1,0,0:0:0:0:
256,192,10154,1,12,0:0:0:0:
256,192,10336,1,8,0:0:0:0:
256,192,10427,1,0,0:0:0:0:
256,192,10472,1,0,0:0:0:0:
256,192,10517,1,8,0:0:0:0:
256,192,10608,1,0,0:0:0:0:
256,192,10699,1,8,0:0:0:0:
256,192,10790,1,0,0:0:0:0:
256,192,10881,1,8,0:0:0:0:
256,192,10972,1,8,0:0:0:0:
256,192,11063,1,0,0:0:0:0:
256,192,11154,1,0,0:0:0:0:
256,192,11245,1,8,0:0:0:0:
256,192,11290,1,8,0:0:0:0:
256,192,11336,1,0,0:0:0:0:
256,192,11427,1,8,0:0:0:0:
256,192,11517,1,0,0:0:0:0:
256,192,11608,1,12,0:0:0:0:
256,192,11790,1,12,0:0:0:0:
256,192,11972,1,12,0:0:0:0:
256,192,12154,1,0,0:0:0:0:
256,192,12245,1,0,0:0:0:0:
256,192,12336,1,8,0:0:0:0:
256,192,12396,1,8,0:0:0:0:
256,192,12457,1,0,0:0:0:0:
256,192,12517,1,8,0:0:0:0:
256,192,12578,1,0,0:0:0:0:
256,192,12639,1,0,0:0:0:0:
256,192,12699,1,8,0:0:0:0:
256,192,12881,1,8,0:0:0:0:
256,192,13063,1,4,0:0:0:0:
256,192,13245,1,0,0:0:0:0:
256,192,13336,1,0,0:0:0:0:
256,192,13427,1,8,0:0:0:0:
256,192,13517,1,0,0:0:0:0:
256,192,13563,1,0,0:0:0:0:
256,192,13608,1,8,0:0:0:0:
256,192,13699,1,0,0:0:0:0:
256,192,13790,1,8,0:0:0:0:
256,192,13881,1,8,0:0:0:0:
256,192,13972,1,0,0:0:0:0:
256,192,14154,1,0,0:0:0:0:
256,192,14199,1,0,0:0:0:0:
256,192,14245,1,8,0:0:0:0:
256,192,14336,1,8,0:0:0:0:
256,192,14427,1,0,0:0:0:0:
256,192,14517,1,8,0:0:0:0:
256,192,14563,1,8,0:0:0:0:
256,192,14608,1,0,0:0:0:0:
256,192,14699,1,8,0:0:0:0:
256,192,14790,1,0,0:0:0:0:
256,192,14881,1,8,0:0:0:0:
256,192,14927,1,8,0:0:0:0:
256,192,14972,1,0,0:0:0:0:
256,192,15063,1,8,0:0:0:0:
256,192,15154,1,0,0:0:0:0:
256,192,15245,1,8,0:0:0:0:
256,192,15290,1,0,0:0:0:0:
256,192,15336,1,0,0:0:0:0:
256,192,15427,1,8,0:0:0:0:
256,192,15608,1,8,0:0:0:0:
256,192,15699,1,0,0:0:0:0:
256,192,15745,1,0,0:0:0:0:
256,192,15790,1,8,0:0:0:0:
256,192,15881,1,0,0:0:0:0:
256,192,15972,1,8,0:0:0:0:
256,192,16063,1,8,0:0:0:0:
256,192,16154,1,0,0:0:0:0:
256,192,16336,1,8,0:0:0:0:
256,192,16381,1,0,0:0:0:0:
256,192,16427,1,0,0:0:0:0:
256,192,16517,1,8,0:0:0:0:
256,192,16608,1,8,0:0:0:0:
256,192,16699,1,0,0:0:0:0:
256,192,16745,1,0,0:0:0:0:
256,192,16790,1,8,0:0:0:0:
256,192,16881,1,8,0:0:0:0:
256,192,16972,1,0,0:0:0:0:
256,192,17063,1,8,0:0:0:0:
256,192,17108,1,0,0:0:0:0:
256,192,17154,1,8,0:0:0:0:
256,192,17245,1,0,0:0:0:0:
256,192,17336,1,0,0:0:0:0:
256,192,17427,1,8,0:0:0:0:
256,192,17472,1,8,0:0:0:0:
256,192,17517,1,0,0:0:0:0:
256,192,17608,1,8,0:0:0:0:
256,192,17699,1,0,0:0:0:0:
256,192,17790,1,8,0:0:0:0:
256,192,17836,1,8,0:0:0:0:
256,192,17881,1,0,0:0:0:0:
256,192,17972,1,8,0:0:0:0:
256,192,18063,1,8,0:0:0:0:
256,192,18154,1,0,0:0:0:0:
256,192,18245,1,8,0:0:0:0:
256,192,18290,1,8,0:0:0:0:
256,192,18336,1,0,0:0:0:0:
256,192,18427,1,8,0:0:0:0:
256,192,18517,1,8,0:0:0:0:
256,192,18563,1,8,0:0:0:0:
256,192,18608,1,0,0:0:0:0:
256,192,18654,1,0,0:0:0:0:
256,192,18699,1,8,0:0:0:0:
256,192,18790,1,0,0:0:0:0:
256,192,18881,1,12,0:0:0:0:
256,192,19063,1,0,0:0:0:0:
256,192,19154,1,8,0:0:0:0:
256,192,19245,1,0,0:0:0:0:
256,192,19290,1,0,0:0:0:0:
256,192,19336,1,8,0:0:0:0:
256,192,19427,1,8,0:0:0:0:
256,192,19517,1,0,0:0:0:0:
256,192,19608,1,8,0:0:0:0:
256,192,19699,1,8,0:0:0:0:
256,192,19790,1,0,0:0:0:0:
256,192,19881,1,0,0:0:0:0:
256,192,19927,1,0,0:0:0:0:
256,192,19972,1,8,0:0:0:0:
256,192,20063,1,0,0:0:0:0:
256,192,20154,1,8,0:0:0:0:
256,192,20336,1,0,0:0:0:0:
256,192,20457,1,0,0:0:0:0:
256,192,20517,1,0,0:0:0:0:
256,192,20578,1,8,0:0:0:0:
256,192,20699,1,0,0:0:0:0:
256,192,20820,1,8,0:0:0:0:
256,192,20881,1,0,0:0:0:0:
256,192,20942,1,8,0:0:0:0:
256,192,21063,1,0,0:0:0:0:
256,192,21154,1,0,0:0:0:0:
256,192,21199,1,0,0:0:0:0:
256,192,21245,1,8,0:0:0:0:
256,192,21336,1,8,0:0:0:0:
256,192,21427,1,0,0:0:0:0:
256,192,21517,1,0,0:0:0:0:
256,192,21608,1,8,0:0:0:0:
256,192,21790,1,8,0:0:0:0:
256,192,21881,1,0,0:0:0:0:
256,192,21927,1,0,0:0:0:0:
256,192,21972,1,8,0:0:0:0:
256,192,22063,1,0,0:0:0:0:
256,192,22154,1,8,0:0:0:0:
256,192,22199,1,8,0:0:0:0:
256,192,22245,1,0,0:0:0:0:
256,192,22336,1,0,0:0:0:0:
256,192,22427,1,8,0:0:0:0:
256,192,22517,1,8,0:0:0:0:
256,192,22563,1,8,0:0:0:0:
256,192,22608,1,8,0:0:0:0:
256,192,22654,1,8,0:0:0:0:
256,192,22699,1,0,0:0:0:0:
256,192,22790,1,0,0:0:0:0:
256,192,22881,1,8,0:0:0:0:
256,192,22972,1,8,0:0:0:0:
256,192,23063,1,0,0:0:0:0:
256,192,23154,1,0,0:0:0:0:
256,192,23245,1,12,0:0:0:0:
256,192,23427,1,4,0:0:0:0:
256,192,23608,1,12,0:0:0:0:
256,192,23790,1,8,0:0:0:0:
256,192,23881,1,8,0:0:0:0:
256,192,23972,1,4,0:0:0:0:
256,192,24699,1,12,0:0:0:0:
256,192,24881,1,0,0:0:0:0:
256,192,25063,1,8,0:0:0:0:
256,192,25154,1,8,0:0:0:0:
256,192,25245,1,0,0:0:0:0:
256,192,25336,1,0,0:0:0:0:
256,192,25427,1,8,0:0:0:0:
256,192,25608,1,0,0:0:0:0:
256,192,25699,1,0,0:0:0:0:
256,192,25790,1,8,0:0:0:0:
256,192,25972,1,8,0:0:0:0:
256,192,26063,1,0,0:0:0:0:
256,192,26154,1,8,0:0:0:0:
256,192,26336,1,0,0:0:0:0:
256,192,26517,1,8,0:0:0:0:
256,192,26608,1,0,0:0:0:0:
256,192,26699,1,8,0:0:0:0:
256,192,26790,1,8,0:0:0:0:
256,192,26881,1,0,0:0:0:0:
256,192,27063,1,0,0:0:0:0:
256,192,27245,1,8,0:0:0:0:
256,192,27427,1,8,0:0:0:0:
256,192,27517,1,8,0:0:0:0:
256,192,27608,1,0,0:0:0:0:
256,192,27790,1,0,0:0:0:0:
256,192,27972,1,8,0:0:0:0:
256,192,28063,1,0,0:0:0:0:
256,192,28154,1,0,0:0:0:0:
256,192,28245,1,0,0:0:0:0:
256,192,28336,1,8,0:0:0:0:
256,192,28427,1,0,0:0:0:0:
256,192,28517,1,8,0:0:0:0:
256,192,28699,1,8,0:0:0:0:
256,192,28881,1,0,0:0:0:0:
256,192,28972,1,0,0:0:0:0:
256,192,29063,1,8,0:0:0:0:
256,192,29245,1,0,0:0:0:0:
256,192,29336,1,0,0:0:0:0:
256,192,29427,1,8,0:0:0:0:
256,192,29517,1,0,0:0:0:0:
256,192,29608,1,8,0:0:0:0:
256,192,29699,1,8,0:0:0:0:
256,192,29790,1,0,0:0:0:0:
256,192,29972,1,0,0:0:0:0:
256,192,30154,1,8,0:0:0:0:
256,192,30336,1,0,0:0:0:0:
256,192,30427,1,0,0:0:0:0:
256,192,30517,1,12,0:0:0:0:
256,192,30699,1,0,0:0:0:0:
256,192,30881,1,8,0:0:0:0:
256,192,30972,1,8,0:0:0:0:
256,192,31063,1,0,0:0:0:0:
256,192,31154,1,0,0:0:0:0:
256,192,31245,1,8,0:0:0:0:
256,192,31427,1,0,0:0:0:0:
256,192,31608,1,8,0:0:0:0:
256,192,31699,1,8,0:0:0:0:
256,192,31790,1,8,0:0:0:0:
256,192,31881,1,0,0:0:0:0:
256,192,31972,1,8,0:0:0:0:
256,192,32154,1,0,0:0:0:0:
256,192,32245,1,0,0:0:0:0:
256,192,32336,1,8,0:0:0:0:
256,192,32517,1,8,0:0:0:0:
256,192,32699,1,0,0:0:0:0:
256,192,32790,1,0,0:0:0:0:
256,192,32881,1,8,0:0:0:0:
256,192,32972,1,8,0:0:0:0:
256,192,33063,1,0,0:0:0:0:
256,192,33245,1,0,0:0:0:0:
256,192,33427,1,8,0:0:0:0:
256,192,33517,1,0,0:0:0:0:
256,192,33608,1,8,0:0:0:0:
256,192,33790,1,8,0:0:0:0:
256,192,33972,1,0,0:0:0:0:
256,192,34063,1,0,0:0:0:0:
256,192,34154,1,8,0:0:0:0:
256,192,34336,1,8,0:0:0:0:
256,192,34517,1,0,0:0:0:0:
256,192,34608,1,8,0:0:0:0:
256,192,34699,1,0,0:0:0:0:
256,192,34790,1,0,0:0:0:0:
256,192,34881,1,8,0:0:0:0:
256,192,35063,1,0,0:0:0:0:
256,192,35245,1,8,0:0:0:0:
256,192,35336,1,8,0:0:0:0:
256,192,35427,1,0,0:0:0:0:
256,192,35517,1,8,0:0:0:0:
256,192,35608,1,0,0:0:0:0:
256,192,35790,1,8,0:0:0:0:
256,192,35881,1,0,0:0:0:0:
256,192,35972,1,8,0:0:0:0:
256,192,36063,1,8,0:0:0:0:
256,192,36154,1,0,0:0:0:0:
256,192,36245,1,0,0:0:0:0:
256,192,36336,1,12,0:0:0:0:
256,192,36517,1,0,0:0:0:0:
256,192,36608,1,0,0:0:0:0:
256,192,36654,1,0,0:0:0:0:
256,192,36699,1,8,0:0:0:0:
256,192,36790,1,8,0:0:0:0:
256,192,36881,1,0,0:0:0:0:
256,192,36972,1,0,0:0:0:0:
256,192,37063,1,8,0:0:0:0:
256,192,37108,1,8,0:0:0:0:
256,192,37154,1,0,0:0:0:0:
256,192,37245,1,8,0:0:0:0:
256,192,37336,1,0,0:0:0:0:
256,192,37427,1,8,0:0:0:0:
256,192,37517,1,8,0:0:0:0:
256,192,37608,1,0,0:0:0:0:
256,192,37699,1,0,0:0:0:0:
256,192,37790,1,8,0:0:0:0:
256,192,37836,1,8,0:0:0:0:
256,192,37881,1,0,0:0:0:0:
256,192,37972,1,8,0:0:0:0:
256,192,38063,1,0,0:0:0:0:
256,192,38154,1,8,0:0:0:0:
256,192,38199,1,8,0:0:0:0:
256,192,38245,1,0,0:0:0:0:
256,192,38336,1,8,0:0:0:0:
256,192,38427,1,0,0:0:0:0:
256,192,38517,1,8,0:0:0:0:
256,192,38563,1,8,0:0:0:0:
256,192,38608,1,8,0:0:0:0:
256,192,38699,1,0,0:0:0:0:
256,192,38881,1,8,0:0:0:0:
256,192,38972,1,0,0:0:0:0:
256,192,39063,1,8,0:0:0:0:
256,192,39154,1,8,0:0:0:0:
256,192,39245,1,0,0:0:0:0:
256,192,39427,1,8,0:0:0:0:
256,192,39517,1,0,0:0:0:0:
256,192,39608,1,8,0:0:0:0:
256,192,39654,1,8,0:0:0:0:
256,192,39699,1,8,0:0:0:0:
256,192,39790,1,0,0:0:0:0:
256,192,39881,1,0,0:0:0:0:
256,192,39972,1,8,0:0:0:0:
256,192,40017,1,8,0:0:0:0:
256,192,40063,1,0,0:0:0:0:
256,192,40154,1,0,0:0:0:0:
256,192,40245,1,8,0:0:0:0:
256,192,40336,1,8,0:0:0:0:
256,192,40427,1,0,0:0:0:0:
256,192,40517,1,0,0:0:0:0:
256,192,40608,1,8,0:0:0:0:
256,192,40699,1,0,0:0:0:0:
256,192,40745,1,0,0:0:0:0:
256,192,40790,1,0,0:0:0:0:
256,192,40881,1,8,0:0:0:0:
256,192,40972,1,0,0:0:0:0:
256,192,41063,1,8,0:0:0:0:
256,192,41108,1,8,0:0:0:0:
256,192,41154,1,0,0:0:0:0:
256,192,41245,1,8,0:0:0:0:
256,192,41336,1,0,0:0:0:0:
256,192,41427,1,8,0:0:0:0:
256,192,41472,1,8,0:0:0:0:
256,192,41517,1,8,0:0:0:0:
256,192,41608,1,0,0:0:0:0:
256,192,41790,1,8,0:0:0:0:
256,192,41881,1,8,0:0:0:0:
256,192,41972,1,0,0:0:0:0:
256,192,42063,1,0,0:0:0:0:
256,192,42154,1,12,0:0:0:0:
256,192,42336,1,8,0:0:0:0:
256,192,42427,1,0,0:0:0:0:
256,192,42517,1,8,0:0:0:0:
256,192,42563,1,8,0:0:0:0:
256,192,42608,1,0,0:0:0:0:
256,192,42699,1,8,0:0:0:0:
256,192,42790,1,0,0:0:0:0:
256,192,42881,1,8,0:0:0:0:
256,192,42972,1,8,0:0:0:0:
256,192,43063,1,0,0:0:0:0:
256,192,43154,1,0,0:0:0:0:
256,192,43245,1,8,0:0:0:0:
256,192,43290,1,8,0:0:0:0:
256,192,43336,1,0,0:0:0:0:
256,192,43427,1,8,0:0:0:0:
256,192,43517,1,0,0:0:0:0:
256,192,43608,1,8,0:0:0:0:
256,192,43654,1,0,0:0:0:0:
256,192,43699,1,8,0:0:0:0:
256,192,43790,1,0,0:0:0:0:
256,192,43881,1,0,0:0:0:0:
256,192,43972,1,8,0:0:0:0:
256,192,44017,1,8,0:0:0:0:
256,192,44063,1,8,0:0:0:0:
256,192,44154,1,8,0:0:0:0:
256,192,44245,1,0,0:0:0:0:
256,192,44336,1,8,0:0:0:0:
256,192,44381,1,8,0:0:0:0:
256,192,44427,1,0,0:0:0:0:
256,192,44517,1,8,0:0:0:0:
256,192,44608,1,0,0:0:0:0:
256,192,44699,1,8,0:0:0:0:
256,192,44745,1,8,0:0:0:0:
256,192,44790,1,8,0:0:0:0:
256,192,44881,1,0,0:0:0:0:
256,192,44972,1,0,0:0:0:0:
256,192,45063,1,8,0:0:0:0:
256,192,45245,1,8,0:0:0:0:
256,192,45336,1,0,0:0:0:0:
256,192,45427,1,8,0:0:0:0:
256,192,45517,1,8,0:0:0:0:
256,192,45608,1,0,0:0:0:0:
256,192,45699,1,0,0:0:0:0:
256,192,45790,1,8,0:0:0:0:
256,192,45836,1,8,0:0:0:0:
256,192,45881,1,8,0:0:0:0:
256,192,45972,1,0,0:0:0:0:
256,192,46063,1,8,0:0:0:0:
256,192,46154,1,0,0:0:0:0:
256,192,46245,1,0,0:0:0:0:
256,192,46336,1,12,0:0:0:0:
256,192,46517,1,8,0:0:0:0:
256,192,46608,1,0,0:0:0:0:
256,192,46654,1,0,0:0:0:0:
256,192,46699,1,8,0:0:0:0:
256,192,46790,1,0,0:0:0:0:
256,192,46881,1,0,0:0:0:0:
256,192,46972,1,8,0:0:0:0:
256,192,47063,1,8,0:0:0:0:
256,192,47154,1,0,0:0:0:0:
256,192,47245,1,8,0:0:0:0:
256,192,47305,1,8,0:0:0:0:
256,192,47366,1,8,0:0:0:0:
256,192,47427,1,0,0:0:0:0:
256,192,47487,1,0,0:0:0:0:
256,192,47548,1,0,0:0:0:0:
256,192,47608,1,8,0:0:0:0:
256,192,47669,1,0,0:0:0:0:
256,192,47730,1,0,0:0:0:0:
256,192,47790,1,8,0:0:0:0:
256,192,47972,1,4,0:0:0:0:
256,192,48517,1,0,0:0:0:0:
256,192,48699,1,8,0:0:0:0:
256,192,49063,1,0,0:0:0:0:
256,192,49245,1,0,0:0:0:0:
256,192,49608,1,0,0:0:0:0:
256,192,49790,1,0,0:0:0:0:
256,192,49972,1,0,0:0:0:0:
256,192,50033,1,0,0:0:0:0:
256,192,50093,1,0,0:0:0:0:
256,192,50154,1,8,0:0:0:0:
256,192,50517,1,0,0:0:0:0:
256,192,50699,1,0,0:0:0:0:
256,192,50790,1,0,0:0:0:0:
256,192,50881,1,8,0:0:0:0:
256,192,51245,1,8,0:0:0:0:
256,192,51427,1,0,0:0:0:0:
256,192,51608,1,8,0:0:0:0:
256,192,51972,1,0,0:0:0:0:
256,192,52336,1,0,0:0:0:0:
256,192,52517,1,8,0:0:0:0:
256,192,52699,1,8,0:0:0:0:
256,192,52881,1,0,0:0:0:0:
256,192,52972,1,0,0:0:0:0:
256,192,53063,1,8,0:0:0:0:
256,192,53154,1,8,0:0:0:0:
256,192,53245,1,0,0:0:0:0:
256,192,53336,1,0,0:0:0:0:
256,192,53427,1,8,0:0:0:0:
256,192,53608,1,0,0:0:0:0:
256,192,53790,1,12,0:0:0:0:
256,192,53972,1,0,0:0:0:0:
256,192,54063,1,0,0:0:0:0:
256,192,54154,1,8,0:0:0:0:
256,192,54336,1,8,0:0:0:0:
256,192,54427,1,0,0:0:0:0:
256,192,54517,1,8,0:0:0:0:
256,192,54699,1,0,0:0:0:0:
256,192,54881,1,8,0:0:0:0:
256,192,54972,1,0,0:0:0:0:
256,192,55063,1,8,0:0:0:0:
256,192,55154,1,8,0:0:0:0:
256,192,55245,1,0,0:0:0:0:
256,192,55427,1,8,0:0:0:0:
256,192,55608,1,8,0:0:0:0:
256,192,55699,1,8,0:0:0:0:
256,192,55790,1,0,0:0:0:0:
256,192,55972,1,8,0:0:0:0:
256,192,56154,1,0,0:0:0:0:
256,192,56245,1,0,0:0:0:0:
256,192,56336,1,8,0:0:0:0:
256,192,56517,1,0,0:0:0:0:
256,192,56578,1,0,0:0:0:0:
256,192,56639,1,0,0:0:0:0:
256,192,56699,1,8,0:0:0:0:
256,192,56760,1,8,0:0:0:0:
256,192,56820,1,8,0:0:0:0:
256,192,56881,1,0,0:0:0:0:
256,192,56942,1,0,0:0:0:0:
256,192,57002,1,0,0:0:0:0:
256,192,57063,1,8,0:0:0:0:
256,192,57123,1,8,0:0:0:0:
256,192,57184,1,8,0:0:0:0:
256,192,57245,1,0,0:0:0:0:
256,192,57305,1,0,0:0:0:0:
256,192,57366,1,0,0:0:0:0:
256,192,57427,1,8,0:0:0:0:
256,192,57487,1,0,0:0:0:0:
256,192,57548,1,0,0:0:0:0:
256,192,57608,1,8,0:0:0:0:
256,192,57699,1,0,0:0:0:0:
256,192,57790,1,0,0:0:0:0:
256,192,57881,1,8,0:0:0:0:
256,192,57972,1,0,0:0:0:0:
256,192,58063,1,0,0:0:0:0:
256,192,58154,1,12,0:0:0:0:
256,192,58427,1,12,0:0:0:0:
256,192,58699,1,4,0:0:0:0:
256,192,59608,1,12,0:0:0:0:
256,192,59790,1,8,0:0:0:0:
256,192,59881,1,0,0:0:0:0:
256,192,59927,1,0,0:0:0:0:
256,192,59972,1,8,0:0:0:0:
256,192,60063,1,0,0:0:0:0:
256,192,60154,1,8,0:0:0:0:
256,192,60199,1,8,0:0:0:0:
256,192,60245,1,8,0:0:0:0:
256,192,60290,1,8,0:0:0:0:
256,192,60336,1,0,0:0:0:0:
256,192,60427,1,0,0:0:0:0:
256,192,60517,1,8,0:0:0:0:
256,192,60608,1,0,0:0:0:0:
256,192,60699,1,8,0:0:0:0:
256,192,60790,1,0,0:0:0:0:
256,192,60836,1,0,0:0:0:0:
256,192,60881,1,8,0:0:0:0:
256,192,60972,1,8,0:0:0:0:
256,192,61063,1,0,0:0:0:0:
256,192,61108,1,0,0:0:0:0:
256,192,61154,1,0,0:0:0:0:
256,192,61245,1,8,0:0:0:0:
256,192,61336,1,0,0:0:0:0:
256,192,61427,1,8,0:0:0:0:
256,192,61472,1,8,0:0:0:0:
256,192,61517,1,0,0:0:0:0:
256,192,61608,1,8,0:0:0:0:
256,192,61699,1,0,0:0:0:0:
256,192,61790,1,8,0:0:0:0:
256,192,61836,1,8,0:0:0:0:
256,192,61881,1,8,0:0:0:0:
256,192,61972,1,0,0:0:0:0:
256,192,62063,1,0,0:0:0:0:
256,192,62154,1,8,0:0:0:0:
256,192,62245,1,0,0:0:0:0:
256,192,62336,1,8,0:0:0:0:
256,192,62427,1,8,0:0:0:0:
256,192,62517,1,4,0:0:0:0:
256,192,62699,1,8,0:0:0:0:
256,192,62790,1,8,0:0:0:0:
256,192,62836,1,8,0:0:0:0:
256,192,62881,1,0,0:0:0:0:
256,192,62972,1,0,0:0:0:0:
256,192,63063,1,8,0:0:0:0:
256,192,63108,1,8,0:0:0:0:
256,192,63154,1,8,0:0:0:0:
256,192,63245,1,0,0:0:0:0:
256,192,63336,1,0,0:0:0:0:
256,192,63427,1,8,0:0:0:0:
256,192,63517,1,0,0:0:0:0:
256,192,63608,1,8,0:0:0:0:
256,192,63654,1,8,0:0:0:0:
256,192,63699,1,0,0:0:0:0:
256,192,63790,1,8,0:0:0:0:
256,192,63881,1,0,0:0:0:0:
256,192,63972,1,8,0:0:0:0:
256,192,64017,1,8,0:0:0:0:
256,192,64063,1,0,0:0:0:0:
256,192,64154,1,0,0:0:0:0:
256,192,64245,1,8,0:0:0:0:
256,192,64290,1,0,0:0:0:0:
256,192,64336,1,0,0:0:0:0:
256,192,64427,1,0,0:0:0:0:
256,192,64517,1,8,0:0:0:0:
256,192,64563,1,8,0:0:0:0:
256,192,64608,1,8,0:0:0:0:
256,192,64699,1,0,0:0:0:0:
256,192,64790,1,0,0:0:0:0:
256,192,64881,1,12,0:0:0:0:
256,192,65063,1,8,0:0:0:0:
256,192,65154,1,0,0:0:0:0:
256,192,65245,1,8,0:0:0:0:
256,192,65336,1,8,0:0:0:0:
256,192,65427,1,4,0:0:0:0:
256,192,65608,1,8,0:0:0:0:
256,192,65699,1,0,0:0:0:0:
256,192,65790,1,8,0:0:0:0:
256,192,65836,1,8,0:0:0:0:
256,192,65881,1,0,0:0:0:0:
256,192,65972,1,8,0:0:0:0:
256,192,66063,1,0,0:0:0:0:
256,192,66154,1,8,0:0:0:0:
256,192,66199,1,0,0:0:0:0:
256,192,66245,1,0,0:0:0:0:
256,192,66336,1,8,0:0:0:0:
256,192,66517,1,8,0:0:0:0:
256,192,66608,1,0,0:0:0:0:
256,192,66654,1,0,0:0:0:0:
256,192,66699,1,8,0:0:0:0:
256,192,66790,1,0,0:0:0:0:
256,192,66881,1,8,0:0:0:0:
256,192,66927,1,8,0:0:0:0:
256,192,66972,1,8,0:0:0:0:
256,192,67017,1,8,0:0:0:0:
256,192,67063,1,0,0:0:0:0:
256,192,67154,1,0,0:0:0:0:
256,192,67245,1,8,0:0:0:0:
256,192,67336,1,0,0:0:0:0:
256,192,67381,1,0,0:0:0:0:
256,192,67427,1,8,0:0:0:0:
256,192,67517,1,8,0:0:0:0:
256,192,67608,1,0,0:0:0:0:
256,192,67699,1,0,0:0:0:0:
256,192,67790,1,8,0:0:0:0:
256,192,67972,1,8,0:0:0:0:
256,192,68063,1,8,0:0:0:0:
256,192,68154,1,0,0:0:0:0:
256,192,68245,1,0,0:0:0:0:
256,192,68336,1,12,0:0:0:0:
256,192,68517,1,8,0:0:0:0:
256,192,68608,1,0,0:0:0:0:
256,192,68654,1,0,0:0:0:0:
256,192,68699,1,8,0:0:0:0:
256,192,68790,1,0,0:0:0:0:
256,192,68881,1,8,0:0:0:0:
256,192,68972,1,0,0:0:0:0:
256,192,69063,1,8,0:0:0:0:
256,192,69108,1,8,0:0:0:0:
256,192,69154,1,8,0:0:0:0:
256,192,69245,1,0,0:0:0:0:
256,192,69336,1,0,0:0:0:0:
256,192,69427,1,8,0:0:0:0:
256,192,69472,1,8,0:0:0:0:
256,192,69517,1,0,0:0:0:0:
256,192,69608,1,8,0:0:0:0:
256,192,69699,1,0,0:0:0:0:
256,192,69790,1,12,0:0:0:0:
256,192,69972,1,12,0:0:0:0:
256,192,70154,1,12,0:0:0:0:
256,192,70336,1,0,0:0:0:0:
256,192,70427,1,0,0:0:0:0:
256,192,70517,1,8,0:0:0:0:
256,192,70578,1,8,0:0:0:0:
256,192,70639,1,0,0:0:0:0:
256,192,70699,1,8,0:0:0:0:
256,192,70760,1,0,0:0:0:0:
256,192,70820,1,0,0:0:0:0:
256,192,70881,1,8,0:0:0:0:
256,192,71063,1,0,0:0:0:0:
256,192,71245,1,12,0:0:0:0:
256,192,71336,1,0,0:0:0:0:
256,192,71427,1,8,0:0:0:0:
256,192,71517,1,0,0:0:0:0:
256,192,71563,1,0,0:0:0:0:
256,192,71608,1,8,0:0:0:0:
256,192,71699,1,0,0:0:0:0:
256,192,71790,1,8,0:0:0:0:
256,192,71836,1,8,0:0:0:0:
256,192,71881,1,8,0:0:0:0:
256,192,71927,1,8,0:0:0:0:
256,192,71972,1,0,0:0:0:0:
256,192,72063,1,0,0:0:0:0:
256,192,72154,1,8,0:0:0:0:
256,192,72245,1,0,0:0:0:0:
256,192,72336,1,8,0:0:0:0:
256,192,72381,1,8,0:0:0:0:
256,192,72427,1,0,0:0:0:0:
256,192,72517,1,8,0:0:0:0:
256,192,72608,1,0,0:0:0:0:
256,192,72699,1,8,0:0:0:0:
256,192,72745,1,8,0:0:0:0:
256,192,72790,1,8,0:0:0:0:
256,192,72881,1,0,0:0:0:0:
256,192,72972,1,0,0:0:0:0:
256,192,73063,1,8,0:0:0:0:
256,192,73108,1,0,0:0:0:0:
256,192,73154,1,8,0:0:0:0:
256,192,73245,1,0,0:0:0:0:
256,192,73336,1,0,0:0:0:0:
256,192,73427,1,8,0:0:0:0:
256,192,73472,1,8,0:0:0:0:
256,192,73517,1,0,0:0:0:0:
256,192,73608,1,8,0:0:0:0:
256,192,73699,1,8,0:0:0:0:
256,192,73790,1,0,0:0:0:0:
256,192,73836,1,0,0:0:0:0:
256,192,73881,1,0,0:0:0:0:
256,192,73972,1,8,0:0:0:0:
256,192,74063,1,0,0:0:0:0:
256,192,74154,1,12,0:0:0:0:
256,192,74245,1,0,0:0:0:0:
256,192,74336,1,8,0:0:0:0:
256,192,74427,1,8,0:0:0:0:
256,192,74472,1,8,0:0:0:0:
256,192,74517,1,0,0:0:0:0:
256,192,74608,1,0,0:0:0:0:
256,192,74699,1,8,0:0:0:0:
256,192,74745,1,8,0:0:0:0:
256,192,74790,1,8,0:0:0:0:
256,192,74881,1,0,0:0:0:0:
256,192,74972,1,8,0:0:0:0:
256,192,75063,1,0,0:0:0:0:
256,192,75108,1,0,0:0:0:0:
256,192,75154,1,8,0:0:0:0:
256,192,75245,1,0,0:0:0:0:
256,192,75336,1,0,0:0:0:0:
256,192,75427,1,8,0:0:0:0:
256,192,75517,1,0,0:0:0:0:
256,192,75608,1,8,0:0:0:0:
256,192,75654,1,8,0:0:0:0:
256,192,75699,1,0,0:0:0:0:
256,192,75790,1,0,0:0:0:0:
256,192,75881,1,8,0:0:0:0:
256,192,75927,1,0,0:0:0:0:
256,192,75972,1,0,0:0:0:0:
256,192,76063,1,0,0:0:0:0:
256,192,76154,1,8,0:0:0:0:
256,192,76199,1,8,0:0:0:0:
256,192,76245,1,8,0:0:0:0:
256,192,76336,1,0,0:0:0:0:
256,192,76427,1,0,0:0:0:0:
256,192,76517,1,12,0:0:0:0:
256,192,76608,1,0,0:0:0:0:
256,192,76699,1,8,0:0:0:0:
256,192,76790,1,0,0:0:0:0:
256,192,76881,1,8,0:0:0:0:
256,192,76972,1,8,0:0:0:0:
256,192,77063,1,4,0:0:0:0:
256,192,77427,1,8,0:0:0:0:
256,192,77608,1,8,0:0:0:0:
256,192,77790,1,4,0:0:0:0:
256,192,78154,1,8,0:0:0:0:
256,192,78336,1,8,0:0:0:0:
256,192,78517,1,4,0:0:0:0:
256,192,78699,1,4,0:0:0:0:
256,192,78881,1,12,0:0:0:0:
256,192,79063,1,12,0:0:0:0:
256,192,79245,1,8,0:0:0:0:
256,192,79305,1,8,0:0:0:0:
256,192,79366,1,0,0:0:0:0:
256,192,79427,1,0,0:0:0:0:
256,192,79487,1,0,0:0:0:0:
256,192,79548,1,0,0:0:0:0:
256,192,79608,1,8,0:0:0:0:
256,192,79790,1,0,0:0:0:0:
256,192,79972,1,12,0:0:0:0:
256,192,80154,1,8,0:0:0:0:
256,192,80245,1,0,0:0:0:0:
256,192,80290,1,0,0:0:0:0:
256,192,80336,1,8,0:0:0:0:
256,192,80427,1,0,0:0:0:0:
256,192,80517,1,8,0:0:0:0:
256,192,80608,1,0,0:0:0:0:
256,192,80699,1,8,0:0:0:0:
256,192,80790,1,8,0:0:0:0:
256,192,80881,1,0,0:0:0:0:
256,192,80972,1,0,0:0:0:0:
256,192,81063,1,8,0:0:0:0:
256,192,81108,1,8,0:0:0:0:
256,192,81154,1,0,0:0:0:0:
256,192,81245,1,8,0:0:0:0:
256,192,81336,1,0,0:0:0:0:
256,192,81427,1,12,0:0:0:0:
256,192,81608,1,12,0:0:0:0:
256,192,81790,1,12,0:0:0:0:
256,192,81972,1,0,0:0:0:0:
256,192,82154,1,8,0:0:0:0:
256,192,82245,1,8,0:0:0:0:
256,192,82336,1,0,0:0:0:0:
256,192,82427,1,0,0:0:0:0:
256,192,82517,1,8,0:0:0:0:
256,192,82608,1,8,0:0:0:0:
256,192,82699,1,8,0:0:0:0:
256,192,82790,1,8,0:0:0:0:
256,192,82881,1,4,0:0:0:0:
256,192,83063,1,8,0:0:0:0:
256,192,83154,1,8,0:0:0:0:
256,192,83245,1,0,0:0:0:0:
256,192,83336,1,0,0:0:0:0:
256,192,83427,1,8,0:0:0:0:
256,192,83608,1,8,0:0:0:0:
256,192,83699,1,0,0:0:0:0:
256,192,83790,1,8,0:0:0:0:
256,192,83881,1,0,0:0:0:0:
256,192,83927,1,0,0:0:0:0:
256,192,83972,1,8,0:0:0:0:
256,192,84063,1,8,0:0:0:0:
256,192,84154,1,0,0:0:0:0:
256,192,84245,1,0,0:0:0:0:
256,192,84336,1,8,0:0:0:0:
256,192,84427,1,0,0:0:0:0:
256,192,84472,1,0,0:0:0:0:
256,192,84517,1,8,0:0:0:0:
256,192,84608,1,0,0:0:0:0:
256,192,84699,1,8,0:0:0:0:
256,192,84745,1,8,0:0:0:0:
256,192,84790,1,0,0:0:0:0:
256,192,84881,1,0,0:0:0:0:
256,192,84972,1,8,0:0:0:0:
256,192,85063,1,0,0:0:0:0:
256,192,85245,1,8,0:0:0:0:
256,192,85336,1,0,0:0:0:0:
256,192,85381,1,0,0:0:0:0:
256,192,85427,1,8,0:0:0:0:
256,192,85517,1,0,0:0:0:0:
256,192,85608,1,8,0:0:0:0:
256,192,85790,1,0,0:0:0:0:
256,192,85881,1,0,0:0:0:0:
256,192,85972,1,8,0:0:0:0:
256,192,86063,1,0,0:0:0:0:
256,192,86154,1,8,0:0:0:0:
256,192,86199,1,0,0:0:0:0:
256,192,86245,1,0,0:0:0:0:
256,192,86336,1,8,0:0:0:0:
256,192,86427,1,0,0:0:0:0:
256,192,86472,1,0,0:0:0:0:
256,192,86517,1,8,0:0:0:0:
256,192,86608,1,8,0:0:0:0:
256,192,86699,1,0,0:0:0:0:
256,192,86790,1,0,0:0:0:0:
256,192,86881,1,8,0:0:0:0:
256,192,86927,1,8,0:0:0:0:
256,192,86972,1,0,0:0:0:0:
256,192,87063,1,8,0:0:0:0:
256,192,87154,1,0,0:0:0:0:
256,192,87245,1,8,0:0:0:0:
256,192,87290,1,8,0:0:0:0:
256,192,87336,1,8,0:0:0:0:
256,192,87427,1,0,0:0:0:0:
256,192,87608,1,8,0:0:0:0:
256,192,87699,1,0,0:0:0:0:
256,192,87790,1,8,0:0:0:0:
256,192,87881,1,8,0:0:0:0:
256,192,87972,1,0,0:0:0:0:
256,192,88063,1,8,0:0:0:0:
256,192,88108,1,8,0:0:0:0:
256,192,88154,1,8,0:0:0:0:
256,192,88245,1,0,0:0:0:0:
256,192,88336,1,8,0:0:0:0:
256,192,88381,1,8,0:0:0:0:
256,192,88427,1,0,0:0:0:0:
256,192,88517,1,8,0:0:0:0:
256,192,88608,1,0,0:0:0:0:
256,192,88699,1,12,0:0:0:0:
256,192,88881,1,0,0:0:0:0:
256,192,88972,1,8,0:0:0:0:
256,192,89063,1,0,0:0:0:0:
256,192,89108,1,0,0:0:0:0:
256,192,89154,1,8,0:0:0:0:
256,192,89245,1,8,0:0:0:0:
256,192,89336,1,0,0:0:0:0:
256,192,89427,1,8,0:0:0:0:
256,192,89517,1,8,0:0:0:0:
256,192,89608,1,0,0:0:0:0:
256,192,89699,1,0,0:0:0:0:
256,192,89745,1,0,0:0:0:0:
256,192,89790,1,8,0:0:0:0:
256,192,89881,1,0,0:0:0:0:
256,192,89972,1,8,0:0:0:0:
256,192,90154,1,0,0:0:0:0:
256,192,90275,1,0,0:0:0:0:
256,192,90336,1,0,0:0:0:0:
256,192,90396,1,8,0:0:0:0:
256,192,90517,1,0,0:0:0:0:
256,192,90639,1,8,0:0:0:0:
256,192,90699,1,0,0:0:0:0:
256,192,90760,1,8,0:0:0:0:
256,192,90881,1,0,0:0:0:0:
256,192,90972,1,0,0:0:0:0:
256,192,91017,1,0,0:0:0:0:
256,192,91063,1,8,0:0:0:0:
256,192,91154,1,8,0:0:0:0:
256,192,91245,1,0,0:0:0:0:
256,192,91336,1,0,0:0:0:0:
256,192,91427,1,8,0:0:0:0:
256,192,91608,1,8,0:0:0:0:
256,192,91699,1,0,0:0:0:0:
256,192,91745,1,0,0:0:0:0:
256,192,91790,1,8,0:0:0:0:
256,192,91881,1,0,0:0:0:0:
256,192,91972,1,8,0:0:0:0:
256,192,92017,1,8,0:0:0:0:
256,192,92063,1,0,0:0:0:0:
256,192,92154,1,0,0:0:0:0:
256,192,92245,1,8,0:0:0:0:
256,192,92336,1,8,0:0:0:0:
256,192,92381,1,8,0:0:0:0:
256,192,92427,1,8,0:0:0:0:
256,192,92472,1,8,0:0:0:0:
256,192,92517,1,0,0:0:0:0:
256,192,92608,1,0,0:0:0:0:
256,192,92699,1,8,0:0:0:0:
256,192,92790,1,8,0:0:0:0:
256,192,92881,1,0,0:0:0:0:
256,192,92972,1,0,0:0:0:0:
256,192,93063,1,12,0:0:0:0:
256,192,93245,1,4,0:0:0:0:
256,192,93427,1,12,0:0:0:0:
256,192,93608,1,8,0:0:0:0:
256,192,93699,1,8,0:0:0:0:
256,192,93790,1,4,0:0:0:0:
256,192,94154,1,8,0:0:0:0:
256,192,94517,1,0,0:0:0:0:
256,192,94881,1,8,0:0:0:0:
256,192,95063,1,0,0:0:0:0:
256,192,95427,1,8,0:0:0:0:
256,192,95790,1,0,0:0:0:0:
256,192,95972,1,8,0:0:0:0:
256,192,96245,1,0,0:0:0:0:
256,192,96517,1,8,0:0:0:0:
256,192,96699,1,0,0:0:0:0:
256,192,96972,1,8,0:0:0:0:
256,192,97245,1,8,0:0:0:0:
256,192,97427,1,0,0:0:0:0:
256,192,98154,1,8,0:0:0:0:
256,192,98517,1,0,0:0:0:0:
256,192,98699,1,0,0:0:0:0:
256,192,98881,1,8,0:0:0:0:
256,192,99154,1,0,0:0:0:0:
256,192,99427,1,0,0:0:0:0:
256,192,99608,1,8,0:0:0:0:
256,192,99972,1,0,0:0:0:0:
256,192,100154,1,0,0:0:0:0:
256,192,100336,1,8,0:0:0:0:
256,192,100699,1,0,0:0:0:0:
256,192,101063,1,8,0:0:0:0:
256,192,101427,1,8,0:0:0:0:
256,192,101608,1,8,0:0:0:0:
256,192,101790,1,0,0:0:0:0:
256,192,102154,1,8,0:0:0:0:
256,192,102517,1,8,0:0:0:0:
256,192,102881,1,0,0:0:0:0:
256,192,103063,1,0,0:0:0:0:
256,192,103245,1,8,0:0:0:0:
256,192,103972,1,0,0:0:0:0:
256,192,106154,12,0,107245,0:0:0:0:
256,192,107608,5,12,0:0:0:0:
256,192,107790,1,8,0:0:0:0:
256,192,107881,1,0,0:0:0:0:
256,192,107927,1,0,0:0:0:0:
256,192,107972,1,8,0:0:0:0:
256,192,108063,1,0,0:0:0:0:
256,192,108154,1,8,0:0:0:0:
256,192,108199,1,8,0:0:0:0:
256,192,108245,1,8,0:0:0:0:
256,192,108290,1,8,0:0:0:0:
256,192,108336,1,0,0:0:0:0:
256,192,108427,1,0,0:0:0:0:
256,192,108517,1,8,0:0:0:0:
256,192,108608,1,0,0:0:0:0:
256,192,108699,1,8,0:0:0:0:
256,192,108790,1,0,0:0:0:0:
256,192,108836,1,0,0:0:0:0:
256,192,108881,1,8,0:0:0:0:
256,192,108972,1,8,0:0:0:0:
256,192,109063,1,0,0:0:0:0:
256,192,109108,1,0,0:0:0:0:
256,192,109154,1,0,0:0:0:0:
256,192,109245,1,8,0:0:0:0:
256,192,109336,1,0,0:0:0:0:
256,192,109427,1,8,0:0:0:0:
256,192,109472,1,8,0:0:0:0:
256,192,109517,1,0,0:0:0:0:
256,192,109608,1,8,0:0:0:0:
256,192,109699,1,0,0:0:0:0:
256,192,109790,1,8,0:0:0:0:
256,192,109836,1,8,0:0:0:0:
256,192,109881,1,8,0:0:0:0:
256,192,109972,1,0,0:0:0:0:
256,192,110063,1,0,0:0:0:0:
256,192,110154,1,8,0:0:0:0:
256,192,110199,1,0,0:0:0:0:
256,192,110245,1,0,0:0:0:0:
256,192,110336,1,8,0:0:0:0:
256,192,110427,1,8,0:0:0:0:
256,192,110517,1,4,0:0:0:0:
256,192,110699,1,8,0:0:0:0:
256,192,110790,1,8,0:0:0:0:
256,192,110836,1,8,0:0:0:0:
256,192,110881,1,0,0:0:0:0:
256,192,110972,1,0,0:0:0:0:
256,192,111063,1,8,0:0:0:0:
256,192,111108,1,8,0:0:0:0:
256,192,111154,1,8,0:0:0:0:
256,192,111245,1,0,0:0:0:0:
256,192,111336,1,0,0:0:0:0:
256,192,111427,1,8,0:0:0:0:
256,192,111517,1,0,0:0:0:0:
256,192,111608,1,8,0:0:0:0:
256,192,111654,1,8,0:0:0:0:
256,192,111699,1,0,0:0:0:0:
256,192,111790,1,8,0:0:0:0:
256,192,111881,1,0,0:0:0:0:
256,192,111972,1,8,0:0:0:0:
256,192,112017,1,8,0:0:0:0:
256,192,112063,1,0,0:0:0:0:
256,192,112154,1,0,0:0:0:0:
256,192,112245,1,8,0:0:0:0:
256,192,112290,1,0,0:0:0:0:
256,192,112336,1,0,0:0:0:0:
256,192,112427,1,0,0:0:0:0:
256,192,112517,1,8,0:0:0:0:
256,192,112563,1,8,0:0:0:0:
256,192,112608,1,8,0:0:0:0:
256,192,112699,1,0,0:0:0:0:
256,192,112790,1,0,0:0:0:0:
256,192,112881,1,12,0:0:0:0:
256,192,113063,1,8,0:0:0:0:
256,192,113154,1,0,0:0:0:0:
256,192,113245,1,8,0:0:0:0:
256,192,113336,1,8,0:0:0:0:
256,192,113427,1,4,0:0:0:0:
256,192,113790,1,8,0:0:0:0:
256,192,113972,1,8,0:0:0:0:
256,192,114154,1,4,0:0:0:0:
256,192,114517,1,8,0:0:0:0:
256,192,114699,1,8,0:0:0:0:
256,192,114881,1,4,0:0:0:0:
256,192,115063,1,4,0:0:0:0:
256,192,115245,1,12,0:0:0:0:
256,192,115427,1,12,0:0:0:0:
256,192,115608,1,8,0:0:0:0:
256,192,115669,1,8,0:0:0:0:
256,192,115730,1,0,0:0:0:0:
256,192,115790,1,0,0:0:0:0:
256,192,115851,1,0,0:0:0:0:
256,192,115911,1,0,0:0:0:0:
256,192,115972,1,8,0:0:0:0:
256,192,116033,1,8,0:0:0:0:
256,192,116093,1,0,0:0:0:0:
256,192,116154,1,0,0:0:0:0:
256,192,116336,1,12,0:0:0:0:
256,192,116517,1,8,0:0:0:0:
256,192,116608,1,0,0:0:0:0:
256,192,116654,1,0,0:0:0:0:
256,192,116699,1,8,0:0:0:0:
256,192,116790,1,0,0:0:0:0:
256,192,116881,1,8,0:0:0:0:
256,192,116972,1,0,0:0:0:0:
256,192,117063,1,8,0:0:0:0:
256,192,117108,1,8,0:0:0:0:
256,192,117154,1,8,0:0:0:0:
256,192,117245,1,0,0:0:0:0:
256,192,117336,1,0,0:0:0:0:
256,192,117427,1,8,0:0:0:0:
256,192,117472,1,8,0:0:0:0:
256,192,117517,1,0,0:0:0:0:
256,192,117608,1,8,0:0:0:0:
256,192,117699,1,0,0:0:0:0:
256,192,119245,1,4,0:0:0:0:
256,192,119427,1,0,0:0:0:0:
256,192,119517,1,0,0:0:0:0:
256,192,119608,1,8,0:0:0:0:
256,192,119699,1,0,0:0:0:0:
256,192,119745,1,0,0:0:0:0:
256,192,119790,1,8,0:0:0:0:
256,192,119881,1,0,0:0:0:0:
256,192,119972,1,8,0:0:0:0:
256,192,120063,1,8,0:0:0:0:
256,192,120154,1,0,0:0:0:0:
256,192,120336,1,0,0:0:0:0:
256,192,120381,1,0,0:0:0:0:
256,192,120427,1,8,0:0:0:0:
256,192,120517,1,8,0:0:0:0:
256,192,120608,1,0,0:0:0:0:
256,192,120699,1,8,0:0:0:0:
256,192,120745,1,8,0:0:0:0:
256,192,120790,1,0,0:0:0:0:
256,192,120881,1,8,0:0:0:0:
256,192,120972,1,0,0:0:0:0:
256,192,121063,1,8,0:0:0:0:
256,192,121108,1,8,0:0:0:0:
256,192,121154,1,0,0:0:0:0:
256,192,121245,1,8,0:0:0:0:
256,192,121336,1,0,0:0:0:0:
256,192,121427,1,8,0:0:0:0:
256,192,121472,1,0,0:0:0:0:
256,192,121517,1,0,0:0:0:0:
256,192,121608,1,8,0:0:0:0:
256,192,121790,1,8,0:0:0:0:
256,192,121881,1,0,0:0:0:0:
256,192,121927,1,0,0:0:0:0:
256,192,121972,1,8,0:0:0:0:
256,192,122063,1,0,0:0:0:0:
256,192,122154,1,8,0:0:0:0:
256,192,122245,1,8,0:0:0:0:
256,192,122336,1,0,0:0:0:0:
256,192,122517,1,8,0:0:0:0:
256,192,122563,1,0,0:0:0:0:
256,192,122608,1,0,0:0:0:0:
256,192,122699,1,8,0:0:0:0:
256,192,122790,1,8,0:0:0:0:
256,192,122881,1,0,0:0:0:0:
256,192,122927,1,0,0:0:0:0:
256,192,122972,1,8,0:0:0:0:
256,192,123063,1,8,0:0:0:0:
256,192,123154,1,0,0:0:0:0:
256,192,123245,1,8,0:0:0:0:
256,192,123290,1,0,0:0:0:0:
256,192,123336,1,8,0:0:0:0:
256,192,123427,1,0,0:0:0:0:
256,192,123517,1,8,0:0:0:0:
256,192,123608,1,8,0:0:0:0:
256,192,123654,1,8,0:0:0:0:
256,192,123699,1,0,0:0:0:0:
256,192,123790,1,8,0:0:0:0:
256,192,123881,1,0,0:0:0:0:
256,192,123972,1,8,0:0:0:0:
256,192,124017,1,8,0:0:0:0:
256,192,124063,1,0,0:0:0:0:
256,192,124154,1,8,0:0:0:0:
256,192,124245,1,8,0:0:0:0:
256,192,124336,1,0,0:0:0:0:
256,192,124427,1,8,0:0:0:0:
256,192,124472,1,8,0:0:0:0:
256,192,124517,1,0,0:0:0:0:
256,192,124608,1,8,0:0:0:0:
256,192,124699,1,8,0:0:0:0:
256,192,124745,1,8,0:0:0:0:
256,192,124790,1,0,0:0:0:0:
256,192,124836,1,0,0:0:0:0:
256,192,124881,1,8,0:0:0:0:
256,192,124972,1,0,0:0:0:0:
256,192,125063,1,12,0:0:0:0:
256,192,125245,1,0,0:0:0:0:
256,192,125336,1,8,0:0:0:0:
256,192,125427,1,0,0:0:0:0:
256,192,125472,1,0,0:0:0:0:
256,192,125517,1,8,0:0:0:0:
256,192,125608,1,8,0:0:0:0:
256,192,125699,1,0,0:0:0:0:
256,192,125790,1,8,0:0:0:0:
256,192,125881,1,8,0:0:0:0:
256,192,125972,1,0,0:0:0:0:
256,192,126063,1,0,0:0:0:0:
256,192,126108,1,0,0:0:0:0:
256,192,126154,1,8,0:0:0:0:
256,192,126245,1,0,0:0:0:0:
256,192,126336,1,8,0:0:0:0:
256,192,126517,1,0,0:0:0:0:
256,192,126639,1,0,0:0:0:0:
256,192,126699,1,0,0:0:0:0:
256,192,126760,1,8,0:0:0:0:
256,192,126881,1,0,0:0:0:0:
256,192,127002,1,8,0:0:0:0:
256,192,127063,1,0,0:0:0:0:
256,192,127123,1,8,0:0:0:0:
256,192,127245,1,0,0:0:0:0:
256,192,127336,1,0,0:0:0:0:
256,192,127381,1,0,0:0:0:0:
256,192,127427,1,8,0:0:0:0:
256,192,127517,1,8,0:0:0:0:
256,192,127608,1,0,0:0:0:0:
256,192,127699,1,0,0:0:0:0:
256,192,127790,1,8,0:0:0:0:
256,192,127972,1,8,0:0:0:0:
256,192,128063,1,0,0:0:0:0:
256,192,128108,1,0,0:0:0:0:
256,192,128154,1,8,0:0:0:0:
256,192,128245,1,0,0:0:0:0:
256,192,128336,1,8,0:0:0:0:
256,192,128381,1,8,0:0:0:0:
256,192,128427,1,0,0:0:0:0:
256,192,128517,1,0,0:0:0:0:
256,192,128608,1,8,0:0:0:0:
256,192,128699,1,8,0:0:0:0:
256,192,128745,1,8,0:0:0:0:
256,192,128790,1,8,0:0:0:0:
256,192,128836,1,8,0:0:0:0:
256,192,128881,1,0,0:0:0:0:
256,192,128972,1,0,0:0:0:0:
256,192,129063,1,8,0:0:0:0:
256,192,129154,1,8,0:0:0:0:
256,192,129245,1,0,0:0:0:0:
256,192,129336,1,0,0:0:0:0:
256,192,129427,1,12,0:0:0:0:
256,192,129608,1,4,0:0:0:0:
256,192,129790,1,12,0:0:0:0:
256,192,129972,1,8,0:0:0:0:
256,192,130063,1,8,0:0:0:0:
256,192,130154,1,4,0:0:0:0:
256,192,130517,12,0,130881,0:0:0:0:
