osu file format v14

[General]
AudioFilename: audio.ogg
AudioLeadIn: 0
PreviewTime: 59332
Countdown: 0
SampleSet: Normal
StackLeniency: 0.7
Mode: 1
LetterboxInBreaks: 0
WidescreenStoryboard: 1

[Editor]
DistanceSpacing: 4.4
BeatDivisor: 4
GridSize: 32
TimelineZoom: 3.180001

[Metadata]
Title:A Wandering Melody of Love
TitleUnicode:迷える音色は恋の唄
Artist:KaratoPanchiiShounen feat. Haruno
ArtistUnicode:からとPαnchii少年 feat. はるの
Creator:KyeX
Version:Futsuu
Source:Arcaea
Tags:japanese rock jrock j-rock electronic video game Mayoeru neiro wa koi no uta Kanae side story sunset radiance オンゲキ ongeki plus red o.n.g.e.k.i. r.e.d.
BeatmapID:3576713
BeatmapSetID:1748598

[Difficulty]
HPDrainRate:7
CircleSize:3
OverallDifficulty:4
ApproachRate:10
SliderMultiplier:1.4
SliderTickRate:1

[Events]
//Background and Video events
0,0,"bg.jpg",0,70
//Break Periods
2,104652,105704
//Storyboard Layer 0 (Background)
//Storyboard Layer 1 (Fail)
//Storyboard Layer 2 (Pass)
//Storyboard Layer 3 (Foreground)
//Storyboard Layer 4 (Overlay)
//Storyboard Sound Samples

[TimingPoints]
1427,363.636363636364,4,1,0,90,1,0
1427,-100,4,1,0,90,0,1
7245,-100,4,1,0,90,0,0
10154,-100,4,1,0,90,0,1
13063,-100,4,1,0,90,0,0
24699,-100,4,1,0,85,0,0
36336,-100,4,1,0,90,0,0
48063,-111.111111111111,4,1,0,60,0,0
53790,-100,4,1,0,85,0,0
59608,-100,4,1,0,90,0,1
77063,-100,4,1,0,90,0,0
79972,-100,4,1,0,90,0,1
82881,-100,4,1,0,90,0,0
94517,-111.111111111111,4,1,0,50,0,0
106154,-100,4,1,0,10,0,0
106177,-100,4,1,0,12,0,0
106199,-100,4,1,0,13,0,0
106222,-100,4,1,0,15,0,0
106245,-100,4,1,0,17,0,0
106267,-100,4,1,0,18,0,0
106290,-100,4,1,0,20,0,0
106313,-100,4,1,0,22,0,0
106336,-100,4,1,0,23,0,0
106358,-100,4,1,0,25,0,0
106381,-100,4,1,0,27,0,0
106404,-100,4,1,0,28,0,0
106427,-100,4,1,0,30,0,0
106449,-100,4,1,0,32,0,0
106472,-100,4,1,0,33,0,0
106495,-100,4,1,0,35,0,0
106517,-100,4,1,0,37,0,0
106540,-100,4,1,0,38,0,0
106563,-100,4,1,0,40,0,0
106586,-100,4,1,0,42,0,0
106608,-100,4,1,0,43,0,0
106631,-100,4,1,0,45,0,0
106654,-100,4,1,0,47,0,0
106677,-100,4,1,0,48,0,0
106699,-100,4,1,0,50,0,0
106722,-100,4,1,0,52,0,0
106745,-100,4,1,0,53,0,0
106767,-100,4,1,0,55,0,0
106790,-100,4,1,0,57,0,0
106813,-100,4,1,0,58,0,0
106836,-100,4,1,0,60,0,0
106858,-100,4,1,0,62,0,0
106881,-100,4,1,0,63,0,0
106904,-100,4,1,0,65,0,0
106927,-100,4,1,0,67,0,0
106949,-100,4,1,0,68,0,0
106972,-100,4,1,0,70,0,0
106995,-100,4,1,0,72,0,0
107017,-100,4,1,0,73,0,0
107040,-100,4,1,0,75,0,0
107063,-100,4,1,0,77,0,0
107086,-100,4,1,0,78,0,0
107108,-100,4,1,0,80,0,0
107131,-100,4,1,0,82,0,0
107154,-100,4,1,0,83,0,0
107177,-100,4,1,0,85,0,0
107199,-100,4,1,0,87,0,0
107222,-100,4,1,0,88,0,0
107245,-100,4,1,0,90,0,0
107608,-100,4,1,0,90,0,1
113427,-100,4,1,0,90,0,0
116336,-100,4,1,0,90,0,1
117790,-100,4,1,0,90,0,0

[HitObjects]
256,192,1427,5,12,0:0:0:0:
256,192,1790,1,0,0:0:0:0:
256,192,1972,1,8,0:0:0:0:
256,192,2336,1,8,0:0:0:0:
256,192,2517,1,0,0:0:0:0:
256,192,2881,1,0,0:0:0:0:
256,192,3245,1,8,0:0:0:0:
256,192,3427,1,8,0:0:0:0:
256,192,3608,1,0,0:0:0:0:
256,192,3972,1,8,0:0:0:0:
256,192,4336,1,4,0:0:0:0:
256,192,4881,1,8,0:0:0:0:
256,192,5245,1,8,0:0:0:0:
256,192,5427,1,0,0:0:0:0:
256,192,5790,1,8,0:0:0:0:
256,192,6154,1,0,0:0:0:0:
256,192,6336,1,8,0:0:0:0:
256,192,6699,1,12,0:0:0:0:
256,192,7245,1,4,0:0:0:0:
256,192,7972,1,4,0:0:0:0:
256,192,8699,1,4,0:0:0:0:
256,192,9063,1,4,0:0:0:0:
256,192,9427,1,8,0:0:0:0:
256,192,10154,1,12,0:0:0:0:
256,192,10517,1,8,0:0:0:0:
256,192,10699,1,0,0:0:0:0:
256,192,10881,1,8,0:0:0:0:
256,192,11245,1,0,0:0:0:0:
256,192,11608,1,12,0:0:0:0:
256,192,11972,1,12,0:0:0:0:
256,192,12336,1,0,0:0:0:0:
256,192,13063,1,4,0:0:0:0:
256,192,13427,1,0,0:0:0:0:
256,192,13790,1,8,0:0:0:0:
256,192,14154,1,8,0:0:0:0:
256,192,14336,1,8,0:0:0:0:
256,192,14517,1,0,0:0:0:0:
256,192,14881,1,8,0:0:0:0:
256,192,15245,1,0,0:0:0:0:
256,192,15608,1,0,0:0:0:0:
256,192,15790,1,0,0:0:0:0:
256,192,15972,1,8,0:0:0:0:
256,192,16336,1,0,0:0:0:0:
256,192,16699,1,0,0:0:0:0:
256,192,16881,1,0,0:0:0:0:
256,192,17063,1,8,0:0:0:0:
256,192,17245,1,8,0:0:0:0:
256,192,17427,1,0,0:0:0:0:
256,192,17790,1,8,0:0:0:0:
256,192,18154,1,0,0:0:0:0:
256,192,18881,1,12,0:0:0:0:
256,192,19245,1,0,0:0:0:0:
256,192,19608,1,8,0:0:0:0:
256,192,19972,1,0,0:0:0:0:
256,192,20336,1,8,0:0:0:0:
256,192,20517,1,0,0:0:0:0:
256,192,20699,1,8,0:0:0:0:
256,192,21063,1,0,0:0:0:0:
256,192,21427,1,8,0:0:0:0:
256,192,21790,1,8,0:0:0:0:
256,192,21972,1,8,0:0:0:0:
256,192,22154,1,0,0:0:0:0:
256,192,22517,1,8,0:0:0:0:
256,192,23245,1,12,0:0:0:0:
256,192,23608,1,12,0:0:0:0:
256,192,23972,1,4,0:0:0:0:
256,192,24699,1,12,0:0:0:0:
256,192,25063,1,8,0:0:0:0:
256,192,25427,1,0,0:0:0:0:
256,192,25972,1,8,0:0:0:0:
256,192,26154,1,0,0:0:0:0:
256,192,26517,1,8,0:0:0:0:
256,192,26881,1,0,0:0:0:0:
256,192,27245,1,8,0:0:0:0:
256,192,27427,1,8,0:0:0:0:
256,192,27608,1,0,0:0:0:0:
256,192,27972,1,8,0:0:0:0:
256,192,28336,1,0,0:0:0:0:
256,192,28699,1,8,0:0:0:0:
256,192,28881,1,0,0:0:0:0:
256,192,29063,1,8,0:0:0:0:
256,192,29427,1,0,0:0:0:0:
256,192,29790,1,8,0:0:0:0:
256,192,30517,1,12,0:0:0:0:
256,192,30881,1,8,0:0:0:0:
256,192,31245,1,0,0:0:0:0:
256,192,31608,1,8,0:0:0:0:
256,192,31972,1,0,0:0:0:0:
256,192,32154,1,0,0:0:0:0:
256,192,32336,1,8,0:0:0:0:
256,192,32699,1,8,0:0:0:0:
256,192,33063,1,0,0:0:0:0:
256,192,33427,1,8,0:0:0:0:
256,192,33608,1,0,0:0:0:0:
256,192,33790,1,8,0:0:0:0:
256,192,34154,1,0,0:0:0:0:
256,192,34517,1,8,0:0:0:0:
256,192,34881,1,0,0:0:0:0:
256,192,35245,1,8,0:0:0:0:
256,192,35427,1,0,0:0:0:0:
256,192,36336,1,12,0:0:0:0:
256,192,36699,1,8,0:0:0:0:
256,192,37063,1,8,0:0:0:0:
256,192,37427,1,0,0:0:0:0:
256,192,37608,1,0,0:0:0:0:
256,192,37790,1,8,0:0:0:0:
256,192,38154,1,0,0:0:0:0:
256,192,38517,1,8,0:0:0:0:
256,192,38881,1,8,0:0:0:0:
256,192,39063,1,8,0:0:0:0:
256,192,39245,1,0,0:0:0:0:
256,192,39608,1,8,0:0:0:0:
256,192,39972,1,0,0:0:0:0:
256,192,40154,1,8,0:0:0:0:
256,192,40336,1,0,0:0:0:0:
256,192,40517,1,0,0:0:0:0:
256,192,40699,1,8,0:0:0:0:
256,192,41063,1,0,0:0:0:0:
256,192,41427,1,8,0:0:0:0:
256,192,42154,1,12,0:0:0:0:
256,192,42517,1,0,0:0:0:0:
256,192,42881,1,8,0:0:0:0:
256,192,43245,1,8,0:0:0:0:
256,192,43427,1,8,0:0:0:0:
256,192,43608,1,0,0:0:0:0:
256,192,43972,1,8,0:0:0:0:
256,192,44336,1,0,0:0:0:0:
256,192,44699,1,8,0:0:0:0:
256,192,45063,1,8,0:0:0:0:
256,192,45245,1,8,0:0:0:0:
256,192,45427,1,0,0:0:0:0:
256,192,45790,1,8,0:0:0:0:
256,192,45972,1,0,0:0:0:0:
256,192,46336,1,12,0:0:0:0:
256,192,46699,1,8,0:0:0:0:
256,192,47063,1,8,0:0:0:0:
256,192,47245,1,0,0:0:0:0:
256,192,47608,1,8,0:0:0:0:
256,192,47972,1,4,0:0:0:0:
256,192,48699,1,8,0:0:0:0:
256,192,49063,1,0,0:0:0:0:
256,192,49245,1,0,0:0:0:0:
256,192,49790,1,0,0:0:0:0:
256,192,50154,1,8,0:0:0:0:
256,192,50517,1,0,0:0:0:0:
256,192,50881,1,8,0:0:0:0:
256,192,51608,1,8,0:0:0:0:
256,192,51972,1,0,0:0:0:0:
256,192,52336,1,0,0:0:0:0:
256,192,52517,1,8,0:0:0:0:
256,192,52699,1,8,0:0:0:0:
256,192,53063,1,8,0:0:0:0:
256,192,53790,1,12,0:0:0:0:
256,192,54154,1,8,0:0:0:0:
256,192,54517,1,0,0:0:0:0:
256,192,54881,1,8,0:0:0:0:
256,192,55063,1,0,0:0:0:0:
256,192,55427,1,8,0:0:0:0:
256,192,55608,1,8,0:0:0:0:
256,192,55972,1,0,0:0:0:0:
256,192,56336,1,8,0:0:0:0:
256,192,56699,1,0,0:0:0:0:
256,192,57063,1,8,0:0:0:0:
256,192,57427,1,0,0:0:0:0:
256,192,57608,1,8,0:0:0:0:
256,192,57790,1,8,0:0:0:0:
256,192,58154,1,4,0:0:0:0:
256,192,58699,1,4,0:0:0:0:
256,192,59608,1,12,0:0:0:0:
256,192,59972,1,0,0:0:0:0:
256,192,60154,1,8,0:0:0:0:
256,192,60517,1,8,0:0:0:0:
256,192,60699,1,0,0:0:0:0:
256,192,61063,1,0,0:0:0:0:
256,192,61427,1,8,0:0:0:0:
256,192,61608,1,8,0:0:0:0:
256,192,61790,1,0,0:0:0:0:
256,192,62154,1,8,0:0:0:0:
256,192,62517,1,4,0:0:0:0:
256,192,63063,1,8,0:0:0:0:
256,192,63427,1,8,0:0:0:0:
256,192,63608,1,0,0:0:0:0:
256,192,63972,1,8,0:0:0:0:
256,192,64336,1,0,0:0:0:0:
256,192,64517,1,8,0:0:0:0:
256,192,64881,1,12,0:0:0:0:
256,192,65427,1,4,0:0:0:0:
256,192,66154,1,0,0:0:0:0:
256,192,66517,1,0,0:0:0:0:
256,192,66699,1,0,0:0:0:0:
256,192,66881,1,8,0:0:0:0:
256,192,67245,1,0,0:0:0:0:
256,192,67608,1,8,0:0:0:0:
256,192,68336,1,12,0:0:0:0:
256,192,68699,1,8,0:0:0:0:
256,192,68881,1,0,0:0:0:0:
256,192,69063,1,8,0:0:0:0:
256,192,69427,1,0,0:0:0:0:
256,192,69790,1,12,0:0:0:0:
256,192,70154,1,12,0:0:0:0:
256,192,70517,1,0,0:0:0:0:
256,192,71245,1,12,0:0:0:0:
256,192,71608,1,0,0:0:0:0:
256,192,71790,1,8,0:0:0:0:
256,192,72154,1,8,0:0:0:0:
256,192,72336,1,0,0:0:0:0:
256,192,72699,1,8,0:0:0:0:
256,192,73063,1,8,0:0:0:0:
256,192,73245,1,0,0:0:0:0:
256,192,73427,1,8,0:0:0:0:
256,192,73790,1,0,0:0:0:0:
256,192,74154,1,12,0:0:0:0:
256,192,74517,1,0,0:0:0:0:
256,192,74699,1,8,0:0:0:0:
256,192,75063,1,8,0:0:0:0:
256,192,75245,1,8,0:0:0:0:
256,192,75608,1,0,0:0:0:0:
256,192,75972,1,8,0:0:0:0:
256,192,76154,1,0,0:0:0:0:
256,192,76517,1,12,0:0:0:0:
256,192,77063,1,4,0:0:0:0:
256,192,77790,1,4,0:0:0:0:
256,192,78517,1,4,0:0:0:0:
256,192,78881,1,4,0:0:0:0:
256,192,79245,1,8,0:0:0:0:
256,192,79972,1,12,0:0:0:0:
256,192,80336,1,8,0:0:0:0:
256,192,80517,1,0,0:0:0:0:
256,192,80699,1,8,0:0:0:0:
256,192,81063,1,0,0:0:0:0:
256,192,81427,1,12,0:0:0:0:
256,192,81790,1,12,0:0:0:0:
256,192,82154,1,0,0:0:0:0:
256,192,82881,1,4,0:0:0:0:
256,192,83608,1,8,0:0:0:0:
256,192,84154,1,0,0:0:0:0:
256,192,84336,1,8,0:0:0:0:
256,192,84699,1,8,0:0:0:0:
256,192,85063,1,0,0:0:0:0:
256,192,85427,1,8,0:0:0:0:
256,192,85608,1,8,0:0:0:0:
256,192,85790,1,0,0:0:0:0:
256,192,86154,1,8,0:0:0:0:
256,192,86517,1,0,0:0:0:0:
256,192,86699,1,0,0:0:0:0:
256,192,86881,1,8,0:0:0:0:
256,192,87245,1,0,0:0:0:0:
256,192,87608,1,8,0:0:0:0:
256,192,87790,1,0,0:0:0:0:
256,192,87972,1,8,0:0:0:0:
256,192,88699,1,12,0:0:0:0:
256,192,89063,1,0,0:0:0:0:
256,192,89427,1,8,0:0:0:0:
256,192,89790,1,0,0:0:0:0:
256,192,90154,1,8,0:0:0:0:
256,192,90336,1,0,0:0:0:0:
256,192,90517,1,8,0:0:0:0:
256,192,90881,1,0,0:0:0:0:
256,192,91245,1,8,0:0:0:0:
256,192,91608,1,8,0:0:0:0:
256,192,91790,1,8,0:0:0:0:
256,192,91972,1,0,0:0:0:0:
256,192,92336,1,8,0:0:0:0:
256,192,93063,1,12,0:0:0:0:
256,192,93427,1,12,0:0:0:0:
256,192,93790,1,4,0:0:0:0:
256,192,94517,1,0,0:0:0:0:
256,192,95427,1,8,0:0:0:0:
256,192,95972,1,8,0:0:0:0:
256,192,96699,1,0,0:0:0:0:
256,192,97427,1,8,0:0:0:0:
256,192,98154,1,8,0:0:0:0:
256,192,98881,1,0,0:0:0:0:
256,192,99972,1,0,0:0:0:0:
256,192,100336,1,8,0:0:0:0:
256,192,101063,1,8,0:0:0:0:
256,192,101790,1,0,0:0:0:0:
256,192,102154,1,8,0:0:0:0:
256,192,102517,1,8,0:0:0:0:
256,192,103245,1,8,0:0:0:0:
256,192,103972,1,0,0:0:0:0:
256,192,106154,12,0,107245,0:0:0:0:
256,192,107608,5,12,0:0:0:0:
256,192,107972,1,0,0:0:0:0:
256,192,108154,1,8,0:0:0:0:
256,192,108517,1,8,0:0:0:0:
256,192,108699,1,0,0:0:0:0:
256,192,109063,1,0,0:0:0:0:
256,192,109427,1,8,0:0:0:0:
256,192,109608,1,8,0:0:0:0:
256,192,109790,1,0,0:0:0:0:
256,192,110154,1,8,0:0:0:0:
256,192,110517,1,4,0:0:0:0:
256,192,111063,1,8,0:0:0:0:
256,192,111427,1,8,0:0:0:0:
256,192,111608,1,0,0:0:0:0:
256,192,111972,1,8,0:0:0:0:
256,192,112336,1,0,0:0:0:0:
256,192,112517,1,8,0:0:0:0:
256,192,112881,1,12,0:0:0:0:
256,192,113427,1,4,0:0:0:0:
256,192,114154,1,4,0:0:0:0:
256,192,114881,1,4,0:0:0:0:
256,192,115245,1,4,0:0:0:0:
256,192,115608,1,8,0:0:0:0:
256,192,116336,1,12,0:0:0:0:
256,192,116699,1,8,0:0:0:0:
256,192,116881,1,0,0:0:0:0:
256,192,117063,1,8,0:0:0:0:
256,192,117427,1,0,0:0:0:0:
256,192,119245,1,4,0:0:0:0:
256,192,119608,1,0,0:0:0:0:
256,192,119972,1,8,0:0:0:0:
256,192,120336,1,8,0:0:0:0:
256,192,120517,1,8,0:0:0:0:
256,192,120699,1,0,0:0:0:0:
256,192,121063,1,8,0:0:0:0:
256,192,121427,1,0,0:0:0:0:
256,192,121790,1,0,0:0:0:0:
256,192,121972,1,0,0:0:0:0:
256,192,122154,1,8,0:0:0:0:
256,192,122517,1,0,0:0:0:0:
256,192,122881,1,0,0:0:0:0:
256,192,123063,1,0,0:0:0:0:
256,192,123245,1,8,0:0:0:0:
256,192,123427,1,8,0:0:0:0:
256,192,123608,1,0,0:0:0:0:
256,192,123972,1,8,0:0:0:0:
256,192,124336,1,0,0:0:0:0:
256,192,125063,1,12,0:0:0:0:
256,192,125427,1,0,0:0:0:0:
256,192,125790,1,8,0:0:0:0:
256,192,126154,1,0,0:0:0:0:
256,192,126517,1,8,0:0:0:0:
256,192,126699,1,0,0:0:0:0:
256,192,126881,1,8,0:0:0:0:
256,192,127245,1,0,0:0:0:0:
256,192,127608,1,8,0:0:0:0:
256,192,127972,1,8,0:0:0:0:
256,192,128154,1,8,0:0:0:0:
256,192,128336,1,0,0:0:0:0:
256,192,128699,1,8,0:0:0:0:
256,192,129427,1,12,0:0:0:0:
256,192,129790,1,12,0:0:0:0:
256,192,130154,1,4,0:0:0:0:
