osu file format v14

[General]
AudioFilename: audio.mp3
AudioLeadIn: 0
PreviewTime: 59256
Countdown: 0
SampleSet: Normal
StackLeniency: 0.7
Mode: 3
LetterboxInBreaks: 0
SpecialStyle: 0
WidescreenStoryboard: 1

[Editor]
DistanceSpacing: 1
BeatDivisor: 4
GridSize: 4
TimelineZoom: 1.4

[Metadata]
Title:A Wandering Melody of Love
TitleUnicode:迷える音色は恋の唄
Artist:KaratoPanchiiShonen feat. Haruno
ArtistUnicode:からとPαnchii少年 feat.はるの
Creator:YuEast 2018
Version:Past
Source:Arcaea
Tags:video game japanese mayoeru neiro wa koi no uta sunset radiance Karato-P からとP Kanae 叶永 群愿 Lottery61
BeatmapID:2167219
BeatmapSetID:1036525

[Difficulty]
HPDrainRate:7
CircleSize:4
OverallDifficulty:7.5
ApproachRate:5
SliderMultiplier:1.4
SliderTickRate:1

[Events]
//Background and Video events
0,0,"109531.webp.jpg",0,0
//Break Periods
//Storyboard Layer 0 (Background)
//Storyboard Layer 1 (Fail)
//Storyboard Layer 2 (Pass)
//Storyboard Layer 3 (Foreground)
//Storyboard Layer 4 (Overlay)
//Storyboard Sound Samples
Sample,3085,0,"normal-hitclap.wav",35
Sample,3812,0,"normal-hitclap.wav",35
Sample,5994,0,"normal-hitclap.wav",35
Sample,6721,0,"soft-hitwhistle.wav",35
Sample,57630,0,"soft-hitclap.wav",35
Sample,61267,0,"normal-hitclap.wav",35
Sample,61994,0,"normal-hitclap.wav",35
Sample,76539,0,"normal-hitwhistle.wav",35
Sample,109267,0,"normal-hitclap.wav",35
Sample,109994,0,"normal-hitclap.wav",35
Sample,112176,0,"normal-hitclap.wav",35
Sample,112903,0,"soft-hitwhistle.wav",35

[TimingPoints]
1438,363.636363636364,4,1,1,70,1,0
1438,-100,4,1,1,70,0,1
12347,-100,4,1,1,70,0,0
59619,-100,4,1,1,70,0,1
82165,-100,4,1,1,70,0,0
107619,-100,4,1,1,70,0,1
118528,-100,4,1,1,70,0,0

[HitObjects]
448,192,1074,5,0,0:0:0:0:
320,192,1256,1,0,0:0:0:0:
448,192,1438,1,0,0:0:0:0:
192,192,1438,1,4,0:0:0:0:
64,192,1619,1,0,0:0:0:0:
448,192,1710,1,0,0:0:0:0:
64,192,1892,1,0,0:0:0:0:
448,192,1983,128,0,2347:0:0:0:0:
64,192,2347,1,0,0:0:0:0:
192,192,2528,1,0,0:0:0:0:
320,192,2710,1,0,0:0:0:0:
448,192,2892,128,0,3165:0:0:0:0:
192,192,3165,1,0,0:0:0:0:
64,192,3256,1,0,0:0:0:0:
192,192,3438,1,0,0:0:0:0:
320,192,3619,128,0,3892:0:0:0:0:
64,192,3983,1,0,0:0:0:0:
192,192,4165,1,0,0:0:0:0:
64,192,4347,1,0,0:0:0:0:
320,192,4347,1,4,0:0:0:0:
448,192,4528,1,0,0:0:0:0:
64,192,4619,1,0,0:0:0:0:
448,192,4801,1,0,0:0:0:0:
64,192,4892,128,0,5256:0:0:0:0:
448,192,5256,1,0,0:0:0:0:
320,192,5438,1,0,0:0:0:0:
192,192,5619,1,0,0:0:0:0:
448,192,5801,1,0,0:0:0:0:
320,192,5801,1,0,0:0:0:0:
64,192,6074,1,0,0:0:0:0:
320,192,6074,1,0,0:0:0:0:
192,192,6347,1,0,0:0:0:0:
448,192,6347,1,0,0:0:0:0:
448,192,6892,1,8,0:0:0:0:
192,192,6983,1,8,0:0:0:0:
320,192,7074,1,8,0:0:0:0:
64,192,7165,1,8,0:0:0:0:
448,192,7256,1,4,0:0:0:0:
320,192,7256,1,2,0:0:0:0:
448,192,7619,1,0,0:0:0:0:
320,192,7801,1,0,0:0:0:0:
192,192,7983,1,2,0:0:0:0:
64,192,7983,1,4,0:0:0:0:
64,192,8347,1,0,0:0:0:0:
192,192,8528,1,0,0:0:0:0:
320,192,8710,1,4,0:0:0:0:
448,192,8710,1,2,0:0:0:0:
320,192,8892,1,4,0:0:0:0:
448,192,8892,1,2,0:0:0:0:
192,192,9074,1,4,0:0:0:0:
64,192,9074,1,2,0:0:0:0:
64,192,9256,1,2,0:0:0:0:
192,192,9256,1,4,0:0:0:0:
320,192,9438,128,0,9801:0:0:0:0:
192,192,9801,128,0,10165:0:0:0:0:
448,192,10165,1,8,0:0:0:0:
64,192,10165,1,0,0:0:0:0:
192,192,10528,1,8,0:0:0:0:
448,192,10528,1,0,0:0:0:0:
320,192,10710,1,0,0:0:0:0:
192,192,10892,1,8,0:0:0:0:
448,192,10892,1,0,0:0:0:0:
320,192,11256,1,8,0:0:0:0:
64,192,11256,1,0,0:0:0:0:
192,192,11438,1,0,0:0:0:0:
320,192,11619,1,8,0:0:0:0:
448,192,11619,1,0,0:0:0:70:tom3.wav
64,192,11801,1,8,0:0:0:0:
448,192,11801,1,0,0:0:0:70:tom3.wav
64,192,11983,1,8,0:0:0:0:
192,192,11983,1,0,0:0:0:70:tom3.wav
320,192,12347,128,0,12710:0:0:0:0:
64,192,12710,1,8,0:0:0:0:
192,192,12710,1,4,0:0:0:0:
64,192,13074,128,0,13438:0:0:0:0:
448,192,13074,1,4,0:0:0:0:
448,192,13438,128,0,13619:0:0:0:0:
320,192,13619,128,0,13801:0:0:0:0:
192,192,13801,128,0,14165:0:0:0:0:
448,192,14165,128,0,14528:0:0:0:0:
64,192,14528,128,0,14710:0:0:0:0:
320,192,14710,128,0,14892:0:0:0:0:
192,192,14892,128,0,15074:0:0:0:0:
448,192,15074,128,0,15256:0:0:0:0:
64,192,15256,128,0,15619:0:0:0:0:
448,192,15619,128,0,15801:0:0:0:0:
320,192,15801,128,0,15983:0:0:0:0:
192,192,15983,128,0,16347:0:0:0:0:
448,192,16347,128,0,16710:0:0:0:0:
64,192,16710,128,0,16892:0:0:0:0:
192,192,16892,128,0,17074:0:0:0:0:
320,192,17074,128,0,17256:0:0:0:0:
448,192,17256,128,0,17438:0:0:0:0:
192,192,17438,128,0,17619:0:0:0:0:
320,192,17619,128,0,17801:0:0:0:0:
64,192,17801,128,0,17983:0:0:0:0:
192,192,17983,128,0,18165:0:0:0:0:
320,192,18165,128,4,18528:0:0:0:0:
448,192,18165,128,0,18528:0:0:0:0:
192,192,18528,128,0,18892:0:0:0:0:
64,192,18892,1,4,0:0:0:0:
448,192,18892,1,0,0:0:0:0:
64,192,19256,1,0,0:0:0:0:
192,192,19347,1,0,0:0:0:0:
320,192,19438,1,0,0:0:0:0:
448,192,19619,128,0,19892:0:0:0:0:
320,192,19892,128,0,20165:0:0:0:0:
192,192,20165,128,0,20347:0:0:0:0:
64,192,20347,128,0,20710:0:0:0:0:
192,192,20710,128,0,21074:0:0:0:0:
448,192,21074,128,0,21801:0:0:0:0:
320,192,21438,128,0,21801:0:0:0:0:
64,192,21801,128,0,21983:0:0:0:0:
192,192,21983,128,0,22165:0:0:0:0:
320,192,22165,128,0,22347:0:0:0:0:
448,192,22347,128,0,22528:0:0:0:0:
64,192,22528,128,0,22710:0:0:0:0:
192,192,22710,128,0,22892:0:0:0:0:
448,192,22892,128,0,23074:0:0:0:0:
320,192,23074,128,0,23256:0:0:0:0:
64,192,23256,1,0,0:0:0:70:tom1.wav
192,192,23256,1,0,0:0:0:70:tom3.wav
64,192,23438,1,0,0:0:0:70:tom1.wav
448,192,23438,1,0,0:0:0:70:tom3.wav
320,192,23619,1,0,0:0:0:70:tom1.wav
448,192,23619,1,0,0:0:0:70:tom3.wav
64,192,23983,128,0,24347:0:0:0:70:tom1.wav
192,192,23983,128,0,24347:0:0:0:70:tom3.wav
448,192,24347,1,0,0:0:0:0:
320,192,24528,1,0,0:0:0:0:
192,192,24710,1,2,0:0:0:0:
64,192,24710,1,4,0:0:0:0:
448,192,24892,1,0,0:0:0:0:
64,192,25074,1,0,0:0:0:0:
320,192,25074,1,8,0:0:0:0:
192,192,25256,1,0,0:0:0:0:
448,192,25438,1,2,0:0:0:0:
64,192,25619,1,0,0:0:0:0:
192,192,25801,1,8,0:0:0:0:
448,192,25801,1,0,0:0:0:0:
320,192,25983,1,0,0:0:0:0:
192,192,26165,1,2,0:0:0:0:
320,192,26347,1,0,0:0:0:0:
64,192,26528,1,8,0:0:0:0:
448,192,26528,1,0,0:0:0:0:
192,192,26710,1,0,0:0:0:0:
320,192,26892,1,2,0:0:0:0:
64,192,27074,1,0,0:0:0:70:hat.wav
192,192,27256,1,8,0:0:0:0:
320,192,27256,1,0,0:0:0:0:
448,192,27438,1,0,0:0:0:0:
64,192,27619,1,2,0:0:0:0:
192,192,27801,1,0,0:0:0:0:
320,192,27983,1,8,0:0:0:0:
448,192,27983,1,0,0:0:0:0:
192,192,28165,1,0,0:0:0:0:
64,192,28347,1,2,0:0:0:0:
448,192,28528,1,0,0:0:0:0:
192,192,28710,1,0,0:0:0:0:
320,192,28710,1,8,0:0:0:0:
64,192,28892,1,0,0:0:0:0:
192,192,29074,1,2,0:0:0:0:
448,192,29256,1,0,0:0:0:70:hat.wav
64,192,29438,1,0,0:0:0:0:
320,192,29438,1,8,0:0:0:0:
192,192,29619,1,0,0:0:0:0:
320,192,29801,1,2,0:0:0:0:
448,192,29983,1,0,0:0:0:70:hat.wav
64,192,30165,1,0,0:0:0:0:
192,192,30165,1,8,0:0:0:0:
320,192,30347,1,0,0:0:0:70:tom1.wav
448,192,30347,1,0,0:0:0:0:
320,192,30528,1,4,0:0:0:0:
64,192,30528,1,2,0:0:0:0:
192,192,30710,1,0,0:0:0:0:
448,192,30892,128,8,31074:0:0:0:0:
192,192,31074,1,0,0:0:0:0:
320,192,31256,1,2,0:0:0:0:
192,192,31438,1,0,0:0:0:0:
64,192,31619,128,8,31801:0:0:0:0:
320,192,31801,1,0,0:0:0:0:
448,192,31983,1,2,0:0:0:0:
320,192,32165,1,0,0:0:0:0:
64,192,32347,1,0,0:0:0:0:
192,192,32347,1,8,0:0:0:0:
320,192,32528,1,0,0:0:0:0:
448,192,32710,1,2,0:0:0:0:
64,192,32892,1,0,0:0:0:70:hat.wav
192,192,33074,1,8,0:0:0:0:
448,192,33074,1,0,0:0:0:0:
320,192,33256,1,0,0:0:0:0:
192,192,33438,1,2,0:0:0:0:
64,192,33619,1,0,0:0:0:0:
320,192,33801,1,8,0:0:0:0:
448,192,33801,1,0,0:0:0:0:
192,192,33983,1,0,0:0:0:0:
448,192,34165,1,2,0:0:0:0:
320,192,34347,1,0,0:0:0:0:
64,192,34528,1,0,0:0:0:0:
192,192,34528,1,8,0:0:0:0:
320,192,34710,1,0,0:0:0:0:
192,192,34892,1,2,0:0:0:0:
448,192,34892,1,0,0:0:0:0:
64,192,35074,1,0,0:0:0:0:
192,192,35074,1,2,0:0:0:0:
320,192,35256,1,8,0:0:0:0:
448,192,35256,1,0,0:0:0:0:
192,192,35438,1,0,0:0:0:0:
320,192,35619,1,0,0:0:0:0:
448,192,35801,1,0,0:0:0:0:
320,192,35983,1,0,0:0:0:0:
192,192,36165,1,0,0:0:0:0:
64,192,36347,1,0,0:0:0:0:
448,192,36347,1,4,0:0:0:0:
192,192,36528,1,8,0:0:0:0:
320,192,36528,1,0,0:0:0:0:
64,192,36710,1,0,0:0:0:0:
448,192,36892,1,0,0:0:0:0:
192,192,36892,1,8,0:0:0:0:
320,192,37074,1,0,0:0:0:0:
64,192,37256,1,0,0:0:0:0:
448,192,37256,1,8,0:0:0:0:
320,192,37438,1,0,0:0:0:0:
448,192,37619,1,0,0:0:0:0:
192,192,37619,1,8,0:0:0:0:
64,192,37801,1,0,0:0:0:0:
192,192,37983,1,0,0:0:0:0:
320,192,37983,1,8,0:0:0:0:
448,192,38165,1,0,0:0:0:0:
320,192,38347,1,8,0:0:0:0:
64,192,38347,1,0,0:0:0:0:
192,192,38528,1,0,0:0:0:0:
448,192,38710,1,8,0:0:0:0:
64,192,38710,1,0,0:0:0:0:
192,192,38892,1,0,0:0:0:0:
320,192,39074,1,0,0:0:0:0:
64,192,39074,1,8,0:0:0:0:
448,192,39256,1,0,0:0:0:0:
192,192,39438,1,8,0:0:0:0:
320,192,39438,1,0,0:0:0:0:
64,192,39619,1,0,0:0:0:0:
320,192,39801,1,8,0:0:0:0:
448,192,39801,1,0,0:0:0:0:
192,192,39983,1,0,0:0:0:0:
64,192,40165,1,8,0:0:0:0:
448,192,40165,1,0,0:0:0:0:
320,192,40347,1,0,0:0:0:0:
64,192,40528,1,0,0:0:0:0:
192,192,40528,1,8,0:0:0:0:
448,192,40710,1,0,0:0:0:0:
320,192,40892,1,8,0:0:0:0:
192,192,40892,1,0,0:0:0:0:
64,192,41074,1,0,0:0:0:0:
448,192,41256,1,0,0:0:0:0:
320,192,41256,1,8,0:0:0:0:
192,192,41438,1,0,0:0:0:0:
64,192,41619,1,8,0:0:0:0:
448,192,41619,1,0,0:0:0:0:
320,192,41801,1,0,0:0:0:0:
192,192,41983,1,8,0:0:0:0:
64,192,41983,1,0,0:0:0:0:
448,192,42165,1,4,0:0:0:0:
64,192,42165,1,0,0:0:0:0:
192,192,42347,1,0,0:0:0:0:
320,192,42347,1,8,0:0:0:0:
448,192,42528,1,0,0:0:0:0:
192,192,42710,1,0,0:0:0:0:
64,192,42710,1,8,0:0:0:0:
320,192,42892,1,0,0:0:0:0:
192,192,43074,1,0,0:0:0:0:
448,192,43074,1,8,0:0:0:0:
64,192,43256,1,0,0:0:0:0:
448,192,43438,1,8,0:0:0:0:
320,192,43438,1,0,0:0:0:0:
192,192,43619,1,0,0:0:0:0:
320,192,43801,1,0,0:0:0:0:
64,192,43801,1,8,0:0:0:0:
448,192,43983,1,0,0:0:0:0:
64,192,44165,1,0,0:0:0:0:
192,192,44165,1,8,0:0:0:0:
320,192,44347,1,0,0:0:0:0:
192,192,44528,1,8,0:0:0:0:
448,192,44528,1,0,0:0:0:0:
64,192,44710,1,0,0:0:0:0:
320,192,44892,1,8,0:0:0:0:
192,192,44892,1,0,0:0:0:0:
448,192,45074,1,0,0:0:0:0:
64,192,45256,1,8,0:0:0:0:
320,192,45256,1,0,0:0:0:0:
192,192,45438,1,0,0:0:0:0:
448,192,45619,1,0,0:0:0:0:
64,192,45619,1,8,0:0:0:0:
320,192,45801,1,0,0:0:0:0:
192,192,45983,1,8,0:0:0:0:
64,192,45983,1,0,0:0:0:0:
320,192,46165,1,0,0:0:0:0:
64,192,46347,1,8,0:0:0:0:
448,192,46347,1,4,0:0:0:0:
320,192,46528,1,0,0:0:0:0:
320,192,46710,1,0,0:0:0:0:
192,192,46892,1,0,0:0:0:0:
192,192,47074,1,0,0:0:0:0:
64,192,47256,128,0,47801:0:0:0:0:
320,192,47801,1,4,0:0:0:0:
448,192,47983,128,0,48892:0:0:0:0:
320,192,48892,128,0,49074:0:0:0:0:
192,192,49074,128,0,49256:0:0:0:0:
64,192,49256,128,0,50528:0:0:0:0:
192,192,50528,128,0,50710:0:0:0:0:
320,192,50710,128,0,50892:0:0:0:0:
448,192,50892,1,0,0:0:0:0:
320,192,51256,1,0,0:0:0:0:
192,192,51619,1,0,0:0:0:0:
64,192,51983,1,0,0:0:0:0:
192,192,52165,1,0,0:0:0:0:
320,192,52347,1,0,0:0:0:0:
64,192,53074,1,0,0:0:0:0:
192,192,53256,1,0,0:0:0:0:
320,192,53438,1,0,0:0:0:0:
448,192,53619,1,0,0:0:0:0:
64,192,53801,1,2,0:0:0:0:
64,192,54165,1,2,0:0:0:0:
64,192,54528,1,2,0:0:0:0:
192,192,54892,1,8,0:0:0:0:
320,192,54892,1,0,0:0:0:0:
448,192,55256,1,2,0:0:0:0:
448,192,55619,1,2,0:0:0:0:
448,192,55983,1,2,0:0:0:0:
320,192,56347,1,4,0:0:0:0:
192,192,56347,1,8,0:0:0:0:
448,192,56528,128,0,57074:0:0:0:0:
64,192,57074,128,0,57438:0:0:0:0:
192,192,57438,128,0,57801:0:0:0:0:
320,192,57801,128,0,58165:0:0:0:0:
448,192,58165,1,0,0:0:0:70:tom3.wav
192,192,58165,1,8,0:0:0:0:
448,192,58438,1,0,0:0:0:70:tom3.wav
192,192,58438,1,8,0:0:0:0:
192,192,58710,1,8,0:0:0:0:
448,192,58710,1,0,0:0:0:70:tom3.wav
64,192,59256,1,0,0:0:0:0:
192,192,59438,1,0,0:0:0:0:
448,192,59619,1,0,0:0:0:0:
320,192,59619,1,4,0:0:0:0:
192,192,59801,1,0,0:0:0:0:
320,192,59892,1,0,0:0:0:0:
320,192,60074,1,0,0:0:0:0:
192,192,60165,128,0,60528:0:0:0:0:
448,192,60528,1,0,0:0:0:0:
320,192,60710,1,0,0:0:0:0:
192,192,60892,1,0,0:0:0:0:
448,192,61074,128,0,61347:0:0:0:0:
320,192,61347,1,0,0:0:0:0:
192,192,61438,1,0,0:0:0:0:
320,192,61619,1,0,0:0:0:0:
448,192,61801,1,0,0:0:0:0:
448,192,62165,1,0,0:0:0:0:
320,192,62347,1,0,0:0:0:0:
64,192,62528,1,0,0:0:0:0:
192,192,62528,1,4,0:0:0:0:
320,192,62710,1,0,0:0:0:0:
192,192,62801,1,0,0:0:0:0:
192,192,62983,1,0,0:0:0:0:
320,192,63074,128,0,63438:0:0:0:0:
64,192,63438,1,0,0:0:0:0:
192,192,63619,1,0,0:0:0:0:
320,192,63801,1,0,0:0:0:0:
448,192,63983,1,0,0:0:0:0:
192,192,63983,1,0,0:0:0:0:
320,192,64256,1,0,0:0:0:0:
64,192,64256,1,0,0:0:0:0:
192,192,64528,1,0,0:0:0:0:
448,192,64528,1,0,0:0:0:0:
64,192,65074,1,8,0:0:0:0:
320,192,65165,1,8,0:0:0:0:
192,192,65256,1,8,0:0:0:0:
448,192,65347,1,8,0:0:0:0:
64,192,65438,1,0,0:0:0:0:
192,192,65438,1,4,0:0:0:0:
192,192,65801,1,0,0:0:0:0:
64,192,65983,1,0,0:0:0:0:
320,192,65983,1,0,0:0:0:0:
448,192,66165,1,0,0:0:0:0:
192,192,66528,1,0,0:0:0:0:
64,192,66710,1,0,0:0:0:0:
448,192,66710,1,0,0:0:0:0:
192,192,66892,1,0,0:0:0:0:
320,192,67074,1,0,0:0:0:0:
448,192,67074,1,0,0:0:0:0:
192,192,67256,1,0,0:0:0:0:
64,192,67438,1,0,0:0:0:0:
320,192,67438,1,0,0:0:0:0:
448,192,67619,1,0,0:0:0:0:
448,192,67983,1,0,0:0:0:70:tom1.wav
192,192,68074,1,0,0:0:0:70:tom2.wav
320,192,68165,1,0,0:0:0:70:tom3.wav
64,192,68256,1,0,0:0:0:70:tom3.wav
448,192,68347,1,8,0:0:0:0:
320,192,68347,1,4,0:0:0:0:
64,192,68710,1,8,0:0:0:0:
448,192,68710,1,0,0:0:0:0:
192,192,68892,1,0,0:0:0:0:
64,192,69074,1,0,0:0:0:0:
320,192,69074,1,8,0:0:0:0:
64,192,69438,1,8,0:0:0:0:
448,192,69438,1,0,0:0:0:0:
320,192,69619,1,0,0:0:0:0:
192,192,69801,1,8,0:0:0:0:
448,192,69801,1,0,0:0:0:70:tom3.wav
192,192,69983,1,8,0:0:0:0:
320,192,69983,1,0,0:0:0:70:tom3.wav
64,192,70165,1,8,0:0:0:0:
320,192,70165,1,0,0:0:0:70:tom3.wav
320,192,70528,128,0,70892:0:0:0:0:
64,192,70892,1,4,0:0:0:0:
448,192,70892,1,0,0:0:0:0:
192,192,71074,1,0,0:0:0:0:
448,192,71256,1,0,0:0:0:0:
320,192,71256,1,4,0:0:0:0:
320,192,71438,1,0,0:0:0:0:
192,192,71528,1,0,0:0:0:0:
192,192,71710,1,0,0:0:0:0:
320,192,71801,128,0,72165:0:0:0:0:
64,192,72165,1,0,0:0:0:0:
192,192,72347,1,0,0:0:0:0:
320,192,72528,1,0,0:0:0:0:
192,192,72710,128,0,72983:0:0:0:0:
448,192,72983,1,0,0:0:0:0:
320,192,73074,1,0,0:0:0:0:
64,192,73256,1,0,0:0:0:0:
192,192,73438,1,0,0:0:0:0:
320,192,73801,1,0,0:0:0:0:
192,192,73983,1,0,0:0:0:0:
64,192,74165,1,4,0:0:0:0:
448,192,74165,1,0,0:0:0:0:
192,192,74347,1,0,0:0:0:0:
320,192,74438,1,0,0:0:0:0:
320,192,74619,1,0,0:0:0:0:
192,192,74710,128,0,75074:0:0:0:0:
448,192,75074,1,0,0:0:0:0:
320,192,75256,1,0,0:0:0:0:
192,192,75438,1,0,0:0:0:0:
320,192,75619,1,0,0:0:0:0:
448,192,75619,1,0,0:0:0:0:
64,192,75892,1,0,0:0:0:0:
192,192,75892,1,0,0:0:0:0:
192,192,76165,1,0,0:0:0:0:
448,192,76165,1,0,0:0:0:0:
448,192,76710,1,8,0:0:0:0:
192,192,76801,1,8,0:0:0:0:
320,192,76892,1,8,0:0:0:0:
64,192,76983,1,8,0:0:0:0:
320,192,77074,1,4,0:0:0:0:
448,192,77074,1,2,0:0:0:0:
448,192,77438,1,0,0:0:0:0:
320,192,77619,1,0,0:0:0:0:
64,192,77801,1,2,0:0:0:0:
192,192,77801,1,4,0:0:0:0:
64,192,78165,1,0,0:0:0:0:
192,192,78347,1,0,0:0:0:0:
320,192,78528,1,4,0:0:0:0:
448,192,78528,1,2,0:0:0:0:
448,192,78710,1,2,0:0:0:0:
320,192,78710,1,4,0:0:0:0:
64,192,78892,1,2,0:0:0:0:
192,192,78892,1,4,0:0:0:0:
192,192,79074,1,4,0:0:0:0:
64,192,79074,1,2,0:0:0:0:
320,192,79256,128,0,79619:0:0:0:0:
64,192,79619,1,8,0:0:0:0:
448,192,79619,1,4,0:0:0:0:
64,192,79983,1,8,0:0:0:0:
320,192,79983,1,4,0:0:0:0:
192,192,80347,1,8,0:0:0:0:
448,192,80347,1,0,0:0:0:0:
320,192,80528,1,0,0:0:0:0:
192,192,80710,1,8,0:0:0:0:
448,192,80710,1,0,0:0:0:0:
64,192,81074,1,0,0:0:0:0:
448,192,81074,1,8,0:0:0:0:
192,192,81256,1,0,0:0:0:0:
320,192,81438,1,8,0:0:0:0:
64,192,81438,1,0,0:0:0:70:tom3.wav
320,192,81619,1,8,0:0:0:0:
192,192,81619,1,0,0:0:0:70:tom3.wav
192,192,81801,1,0,0:0:0:70:tom3.wav
448,192,81801,1,8,0:0:0:0:
64,192,82165,1,0,0:0:0:70:tom3.wav
448,192,82165,1,8,0:0:0:0:
64,192,82528,1,8,0:0:0:0:
320,192,82619,1,8,0:0:0:0:
192,192,82710,1,8,0:0:0:0:
448,192,82801,1,8,0:0:0:0:
192,192,82892,1,4,0:0:0:0:
64,192,82892,128,0,83619:0:0:0:0:
192,192,83619,128,0,83892:0:0:0:0:
320,192,83892,128,0,84165:0:0:0:0:
448,192,84165,128,0,84347:0:0:0:0:
64,192,84347,128,0,84528:0:0:0:0:
192,192,84528,128,0,84710:0:0:0:0:
320,192,84710,128,0,84892:0:0:0:0:
448,192,84892,128,0,85074:0:0:0:0:
64,192,85074,128,0,85347:0:0:0:0:
192,192,85347,128,0,85619:0:0:0:0:
448,192,85619,128,0,85801:0:0:0:0:
64,192,85801,1,0,0:0:0:0:
192,192,85892,1,0,0:0:0:0:
320,192,85983,1,0,0:0:0:0:
192,192,86165,1,0,0:0:0:0:
448,192,86165,1,0,0:0:0:0:
64,192,86347,128,0,86528:0:0:0:0:
448,192,86528,128,0,86710:0:0:0:0:
320,192,86710,128,0,86892:0:0:0:0:
192,192,86892,128,0,87074:0:0:0:0:
64,192,87074,128,0,87256:0:0:0:0:
448,192,87256,1,0,0:0:0:0:
64,192,87619,1,0,0:0:0:0:
320,192,87619,1,0,0:0:0:0:
192,192,87801,1,0,0:0:0:0:
320,192,87983,128,4,88347:0:0:0:0:
448,192,87983,128,0,88347:0:0:0:0:
192,192,88347,128,0,88710:0:0:0:0:
64,192,88710,1,0,0:0:0:0:
448,192,88710,1,4,0:0:0:0:
448,192,89074,1,0,0:0:0:0:
320,192,89165,1,0,0:0:0:0:
192,192,89256,1,0,0:0:0:0:
64,192,89438,128,0,89710:0:0:0:0:
192,192,89710,128,0,89983:0:0:0:0:
320,192,89983,128,0,90165:0:0:0:0:
448,192,90165,128,0,90528:0:0:0:0:
320,192,90528,128,0,90892:0:0:0:0:
64,192,90892,128,0,91619:0:0:0:0:
192,192,91256,128,0,91619:0:0:0:0:
448,192,91619,128,0,91801:0:0:0:0:
320,192,91801,128,0,91983:0:0:0:0:
192,192,91983,128,0,92165:0:0:0:0:
64,192,92165,128,0,92347:0:0:0:0:
448,192,92347,128,0,92528:0:0:0:0:
320,192,92528,128,0,92710:0:0:0:0:
64,192,92710,128,0,92892:0:0:0:0:
192,192,92892,128,0,93074:0:0:0:0:
320,192,93074,1,0,0:0:0:70:tom1.wav
448,192,93074,1,0,0:0:0:70:tom3.wav
448,192,93256,1,0,0:0:0:70:tom3.wav
64,192,93256,1,0,0:0:0:70:tom1.wav
192,192,93438,1,0,0:0:0:70:tom3.wav
64,192,93438,1,0,0:0:0:70:tom1.wav
320,192,93801,128,0,94165:0:0:0:70:tom1.wav
448,192,93801,128,0,94165:0:0:0:70:tom3.wav
64,192,94528,1,0,0:0:0:0:
448,192,95983,1,0,0:0:0:0:
320,192,97438,1,0,0:0:0:0:
192,192,98165,1,0,0:0:0:0:
64,192,98892,1,0,0:0:0:0:
192,192,100347,1,0,0:0:0:0:
320,192,101074,1,0,0:0:0:0:
448,192,101801,1,0,0:0:0:0:
320,192,102165,1,0,0:0:0:0:
192,192,102528,1,0,0:0:0:0:
64,192,103256,1,0,0:0:0:0:
192,192,103983,1,0,0:0:0:0:
64,192,107256,1,0,0:0:0:0:
192,192,107438,1,0,0:0:0:0:
320,192,107619,1,4,0:0:0:0:
64,192,107619,1,0,0:0:0:0:
448,192,107801,1,0,0:0:0:0:
64,192,107892,1,0,0:0:0:0:
192,192,108074,1,0,0:0:0:0:
320,192,108165,128,0,108528:0:0:0:0:
64,192,108528,1,0,0:0:0:0:
192,192,108710,1,0,0:0:0:0:
320,192,108892,1,0,0:0:0:0:
448,192,109074,128,0,109347:0:0:0:0:
192,192,109347,1,0,0:0:0:0:
64,192,109438,1,0,0:0:0:0:
192,192,109619,1,0,0:0:0:0:
320,192,109801,1,0,0:0:0:0:
320,192,110165,1,0,0:0:0:0:
192,192,110347,1,0,0:0:0:0:
64,192,110528,1,0,0:0:0:0:
448,192,110528,1,4,0:0:0:0:
64,192,110710,1,0,0:0:0:0:
448,192,110801,1,0,0:0:0:0:
192,192,110983,1,0,0:0:0:0:
320,192,111074,128,0,111438:0:0:0:0:
64,192,111438,1,0,0:0:0:0:
192,192,111619,1,0,0:0:0:0:
320,192,111801,1,0,0:0:0:0:
448,192,111983,1,0,0:0:0:0:
64,192,111983,1,0,0:0:0:0:
320,192,112256,1,0,0:0:0:0:
64,192,112256,1,0,0:0:0:0:
192,192,112528,1,0,0:0:0:0:
320,192,112528,1,0,0:0:0:0:
448,192,113074,1,8,0:0:0:0:
192,192,113165,1,8,0:0:0:0:
320,192,113256,1,8,0:0:0:0:
64,192,113347,1,8,0:0:0:0:
320,192,113438,1,4,0:0:0:0:
448,192,113438,1,2,0:0:0:0:
64,192,113801,1,0,0:0:0:0:
192,192,113983,1,0,0:0:0:0:
448,192,114165,1,2,0:0:0:0:
320,192,114165,1,4,0:0:0:0:
448,192,114528,1,0,0:0:0:0:
320,192,114710,1,0,0:0:0:0:
64,192,114892,1,2,0:0:0:0:
192,192,114892,1,4,0:0:0:0:
64,192,115074,1,2,0:0:0:0:
192,192,115074,1,4,0:0:0:0:
320,192,115256,1,4,0:0:0:0:
448,192,115256,1,2,0:0:0:0:
320,192,115438,1,4,0:0:0:0:
448,192,115438,1,2,0:0:0:0:
192,192,115619,128,0,115983:0:0:0:0:
320,192,115983,128,0,116347:0:0:0:0:
64,192,116347,1,4,0:0:0:0:
448,192,116347,1,8,0:0:0:0:
64,192,116710,1,0,0:0:0:0:
320,192,116710,1,8,0:0:0:0:
192,192,116892,1,0,0:0:0:0:
64,192,117074,1,0,0:0:0:0:
320,192,117074,1,8,0:0:0:0:
448,192,117438,1,0,0:0:0:0:
320,192,117438,1,8,0:0:0:0:
192,192,117619,1,0,0:0:0:0:
64,192,117801,1,0,0:0:0:0:
192,192,117983,1,0,0:0:0:0:
320,192,118165,1,0,0:0:0:0:
64,192,118528,1,0,0:0:0:0:
320,192,118892,128,0,119074:0:0:0:0:
192,192,119074,128,0,119256:0:0:0:0:
448,192,119256,1,4,0:0:0:0:
64,192,119256,128,0,119619:0:0:0:0:
448,192,119619,128,0,119801:0:0:0:0:
320,192,119801,128,0,119983:0:0:0:0:
192,192,119983,128,0,120347:0:0:0:0:
64,192,120347,128,0,120710:0:0:0:0:
448,192,120710,128,0,120892:0:0:0:0:
192,192,120892,128,0,121074:0:0:0:0:
320,192,121074,128,0,121256:0:0:0:0:
64,192,121256,128,0,121438:0:0:0:0:
448,192,121438,128,0,121801:0:0:0:0:
64,192,121801,128,0,121983:0:0:0:0:
192,192,121983,128,0,122165:0:0:0:0:
320,192,122165,128,0,122528:0:0:0:0:
192,192,122528,128,0,122892:0:0:0:0:
448,192,122892,128,0,123074:0:0:0:0:
320,192,123074,128,0,123256:0:0:0:0:
192,192,123256,128,0,123438:0:0:0:0:
64,192,123438,128,0,123619:0:0:0:0:
320,192,123619,128,0,123801:0:0:0:0:
192,192,123801,128,0,123983:0:0:0:0:
448,192,123983,128,0,124165:0:0:0:0:
320,192,124165,128,0,124347:0:0:0:0:
192,192,124347,128,4,124710:0:0:0:0:
64,192,124347,128,0,124710:0:0:0:0:
320,192,124710,128,0,125074:0:0:0:0:
448,192,125074,1,0,0:0:0:0:
64,192,125074,1,4,0:0:0:0:
448,192,125438,1,0,0:0:0:0:
320,192,125528,1,0,0:0:0:0:
192,192,125619,1,0,0:0:0:0:
64,192,125801,128,0,126074:0:0:0:0:
192,192,126074,128,0,126347:0:0:0:0:
320,192,126347,128,0,126528:0:0:0:0:
448,192,126528,128,0,126892:0:0:0:0:
320,192,126892,128,0,127256:0:0:0:0:
192,192,127256,128,0,127619:0:0:0:0:
448,192,127619,128,0,127801:0:0:0:0:
320,192,127801,128,0,127983:0:0:0:0:
64,192,127983,128,0,128165:0:0:0:0:
192,192,128165,128,0,128347:0:0:0:0:
320,192,128347,128,0,128528:0:0:0:0:
448,192,128528,128,0,128710:0:0:0:0:
64,192,128710,128,0,128892:0:0:0:0:
192,192,128892,128,0,129074:0:0:0:0:
448,192,129074,128,0,129256:0:0:0:0:
320,192,129256,128,0,129438:0:0:0:0:
192,192,129438,1,0,0:0:0:70:tom3.wav
64,192,129438,1,0,0:0:0:70:tom1.wav
64,192,129619,1,0,0:0:0:70:tom1.wav
448,192,129619,1,0,0:0:0:70:tom3.wav
320,192,129801,1,0,0:0:0:70:tom1.wav
448,192,129801,1,0,0:0:0:70:tom3.wav
64,192,130165,128,0,130528:0:0:0:70:tom1.wav
192,192,130165,128,0,130528:0:0:0:70:tom3.wav
