osu file format v14

[General]
AudioFilename: audio.mp3
AudioLeadIn: 0
PreviewTime: 59256
Countdown: 0
SampleSet: Normal
StackLeniency: 0.7
Mode: 3
LetterboxInBreaks: 0
SpecialStyle: 0
WidescreenStoryboard: 1

[Editor]
DistanceSpacing: 1
BeatDivisor: 6
GridSize: 4
TimelineZoom: 1.9

[Metadata]
Title:A Wandering Melody of Love
TitleUnicode:迷える音色は恋の唄
Artist:KaratoPanchiiShonen feat. Haruno
ArtistUnicode:からとPαnchii少年 feat.はるの
Creator:YuEast 2018
Version:Future
Source:Arcaea
Tags:video game japanese mayoeru neiro wa koi no uta sunset radiance Karato-P からとP Kanae 叶永 群愿 Lottery61
BeatmapID:2192564
BeatmapSetID:1036525

[Difficulty]
HPDrainRate:8
CircleSize:4
OverallDifficulty:8
ApproachRate:5
SliderMultiplier:1.4
SliderTickRate:1

[Events]
//Background and Video events
0,0,"109531.webp.jpg",0,0
//Break Periods
//Storyboard Layer 0 (Background)
//Storyboard Layer 1 (Fail)
//Storyboard Layer 2 (Pass)
//Storyboard Layer 3 (Foreground)
//Storyboard Layer 4 (Overlay)
//Storyboard Sound Samples

[TimingPoints]
1438,363.636363636364,4,1,1,70,1,0
1438,-100,4,1,1,70,0,1
12347,-100,4,1,1,70,0,0
59619,-100,4,1,1,70,0,1
82165,-100,4,1,1,70,0,0
107619,-100,4,1,1,70,0,1
118528,-100,4,1,1,70,0,0

[HitObjects]
320,192,1074,5,0,0:0:0:0:
192,192,1256,1,0,0:0:0:0:
320,192,1438,1,0,0:0:0:0:
64,192,1438,1,4,0:0:0:0:
448,192,1438,1,2,1:0:0:0:
64,192,1619,1,0,0:0:0:0:
192,192,1619,1,8,0:0:0:0:
448,192,1710,1,0,0:0:0:0:
320,192,1710,1,2,0:0:0:0:
192,192,1801,1,0,0:0:0:0:
64,192,1892,1,0,0:0:0:0:
448,192,1892,1,2,0:0:0:0:
320,192,1983,1,0,0:0:0:0:
192,192,1983,1,8,0:0:0:0:
448,192,2165,1,0,0:0:0:0:
64,192,2256,1,0,0:0:0:0:
192,192,2256,1,2,0:0:0:0:
320,192,2347,1,0,0:0:0:0:
448,192,2347,1,8,0:0:0:0:
64,192,2528,1,0,0:0:0:0:
192,192,2528,1,2,0:0:0:0:
320,192,2619,1,2,0:0:0:0:
64,192,2710,1,0,0:0:0:0:
448,192,2710,1,8,0:0:0:0:
192,192,2892,1,0,0:0:0:0:
320,192,2892,1,2,0:0:0:0:
448,192,3074,1,0,0:0:0:0:
64,192,3074,1,8,0:0:0:0:
320,192,3165,1,0,0:0:0:0:
192,192,3165,1,2,0:0:0:0:
64,192,3256,1,2,0:0:0:0:
320,192,3438,1,0,0:0:0:0:
192,192,3438,1,8,0:0:0:0:
448,192,3619,1,0,0:0:0:0:
64,192,3619,1,2,0:0:0:0:
320,192,3710,1,2,0:0:0:0:
192,192,3801,1,0,0:0:0:0:
64,192,3801,1,8,0:0:0:0:
448,192,3983,1,0,0:0:0:0:
320,192,3983,1,2,0:0:0:0:
192,192,4074,1,2,0:0:0:0:
64,192,4165,1,0,0:0:0:0:
448,192,4165,1,8,0:0:0:0:
448,192,4347,1,0,0:0:0:0:
320,192,4347,1,4,0:0:0:0:
64,192,4347,1,2,0:0:0:0:
320,192,4528,1,0,0:0:0:0:
192,192,4528,1,8,0:0:0:0:
64,192,4619,1,0,0:0:0:0:
448,192,4619,1,2,0:0:0:0:
192,192,4710,1,0,0:0:0:0:
448,192,4801,1,0,0:0:0:0:
320,192,4801,1,2,0:0:0:0:
64,192,4892,1,0,0:0:0:0:
192,192,4892,1,8,0:0:0:0:
320,192,5074,1,0,0:0:0:0:
448,192,5165,1,0,0:0:0:0:
64,192,5165,1,2,0:0:0:0:
320,192,5256,1,0,0:0:0:0:
192,192,5256,1,8,0:0:0:0:
64,192,5438,1,0,0:0:0:0:
448,192,5438,1,2,0:0:0:0:
192,192,5528,1,2,0:0:0:0:
448,192,5619,1,0,0:0:0:0:
320,192,5619,1,8,0:0:0:0:
448,192,5801,1,0,0:0:0:0:
64,192,5801,1,2,0:0:0:0:
64,192,5983,1,0,0:0:0:0:
192,192,5983,1,8,0:0:0:0:
448,192,6074,1,0,0:0:0:0:
320,192,6074,1,2,0:0:0:0:
192,192,6165,1,0,0:0:0:0:
64,192,6256,1,0,0:0:0:0:
320,192,6256,1,2,0:0:0:0:
448,192,6347,1,0,0:0:0:0:
192,192,6347,1,8,0:0:0:0:
64,192,6528,1,0,0:0:0:0:
192,192,6528,1,2,0:0:0:0:
320,192,6619,1,2,0:0:0:0:
64,192,6710,1,0,0:0:0:0:
192,192,6710,1,4,0:0:0:0:
448,192,6710,1,8,0:0:0:0:
448,192,6892,1,0,0:0:0:0:
320,192,6892,1,8,0:0:0:0:
64,192,6983,1,0,0:0:0:0:
192,192,6983,1,8,0:0:0:0:
320,192,7074,1,0,0:0:0:0:
448,192,7074,1,8,0:0:0:0:
192,192,7165,1,8,0:0:0:0:
320,192,7256,1,0,0:0:0:0:
448,192,7256,1,2,0:0:0:0:
64,192,7256,1,4,0:0:0:0:
192,192,7438,1,0,0:0:0:0:
64,192,7619,1,0,0:0:0:0:
192,192,7619,1,0,0:0:0:0:
192,192,7801,1,0,0:0:0:0:
448,192,7801,1,0,0:0:0:0:
64,192,7983,1,0,0:0:0:0:
192,192,7983,1,0,0:0:0:0:
448,192,7983,1,2,0:0:0:0:
320,192,7983,1,4,0:0:0:0:
320,192,8165,1,0,0:0:0:0:
448,192,8347,1,0,0:0:0:0:
320,192,8347,1,0,0:0:0:0:
64,192,8528,1,0,0:0:0:0:
320,192,8528,1,0,0:0:0:0:
320,192,8710,1,0,0:0:0:0:
192,192,8710,1,4,0:0:0:0:
448,192,8710,1,2,0:0:0:0:
448,192,8892,1,0,0:0:0:0:
64,192,8892,1,4,0:0:0:0:
192,192,8892,1,2,0:0:0:0:
64,192,9074,1,0,0:0:0:0:
448,192,9074,1,0,0:0:0:0:
320,192,9074,1,4,0:0:0:0:
192,192,9074,1,2,0:0:0:0:
64,192,9256,1,0,0:0:0:0:
192,192,9256,1,0,0:0:0:0:
448,192,9256,1,4,0:0:0:0:
320,192,9256,1,2,0:0:0:0:
320,192,9438,1,8,0:0:0:0:
192,192,9498,1,0,0:0:0:70:tom1.wav
64,192,9559,1,0,0:0:0:70:tom2.wav
320,192,9619,1,0,0:0:0:70:tom3.wav
192,192,9680,1,0,0:0:0:70:tom3.wav
64,192,9741,1,0,0:0:0:70:tom3.wav
448,192,9801,1,8,0:0:0:0:
320,192,9862,1,0,0:0:0:70:tom1.wav
192,192,9922,1,0,0:0:0:70:tom2.wav
448,192,9983,1,0,0:0:0:70:tom3.wav
320,192,10044,1,0,0:0:0:70:tom3.wav
192,192,10104,1,0,0:0:0:70:tom3.wav
64,192,10165,1,0,0:0:0:0:
320,192,10165,1,4,0:0:0:0:
448,192,10165,1,8,0:0:0:0:
192,192,10256,1,2,0:0:0:0:
320,192,10438,1,2,0:0:0:0:
64,192,10528,1,0,0:0:0:0:
448,192,10528,1,8,0:0:0:0:
320,192,10619,1,2,0:0:0:0:
192,192,10801,1,2,0:0:0:0:
64,192,10892,1,0,0:0:0:0:
448,192,10892,1,8,0:0:0:0:
192,192,10983,1,2,0:0:0:0:
320,192,11165,1,2,0:0:0:0:
64,192,11256,1,0,0:0:0:0:
448,192,11256,1,8,0:0:0:0:
320,192,11347,1,2,0:0:0:0:
192,192,11528,1,2,0:0:0:0:
64,192,11619,1,0,0:0:0:0:
320,192,11619,1,0,0:0:0:70:tom3.wav
448,192,11619,1,8,0:0:0:0:
448,192,11801,1,0,0:0:0:0:
64,192,11801,1,0,0:0:0:70:tom3.wav
320,192,11801,1,8,0:0:0:0:
448,192,11983,1,0,0:0:0:0:
64,192,11983,1,0,0:0:0:70:tom3.wav
320,192,11983,1,8,0:0:0:0:
192,192,12347,1,0,0:0:0:70:tom2.wav
320,192,12407,1,0,0:0:0:70:tom3.wav
192,192,12468,1,0,0:0:0:70:tom3.wav
320,192,12528,1,0,0:0:0:70:tom3.wav
192,192,12589,1,0,0:0:0:70:tom3.wav
320,192,12650,1,0,0:0:0:70:tom3.wav
448,192,12710,1,0,0:0:0:0:
64,192,12710,1,8,0:0:0:0:
192,192,12710,1,4,0:0:0:0:
320,192,13074,1,0,0:0:0:0:
192,192,13074,1,2,0:0:0:0:
448,192,13074,1,4,0:0:0:0:
64,192,13165,1,0,0:0:0:0:
192,192,13256,1,0,0:0:0:0:
320,192,13347,1,0,0:0:0:0:
448,192,13347,1,8,0:0:0:0:
64,192,13438,1,0,0:0:0:0:
192,192,13438,1,2,0:0:0:0:
448,192,13528,1,0,0:0:0:0:
320,192,13619,1,0,0:0:0:0:
192,192,13619,1,0,0:0:0:0:
64,192,13710,1,0,0:0:0:0:
448,192,13801,1,0,0:0:0:0:
320,192,13801,1,2,0:0:0:0:
192,192,13892,1,0,0:0:0:0:
64,192,13892,1,8,0:0:0:0:
448,192,13983,1,0,0:0:0:0:
64,192,14074,1,0,0:0:0:0:
192,192,14074,1,8,0:0:0:0:
448,192,14165,1,0,0:0:0:0:
320,192,14165,1,2,0:0:0:0:
192,192,14256,1,0,0:0:0:0:
448,192,14347,1,0,0:0:0:0:
64,192,14347,1,0,0:0:0:0:
320,192,14438,1,0,0:0:0:0:
64,192,14528,1,0,0:0:0:0:
192,192,14528,1,2,0:0:0:0:
320,192,14619,1,0,0:0:0:0:
448,192,14710,1,0,0:0:0:0:
192,192,14801,1,0,0:0:0:0:
64,192,14801,1,8,0:0:0:0:
320,192,14892,1,0,0:0:0:0:
448,192,14892,1,2,0:0:0:0:
64,192,14983,1,0,0:0:0:0:
192,192,15074,1,0,0:0:0:0:
320,192,15074,1,8,0:0:0:0:
448,192,15165,1,0,0:0:0:0:
64,192,15256,1,0,0:0:0:0:
192,192,15256,1,2,0:0:0:0:
448,192,15347,1,0,0:0:0:0:
320,192,15347,1,8,0:0:0:0:
64,192,15438,1,0,0:0:0:0:
320,192,15528,1,0,0:0:0:0:
448,192,15528,1,8,0:0:0:0:
64,192,15619,1,0,0:0:0:0:
192,192,15619,1,2,0:0:0:0:
320,192,15710,1,0,0:0:0:0:
64,192,15801,1,0,0:0:0:0:
448,192,15801,1,0,0:0:0:0:
192,192,15892,1,0,0:0:0:0:
448,192,15983,1,0,0:0:0:0:
320,192,15983,1,2,0:0:0:0:
192,192,16074,1,0,0:0:0:0:
320,192,16165,1,0,0:0:0:0:
192,192,16256,1,0,0:0:0:0:
64,192,16256,1,8,0:0:0:0:
320,192,16347,1,0,0:0:0:0:
448,192,16347,1,2,0:0:0:0:
64,192,16438,1,0,0:0:0:0:
320,192,16528,1,0,0:0:0:0:
192,192,16528,1,8,0:0:0:0:
448,192,16619,1,0,0:0:0:0:
192,192,16710,1,0,0:0:0:0:
64,192,16710,1,2,0:0:0:0:
448,192,16801,1,0,0:0:0:0:
320,192,16801,1,8,0:0:0:0:
192,192,16892,1,0,0:0:0:0:
448,192,16983,1,0,0:0:0:0:
320,192,16983,1,8,0:0:0:0:
192,192,17074,1,0,0:0:0:0:
64,192,17074,1,2,0:0:0:0:
320,192,17165,1,0,0:0:0:0:
64,192,17256,1,0,0:0:0:0:
448,192,17256,1,0,0:0:0:0:
192,192,17347,1,0,0:0:0:0:
64,192,17438,1,0,0:0:0:0:
320,192,17438,1,2,0:0:0:0:
448,192,17528,1,0,0:0:0:0:
320,192,17619,1,0,0:0:0:0:
64,192,17710,1,0,0:0:0:0:
192,192,17710,1,8,0:0:0:0:
448,192,17801,1,0,0:0:0:0:
320,192,17801,1,2,0:0:0:0:
64,192,17892,1,0,0:0:0:0:
448,192,17983,1,0,0:0:0:0:
192,192,17983,1,8,0:0:0:0:
320,192,18074,1,0,0:0:0:0:
64,192,18165,1,4,0:0:0:0:
192,192,18165,1,2,0:0:0:0:
448,192,18256,1,8,0:0:0:0:
320,192,18301,1,8,0:0:0:0:
192,192,18347,1,0,0:0:0:0:
64,192,18347,1,8,0:0:0:0:
320,192,18438,1,0,0:0:0:0:
448,192,18438,1,8,0:0:0:0:
64,192,18528,1,0,0:0:0:70:tom1.wav
192,192,18574,1,0,0:0:0:70:tom1.wav
320,192,18619,1,0,0:0:0:70:tom1.wav
448,192,18665,1,0,0:0:0:70:tom1.wav
64,192,18710,1,0,0:0:0:70:tom3.wav
192,192,18756,1,0,0:0:0:70:tom3.wav
320,192,18801,1,0,0:0:0:70:tom3.wav
448,192,18847,1,0,0:0:0:70:tom3.wav
64,192,18892,128,2,19165:0:0:0:0:
192,192,18892,128,4,19165:0:0:0:0:
320,192,19165,1,0,0:0:0:0:
448,192,19165,1,8,0:0:0:0:
192,192,19256,1,0,0:0:0:0:
64,192,19256,1,2,0:0:0:0:
320,192,19347,1,0,0:0:0:0:
448,192,19438,1,0,0:0:0:0:
192,192,19438,1,8,0:0:0:0:
64,192,19528,1,0,0:0:0:0:
448,192,19619,1,0,0:0:0:0:
320,192,19619,1,2,0:0:0:0:
64,192,19710,1,0,0:0:0:0:
192,192,19710,1,8,0:0:0:0:
320,192,19801,1,0,0:0:0:0:
448,192,19801,1,0,0:0:0:0:
192,192,19892,1,0,0:0:0:0:
64,192,19892,1,8,0:0:0:0:
448,192,19983,1,0,0:0:0:0:
320,192,19983,1,2,0:0:0:0:
192,192,20074,1,0,0:0:0:0:
448,192,20165,1,0,0:0:0:0:
64,192,20165,1,8,0:0:0:0:
320,192,20256,1,0,0:0:0:0:
192,192,20347,128,0,20710:0:0:0:0:
64,192,20347,1,2,0:0:0:0:
320,192,20483,128,0,20710:0:0:0:0:
448,192,20619,128,8,20710:0:0:0:0:
64,192,20710,128,2,21074:0:0:0:0:
192,192,20847,128,0,21074:0:0:0:0:
320,192,20983,128,0,21074:0:0:0:0:
448,192,21074,128,2,21438:0:0:0:0:
192,192,21438,128,2,21528:0:0:0:0:
320,192,21528,128,0,21619:0:0:0:0:
192,192,21619,128,0,21710:0:0:0:0:
320,192,21710,128,0,21801:0:0:0:0:
64,192,21801,1,0,0:0:0:0:
192,192,21801,128,2,21892:0:0:0:0:
320,192,21892,128,0,21983:0:0:0:0:
64,192,21983,128,0,22074:0:0:0:0:
448,192,22074,1,0,0:0:0:0:
320,192,22074,128,8,22165:0:0:0:0:
64,192,22165,1,0,0:0:0:0:
192,192,22165,128,2,22256:0:0:0:0:
448,192,22256,128,0,22347:0:0:0:0:
64,192,22347,1,0,0:0:0:0:
192,192,22347,128,8,22438:0:0:0:0:
320,192,22438,128,0,22528:0:0:0:0:
64,192,22528,1,0,0:0:0:0:
192,192,22528,1,2,0:0:0:0:
448,192,22619,1,8,0:0:0:0:
320,192,22665,1,8,0:0:0:0:
192,192,22710,1,0,0:0:0:70:tom1.wav
64,192,22756,1,0,0:0:0:70:tom1.wav
448,192,22801,1,0,0:0:0:70:tom1.wav
320,192,22847,1,0,0:0:0:70:tom1.wav
192,192,22892,1,0,0:0:0:0:
64,192,22892,1,0,0:0:0:70:tom2.wav
320,192,22983,1,0,0:0:0:70:tom3.wav
192,192,23074,1,0,0:0:0:70:tom3.wav
320,192,23165,1,0,0:0:0:70:tom3.wav
64,192,23256,1,0,0:0:0:70:tom3.wav
448,192,23256,1,0,0:0:0:70:tom1.wav
448,192,23438,1,0,0:0:0:70:tom3.wav
64,192,23438,1,0,0:0:0:70:tom1.wav
64,192,23619,1,0,0:0:0:70:tom3.wav
448,192,23619,1,0,0:0:0:70:tom1.wav
320,192,23801,1,0,0:0:0:0:
192,192,23892,1,0,0:0:0:0:
64,192,23983,1,0,0:0:0:0:
320,192,23983,128,0,24347:0:0:0:70:tom3.wav
448,192,23983,128,0,24347:0:0:0:70:tom1.wav
192,192,24347,128,0,24710:0:0:0:0:
64,192,24710,1,0,0:0:0:0:
448,192,24710,1,2,0:0:0:0:
320,192,24710,1,4,0:0:0:0:
448,192,24892,1,0,0:0:0:0:
320,192,25074,1,0,0:0:0:0:
64,192,25074,1,0,0:0:0:0:
192,192,25074,1,8,0:0:0:0:
320,192,25256,1,0,0:0:0:0:
448,192,25438,1,0,0:0:0:0:
64,192,25438,1,2,0:0:0:0:
448,192,25619,1,0,0:0:0:0:
192,192,25801,1,0,0:0:0:0:
64,192,25801,1,0,0:0:0:0:
320,192,25801,1,8,0:0:0:0:
192,192,25983,1,0,0:0:0:0:
64,192,26165,1,0,0:0:0:0:
320,192,26165,1,2,0:0:0:0:
320,192,26347,1,0,0:0:0:0:
64,192,26528,1,0,0:0:0:0:
448,192,26528,1,0,0:0:0:0:
192,192,26528,1,8,0:0:0:0:
192,192,26710,1,0,0:0:0:0:
448,192,26892,1,0,0:0:0:0:
64,192,26892,1,2,0:0:0:0:
192,192,27074,128,0,27256:0:0:0:70:hat.wav
320,192,27256,1,0,0:0:0:0:
64,192,27256,1,0,0:0:0:0:
448,192,27256,1,8,0:0:0:0:
320,192,27438,1,0,0:0:0:0:
64,192,27619,1,0,0:0:0:0:
192,192,27619,1,2,0:0:0:0:
64,192,27801,1,0,0:0:0:0:
192,192,27983,1,0,0:0:0:0:
448,192,27983,1,0,0:0:0:0:
320,192,27983,1,8,0:0:0:0:
448,192,28165,1,0,0:0:0:0:
64,192,28347,1,0,0:0:0:0:
320,192,28347,1,2,0:0:0:0:
320,192,28528,1,0,0:0:0:0:
192,192,28710,1,0,0:0:0:0:
448,192,28710,1,0,0:0:0:0:
64,192,28710,1,8,0:0:0:0:
192,192,28892,1,0,0:0:0:0:
64,192,29074,1,0,0:0:0:0:
448,192,29074,1,2,0:0:0:0:
320,192,29256,128,0,29438:0:0:0:70:hat.wav
64,192,29438,1,0,0:0:0:0:
448,192,29438,1,0,0:0:0:0:
192,192,29438,1,8,0:0:0:0:
192,192,29619,1,0,0:0:0:0:
320,192,29801,1,0,0:0:0:0:
64,192,29801,1,2,0:0:0:0:
448,192,29983,128,0,30165:0:0:0:70:hat.wav
320,192,30165,1,0,0:0:0:0:
64,192,30165,1,0,0:0:0:0:
192,192,30165,1,8,0:0:0:0:
448,192,30347,1,0,0:0:0:0:
192,192,30347,1,0,0:0:0:70:tom1.wav
320,192,30528,1,0,0:0:0:0:
64,192,30528,1,0,0:0:0:0:
448,192,30528,1,4,0:0:0:0:
192,192,30528,1,2,0:0:0:0:
320,192,30710,1,0,0:0:0:0:
64,192,30892,1,0,0:0:0:0:
192,192,30892,1,0,0:0:0:0:
448,192,30892,1,8,0:0:0:0:
192,192,31074,1,0,0:0:0:0:
64,192,31256,1,0,0:0:0:0:
448,192,31256,1,2,0:0:0:0:
448,192,31438,1,0,0:0:0:0:
192,192,31619,1,0,0:0:0:0:
320,192,31619,1,0,0:0:0:0:
64,192,31619,1,8,0:0:0:0:
192,192,31801,1,0,0:0:0:0:
320,192,31983,1,0,0:0:0:0:
448,192,31983,1,2,0:0:0:0:
320,192,32165,1,0,0:0:0:0:
64,192,32347,1,0,0:0:0:0:
192,192,32347,1,0,0:0:0:0:
448,192,32347,1,8,0:0:0:0:
192,192,32528,1,0,0:0:0:0:
448,192,32710,1,0,0:0:0:0:
320,192,32710,1,2,0:0:0:0:
64,192,32892,128,0,33074:0:0:0:70:hat.wav
192,192,33074,1,0,0:0:0:0:
320,192,33074,1,0,0:0:0:0:
448,192,33074,1,8,0:0:0:0:
192,192,33256,1,0,0:0:0:0:
448,192,33438,1,0,0:0:0:0:
64,192,33438,1,2,0:0:0:0:
192,192,33528,1,0,0:0:0:0:
320,192,33619,1,0,0:0:0:0:
448,192,33801,1,0,0:0:0:0:
192,192,33801,1,0,0:0:0:0:
64,192,33801,1,8,0:0:0:0:
64,192,33983,1,0,0:0:0:0:
192,192,34165,1,0,0:0:0:0:
320,192,34165,1,2,0:0:0:0:
192,192,34347,1,0,0:0:0:0:
64,192,34528,1,0,0:0:0:0:
448,192,34528,1,0,0:0:0:0:
320,192,34528,1,8,0:0:0:0:
192,192,34619,1,0,0:0:0:0:
320,192,34710,1,0,0:0:0:0:
448,192,34801,1,0,0:0:0:0:
64,192,34892,1,0,0:0:0:0:
192,192,34892,1,2,0:0:0:0:
320,192,35074,1,0,0:0:0:0:
448,192,35074,1,2,0:0:0:0:
448,192,35256,1,0,0:0:0:0:
64,192,35256,1,0,0:0:0:0:
320,192,35256,1,8,0:0:0:0:
192,192,35256,1,4,0:0:0:0:
64,192,35438,1,0,0:0:0:0:
192,192,35438,1,0,0:0:0:0:
320,192,35528,1,8,0:0:0:0:
64,192,35619,1,0,0:0:0:0:
448,192,35619,1,0,0:0:0:70:tom1.wav
192,192,35710,1,0,0:0:0:0:
320,192,35801,1,0,0:0:0:0:
448,192,35801,1,0,0:0:0:70:tom3.wav
64,192,35892,1,8,0:0:0:0:
320,192,35983,1,0,0:0:0:0:
192,192,35983,1,8,0:0:0:0:
448,192,36074,1,0,0:0:0:70:tom1.wav
64,192,36165,1,0,0:0:0:0:
192,192,36165,1,0,0:0:0:70:tom2.wav
320,192,36256,1,0,0:0:0:70:tom3.wav
192,192,36347,1,0,0:0:0:0:
448,192,36347,1,4,0:0:0:0:
64,192,36347,1,2,0:0:0:0:
320,192,36528,1,0,0:0:0:0:
448,192,36528,1,0,0:0:0:0:
64,192,36528,1,8,0:0:0:0:
192,192,36619,1,2,0:0:0:0:
320,192,36710,1,2,0:0:0:0:
192,192,36801,1,2,0:0:0:0:
320,192,36892,1,0,0:0:0:0:
448,192,36892,1,0,0:0:0:0:
64,192,36892,1,8,0:0:0:0:
64,192,37074,1,0,0:0:0:0:
192,192,37074,1,2,0:0:0:0:
320,192,37165,1,2,0:0:0:0:
448,192,37256,1,0,0:0:0:0:
64,192,37256,1,0,0:0:0:0:
192,192,37256,1,8,0:0:0:0:
320,192,37347,1,0,0:0:0:0:
448,192,37438,1,0,0:0:0:0:
64,192,37438,1,2,0:0:0:0:
192,192,37528,1,2,0:0:0:0:
320,192,37619,1,0,0:0:0:0:
64,192,37619,1,0,0:0:0:0:
448,192,37619,1,8,0:0:0:0:
320,192,37801,1,0,0:0:0:0:
192,192,37801,1,2,0:0:0:0:
64,192,37983,1,0,0:0:0:0:
192,192,37983,1,0,0:0:0:0:
448,192,37983,1,8,0:0:0:0:
320,192,38074,1,2,0:0:0:0:
192,192,38165,1,2,0:0:0:0:
320,192,38256,1,2,0:0:0:0:
64,192,38347,1,0,0:0:0:0:
192,192,38347,1,0,0:0:0:0:
448,192,38347,1,8,0:0:0:0:
448,192,38528,1,0,0:0:0:0:
320,192,38528,1,2,0:0:0:0:
192,192,38619,1,2,0:0:0:0:
320,192,38710,1,0,0:0:0:0:
64,192,38710,1,0,0:0:0:0:
448,192,38710,1,8,0:0:0:0:
192,192,38801,1,0,0:0:0:0:
64,192,38892,1,0,0:0:0:0:
448,192,38892,1,2,0:0:0:0:
320,192,38983,1,2,0:0:0:0:
64,192,39074,1,0,0:0:0:0:
448,192,39074,1,0,0:0:0:0:
192,192,39074,1,8,0:0:0:0:
448,192,39256,1,0,0:0:0:0:
192,192,39256,1,2,0:0:0:0:
64,192,39438,1,0,0:0:0:0:
448,192,39438,1,0,0:0:0:0:
320,192,39438,1,8,0:0:0:0:
192,192,39528,1,2,0:0:0:0:
320,192,39619,1,2,0:0:0:0:
192,192,39710,1,2,0:0:0:0:
448,192,39801,1,0,0:0:0:0:
64,192,39801,1,0,0:0:0:0:
320,192,39801,1,8,0:0:0:0:
64,192,39983,1,0,0:0:0:0:
192,192,39983,1,2,0:0:0:0:
320,192,40074,1,2,0:0:0:0:
64,192,40165,1,0,0:0:0:0:
448,192,40165,1,0,0:0:0:0:
192,192,40165,1,8,0:0:0:0:
320,192,40256,1,0,0:0:0:0:
448,192,40347,1,0,0:0:0:0:
64,192,40347,1,2,0:0:0:0:
192,192,40438,1,2,0:0:0:0:
64,192,40528,1,0,0:0:0:0:
448,192,40528,1,0,0:0:0:0:
320,192,40528,1,8,0:0:0:0:
320,192,40710,1,0,0:0:0:0:
192,192,40710,1,2,0:0:0:0:
448,192,40892,1,0,0:0:0:0:
192,192,40892,1,0,0:0:0:0:
64,192,40892,1,8,0:0:0:0:
320,192,40983,1,2,0:0:0:0:
192,192,41074,1,2,0:0:0:0:
320,192,41165,1,2,0:0:0:0:
448,192,41256,1,0,0:0:0:0:
192,192,41256,1,0,0:0:0:0:
64,192,41256,1,8,0:0:0:0:
448,192,41438,1,0,0:0:0:0:
320,192,41438,1,2,0:0:0:0:
192,192,41528,1,2,0:0:0:0:
448,192,41619,1,0,0:0:0:0:
64,192,41619,1,2,0:0:0:0:
320,192,41619,1,8,0:0:0:0:
192,192,41710,1,2,0:0:0:0:
64,192,41801,1,0,0:0:0:0:
448,192,41801,1,2,0:0:0:0:
320,192,41892,1,2,0:0:0:0:
192,192,41983,1,0,0:0:0:0:
64,192,41983,1,2,0:0:0:0:
448,192,41983,1,8,0:0:0:0:
320,192,42074,1,2,0:0:0:0:
192,192,42165,1,0,0:0:0:0:
448,192,42165,1,4,0:0:0:0:
64,192,42165,1,2,0:0:0:0:
320,192,42347,1,0,0:0:0:0:
64,192,42347,1,0,0:0:0:0:
448,192,42347,1,8,0:0:0:0:
192,192,42438,1,2,0:0:0:0:
320,192,42528,1,2,0:0:0:0:
192,192,42619,1,2,0:0:0:0:
448,192,42710,1,0,0:0:0:0:
64,192,42710,1,0,0:0:0:0:
320,192,42710,1,8,0:0:0:0:
64,192,42892,1,0,0:0:0:0:
192,192,42892,1,2,0:0:0:0:
320,192,42983,1,2,0:0:0:0:
192,192,43074,1,0,0:0:0:0:
448,192,43074,1,0,0:0:0:0:
64,192,43074,1,8,0:0:0:0:
320,192,43165,1,0,0:0:0:0:
64,192,43256,1,0,0:0:0:0:
448,192,43256,1,2,0:0:0:0:
192,192,43347,1,2,0:0:0:0:
64,192,43438,1,0,0:0:0:0:
448,192,43438,1,0,0:0:0:0:
320,192,43438,1,8,0:0:0:0:
192,192,43619,1,0,0:0:0:0:
320,192,43619,1,2,0:0:0:0:
192,192,43801,1,0,0:0:0:0:
448,192,43801,1,0,0:0:0:0:
64,192,43801,1,8,0:0:0:0:
320,192,43892,1,2,0:0:0:0:
192,192,43983,1,2,0:0:0:0:
320,192,44074,1,2,0:0:0:0:
192,192,44165,1,0,0:0:0:0:
64,192,44165,1,0,0:0:0:0:
448,192,44165,1,8,0:0:0:0:
320,192,44347,1,0,0:0:0:0:
448,192,44347,1,2,0:0:0:0:
192,192,44438,1,2,0:0:0:0:
64,192,44528,1,0,0:0:0:0:
448,192,44528,1,0,0:0:0:0:
320,192,44528,1,8,0:0:0:0:
192,192,44619,1,0,0:0:0:0:
64,192,44710,1,0,0:0:0:0:
448,192,44710,1,2,0:0:0:0:
320,192,44801,1,2,0:0:0:0:
448,192,44892,1,0,0:0:0:0:
192,192,44892,1,0,0:0:0:0:
64,192,44892,1,8,0:0:0:0:
448,192,45074,1,0,0:0:0:0:
192,192,45074,1,2,0:0:0:0:
320,192,45256,1,0,0:0:0:0:
64,192,45256,1,0,0:0:0:0:
448,192,45256,1,8,0:0:0:0:
192,192,45347,1,2,0:0:0:0:
320,192,45438,1,2,0:0:0:0:
192,192,45528,1,2,0:0:0:0:
448,192,45619,1,0,0:0:0:0:
320,192,45619,1,0,0:0:0:0:
64,192,45619,1,8,0:0:0:0:
64,192,45801,1,0,0:0:0:0:
192,192,45801,1,2,0:0:0:0:
320,192,45892,1,2,0:0:0:0:
448,192,45983,1,0,0:0:0:0:
192,192,45983,1,0,0:0:0:0:
64,192,45983,1,8,0:0:0:0:
320,192,46074,1,0,0:0:0:0:
448,192,46165,1,0,0:0:0:0:
64,192,46165,1,2,0:0:0:0:
192,192,46256,1,2,0:0:0:0:
448,192,46347,1,0,0:0:0:0:
64,192,46347,1,4,0:0:0:0:
320,192,46347,1,8,0:0:0:0:
64,192,46528,1,0,0:0:0:0:
192,192,46528,1,8,0:0:0:0:
320,192,46619,1,0,0:0:0:0:
448,192,46619,1,8,0:0:0:0:
64,192,46710,1,0,0:0:0:0:
192,192,46710,1,8,0:0:0:0:
448,192,46801,1,0,0:0:0:0:
320,192,46801,1,8,0:0:0:0:
192,192,46892,1,0,0:0:0:0:
64,192,46892,1,8,0:0:0:0:
320,192,46983,1,0,0:0:0:0:
448,192,46983,1,8,0:0:0:0:
192,192,47074,1,0,0:0:0:0:
64,192,47074,1,8,0:0:0:0:
320,192,47165,1,0,0:0:0:0:
448,192,47165,1,8,0:0:0:0:
64,192,47256,1,0,0:0:0:0:
192,192,47256,1,8,0:0:0:0:
320,192,47316,1,8,0:0:0:0:
448,192,47377,1,8,0:0:0:0:
64,192,47438,1,0,0:0:0:70:tom1.wav
192,192,47498,1,0,0:0:0:70:tom1.wav
320,192,47559,1,0,0:0:0:70:tom1.wav
448,192,47619,1,0,0:0:0:70:tom3.wav
64,192,47680,1,0,0:0:0:70:tom3.wav
192,192,47741,1,0,0:0:0:70:tom3.wav
320,192,47801,1,0,0:0:0:0:
448,192,47801,1,4,0:0:0:0:
64,192,47983,1,0,0:0:0:0:
64,192,48528,1,0,0:0:0:0:
320,192,48710,1,0,0:0:0:0:
64,192,48710,1,0,0:0:0:0:
448,192,49074,1,0,0:0:0:0:
448,192,49256,1,0,0:0:0:0:
192,192,49619,1,0,0:0:0:0:
192,192,49801,1,0,0:0:0:0:
192,192,49983,1,0,0:0:0:0:
320,192,50044,1,0,0:0:0:0:
448,192,50104,1,0,0:0:0:0:
192,192,50165,1,0,0:0:0:0:
64,192,50165,1,0,0:0:0:0:
320,192,50528,1,0,0:0:0:0:
320,192,50710,1,0,0:0:0:0:
192,192,50801,1,0,0:0:0:0:
64,192,50892,1,0,0:0:0:0:
448,192,50892,1,0,0:0:0:0:
320,192,51438,1,0,0:0:0:0:
448,192,51619,1,0,0:0:0:0:
192,192,51619,1,0,0:0:0:0:
192,192,51983,1,0,0:0:0:0:
192,192,52347,1,0,0:0:0:0:
64,192,52528,1,0,0:0:0:0:
448,192,52528,1,0,0:0:0:0:
448,192,52710,1,0,0:0:0:0:
64,192,52710,1,0,0:0:0:0:
192,192,52892,1,0,0:0:0:0:
320,192,52983,1,0,0:0:0:0:
192,192,53074,1,0,0:0:0:0:
320,192,53165,1,0,0:0:0:0:
192,192,53256,1,0,0:0:0:0:
320,192,53347,1,0,0:0:0:0:
64,192,53438,128,0,53801:0:0:0:0:
192,192,53619,128,0,53801:0:0:0:0:
320,192,53801,1,0,0:0:0:0:
448,192,53801,1,2,0:0:0:0:
320,192,53983,128,0,54165:0:0:0:70:hat.wav
448,192,54165,1,0,0:0:0:0:
64,192,54165,1,2,0:0:0:0:
192,192,54347,128,0,54528:0:0:0:70:hat.wav
64,192,54528,1,0,0:0:0:0:
320,192,54528,1,2,0:0:0:0:
448,192,54710,128,0,54892:0:0:0:70:hat.wav
192,192,54892,1,0,0:0:0:0:
320,192,54892,1,0,0:0:0:0:
64,192,54892,1,8,0:0:0:0:
64,192,55074,128,0,55256:0:0:0:70:hat.wav
192,192,55256,1,0,0:0:0:0:
448,192,55256,1,2,0:0:0:0:
320,192,55438,128,0,55619:0:0:0:70:hat.wav
64,192,55619,1,0,0:0:0:0:
448,192,55619,1,2,0:0:0:0:
192,192,55801,128,0,55983:0:0:0:70:hat.wav
448,192,55983,1,0,0:0:0:0:
64,192,55983,1,2,0:0:0:0:
320,192,56165,128,0,56347:0:0:0:70:hat.wav
448,192,56347,1,0,0:0:0:0:
192,192,56347,1,8,0:0:0:0:
64,192,56347,1,4,0:0:0:0:
192,192,56528,1,0,0:0:0:70:tom3.wav
320,192,56589,1,0,0:0:0:70:tom3.wav
448,192,56650,1,0,0:0:0:70:tom3.wav
64,192,56710,1,0,0:0:0:0:
192,192,56710,1,8,0:0:0:0:
320,192,56771,1,8,0:0:0:0:
448,192,56831,1,8,0:0:0:0:
192,192,56892,1,0,0:0:0:70:tom1.wav
320,192,56953,1,0,0:0:0:70:tom2.wav
64,192,57013,1,0,0:0:0:70:tom2.wav
448,192,57074,1,8,0:0:0:0:
192,192,57134,1,8,0:0:0:0:
320,192,57195,1,8,0:0:0:0:
64,192,57256,1,0,0:0:0:70:tom2.wav
448,192,57316,1,0,0:0:0:70:tom3.wav
192,192,57377,1,0,0:0:0:70:tom3.wav
64,192,57438,1,0,0:0:0:70:tom3.wav
448,192,57498,1,0,0:0:0:70:tom3.wav
320,192,57559,1,0,0:0:0:70:tom3.wav
192,192,57619,1,8,0:0:0:0:
64,192,57619,1,4,0:0:0:0:
448,192,57801,1,0,0:0:0:0:
320,192,57892,1,2,0:0:0:0:
192,192,57983,1,2,0:0:0:0:
64,192,58074,1,2,0:0:0:0:
448,192,58165,1,0,0:0:0:0:
192,192,58165,1,0,0:0:0:70:tom3.wav
320,192,58165,1,8,0:0:0:0:
64,192,58438,1,0,0:0:0:0:
320,192,58438,1,0,0:0:0:0:
448,192,58438,1,8,0:0:0:0:
192,192,58438,1,0,0:0:0:70:tom3.wav
64,192,58710,1,0,0:0:0:0:
192,192,58710,1,0,0:0:0:0:
320,192,58710,1,0,0:0:0:70:tom3.wav
448,192,58710,1,8,0:0:0:0:
64,192,58892,1,0,0:0:0:0:
192,192,58953,1,0,0:0:0:0:
320,192,59013,1,0,0:0:0:0:
448,192,59074,1,0,0:0:0:0:
64,192,59134,1,0,0:0:0:0:
192,192,59195,1,0,0:0:0:0:
320,192,59256,1,0,0:0:0:0:
448,192,59316,1,0,0:0:0:0:
64,192,59377,1,0,0:0:0:0:
192,192,59438,1,0,0:0:0:0:
320,192,59498,1,0,0:0:0:0:
448,192,59559,1,0,0:0:0:0:
64,192,59619,1,0,0:0:0:0:
192,192,59619,1,4,0:0:0:0:
320,192,59619,1,2,0:0:0:0:
448,192,59710,1,0,0:0:0:0:
320,192,59801,1,0,0:0:0:0:
192,192,59801,1,8,0:0:0:0:
64,192,59892,1,0,0:0:0:0:
448,192,59892,1,2,0:0:0:0:
320,192,59983,1,0,0:0:0:0:
64,192,60074,1,0,0:0:0:0:
192,192,60074,1,2,0:0:0:0:
320,192,60165,1,0,0:0:0:0:
448,192,60165,1,8,0:0:0:0:
64,192,60256,1,0,0:0:0:0:
192,192,60347,1,0,0:0:0:0:
320,192,60438,1,0,0:0:0:0:
448,192,60438,1,2,0:0:0:0:
192,192,60528,1,0,0:0:0:0:
64,192,60528,1,8,0:0:0:0:
448,192,60619,1,0,0:0:0:0:
192,192,60710,1,0,0:0:0:0:
320,192,60710,1,2,0:0:0:0:
64,192,60801,1,2,0:0:0:0:
448,192,60892,1,0,0:0:0:0:
192,192,60892,1,8,0:0:0:0:
320,192,60983,1,0,0:0:0:0:
64,192,61074,1,0,0:0:0:0:
448,192,61074,1,2,0:0:0:0:
192,192,61165,1,0,0:0:0:0:
320,192,61256,1,8,0:0:0:0:
192,192,61347,1,0,0:0:0:0:
64,192,61347,1,2,0:0:0:0:
448,192,61438,1,0,0:0:0:0:
320,192,61438,1,2,0:0:0:0:
192,192,61528,1,0,0:0:0:0:
320,192,61619,1,0,0:0:0:0:
448,192,61619,1,8,0:0:0:0:
192,192,61710,1,0,0:0:0:0:
320,192,61801,1,0,0:0:0:0:
448,192,61801,1,2,0:0:0:0:
64,192,61892,1,2,0:0:0:0:
448,192,61983,1,0,0:0:0:0:
192,192,61983,1,8,0:0:0:0:
320,192,62074,1,0,0:0:0:0:
64,192,62165,1,0,0:0:0:0:
192,192,62165,1,2,0:0:0:0:
320,192,62256,1,2,0:0:0:0:
64,192,62347,1,0,0:0:0:0:
192,192,62347,1,8,0:0:0:0:
320,192,62438,1,0,0:0:0:0:
64,192,62528,1,0,0:0:0:0:
192,192,62528,1,4,0:0:0:0:
448,192,62528,1,2,0:0:0:0:
320,192,62619,1,0,0:0:0:0:
64,192,62710,1,0,0:0:0:0:
448,192,62710,1,8,0:0:0:0:
320,192,62801,1,0,0:0:0:0:
192,192,62801,1,2,0:0:0:0:
448,192,62892,1,0,0:0:0:0:
192,192,62983,1,0,0:0:0:0:
64,192,62983,1,2,0:0:0:0:
320,192,63074,1,0,0:0:0:0:
448,192,63074,1,8,0:0:0:0:
192,192,63165,1,0,0:0:0:0:
64,192,63256,1,0,0:0:0:0:
448,192,63347,1,0,0:0:0:0:
320,192,63347,1,2,0:0:0:0:
64,192,63438,1,0,0:0:0:0:
192,192,63438,1,8,0:0:0:0:
448,192,63528,1,0,0:0:0:0:
192,192,63619,1,0,0:0:0:0:
320,192,63619,1,2,0:0:0:0:
64,192,63710,1,2,0:0:0:0:
192,192,63801,1,0,0:0:0:0:
448,192,63801,1,8,0:0:0:0:
320,192,63892,1,0,0:0:0:0:
448,192,63983,1,0,0:0:0:0:
64,192,63983,1,2,0:0:0:0:
320,192,64074,1,0,0:0:0:0:
64,192,64165,1,0,0:0:0:0:
192,192,64165,1,8,0:0:0:0:
320,192,64256,1,0,0:0:0:0:
448,192,64256,1,2,0:0:0:0:
192,192,64347,1,0,0:0:0:0:
64,192,64438,1,0,0:0:0:0:
448,192,64438,1,2,0:0:0:0:
320,192,64528,1,0,0:0:0:0:
192,192,64528,1,8,0:0:0:0:
448,192,64619,1,0,0:0:0:0:
192,192,64710,1,0,0:0:0:0:
64,192,64710,1,2,0:0:0:0:
320,192,64801,1,2,0:0:0:0:
192,192,64892,1,0,0:0:0:0:
64,192,64892,1,4,0:0:0:0:
448,192,64892,1,8,0:0:0:0:
320,192,64983,1,0,0:0:0:0:
192,192,65074,1,0,0:0:0:0:
64,192,65074,1,8,0:0:0:0:
320,192,65165,1,0,0:0:0:0:
448,192,65165,1,8,0:0:0:0:
192,192,65256,1,0,0:0:0:0:
64,192,65256,1,8,0:0:0:0:
320,192,65347,1,8,0:0:0:0:
64,192,65438,1,0,0:0:0:0:
192,192,65438,1,2,0:0:0:0:
448,192,65438,1,4,0:0:0:0:
320,192,65528,1,0,0:0:0:0:
192,192,65619,1,0,0:0:0:0:
448,192,65619,1,8,0:0:0:0:
64,192,65710,1,0,0:0:0:0:
448,192,65801,1,0,0:0:0:0:
320,192,65801,1,2,0:0:0:0:
192,192,65892,1,0,0:0:0:0:
64,192,65892,1,2,0:0:0:0:
448,192,65983,1,0,0:0:0:0:
320,192,65983,1,8,0:0:0:0:
64,192,66074,1,0,0:0:0:0:
192,192,66165,1,0,0:0:0:0:
320,192,66165,1,2,0:0:0:0:
448,192,66256,1,0,0:0:0:0:
192,192,66347,1,0,0:0:0:0:
64,192,66347,1,8,0:0:0:0:
320,192,66438,1,0,0:0:0:0:
448,192,66528,1,0,0:0:0:0:
64,192,66528,1,2,0:0:0:0:
320,192,66619,1,0,0:0:0:0:
192,192,66619,1,2,0:0:0:0:
448,192,66710,1,0,0:0:0:0:
64,192,66710,1,8,0:0:0:0:
320,192,66801,1,0,0:0:0:0:
448,192,66892,1,0,0:0:0:0:
192,192,66892,1,2,0:0:0:0:
64,192,66983,1,0,0:0:0:0:
320,192,67074,1,0,0:0:0:0:
192,192,67074,1,8,0:0:0:0:
64,192,67165,1,0,0:0:0:0:
448,192,67256,1,0,0:0:0:0:
320,192,67256,1,2,0:0:0:0:
64,192,67347,1,0,0:0:0:0:
192,192,67347,1,2,0:0:0:0:
448,192,67438,1,0,0:0:0:0:
320,192,67438,1,8,0:0:0:0:
192,192,67528,1,0,0:0:0:0:
64,192,67619,1,0,0:0:0:0:
448,192,67619,1,2,0:0:0:0:
192,192,67710,1,0,0:0:0:0:
320,192,67710,1,2,0:0:0:0:
448,192,67801,1,0,0:0:0:0:
64,192,67801,1,8,0:0:0:0:
320,192,67892,1,0,0:0:0:0:
64,192,67983,1,0,0:0:0:0:
192,192,67983,1,0,0:0:0:70:tom1.wav
448,192,68074,1,0,0:0:0:0:
320,192,68074,1,0,0:0:0:70:tom2.wav
64,192,68165,1,0,0:0:0:0:
192,192,68165,1,0,0:0:0:70:tom3.wav
320,192,68256,1,0,0:0:0:70:tom3.wav
64,192,68347,1,0,0:0:0:0:
192,192,68347,1,8,0:0:0:0:
448,192,68347,1,4,0:0:0:0:
320,192,68438,1,2,0:0:0:0:
192,192,68619,1,2,0:0:0:0:
64,192,68710,1,0,0:0:0:0:
448,192,68710,1,8,0:0:0:0:
192,192,68801,1,2,0:0:0:0:
320,192,68983,1,2,0:0:0:0:
64,192,69074,1,0,0:0:0:0:
448,192,69074,1,8,0:0:0:0:
320,192,69165,1,2,0:0:0:0:
192,192,69347,1,2,0:0:0:0:
64,192,69438,1,0,0:0:0:0:
448,192,69438,1,8,0:0:0:0:
192,192,69528,1,2,0:0:0:0:
320,192,69710,1,2,0:0:0:0:
64,192,69801,1,0,0:0:0:0:
192,192,69801,1,0,0:0:0:70:tom3.wav
448,192,69801,1,8,0:0:0:0:
192,192,69983,1,0,0:0:0:0:
64,192,69983,1,0,0:0:0:70:tom3.wav
448,192,69983,1,8,0:0:0:0:
64,192,70165,1,0,0:0:0:0:
192,192,70165,1,0,0:0:0:70:tom3.wav
448,192,70165,1,8,0:0:0:0:
320,192,70528,1,0,0:0:0:70:tom2.wav
192,192,70589,1,0,0:0:0:70:tom3.wav
320,192,70650,1,0,0:0:0:70:tom3.wav
192,192,70710,1,0,0:0:0:70:tom3.wav
320,192,70771,1,0,0:0:0:70:tom3.wav
192,192,70831,1,0,0:0:0:70:tom3.wav
448,192,70892,1,0,0:0:0:0:
320,192,70892,1,4,0:0:0:0:
64,192,70892,1,8,0:0:0:0:
64,192,71256,1,0,0:0:0:0:
192,192,71256,1,4,0:0:0:0:
320,192,71256,1,2,0:0:0:0:
448,192,71347,1,2,0:0:0:0:
64,192,71438,1,8,0:0:0:0:
192,192,71438,1,2,0:0:0:0:
448,192,71528,1,0,0:0:0:0:
320,192,71528,1,2,0:0:0:0:
192,192,71619,1,2,0:0:0:0:
320,192,71710,1,0,0:0:0:0:
448,192,71710,1,2,0:0:0:0:
64,192,71801,1,0,0:0:0:0:
192,192,71801,1,2,0:0:0:0:
448,192,71892,1,2,0:0:0:0:
64,192,71983,1,0,0:0:0:0:
320,192,71983,1,2,0:0:0:0:
192,192,72074,1,2,0:0:0:0:
64,192,72165,1,0,0:0:0:0:
448,192,72165,1,8,0:0:0:0:
320,192,72165,1,2,0:0:0:0:
192,192,72256,1,2,0:0:0:0:
320,192,72347,1,0,0:0:0:0:
448,192,72347,1,2,0:0:0:0:
64,192,72438,1,2,0:0:0:0:
448,192,72528,1,0,0:0:0:0:
192,192,72528,1,8,0:0:0:0:
320,192,72528,1,2,0:0:0:0:
64,192,72619,1,2,0:0:0:0:
320,192,72710,1,0,0:0:0:0:
448,192,72710,1,2,0:0:0:0:
64,192,72801,1,2,0:0:0:0:
192,192,72892,1,8,0:0:0:0:
320,192,72892,1,2,0:0:0:0:
64,192,72983,1,0,0:0:0:0:
448,192,72983,1,2,0:0:0:0:
320,192,73074,1,0,0:0:0:0:
192,192,73074,1,2,0:0:0:0:
448,192,73165,1,2,0:0:0:0:
192,192,73256,1,0,0:0:0:0:
64,192,73256,1,2,0:0:0:0:
320,192,73347,1,2,0:0:0:0:
64,192,73438,1,0,0:0:0:0:
192,192,73438,1,2,0:0:0:0:
320,192,73528,1,2,0:0:0:0:
64,192,73619,1,0,0:0:0:0:
448,192,73619,1,8,0:0:0:0:
192,192,73619,1,2,0:0:0:0:
320,192,73710,1,2,0:0:0:0:
448,192,73801,1,0,0:0:0:0:
192,192,73801,1,2,0:0:0:0:
64,192,73892,1,2,0:0:0:0:
320,192,73983,1,0,0:0:0:0:
192,192,73983,1,8,0:0:0:0:
448,192,73983,1,2,0:0:0:0:
64,192,74074,1,2,0:0:0:0:
192,192,74165,1,0,0:0:0:0:
320,192,74165,1,4,0:0:0:0:
448,192,74165,1,2,0:0:0:0:
64,192,74256,1,2,0:0:0:0:
448,192,74347,1,8,0:0:0:0:
320,192,74347,1,2,0:0:0:0:
192,192,74438,1,0,0:0:0:0:
64,192,74438,1,2,0:0:0:0:
448,192,74528,1,2,0:0:0:0:
320,192,74619,1,0,0:0:0:0:
192,192,74619,1,2,0:0:0:0:
448,192,74710,1,0,0:0:0:0:
64,192,74710,1,2,0:0:0:0:
192,192,74801,1,2,0:0:0:0:
320,192,74892,1,0,0:0:0:0:
64,192,74892,1,2,0:0:0:0:
448,192,74983,1,2,0:0:0:0:
64,192,75074,1,0,0:0:0:0:
192,192,75074,1,8,0:0:0:0:
320,192,75074,1,2,0:0:0:0:
448,192,75165,1,2,0:0:0:0:
320,192,75256,1,0,0:0:0:0:
64,192,75256,1,2,0:0:0:0:
192,192,75347,1,2,0:0:0:0:
64,192,75438,1,0,0:0:0:0:
320,192,75438,1,8,0:0:0:0:
448,192,75438,1,2,0:0:0:0:
192,192,75528,1,2,0:0:0:0:
448,192,75619,1,0,0:0:0:0:
320,192,75619,1,2,0:0:0:0:
192,192,75710,1,2,0:0:0:0:
64,192,75801,1,8,0:0:0:0:
448,192,75801,1,2,0:0:0:0:
320,192,75892,1,0,0:0:0:0:
192,192,75892,1,2,0:0:0:0:
64,192,75983,1,2,0:0:0:0:
320,192,76074,1,2,0:0:0:0:
64,192,76165,1,0,0:0:0:0:
448,192,76165,1,2,0:0:0:0:
192,192,76256,1,2,0:0:0:0:
320,192,76347,1,0,0:0:0:0:
448,192,76347,1,2,0:0:0:0:
192,192,76438,1,2,0:0:0:0:
448,192,76528,1,4,0:0:0:0:
64,192,76528,1,8,0:0:0:0:
320,192,76528,1,2,0:0:0:0:
192,192,76619,1,2,0:0:0:0:
320,192,76710,1,0,0:0:0:0:
448,192,76710,1,8,0:0:0:0:
192,192,76801,1,0,0:0:0:0:
64,192,76801,1,8,0:0:0:0:
320,192,76892,1,0,0:0:0:0:
448,192,76892,1,8,0:0:0:0:
192,192,76983,1,8,0:0:0:0:
64,192,77074,1,0,0:0:0:0:
320,192,77074,1,4,0:0:0:0:
448,192,77074,1,2,0:0:0:0:
192,192,77438,1,0,0:0:0:0:
448,192,77438,1,0,0:0:0:0:
320,192,77528,1,0,0:0:0:0:
64,192,77619,1,0,0:0:0:0:
192,192,77619,1,0,0:0:0:0:
320,192,77710,1,0,0:0:0:0:
448,192,77801,1,0,0:0:0:0:
64,192,77801,1,4,0:0:0:0:
192,192,77801,1,2,0:0:0:0:
64,192,77983,1,0,0:0:0:0:
192,192,78074,1,0,0:0:0:0:
448,192,78165,1,0,0:0:0:0:
320,192,78165,1,0,0:0:0:0:
192,192,78256,1,0,0:0:0:0:
64,192,78347,1,0,0:0:0:0:
320,192,78347,1,0,0:0:0:0:
192,192,78528,1,0,0:0:0:0:
64,192,78528,1,4,0:0:0:0:
320,192,78528,1,2,0:0:0:0:
448,192,78710,1,0,0:0:0:0:
192,192,78710,1,4,0:0:0:0:
64,192,78710,1,2,0:0:0:0:
64,192,78892,1,0,0:0:0:0:
448,192,78892,1,0,0:0:0:0:
192,192,78892,1,4,0:0:0:0:
320,192,78892,1,2,0:0:0:0:
320,192,79074,1,0,0:0:0:0:
192,192,79074,1,0,0:0:0:0:
448,192,79074,1,4,0:0:0:0:
64,192,79074,1,2,0:0:0:0:
320,192,79256,1,8,0:0:0:0:
192,192,79316,1,0,0:0:0:70:tom1.wav
320,192,79377,1,0,0:0:0:70:tom2.wav
192,192,79438,1,0,0:0:0:70:tom3.wav
320,192,79498,1,0,0:0:0:70:tom3.wav
192,192,79559,1,0,0:0:0:70:tom3.wav
448,192,79619,1,0,0:0:0:0:
64,192,79619,1,8,0:0:0:0:
320,192,79619,1,4,0:0:0:0:
320,192,79983,1,0,0:0:0:0:
448,192,79983,1,8,0:0:0:0:
64,192,79983,1,4,0:0:0:0:
192,192,80074,1,2,0:0:0:0:
320,192,80256,1,2,0:0:0:0:
448,192,80347,1,0,0:0:0:0:
64,192,80347,1,8,0:0:0:0:
320,192,80438,1,2,0:0:0:0:
192,192,80619,1,2,0:0:0:0:
64,192,80710,1,0,0:0:0:0:
448,192,80710,1,8,0:0:0:0:
192,192,80801,1,2,0:0:0:0:
320,192,80983,1,2,0:0:0:0:
64,192,81074,1,0,0:0:0:0:
448,192,81074,1,8,0:0:0:0:
320,192,81165,1,2,0:0:0:0:
192,192,81347,1,2,0:0:0:0:
448,192,81438,1,0,0:0:0:0:
320,192,81438,1,0,0:0:0:70:tom3.wav
64,192,81438,1,8,0:0:0:0:
320,192,81619,1,0,0:0:0:0:
448,192,81619,1,0,0:0:0:70:tom3.wav
64,192,81619,1,8,0:0:0:0:
64,192,81801,1,0,0:0:0:0:
320,192,81801,1,0,0:0:0:70:tom3.wav
448,192,81801,1,8,0:0:0:0:
64,192,82165,1,0,0:0:0:0:
320,192,82165,1,0,0:0:0:70:tom3.wav
448,192,82165,1,8,0:0:0:0:
192,192,82528,1,0,0:0:0:0:
64,192,82528,1,8,0:0:0:0:
320,192,82619,1,0,0:0:0:0:
448,192,82619,1,8,0:0:0:0:
192,192,82710,1,0,0:0:0:0:
64,192,82710,1,8,0:0:0:0:
320,192,82801,1,8,0:0:0:0:
192,192,82892,1,0,0:0:0:0:
64,192,82892,1,2,0:0:0:0:
448,192,82892,1,4,0:0:0:0:
320,192,82983,1,0,0:0:0:0:
448,192,83074,1,0,0:0:0:0:
192,192,83165,1,0,0:0:0:0:
64,192,83165,1,8,0:0:0:0:
448,192,83256,1,0,0:0:0:0:
320,192,83256,1,2,0:0:0:0:
192,192,83347,1,0,0:0:0:0:
64,192,83438,1,0,0:0:0:0:
448,192,83438,1,0,0:0:0:0:
320,192,83528,1,0,0:0:0:0:
192,192,83619,1,0,0:0:0:0:
64,192,83619,1,2,0:0:0:0:
448,192,83710,1,0,0:0:0:0:
320,192,83710,1,8,0:0:0:0:
192,192,83801,1,0,0:0:0:0:
448,192,83892,1,0,0:0:0:0:
320,192,83892,1,8,0:0:0:0:
192,192,83983,1,0,0:0:0:0:
64,192,83983,1,2,0:0:0:0:
320,192,84074,1,0,0:0:0:0:
192,192,84165,1,0,0:0:0:0:
448,192,84165,1,0,0:0:0:0:
64,192,84256,1,0,0:0:0:0:
320,192,84347,128,0,84438:0:0:0:0:
448,192,84347,1,2,0:0:0:0:
192,192,84438,128,0,84528:0:0:0:0:
448,192,84528,128,0,84619:0:0:0:0:
64,192,84619,1,0,0:0:0:0:
192,192,84619,128,8,84710:0:0:0:0:
320,192,84710,128,0,84801:0:0:0:0:
448,192,84710,1,2,0:0:0:0:
64,192,84801,128,0,84892:0:0:0:0:
320,192,84892,128,0,84983:0:0:0:0:
448,192,84892,1,8,0:0:0:0:
192,192,84983,128,0,85074:0:0:0:0:
320,192,85074,1,0,0:0:0:0:
448,192,85074,1,2,0:0:0:0:
64,192,85165,1,0,0:0:0:0:
192,192,85165,1,8,0:0:0:0:
320,192,85256,1,0,0:0:0:0:
64,192,85347,1,0,0:0:0:0:
192,192,85347,1,8,0:0:0:0:
320,192,85438,1,0,0:0:0:0:
448,192,85438,1,2,0:0:0:0:
64,192,85528,1,0,0:0:0:0:
192,192,85619,1,0,0:0:0:0:
448,192,85619,1,0,0:0:0:0:
320,192,85710,1,0,0:0:0:0:
64,192,85801,1,0,0:0:0:0:
448,192,85801,1,2,0:0:0:0:
192,192,85892,1,0,0:0:0:0:
320,192,85983,1,0,0:0:0:0:
192,192,86074,1,0,0:0:0:0:
64,192,86074,1,8,0:0:0:0:
320,192,86165,1,0,0:0:0:0:
448,192,86165,1,2,0:0:0:0:
192,192,86256,1,0,0:0:0:0:
448,192,86347,1,0,0:0:0:0:
64,192,86347,1,8,0:0:0:0:
320,192,86438,1,0,0:0:0:0:
192,192,86528,128,0,86619:0:0:0:0:
64,192,86528,1,2,0:0:0:0:
320,192,86619,128,0,86710:0:0:0:0:
448,192,86619,1,8,0:0:0:0:
192,192,86710,128,0,86801:0:0:0:0:
320,192,86801,1,0,0:0:0:0:
448,192,86801,128,8,86892:0:0:0:0:
192,192,86892,128,0,86983:0:0:0:0:
64,192,86892,1,2,0:0:0:0:
320,192,86983,128,0,87074:0:0:0:0:
64,192,87074,128,0,87165:0:0:0:0:
192,192,87074,1,0,0:0:0:0:
320,192,87165,128,0,87256:0:0:0:0:
192,192,87256,1,0,0:0:0:0:
64,192,87256,1,2,0:0:0:0:
448,192,87347,1,0,0:0:0:0:
320,192,87438,1,0,0:0:0:0:
192,192,87528,1,0,0:0:0:0:
64,192,87528,1,8,0:0:0:0:
448,192,87619,1,0,0:0:0:0:
320,192,87619,1,2,0:0:0:0:
192,192,87710,1,0,0:0:0:0:
448,192,87801,1,0,0:0:0:0:
64,192,87801,1,8,0:0:0:0:
192,192,87892,1,0,0:0:0:0:
320,192,87983,1,4,0:0:0:0:
448,192,87983,1,2,0:0:0:0:
64,192,88074,1,8,0:0:0:0:
192,192,88119,1,8,0:0:0:0:
320,192,88165,1,0,0:0:0:0:
448,192,88165,1,8,0:0:0:0:
64,192,88256,1,0,0:0:0:0:
192,192,88256,1,8,0:0:0:0:
448,192,88347,1,0,0:0:0:70:tom1.wav
320,192,88392,1,0,0:0:0:70:tom1.wav
192,192,88438,1,0,0:0:0:70:tom1.wav
64,192,88483,1,0,0:0:0:70:tom1.wav
448,192,88528,1,0,0:0:0:70:tom3.wav
320,192,88574,1,0,0:0:0:70:tom3.wav
192,192,88619,1,0,0:0:0:70:tom3.wav
64,192,88665,1,0,0:0:0:70:tom3.wav
320,192,88710,1,2,0:0:0:0:
448,192,88710,1,4,0:0:0:0:
192,192,88801,1,0,0:0:0:0:
320,192,88892,1,0,0:0:0:0:
64,192,88983,1,0,0:0:0:0:
192,192,88983,1,8,0:0:0:0:
320,192,89074,1,0,0:0:0:0:
448,192,89074,1,2,0:0:0:0:
64,192,89165,1,0,0:0:0:0:
192,192,89256,1,0,0:0:0:0:
448,192,89256,1,8,0:0:0:0:
320,192,89347,1,0,0:0:0:0:
64,192,89438,1,0,0:0:0:0:
192,192,89438,1,2,0:0:0:0:
448,192,89528,1,0,0:0:0:0:
320,192,89528,1,8,0:0:0:0:
192,192,89619,1,0,0:0:0:0:
64,192,89619,1,2,0:0:0:0:
448,192,89710,1,0,0:0:0:0:
320,192,89710,1,8,0:0:0:0:
64,192,89801,1,0,0:0:0:0:
192,192,89801,1,2,0:0:0:0:
320,192,89892,1,0,0:0:0:0:
448,192,89983,1,0,0:0:0:0:
64,192,89983,1,8,0:0:0:0:
192,192,90074,1,0,0:0:0:0:
320,192,90165,128,0,90528:0:0:0:0:
448,192,90165,1,2,0:0:0:0:
192,192,90301,128,0,90528:0:0:0:0:
64,192,90438,128,8,90528:0:0:0:0:
448,192,90528,128,2,90892:0:0:0:0:
320,192,90665,128,0,90892:0:0:0:0:
192,192,90801,128,0,90892:0:0:0:0:
64,192,90892,128,2,91256:0:0:0:0:
320,192,91256,128,2,91347:0:0:0:0:
192,192,91347,128,0,91438:0:0:0:0:
320,192,91438,128,0,91528:0:0:0:0:
192,192,91528,128,0,91619:0:0:0:0:
448,192,91619,128,0,91710:0:0:0:0:
320,192,91619,1,2,0:0:0:0:
192,192,91710,128,0,91801:0:0:0:0:
320,192,91801,128,0,91892:0:0:0:0:
64,192,91892,1,0,0:0:0:0:
192,192,91892,128,8,91983:0:0:0:0:
448,192,91983,1,0,0:0:0:0:
320,192,91983,128,2,92074:0:0:0:0:
64,192,92074,128,0,92165:0:0:0:0:
448,192,92165,1,0,0:0:0:0:
320,192,92165,128,8,92256:0:0:0:0:
192,192,92256,128,0,92347:0:0:0:0:
320,192,92347,1,0,0:0:0:0:
448,192,92347,1,2,0:0:0:0:
64,192,92438,1,8,0:0:0:0:
192,192,92483,1,8,0:0:0:0:
320,192,92528,1,0,0:0:0:70:tom1.wav
448,192,92574,1,0,0:0:0:70:tom1.wav
64,192,92619,1,0,0:0:0:70:tom1.wav
192,192,92665,1,0,0:0:0:70:tom1.wav
448,192,92710,1,0,0:0:0:0:
320,192,92710,1,0,0:0:0:70:tom2.wav
192,192,92801,1,0,0:0:0:70:tom3.wav
320,192,92892,1,0,0:0:0:70:tom3.wav
192,192,92983,1,0,0:0:0:70:tom3.wav
448,192,93074,1,0,0:0:0:70:tom3.wav
64,192,93074,1,0,0:0:0:70:tom1.wav
448,192,93256,1,0,0:0:0:70:tom3.wav
64,192,93256,1,0,0:0:0:70:tom1.wav
64,192,93438,1,0,0:0:0:70:tom3.wav
448,192,93438,1,0,0:0:0:70:tom1.wav
192,192,93619,1,0,0:0:0:0:
320,192,93710,1,0,0:0:0:0:
448,192,93801,1,0,0:0:0:0:
64,192,93801,128,0,94165:0:0:0:70:tom3.wav
192,192,93801,128,0,94165:0:0:0:70:tom1.wav
320,192,94165,128,0,94528:0:0:0:0:
64,192,94528,1,0,0:0:0:0:
448,192,94528,1,0,0:0:0:0:
192,192,94710,1,0,0:0:0:0:
448,192,94801,1,0,0:0:0:0:
320,192,94983,1,0,0:0:0:0:
64,192,95074,1,0,0:0:0:0:
448,192,95438,1,0,0:0:0:0:
320,192,95438,1,0,0:0:0:0:
192,192,95619,1,0,0:0:0:0:
64,192,95801,1,0,0:0:0:0:
320,192,95983,1,0,0:0:0:0:
448,192,95983,1,0,0:0:0:0:
448,192,96256,1,0,0:0:0:0:
64,192,96347,1,0,0:0:0:0:
192,192,96528,1,0,0:0:0:0:
320,192,96710,1,0,0:0:0:0:
448,192,96710,1,0,0:0:0:0:
64,192,97074,1,0,0:0:0:0:
192,192,97256,1,0,0:0:0:0:
320,192,97438,1,0,0:0:0:0:
448,192,97438,1,0,0:0:0:0:
192,192,97619,1,0,0:0:0:0:
448,192,97710,1,0,0:0:0:0:
320,192,97892,1,0,0:0:0:0:
64,192,97983,1,0,0:0:0:0:
192,192,98165,1,0,0:0:0:0:
320,192,98165,1,0,0:0:0:0:
448,192,98347,1,0,0:0:0:0:
192,192,98528,1,0,0:0:0:0:
192,192,98710,1,0,0:0:0:0:
64,192,98892,1,0,0:0:0:0:
448,192,98892,1,0,0:0:0:0:
192,192,99165,1,0,0:0:0:0:
320,192,99165,1,0,0:0:0:0:
64,192,99438,1,0,0:0:0:0:
448,192,99438,1,0,0:0:0:0:
448,192,99983,1,0,0:0:0:0:
64,192,99983,1,0,0:0:0:0:
192,192,100165,1,0,0:0:0:0:
448,192,100347,1,0,0:0:0:0:
320,192,100347,1,0,0:0:0:0:
448,192,100710,1,0,0:0:0:0:
320,192,100892,1,0,0:0:0:0:
192,192,101074,1,0,0:0:0:0:
64,192,101074,1,0,0:0:0:0:
320,192,101438,1,0,0:0:0:0:
192,192,101619,1,0,0:0:0:0:
64,192,101801,1,0,0:0:0:0:
448,192,101801,1,0,0:0:0:0:
320,192,101983,1,0,0:0:0:0:
64,192,102165,1,0,0:0:0:0:
448,192,102165,1,0,0:0:0:0:
192,192,102347,1,0,0:0:0:0:
64,192,102528,1,0,0:0:0:0:
320,192,102528,1,0,0:0:0:0:
192,192,102892,1,0,0:0:0:0:
320,192,103074,1,0,0:0:0:0:
448,192,103256,1,0,0:0:0:0:
192,192,103256,1,0,0:0:0:0:
448,192,103619,1,0,0:0:0:0:
320,192,103801,1,0,0:0:0:0:
192,192,103983,1,0,0:0:0:0:
448,192,103983,1,0,0:0:0:0:
64,192,104347,1,0,0:0:0:0:
192,192,104528,1,0,0:0:0:0:
320,192,106165,128,0,107256:0:0:0:0:
64,192,107256,1,0,0:0:0:0:
192,192,107438,1,0,0:0:0:0:
64,192,107619,1,0,0:0:0:0:
448,192,107619,1,2,0:0:0:0:
320,192,107619,1,4,0:0:0:0:
192,192,107710,1,0,0:0:0:0:
448,192,107801,1,0,0:0:0:0:
320,192,107801,1,8,0:0:0:0:
192,192,107892,1,0,0:0:0:0:
64,192,107892,1,2,0:0:0:0:
448,192,107983,1,0,0:0:0:0:
192,192,108074,1,0,0:0:0:0:
320,192,108074,1,2,0:0:0:0:
64,192,108165,1,0,0:0:0:0:
448,192,108165,1,8,0:0:0:0:
192,192,108256,1,0,0:0:0:0:
320,192,108347,1,0,0:0:0:0:
448,192,108438,1,0,0:0:0:0:
64,192,108438,1,2,0:0:0:0:
192,192,108528,1,0,0:0:0:0:
320,192,108528,1,8,0:0:0:0:
64,192,108619,1,0,0:0:0:0:
320,192,108710,1,0,0:0:0:0:
448,192,108710,1,2,0:0:0:0:
192,192,108801,1,2,0:0:0:0:
448,192,108892,1,0,0:0:0:0:
64,192,108892,1,8,0:0:0:0:
320,192,108983,1,0,0:0:0:0:
192,192,109074,1,0,0:0:0:0:
64,192,109074,1,2,0:0:0:0:
320,192,109165,1,0,0:0:0:0:
448,192,109256,1,8,0:0:0:0:
192,192,109347,1,0,0:0:0:0:
320,192,109347,1,2,0:0:0:0:
64,192,109438,1,0,0:0:0:0:
448,192,109438,1,2,0:0:0:0:
192,192,109528,1,0,0:0:0:0:
448,192,109619,1,0,0:0:0:0:
320,192,109619,1,8,0:0:0:0:
192,192,109710,1,0,0:0:0:0:
64,192,109801,1,0,0:0:0:0:
448,192,109801,1,2,0:0:0:0:
320,192,109892,1,2,0:0:0:0:
192,192,109983,1,0,0:0:0:0:
64,192,109983,1,8,0:0:0:0:
448,192,110074,1,0,0:0:0:0:
320,192,110165,1,0,0:0:0:0:
192,192,110165,1,2,0:0:0:0:
448,192,110256,1,2,0:0:0:0:
192,192,110347,1,0,0:0:0:0:
64,192,110347,1,8,0:0:0:0:
320,192,110438,1,0,0:0:0:0:
64,192,110528,1,4,0:0:0:0:
448,192,110528,1,2,0:0:0:0:
320,192,110619,1,0,0:0:0:0:
64,192,110710,1,0,0:0:0:0:
192,192,110710,1,8,0:0:0:0:
448,192,110801,1,0,0:0:0:0:
320,192,110801,1,2,0:0:0:0:
192,192,110892,1,0,0:0:0:0:
64,192,110983,1,0,0:0:0:0:
448,192,110983,1,2,0:0:0:0:
320,192,111074,1,0,0:0:0:0:
192,192,111074,1,8,0:0:0:0:
64,192,111165,1,0,0:0:0:0:
192,192,111256,1,0,0:0:0:0:
320,192,111347,1,0,0:0:0:0:
448,192,111347,1,2,0:0:0:0:
64,192,111438,1,0,0:0:0:0:
192,192,111438,1,8,0:0:0:0:
320,192,111528,1,0,0:0:0:0:
64,192,111619,1,0,0:0:0:0:
448,192,111619,1,2,0:0:0:0:
192,192,111710,1,2,0:0:0:0:
448,192,111801,1,0,0:0:0:0:
320,192,111801,1,8,0:0:0:0:
192,192,111892,1,0,0:0:0:0:
64,192,111983,1,0,0:0:0:0:
448,192,111983,1,2,0:0:0:0:
320,192,112074,1,0,0:0:0:0:
64,192,112165,1,0,0:0:0:0:
192,192,112165,1,8,0:0:0:0:
320,192,112256,1,0,0:0:0:0:
448,192,112256,1,2,0:0:0:0:
64,192,112347,1,0,0:0:0:0:
320,192,112438,1,0,0:0:0:0:
448,192,112438,1,2,0:0:0:0:
64,192,112528,1,0,0:0:0:0:
192,192,112528,1,8,0:0:0:0:
320,192,112619,1,0,0:0:0:0:
192,192,112710,1,0,0:0:0:0:
448,192,112710,1,2,0:0:0:0:
64,192,112801,1,2,0:0:0:0:
320,192,112892,1,0,0:0:0:0:
448,192,112892,1,4,0:0:0:0:
192,192,112892,1,8,0:0:0:0:
64,192,112983,1,0,0:0:0:0:
320,192,113074,1,0,0:0:0:0:
448,192,113074,1,8,0:0:0:0:
64,192,113165,1,0,0:0:0:0:
192,192,113165,1,8,0:0:0:0:
320,192,113256,1,0,0:0:0:0:
448,192,113256,1,8,0:0:0:0:
192,192,113347,1,8,0:0:0:0:
320,192,113438,1,0,0:0:0:0:
448,192,113438,1,4,0:0:0:0:
64,192,113438,1,2,0:0:0:0:
192,192,113801,1,0,0:0:0:0:
448,192,113801,1,0,0:0:0:0:
320,192,113892,1,0,0:0:0:0:
192,192,113983,1,0,0:0:0:0:
64,192,113983,1,0,0:0:0:0:
320,192,114074,1,0,0:0:0:0:
64,192,114165,1,0,0:0:0:0:
192,192,114165,1,4,0:0:0:0:
448,192,114165,1,2,0:0:0:0:
448,192,114347,1,0,0:0:0:0:
320,192,114438,1,0,0:0:0:0:
64,192,114528,1,0,0:0:0:0:
192,192,114528,1,0,0:0:0:0:
320,192,114619,1,0,0:0:0:0:
448,192,114710,1,0,0:0:0:0:
192,192,114710,1,0,0:0:0:0:
64,192,114892,1,0,0:0:0:0:
192,192,114892,1,4,0:0:0:0:
320,192,114892,1,2,0:0:0:0:
64,192,115074,1,0,0:0:0:0:
448,192,115074,1,4,0:0:0:0:
320,192,115074,1,2,0:0:0:0:
64,192,115256,1,0,0:0:0:0:
448,192,115256,1,0,0:0:0:0:
320,192,115256,1,4,0:0:0:0:
192,192,115256,1,2,0:0:0:0:
64,192,115438,1,0,0:0:0:0:
448,192,115438,1,0,0:0:0:0:
320,192,115438,1,4,0:0:0:0:
192,192,115438,1,2,0:0:0:0:
192,192,115619,1,8,0:0:0:0:
320,192,115680,1,0,0:0:0:70:tom1.wav
448,192,115741,1,0,0:0:0:70:tom2.wav
192,192,115801,1,0,0:0:0:70:tom3.wav
320,192,115862,1,0,0:0:0:70:tom3.wav
448,192,115922,1,0,0:0:0:70:tom3.wav
64,192,115983,1,8,0:0:0:0:
192,192,116044,1,0,0:0:0:70:tom1.wav
320,192,116104,1,0,0:0:0:70:tom2.wav
64,192,116165,1,0,0:0:0:70:tom3.wav
192,192,116225,1,0,0:0:0:70:tom3.wav
320,192,116286,1,0,0:0:0:70:tom3.wav
448,192,116347,1,0,0:0:0:0:
192,192,116347,1,4,0:0:0:0:
64,192,116347,1,8,0:0:0:0:
320,192,116438,1,2,0:0:0:0:
192,192,116619,1,2,0:0:0:0:
448,192,116710,1,0,0:0:0:0:
64,192,116710,1,8,0:0:0:0:
192,192,116801,1,2,0:0:0:0:
320,192,116983,1,2,0:0:0:0:
64,192,117074,1,0,0:0:0:0:
448,192,117074,1,8,0:0:0:0:
320,192,117165,1,2,0:0:0:0:
192,192,117347,1,2,0:0:0:0:
448,192,117438,1,0,0:0:0:0:
64,192,117438,1,8,0:0:0:0:
192,192,117528,1,2,0:0:0:0:
320,192,117710,1,2,0:0:0:0:
64,192,117801,1,0,0:0:0:0:
64,192,117983,1,0,0:0:0:0:
192,192,118165,1,0,0:0:0:0:
448,192,118528,1,0,0:0:0:0:
320,192,118589,1,0,0:0:0:0:
192,192,118650,1,0,0:0:0:0:
64,192,118710,1,0,0:0:0:0:
448,192,118771,1,0,0:0:0:0:
320,192,118831,1,0,0:0:0:0:
192,192,118892,1,0,0:0:0:0:
64,192,118953,1,0,0:0:0:0:
448,192,119013,1,0,0:0:0:0:
320,192,119074,1,0,0:0:0:0:
192,192,119134,1,0,0:0:0:0:
64,192,119195,1,0,0:0:0:0:
448,192,119256,1,0,0:0:0:0:
320,192,119256,1,2,0:0:0:0:
192,192,119256,1,4,0:0:0:0:
64,192,119347,1,0,0:0:0:0:
320,192,119438,1,0,0:0:0:0:
64,192,119528,1,0,0:0:0:0:
192,192,119528,1,8,0:0:0:0:
320,192,119619,1,0,0:0:0:0:
448,192,119619,1,2,0:0:0:0:
192,192,119710,1,0,0:0:0:0:
448,192,119801,1,0,0:0:0:0:
64,192,119801,1,0,0:0:0:0:
320,192,119892,1,0,0:0:0:0:
64,192,119983,1,0,0:0:0:0:
192,192,119983,1,2,0:0:0:0:
320,192,120074,1,0,0:0:0:0:
448,192,120074,1,8,0:0:0:0:
192,192,120165,1,0,0:0:0:0:
448,192,120256,1,0,0:0:0:0:
320,192,120256,1,8,0:0:0:0:
192,192,120347,1,0,0:0:0:0:
64,192,120347,1,2,0:0:0:0:
448,192,120438,1,0,0:0:0:0:
192,192,120528,1,0,0:0:0:0:
320,192,120528,1,0,0:0:0:0:
64,192,120619,1,0,0:0:0:0:
448,192,120710,1,0,0:0:0:0:
320,192,120710,1,2,0:0:0:0:
192,192,120801,1,0,0:0:0:0:
64,192,120892,1,0,0:0:0:0:
448,192,120983,1,0,0:0:0:0:
320,192,120983,1,8,0:0:0:0:
64,192,121074,1,0,0:0:0:0:
192,192,121074,1,2,0:0:0:0:
448,192,121165,1,0,0:0:0:0:
192,192,121256,1,0,0:0:0:0:
320,192,121256,1,8,0:0:0:0:
64,192,121347,1,0,0:0:0:0:
448,192,121438,1,0,0:0:0:0:
320,192,121438,1,2,0:0:0:0:
192,192,121528,1,0,0:0:0:0:
64,192,121528,1,8,0:0:0:0:
448,192,121619,1,0,0:0:0:0:
64,192,121710,1,0,0:0:0:0:
192,192,121710,1,8,0:0:0:0:
320,192,121801,1,0,0:0:0:0:
448,192,121801,1,2,0:0:0:0:
64,192,121892,1,0,0:0:0:0:
320,192,121983,1,0,0:0:0:0:
192,192,121983,1,0,0:0:0:0:
448,192,122074,1,0,0:0:0:0:
192,192,122165,1,0,0:0:0:0:
64,192,122165,1,2,0:0:0:0:
320,192,122256,1,0,0:0:0:0:
448,192,122347,1,0,0:0:0:0:
192,192,122438,1,0,0:0:0:0:
64,192,122438,1,8,0:0:0:0:
320,192,122528,1,0,0:0:0:0:
448,192,122528,1,2,0:0:0:0:
64,192,122619,1,0,0:0:0:0:
192,192,122710,1,0,0:0:0:0:
320,192,122710,1,8,0:0:0:0:
448,192,122801,1,0,0:0:0:0:
64,192,122892,1,0,0:0:0:0:
192,192,122892,1,2,0:0:0:0:
448,192,122983,1,0,0:0:0:0:
320,192,122983,1,8,0:0:0:0:
64,192,123074,1,0,0:0:0:0:
320,192,123165,1,0,0:0:0:0:
448,192,123165,1,8,0:0:0:0:
64,192,123256,1,0,0:0:0:0:
192,192,123256,1,2,0:0:0:0:
320,192,123347,1,0,0:0:0:0:
448,192,123438,1,0,0:0:0:0:
64,192,123438,1,0,0:0:0:0:
192,192,123528,1,0,0:0:0:0:
448,192,123619,1,0,0:0:0:0:
320,192,123619,1,2,0:0:0:0:
64,192,123710,1,0,0:0:0:0:
192,192,123801,1,0,0:0:0:0:
320,192,123892,1,0,0:0:0:0:
448,192,123892,1,8,0:0:0:0:
64,192,123983,1,0,0:0:0:0:
192,192,123983,1,2,0:0:0:0:
320,192,124074,1,0,0:0:0:0:
64,192,124165,1,0,0:0:0:0:
448,192,124165,1,8,0:0:0:0:
320,192,124256,1,0,0:0:0:0:
64,192,124347,1,4,0:0:0:0:
192,192,124347,1,2,0:0:0:0:
448,192,124438,1,8,0:0:0:0:
320,192,124483,1,8,0:0:0:0:
64,192,124528,1,0,0:0:0:0:
192,192,124528,1,8,0:0:0:0:
320,192,124619,1,0,0:0:0:0:
448,192,124619,1,8,0:0:0:0:
64,192,124710,1,0,0:0:0:70:tom1.wav
192,192,124756,1,0,0:0:0:70:tom1.wav
320,192,124801,1,0,0:0:0:70:tom1.wav
448,192,124847,1,0,0:0:0:70:tom1.wav
64,192,124892,1,0,0:0:0:70:tom3.wav
192,192,124938,1,0,0:0:0:70:tom3.wav
320,192,124983,1,0,0:0:0:70:tom3.wav
448,192,125028,1,0,0:0:0:70:tom3.wav
192,192,125074,1,2,0:0:0:0:
64,192,125074,1,4,0:0:0:0:
320,192,125165,1,0,0:0:0:0:
64,192,125256,1,0,0:0:0:0:
320,192,125347,1,0,0:0:0:0:
448,192,125347,1,8,0:0:0:0:
64,192,125438,1,0,0:0:0:0:
192,192,125438,1,2,0:0:0:0:
320,192,125528,1,0,0:0:0:0:
448,192,125619,1,0,0:0:0:0:
64,192,125619,1,8,0:0:0:0:
192,192,125710,1,0,0:0:0:0:
448,192,125801,1,0,0:0:0:0:
320,192,125801,1,2,0:0:0:0:
64,192,125892,1,0,0:0:0:0:
192,192,125892,1,8,0:0:0:0:
320,192,125983,1,0,0:0:0:0:
448,192,125983,1,0,0:0:0:0:
64,192,126074,1,0,0:0:0:0:
192,192,126074,1,8,0:0:0:0:
448,192,126165,1,0,0:0:0:0:
320,192,126165,1,2,0:0:0:0:
64,192,126256,1,0,0:0:0:0:
320,192,126347,1,0,0:0:0:0:
192,192,126347,1,8,0:0:0:0:
448,192,126438,1,0,0:0:0:0:
192,192,126528,128,0,126892:0:0:0:0:
64,192,126528,1,2,0:0:0:0:
320,192,126665,128,0,126892:0:0:0:0:
448,192,126801,128,8,126892:0:0:0:0:
64,192,126892,128,2,127256:0:0:0:0:
192,192,127028,128,0,127256:0:0:0:0:
320,192,127165,128,0,127256:0:0:0:0:
448,192,127256,128,2,127619:0:0:0:0:
192,192,127619,128,2,127710:0:0:0:0:
320,192,127710,128,0,127801:0:0:0:0:
192,192,127801,128,0,127892:0:0:0:0:
320,192,127892,128,0,127983:0:0:0:0:
192,192,127983,128,0,128074:0:0:0:0:
64,192,127983,1,2,0:0:0:0:
320,192,128074,128,0,128165:0:0:0:0:
64,192,128165,128,0,128256:0:0:0:0:
448,192,128256,1,0,0:0:0:0:
320,192,128256,128,8,128347:0:0:0:0:
64,192,128347,1,0,0:0:0:0:
192,192,128347,128,2,128438:0:0:0:0:
448,192,128438,128,0,128528:0:0:0:0:
64,192,128528,1,0,0:0:0:0:
192,192,128528,128,8,128619:0:0:0:0:
320,192,128619,128,0,128710:0:0:0:0:
64,192,128710,1,2,0:0:0:0:
192,192,128710,1,4,0:0:0:0:
448,192,128801,1,8,0:0:0:0:
320,192,128847,1,8,0:0:0:0:
192,192,128892,1,0,0:0:0:0:
64,192,128892,1,8,0:0:0:0:
448,192,128983,1,0,0:0:0:0:
320,192,128983,1,8,0:0:0:0:
64,192,129074,1,0,0:0:0:0:
192,192,129074,1,0,0:0:0:70:tom2.wav
320,192,129165,1,0,0:0:0:70:tom3.wav
192,192,129256,1,0,0:0:0:70:tom3.wav
320,192,129347,1,0,0:0:0:70:tom3.wav
448,192,129438,1,0,0:0:0:70:tom3.wav
64,192,129438,1,0,0:0:0:70:tom1.wav
64,192,129619,1,0,0:0:0:70:tom3.wav
448,192,129619,1,0,0:0:0:70:tom1.wav
448,192,129801,1,0,0:0:0:70:tom3.wav
64,192,129801,1,0,0:0:0:70:tom1.wav
320,192,129983,1,0,0:0:0:0:
192,192,130074,1,0,0:0:0:0:
64,192,130165,1,0,0:0:0:0:
448,192,130165,128,0,130528:0:0:0:70:tom3.wav
320,192,130165,128,0,130528:0:0:0:70:tom1.wav
192,192,130528,128,0,130892:0:0:0:0:
