osu file format v14

[General]
AudioFilename: audio.mp3
AudioLeadIn: 0
PreviewTime: 1335
Countdown: 0
SampleSet: Soft
StackLeniency: 0.7
Mode: 0
LetterboxInBreaks: 0
EpilepsyWarning: 1
WidescreenStoryboard: 1

[Editor]
DistanceSpacing: 1
BeatDivisor: 3
GridSize: 8
TimelineZoom: 1.9

[Metadata]
Title:Enja no Yuutsu
TitleUnicode:演者の憂鬱
Artist:Karasu
ArtistUnicode:鴉
Creator:Beren
Version:Habi's Hard
Source:
Tags:天使と悪魔 近野淳一 crow japanese pop melancholy of the performer kanor lobelia Mirash HabiHolic
BeatmapID:2520939
BeatmapSetID:1180686

[Difficulty]
HPDrainRate:5
CircleSize:3.7
OverallDifficulty:6
ApproachRate:7
SliderMultiplier:1.3
SliderTickRate:1

[Events]
//Background and Video events
0,0,"bg.jpg",0,0
//Break Periods
2,131588,139569
//Storyboard Layer 0 (Background)
//Storyboard Layer 1 (Fail)
//Storyboard Layer 2 (Pass)
//Storyboard Layer 3 (Foreground)
Sprite,Foreground,Centre,"SB\45.png",320,240 F,0,22077,22402,0,1 F,0,22402,22726,1 F,0,22726,23375,1,0
//Storyboard Layer 4 (Overlay)
//Storyboard Sound Samples

[TimingPoints]
363,324.324324324324,4,2,2,40,1,0
13335,-222.222222222221,4,2,2,40,0,0
14633,-100,4,2,1,50,0,0
14957,-100,4,2,3,50,0,0
15801,324.324324324324,4,2,3,50,1,0
16902,324.324324324324,4,2,3,50,1,0
18372,324.324324324324,4,2,3,50,1,0
19498,324.324324324324,4,2,3,50,1,0
20989,324.324324324324,4,2,3,50,1,0
22092,324.324324324324,4,2,1,60,1,0
22416,324.324324324324,4,2,1,60,1,0
25010,324.324324324324,4,2,1,60,1,0
140793,-250,4,2,1,60,0,0
141766,-100,4,2,1,60,0,0
147606,324.324324324324,4,2,1,60,1,0
152158,324.324324324324,4,2,1,60,1,0
156039,324.324324324324,4,2,1,60,1,0
188457,324.324324324324,4,2,1,60,1,0
191259,319.148936170212,4,2,1,50,1,0
191717,319.148936170212,4,2,1,60,1,0
192379,342.857142857143,4,2,1,50,1,0
192379,-142.857142857143,4,2,1,50,0,0
192950,-142.857142857143,4,2,3,20,0,0

[Colours]
Combo1 : 156,226,218
Combo2 : 152,187,214
Combo3 : 193,224,137
Combo4 : 219,213,140

[HitObjects]
38,192,13335,6,0,L|27:129,3,58.4999982147217,0|0|0|0,0:0|0:0|0:0|0:0,0:0:0:0:
180,23,14633,5,8,0:0:0:0:
180,23,14957,2,0,L|198:118,1,86.6666666666666,2|2,0:0|0:0,0:0:0:0:
293,132,15281,2,0,L|276:46,1,86.6666666666666,2|0,0:0|0:0,0:0:0:0:
474,111,15801,6,0,L|456:250,2,130,0|0|2,0:0|0:0|0:0,0:0:0:0:
305,42,16902,5,4,0:0:0:0:
305,42,17226,1,4,0:0:0:0:
137,190,17550,2,0,P|179:185|218:204,1,86.6666666666667,2|2,0:0|0:0,0:0:0:0:
290,257,17874,2,0,L|385:243,1,86.6666666666667,2|0,0:0|0:0,0:0:0:0:
472,120,18372,6,0,P|413:138|367:96,2,130,0|0|2,0:0|0:0|0:0,0:0:0:0:
466,317,19498,5,4,0:0:0:0:
466,317,19822,1,4,0:0:0:0:
340,247,20146,2,0,L|245:260,1,86.6666666666667,2|2,0:0|0:0,0:0:0:0:
180,314,20470,2,0,L|95:299,1,86.6666666666667,2|0,0:0|0:0,0:0:0:0:
27,173,20989,6,0,B|10:135|10:135|33:44,2,130,0|0|2,0:0|0:0|0:0,0:0:0:0:
256,91,22092,5,4,0:0:0:0:
256,91,22416,1,4,0:0:0:0:
26,319,23713,6,0,P|15:280|25:235,1,86.6666666666667,12|0,0:0|0:0,0:0:0:0:
87,178,24037,2,0,P|96:136|85:94,1,86.6666666666667,8|0,0:0|0:0,0:0:0:0:
148,28,24361,2,0,L|238:38,1,86.6666666666667,8|8,0:0|0:0,0:0:0:0:
300,98,24686,2,0,L|390:108,1,86.6666666666667,8|0,0:0|0:0,0:0:0:0:
489,65,25010,6,0,P|479:113|494:155,1,86.6666666666667,4|0,0:0|0:0,0:0:0:0:
431,225,25334,1,8,0:0:0:0:
355,171,25550,1,0,0:0:0:0:
355,171,25658,2,0,L|263:183,1,86.6666666666667,0|0,0:0|0:0,0:0:0:0:
201,121,25982,1,8,0:0:0:0:
121,179,26199,1,0,0:0:0:0:
121,179,26307,6,0,L|98:46,2,130,2|8|0,0:0|0:0|0:0,0:0:0:0:
42,293,27172,1,0,0:0:0:0:
42,293,27280,2,0,L|136:281,1,86.6666666666667,8|0,0:0|0:0,0:0:0:0:
219,325,27604,2,0,B|271:315|271:315|293:323|293:323|350:310,2,130,4|8|0,0:0|0:0|0:0,0:0:0:0:
176,232,28469,1,0,0:0:0:0:
176,232,28577,2,0,P|161:191|159:148,1,86.6666666666667,8|0,0:0|0:0,0:0:0:0:
226,74,28901,6,0,B|296:74|271:109|354:106,1,130,8|8,0:0|0:0,0:0:0:0:
489,49,29550,2,0,L|475:142,1,86.6666666666667,8|8,0:0|0:0,0:0:0:0:
455,218,29874,1,8,0:0:0:0:
343,281,30199,6,0,P|300:282|260:263,1,86.6666666666667,4|0,0:0|0:0,0:0:0:0:
205,194,30523,1,8,0:0:0:0:
132,251,30739,1,0,0:0:0:0:
132,251,30847,6,0,L|158:381,2,130,0|8|0,0:0|0:0|0:0,0:0:0:0:
52,51,31820,1,8,0:0:0:0:
132,113,32037,1,0,0:0:0:0:
132,113,32145,2,0,L|227:102,1,86.6666666666667,0|0,0:0|0:0,0:0:0:0:
294,164,32469,2,0,L|380:154,1,86.6666666666667,8|0,0:0|0:0,0:0:0:0:
459,91,32793,6,0,P|474:153|460:215,1,130,4|8,0:0|0:0,0:0:0:0:
297,334,33442,2,0,L|206:318,1,86.6666666666667,0|0,0:0|0:0,0:0:0:0:
130,349,33766,1,8,0:0:0:0:
30,248,34091,6,0,B|14:215|14:215|34:120,1,130,8|8,0:0|0:0,0:0:0:0:
203,24,34739,2,0,L|217:114,1,86.6666666666667,8|8,0:0|0:0,0:0:0:0:
167,187,35064,1,8,0:0:0:0:
247,257,35388,6,0,P|288:244|329:256,1,86.6666666666667,8|0,0:0|0:0,0:0:0:0:
397,309,35712,1,8,0:0:0:0:
482,221,35874,2,0,L|503:92,1,130,4|0,0:0|0:0,0:0:0:0:
335,26,36523,6,0,P|273:96|183:73,1,195,4|8,0:0|0:0,0:0:0:0:
29,40,37280,2,0,L|45:136,1,86.6666666666667,0|0,0:0|0:0,0:0:0:0:
60,211,37658,1,8,0:0:0:0:
147,289,37982,6,0,P|188:275|228:289,1,86.6666666666667,8|0,0:0|0:0,0:0:0:0:
296,343,38307,1,8,0:0:0:0:
419,239,38469,2,0,B|401:205|401:205|427:114,1,130,4|4,0:0|0:0,0:0:0:0:
318,34,39118,6,0,B|208:35|262:86|123:84,1,195,4|8,0:0|0:0,0:0:0:0:
42,31,39820,1,0,0:0:0:0:
42,31,39928,2,0,L|66:172,1,130,0|8,0:0|0:0,0:0:0:0:
91,311,40577,5,6,0:0:0:0:
176,198,40901,1,8,0:0:0:0:
227,335,41226,1,2,0:0:0:0:
91,311,41550,1,8,0:0:0:0:
285,216,41874,5,2,0:0:0:0:
377,330,42199,1,8,0:0:0:0:
433,193,42523,1,2,0:0:0:0:
285,216,42847,1,8,0:0:0:0:
210,44,43172,6,0,P|151:27|107:71,1,130,8|8,0:0|0:0,0:0:0:0:
9,233,43820,2,0,P|68:250|112:206,1,130,8|0,0:0|0:0,0:0:0:0:
209,118,44469,5,4,0:0:0:0:
242,247,44793,1,4,0:0:0:0:
369,215,45118,1,4,0:0:0:0:
343,86,45442,1,4,0:0:0:0:
209,118,45766,5,4,0:0:0:0:
209,118,46091,6,0,L|224:206,1,86.6666666666667,8|8,0:0|0:0,0:0:0:0:
322,239,46415,2,0,L|307:153,1,86.6666666666667,8|8,0:0|0:0,0:0:0:0:
462,56,46955,1,0,0:0:0:0:
462,56,47064,6,0,L|372:41,1,86.6666666666667,4|0,0:0|0:0,0:0:0:0:
292,90,47388,2,0,L|309:174,1,86.6666666666667,8|0,0:0|0:0,0:0:0:0:
411,172,47712,2,0,L|394:264,1,86.6666666666667,8|0,0:0|0:0,0:0:0:0:
319,318,48037,2,0,P|277:307|235:318,1,86.6666666666667,8|0,0:0|0:0,0:0:0:0:
155,355,48361,6,0,P|92:362|41:324,1,130,4|8,0:0|0:0,0:0:0:0:
85,48,49009,2,0,L|106:181,1,130,0|8,0:0|0:0,0:0:0:0:
207,232,49550,5,0,0:0:0:0:
207,232,49658,2,0,B|277:225|263:265|339:243,1,130,8|8,0:0|0:0,0:0:0:0:
497,157,50307,2,0,P|456:166|421:142,1,86.6666666666667,0|0,0:0|0:0,0:0:0:0:
386,63,50631,1,8,0:0:0:0:
260,122,50955,6,0,L|121:97,1,130,4|8,0:0|0:0,0:0:0:0:
16,178,51604,2,0,L|30:264,1,86.6666666666667,0|0,0:0|0:0,0:0:0:0:
48,343,51928,1,8,0:0:0:0:
189,255,52253,6,0,B|262:241|245:277|318:261,1,130,2|8,0:0|0:0,0:0:0:0:
470,192,52901,2,0,P|483:151|470:110,1,86.6666666666667,8|8,0:0|0:0,0:0:0:0:
419,41,53226,1,8,0:0:0:0:
301,102,53550,6,0,L|170:79,1,130,4|8,0:0|0:0,0:0:0:0:
21,158,54199,2,0,B|51:146|51:146|34:205,1,86.6666666666667,0|0,0:0|0:0,0:0:0:0:
73,279,54523,1,8,0:0:0:0:
210,193,54847,6,0,P|271:179|318:220,1,130,2|8,0:0|0:0,0:0:0:0:
479,173,55496,2,0,L|495:87,1,86.6666666666667,0|0,0:0|0:0,0:0:0:0:
441,16,55820,1,8,0:0:0:0:
336,113,56145,6,0,B|278:104|278:104|256:131|219:140,1,130,4|8,0:0|0:0,0:0:0:0:
43,38,56793,2,0,B|90:29|90:29|116:62,1,86.6666666666667,0|8,0:0|0:0,0:0:0:0:
54,119,57118,1,8,0:0:0:0:
155,204,57442,6,0,B|223:192|212:230|285:212,1,130,4|8,0:0|0:0,0:0:0:0:
404,135,58091,2,0,B|436:119|436:119|424:172,1,86.6666666666667,0|0,0:0|0:0,0:0:0:0:
410,254,58415,1,8,0:0:0:0:
271,332,58739,6,0,L|183:316,1,86.6666666666667,8|0,0:0|0:0,0:0:0:0:
102,352,59064,1,8,0:0:0:0:
12,227,59226,2,0,B|31:195|31:195|1:97,1,130,4|4,0:0|0:0,0:0:0:0:
128,64,59874,6,0,B|173:80|173:80|316:44,1,195,4|8,0:0|0:0,0:0:0:0:
428,109,60685,2,0,P|396:117|348:149,1,65,0|8,0:0|0:0,0:0:0:0:
324,173,61009,1,8,0:0:0:0:
206,229,61334,6,0,L|117:213,1,86.6666666666667,8|0,0:0|0:0,0:0:0:0:
36,197,61658,1,8,0:0:0:0:
113,63,61820,2,0,B|151:83|151:83|249:62,1,130,4|0,0:0|0:0,0:0:0:0:
385,27,62469,6,0,B|360:136|437:102|408:218,1,195,4|8,0:0|0:0,0:0:0:0:
290,334,63280,2,0,L|197:316,1,86.6666666666667,0|8,0:0|0:0,0:0:0:0:
120,296,63604,1,8,0:0:0:0:
53,67,63928,5,6,0:0:0:0:
167,50,64253,1,8,0:0:0:0:
279,33,64577,2,0,L|265:128,1,86.6666666666667,2|2,0:0|0:0,0:0:0:0:
250,208,64901,1,8,0:0:0:0:
22,297,65226,5,2,0:0:0:0:
142,322,65550,1,8,0:0:0:0:
259,354,65766,1,0,0:0:0:0:
259,354,65874,2,0,L|350:336,1,86.6666666666667,2|0,0:0|0:0,0:0:0:0:
431,317,66199,1,8,0:0:0:0:
426,102,66523,6,0,P|363:107|312:68,1,130,8|8,0:0|0:0,0:0:0:0:
129,38,67172,2,0,L|142:129,1,86.6666666666667,8|0,0:0|0:0,0:0:0:0:
157,215,67496,1,8,0:0:0:0:
272,280,67820,5,4,0:0:0:0:
400,288,68145,1,4,0:0:0:0:
424,160,68469,1,4,0:0:0:0:
296,152,68793,1,4,0:0:0:0:
272,280,69118,1,4,0:0:0:0:
400,288,69442,5,12,0:0:0:0:
43,169,70415,6,0,P|38:104|22:41,2,130,4|8|0,0:0|0:0|0:0,0:0:0:0:
120,276,71280,1,2,0:0:0:0:
120,276,71388,2,0,L|211:261,1,86.6666666666667,8|0,0:0|0:0,0:0:0:0:
263,188,71712,6,0,B|331:188|312:232|390:227,2,130,2|8|2,0:0|0:0|0:0,0:0:0:0:
98,35,72577,1,2,0:0:0:0:
98,35,72685,2,0,L|191:51,1,86.6666666666667,8|0,0:0|0:0,0:0:0:0:
271,104,73009,6,0,P|334:108|385:70,2,130,4|12|0,0:0|0:0|0:0,0:0:0:0:
106,144,73874,1,2,0:0:0:0:
106,144,73982,2,0,L|121:233,1,86.6666666666667,8|0,0:0|0:0,0:0:0:0:
204,284,74307,2,0,P|263:264|318:294,1,130,8|8,0:0|0:0,0:0:0:0:
404,339,74847,1,0,0:0:0:0:
404,339,74955,2,0,L|431:206,1,130,8|8,0:0|0:0,0:0:0:0:
340,54,75604,6,0,B|414:45|394:86|470:71,2,130,4|8|6,0:0|0:0|0:0,0:0:0:0:
257,110,76469,1,2,0:0:0:0:
257,110,76577,2,0,L|162:88,1,86.6666666666667,8|0,0:0|0:0,0:0:0:0:
56,33,76901,6,0,B|80:74|80:74|62:167,1,130,2|8,0:0|0:0,0:0:0:0:
54,334,77550,2,0,P|91:313|133:314,1,86.6666666666667,2|2,0:0|0:0,0:0:0:0:
211,354,77874,1,8,0:0:0:0:
310,240,78199,6,0,P|376:239|428:280,2,130,4|12|2,0:0|0:0|0:0,0:0:0:0:
159,125,79172,1,8,0:0:0:0:
239,69,79388,1,0,0:0:0:0:
239,69,79496,6,0,L|383:85,1,130,4|4,0:0|0:0,0:0:0:0:
483,169,80145,2,0,B|452:161|452:161|474:222,1,86.6666666666667,2|2,0:0|0:0,0:0:0:0:
437,287,80469,1,8,0:0:0:0:
300,352,80793,6,0,L|161:326,2,130,4|8|0,0:0|0:0|0:0,0:0:0:0:
336,263,81658,1,2,0:0:0:0:
336,263,81766,2,0,P|322:222|335:181,1,86.6666666666667,8|0,0:0|0:0,0:0:0:0:
404,122,82091,6,0,P|344:141|294:102,1,130,2|8,0:0|0:0,0:0:0:0:
157,35,82631,1,0,0:0:0:0:
157,35,82739,2,0,L|175:122,1,86.6666666666667,2|0,0:0|0:0,0:0:0:0:
194,208,83064,1,8,0:0:0:0:
298,315,83388,6,0,B|338:304|338:304|432:320,2,130,4|8|6,0:0|0:0|0:0,0:0:0:0:
206,348,84253,1,2,0:0:0:0:
206,348,84361,2,0,L|105:324,1,86.6666666666667,8|0,0:0|0:0,0:0:0:0:
53,257,84685,6,0,P|66:194|48:132,1,130,2|8,0:0|0:0,0:0:0:0:
115,56,85226,1,0,0:0:0:0:
114,55,85334,2,0,P|156:65|198:56,1,86.6666666666667,2|0,0:0|0:0,0:0:0:0:
269,117,85658,1,8,0:0:0:0:
432,37,85982,6,0,L|419:126,1,86.6666666666667,4|0,0:0|0:0,0:0:0:0:
399,209,86307,1,8,0:0:0:0:
307,160,86469,2,0,P|245:159|190:199,1,130,4|0,0:0|0:0,0:0:0:0:
105,163,86955,2,0,L|87:73,1,86.6666666666667,8|0,0:0|0:0,0:0:0:0:
160,19,87280,5,12,0:0:0:0:
333,66,87604,1,12,0:0:0:0:
333,66,87928,2,0,L|421:54,1,86.6666666666667,0|0,0:0|0:0,0:0:0:0:
479,123,88253,1,0,0:0:0:0:
408,201,88469,1,0,0:0:0:0:
408,201,88577,5,2,0:0:0:0:
133,69,89550,5,8,0:0:0:0:
141,155,89766,2,0,P|234:148|285:215,1,173.333333333333,4|12,0:0|0:0,0:0:0:0:
365,25,90523,1,2,0:0:0:0:
365,25,90739,2,0,L|334:18,2,21.6666666666667,2|0|8,0:0|0:0|0:0,0:0:0:0:
489,65,91172,6,0,P|479:113|494:155,1,86.6666666666667,4|0,0:0|0:0,0:0:0:0:
431,225,91496,1,8,0:0:0:0:
355,171,91712,1,0,0:0:0:0:
355,171,91820,2,0,L|263:183,1,86.6666666666667,0|0,0:0|0:0,0:0:0:0:
201,121,92144,1,8,0:0:0:0:
121,179,92361,1,0,0:0:0:0:
121,179,92469,6,0,L|98:46,2,130,2|8|0,0:0|0:0|0:0,0:0:0:0:
42,293,93334,1,0,0:0:0:0:
42,293,93442,2,0,L|136:281,1,86.6666666666667,8|0,0:0|0:0,0:0:0:0:
219,325,93766,2,0,B|271:315|271:315|293:323|293:323|350:310,2,130,4|8|0,0:0|0:0|0:0,0:0:0:0:
176,232,94631,1,0,0:0:0:0:
176,232,94739,2,0,P|161:191|159:148,1,86.6666666666667,8|0,0:0|0:0,0:0:0:0:
226,74,95063,6,0,B|296:74|271:109|354:106,1,130,8|8,0:0|0:0,0:0:0:0:
489,49,95712,2,0,L|475:142,1,86.6666666666667,0|0,0:0|0:0,0:0:0:0:
455,218,96036,1,8,0:0:0:0:
343,281,96361,6,0,P|300:282|260:263,1,86.6666666666667,4|0,0:0|0:0,0:0:0:0:
205,194,96685,1,8,0:0:0:0:
132,251,96901,1,0,0:0:0:0:
132,251,97009,6,0,L|158:381,2,130,0|8|0,0:0|0:0|0:0,0:0:0:0:
52,51,97982,1,8,0:0:0:0:
132,113,98199,1,0,0:0:0:0:
132,113,98307,2,0,L|227:102,1,86.6666666666667,0|0,0:0|0:0,0:0:0:0:
294,164,98631,2,0,L|380:154,1,86.6666666666667,8|0,0:0|0:0,0:0:0:0:
459,91,98955,6,0,P|474:153|460:215,1,130,4|8,0:0|0:0,0:0:0:0:
297,334,99604,2,0,L|206:318,1,86.6666666666667,0|0,0:0|0:0,0:0:0:0:
130,349,99928,1,8,0:0:0:0:
30,248,100253,6,0,B|14:215|14:215|34:120,1,130,8|8,0:0|0:0,0:0:0:0:
203,24,100901,2,0,L|217:114,1,86.6666666666667,0|8,0:0|0:0,0:0:0:0:
167,187,101226,1,8,0:0:0:0:
247,257,101550,6,0,P|288:244|329:256,1,86.6666666666667,8|0,0:0|0:0,0:0:0:0:
397,309,101874,1,8,0:0:0:0:
482,221,102036,2,0,L|503:92,1,130,4|0,0:0|0:0,0:0:0:0:
335,26,102685,6,0,P|273:96|183:73,1,195,4|8,0:0|0:0,0:0:0:0:
29,40,103442,2,0,L|45:136,1,86.6666666666667,0|0,0:0|0:0,0:0:0:0:
60,211,103820,1,8,0:0:0:0:
147,289,104144,6,0,P|188:275|228:289,1,86.6666666666667,8|0,0:0|0:0,0:0:0:0:
296,343,104469,1,8,0:0:0:0:
419,239,104631,2,0,B|401:205|401:205|427:114,1,130,4|4,0:0|0:0,0:0:0:0:
318,34,105280,6,0,B|218:37|262:86|126:84,1,195,4|8,0:0|0:0,0:0:0:0:
42,31,105982,1,0,0:0:0:0:
42,31,106090,2,0,L|66:172,1,130,0|8,0:0|0:0,0:0:0:0:
91,311,106739,5,2,0:0:0:0:
176,198,107063,1,8,0:0:0:0:
227,335,107388,1,2,0:0:0:0:
91,311,107712,1,8,0:0:0:0:
285,216,108036,5,2,0:0:0:0:
377,330,108361,1,8,0:0:0:0:
433,193,108685,1,2,0:0:0:0:
285,216,109009,1,8,0:0:0:0:
210,44,109334,6,0,P|151:27|107:71,1,130,8|8,0:0|0:0,0:0:0:0:
9,233,109982,2,0,P|68:250|112:206,1,130,8|8,0:0|0:0,0:0:0:0:
209,118,110631,5,4,0:0:0:0:
242,247,110955,1,4,0:0:0:0:
369,215,111280,1,4,0:0:0:0:
343,86,111604,1,4,0:0:0:0:
209,118,111928,1,4,0:0:0:0:
242,247,112253,5,12,0:0:0:0:
43,169,113226,6,0,P|38:104|22:41,2,130,4|8|6,0:0|0:0|0:0,0:0:0:0:
120,276,114091,1,2,0:0:0:0:
120,276,114199,2,0,L|211:261,1,86.6666666666667,8|0,0:0|0:0,0:0:0:0:
263,188,114523,6,0,B|331:188|312:232|390:227,2,130,2|8|2,0:0|0:0|0:0,0:0:0:0:
98,35,115388,1,2,0:0:0:0:
98,35,115496,2,0,L|191:51,1,86.6666666666667,8|0,0:0|0:0,0:0:0:0:
271,104,115820,6,0,P|334:108|385:70,2,130,4|12|0,0:0|0:0|0:0,0:0:0:0:
106,144,116685,1,2,0:0:0:0:
106,144,116793,2,0,L|121:233,1,86.6666666666667,8|0,0:0|0:0,0:0:0:0:
204,284,117118,2,0,P|263:264|318:294,1,130,8|8,0:0|0:0,0:0:0:0:
404,339,117658,1,0,0:0:0:0:
404,339,117766,2,0,L|431:206,1,130,8|8,0:0|0:0,0:0:0:0:
340,54,118415,6,0,B|414:45|394:86|470:71,2,130,4|8|6,0:0|0:0|0:0,0:0:0:0:
257,110,119280,1,2,0:0:0:0:
257,110,119388,2,0,L|162:88,1,86.6666666666667,8|0,0:0|0:0,0:0:0:0:
56,33,119712,6,0,B|80:74|80:74|62:167,1,130,2|8,0:0|0:0,0:0:0:0:
54,334,120361,2,0,P|91:313|133:314,1,86.6666666666667,2|2,0:0|0:0,0:0:0:0:
211,354,120685,1,8,0:0:0:0:
310,240,121010,6,0,P|376:239|428:280,2,130,4|12|2,0:0|0:0|0:0,0:0:0:0:
159,125,121983,1,8,0:0:0:0:
239,69,122199,1,0,0:0:0:0:
239,69,122307,6,0,L|383:85,1,130,4|12,0:0|0:0,0:0:0:0:
450,200,122955,2,0,B|484:186|484:186|469:243,1,86.6666666666667,2|2,0:0|0:0,0:0:0:0:
452,316,123280,1,8,0:0:0:0:
300,352,123604,6,0,L|161:326,2,130,4|8|6,0:0|0:0|0:0,0:0:0:0:
336,263,124469,1,2,0:0:0:0:
336,263,124577,2,0,P|322:222|335:181,1,86.6666666666667,8|0,0:0|0:0,0:0:0:0:
404,122,124902,6,0,P|344:141|294:102,1,130,2|8,0:0|0:0,0:0:0:0:
157,35,125442,1,0,0:0:0:0:
157,35,125550,2,0,L|175:122,1,86.6666666666667,2|0,0:0|0:0,0:0:0:0:
194,208,125875,1,8,0:0:0:0:
298,315,126199,6,0,B|338:304|338:304|432:320,2,130,4|8|6,0:0|0:0|0:0,0:0:0:0:
206,348,127064,1,2,0:0:0:0:
206,348,127172,2,0,L|105:324,1,86.6666666666667,8|0,0:0|0:0,0:0:0:0:
53,257,127496,6,0,P|66:194|48:132,1,130,2|8,0:0|0:0,0:0:0:0:
115,56,128037,1,0,0:0:0:0:
114,55,128145,2,0,P|156:65|198:56,1,86.6666666666667,2|0,0:0|0:0,0:0:0:0:
269,117,128469,1,8,0:0:0:0:
432,37,128793,6,0,L|419:126,1,86.6666666666667,4|0,0:0|0:0,0:0:0:0:
399,209,129118,1,8,0:0:0:0:
307,160,129280,6,0,P|245:159|190:199,1,130,4|0,0:0|0:0,0:0:0:0:
105,163,129766,2,0,L|87:73,1,86.6666666666667,8|0,0:0|0:0,0:0:0:0:
160,19,130091,1,12,0:0:0:0:
333,66,130415,5,12,0:0:0:0:
333,66,130739,2,0,L|421:54,1,86.6666666666667,0|0,0:0|0:0,0:0:0:0:
479,123,131064,1,8,0:0:0:0:
408,201,131280,1,0,0:0:0:0:
408,201,131388,5,6,0:0:0:0:
40,170,140469,5,0,0:0:0:0:
40,170,140793,6,0,L|30:114,2,52,2|2|2,0:0|0:0|0:0,0:0:0:0:
102,252,141766,6,0,B|173:239|152:292|225:271,1,130,8|8,0:0|0:0,0:0:0:0:
371,157,142415,2,0,P|432:153|464:206,1,130,4|0,0:0|0:0,0:0:0:0:
420,287,142955,1,0,0:0:0:0:
420,287,143064,6,0,L|286:260,1,130,8|8,0:0|0:0,0:0:0:0:
48,226,143712,2,0,L|182:199,1,130,12|0,0:0|0:0,0:0:0:0:
391,32,144361,6,0,P|416:90|396:150,1,130,8|8,0:0|0:0,0:0:0:0:
262,307,145009,2,0,P|242:246|267:188,1,130,4|0,0:0|0:0,0:0:0:0:
206,74,145658,2,0,B|167:84|167:84|76:57,2,130,8|8|8,0:0|0:0|0:0,0:0:0:0:
373,33,146631,1,8,0:0:0:0:
485,151,146955,6,0,P|473:214|487:277,1,130,8|0,0:0|0:0,0:0:0:0:
311,351,147606,2,0,L|183:330,1,130,4|0,0:0|0:0,0:0:0:0:
15,184,148254,2,0,L|143:205,1,130,8|8,0:0|0:0,0:0:0:0:
313,82,148903,2,0,L|185:61,1,130,4|0,0:0|0:0,0:0:0:0:
431,29,149551,6,0,B|416:102|463:83|450:154,1,130,8|8,0:0|0:0,0:0:0:0:
319,251,150200,2,0,B|286:235|286:235|189:252,1,130,4|0,0:0|0:0,0:0:0:0:
32,175,150849,6,0,B|17:140|17:140|36:40,2,130,8|8|12,0:0|0:0|0:0,0:0:0:0:
202,121,151822,1,8,0:0:0:0:
137,274,152158,5,4,0:0:0:0:
276,204,152806,1,0,0:0:0:0:
263,354,153455,1,0,0:0:0:0:
159,135,154103,1,0,0:0:0:0:
332,47,154752,6,0,L|470:75,2,130,4|4|4,0:0|0:0|0:0,0:0:0:0:
180,89,155725,1,4,0:0:0:0:
288,206,156039,5,8,0:0:0:0:
256,192,156093,12,0,157336,0:0:0:0:
45,51,157984,6,0,P|32:93|43:134,1,86.6666666666667,6|2,0:0|0:0,0:0:0:0:
99,194,158309,1,8,0:0:0:0:
200,107,158633,6,0,B|239:95|239:95|330:111,1,130,2|8,0:0|0:0,0:0:0:0:
484,42,159282,2,0,P|496:84|486:126,1,86.6666666666667,2|2,0:0|0:0,0:0:0:0:
418,182,159606,1,8,0:0:0:0:
280,58,159930,6,0,B|248:64|248:64|145:38,2,130,4|12|2,0:0|0:0|0:0,0:0:0:0:
257,220,160795,1,2,0:0:0:0:
257,220,160903,6,0,L|125:186,2,130,8|8|8,0:0|0:0|0:0,0:0:0:0:
465,146,161876,2,0,P|479:187|469:229,1,86.6666666666667,8|8,0:0|0:0,0:0:0:0:
413,292,162201,1,8,0:0:0:0:
291,169,162525,6,0,P|281:123|289:83,1,86.6666666666667,4|0,0:0|0:0,0:0:0:0:
352,21,162849,1,8,0:0:0:0:
175,24,163174,2,0,P|185:70|177:110,1,86.6666666666667,12|2,0:0|0:0,0:0:0:0:
114,172,163498,1,8,0:0:0:0:
66,289,163822,6,0,L|205:271,1,130,6|8,0:0|0:0,0:0:0:0:
295,137,164471,2,0,B|331:124|331:124|315:182,1,86.6666666666667,2|2,0:0|0:0,0:0:0:0:
297,253,164795,1,8,0:0:0:0:
463,187,165120,6,0,L|489:54,2,130,4|12|2,0:0|0:0|0:0,0:0:0:0:
421,335,165984,1,2,0:0:0:0:
421,335,166093,2,0,L|332:317,1,86.6666666666667,8|0,0:0|0:0,0:0:0:0:
247,343,166417,6,0,L|115:314,1,130,4|12,0:0|0:0,0:0:0:0:
32,219,167066,6,0,B|19:191|19:191|36:130,1,86.6666666666667,2|2,0:0|0:0,0:0:0:0:
60,54,167390,1,8,0:0:0:0:
169,109,167714,6,0,P|229:124|275:82,1,130,4|8,0:0|0:0,0:0:0:0:
405,38,168363,2,0,P|448:33|483:57,1,86.6666666666667,6|2,0:0|0:0,0:0:0:0:
424,123,168687,1,8,0:0:0:0:
308,228,169011,6,0,B|319:280|319:280|316:300|316:300|327:357,2,130,2|8|2,0:0|0:0|0:0,0:0:0:0:
281,44,169984,1,8,0:0:0:0:
70,92,170309,6,0,L|88:186,1,86.6666666666667,4|0,0:0|0:0,0:0:0:0:
106,263,170633,1,8,0:0:0:0:
238,187,170957,2,0,P|280:175|321:187,1,86.6666666666667,6|2,0:0|0:0,0:0:0:0:
390,241,171282,1,8,0:0:0:0:
478,99,171606,6,0,P|415:108|362:72,1,130,2|8,0:0|0:0,0:0:0:0:
236,23,172255,2,0,L|251:113,1,86.6666666666667,2|0,0:0|0:0,0:0:0:0:
264,194,172579,1,8,0:0:0:0:
189,330,172903,6,0,P|132:297|69:299,1,130,4|8,0:0|0:0,0:0:0:0:
66,196,173444,1,4,0:0:0:0:
66,196,173552,2,0,P|130:197|185:164,1,130,0|8,0:0|0:0,0:0:0:0:
336,39,174201,6,0,B|381:23|381:23|363:106,1,130,4|4,0:0|0:0,0:0:0:0:
488,234,174849,2,0,L|395:210,1,86.6666666666667,8|8,0:0|0:0,0:0:0:0:
318,254,175174,1,8,0:0:0:0:
218,177,175498,6,0,B|189:185|189:185|93:160,2,130,4|8|6,0:0|0:0|0:0,0:0:0:0:
289,110,176363,1,2,0:0:0:0:
289,110,176471,2,0,L|374:123,1,86.6666666666667,8|0,0:0|0:0,0:0:0:0:
482,55,176795,6,0,B|462:88|462:88|480:181,1,130,2|8,0:0|0:0,0:0:0:0:
382,293,177444,2,0,P|339:285|299:301,1,86.6666666666667,2|2,0:0|0:0,0:0:0:0:
229,350,177768,1,8,0:0:0:0:
47,256,178093,6,0,B|21:225|21:225|43:137,2,130,4|12|2,0:0|0:0|0:0,0:0:0:0:
166,184,178957,1,2,0:0:0:0:
166,183,179066,2,0,P|208:181|247:200,1,86.6666666666667,8|0,0:0|0:0,0:0:0:0:
337,158,179390,6,0,L|316:24,2,130,8|8|8,0:0|0:0|0:0,0:0:0:0:
458,251,180363,1,8,0:0:0:0:
310,337,180687,6,0,L|222:321,1,86.6666666666667,4|0,0:0|0:0,0:0:0:0:
148,356,181011,1,8,0:0:0:0:
43,276,181228,2,0,P|28:214|41:151,1,130,4|0,0:0|0:0,0:0:0:0:
112,94,181660,2,0,P|151:114|193:126,1,86.6666666666667,4|0,0:0|0:0,0:0:0:0:
277,95,181984,5,4,0:0:0:0:
439,44,182309,1,12,0:0:0:0:
377,321,182957,1,0,0:0:0:0:
377,321,183282,6,0,L|249:300,1,130,4|8,0:0|0:0,0:0:0:0:
34,223,183930,2,0,P|22:178|35:132,1,86.6666666666667,2|0,0:0|0:0,0:0:0:0:
97,69,184255,2,0,L|190:91,1,86.6666666666667,8|0,0:0|0:0,0:0:0:0:
262,163,184579,6,0,P|293:108|283:45,1,130,0|8,0:0|0:0,0:0:0:0:
139,174,185228,2,0,L|155:263,1,86.6666666666667,2|0,0:0|0:0,0:0:0:0:
174,346,185552,1,8,0:0:0:0:
351,251,185876,6,0,B|423:241|404:286|479:263,2,130,0|8|2,0:0|0:0|0:0,0:0:0:0:
280,177,186741,1,0,0:0:0:0:
280,177,186849,1,8,0:0:0:0:
86,284,187174,6,0,L|64:148,2,130,0|8|2,0:0|0:0|0:0,0:0:0:0:
155,349,188038,1,0,0:0:0:0:
155,349,188147,1,8,0:0:0:0:
256,192,188457,12,4,191051,0:0:0:0:
22,148,192379,6,0,B|120:130|84:204|205:176,1,181.999994445801,4|2,0:0|0:0,0:0:0:0:
