osu file format v14

[General]
AudioFilename: audio.mp3
AudioLeadIn: 0
PreviewTime: 36333
Countdown: 0
SampleSet: Soft
StackLeniency: 0.9
Mode: 0
LetterboxInBreaks: 0
WidescreenStoryboard: 0
SamplesMatchPlaybackRate: 1

[Editor]
DistanceSpacing: 0.8
BeatDivisor: 4
GridSize: 16
TimelineZoom: 4.139999

[Metadata]
Title:Sunkiss Drop
TitleUnicode:Sunkiss Drop
Artist:Karashima Junko
ArtistUnicode:辛島純子
Creator:StarMatsu
Version:Insane
Source:Dance Dance Revolution
Tags:DanceDanceRevolution SunkissDrop
BeatmapID:1309786
BeatmapSetID:621204

[Difficulty]
HPDrainRate:6
CircleSize:4
OverallDifficulty:5
ApproachRate:8
SliderMultiplier:1.3
SliderTickRate:1

[Events]
//Background and Video events
0,0,"sunkiss drop.jpg",0,0
//Break Periods
//Storyboard Layer 0 (Background)
//Storyboard Layer 1 (Fail)
//Storyboard Layer 2 (Pass)
//Storyboard Layer 3 (Foreground)
//Storyboard Sound Samples

[TimingPoints]
170,324.324324324324,4,2,0,70,1,8
170,-66.6666666666667,4,2,0,100,0,0
18430,-100,4,2,0,100,0,0
26133,-66.6666666666667,4,2,0,100,0,0
36413,-66.6666666666667,4,2,0,100,0,1
41376,-133.333333333333,4,2,0,100,0,1
47214,-66.6666666666667,4,2,0,100,0,1
51737,-66.6666666666667,4,2,0,100,0,0
57575,-66.6666666666667,4,2,0,100,0,0
67971,-66.6666666666667,4,2,0,100,0,0
78007,-66.6666666666667,4,2,0,100,0,1
82890,-133.333333333333,4,2,0,100,0,1
88403,-66.6666666666667,4,2,0,100,0,1
93251,-66.6666666666667,4,2,0,100,0,0

[Colours]
Combo1 : 222,31,74
Combo2 : 91,129,255
Combo3 : 148,10,79
Combo4 : 255,173,248

[HitObjects]
128,128,5683,6,0,L|64:224,1,97.50000371933,0|8,0:0|0:0,0:0:0:0:
64,224,6007,2,0,L|176:224,1,97.50000371933
224,304,6331,2,0,P|288:304|304:272,1,97.50000371933,0|8,0:0|0:0,0:0:0:0:
288,176,6656,2,0,P|192:144|192:144,1,97.50000371933,0|8,0:0|0:0,0:0:0:0:
48,224,6980,2,0,L|96:128,1,97.50000371933
128,64,7305,2,0,L|224:96,1,97.50000371933
256,176,7629,2,0,L|320:208,2,48.750001859665
112,176,7953,6,0,L|32:224,2,48.750001859665
160,288,8277,2,0,L|256:320,2,97.50000371933
320,256,8764,2,0,P|368:224|320:176,1,97.50000371933
224,272,9088,2,0,L|192:176,1,97.50000371933
192,176,9332,1,0,0:0:0:0:
176,160,9413,1,0,0:0:0:0:
160,144,9494,1,0,0:0:0:0:
144,128,9575,1,0,0:0:0:0:
128,112,9656,1,0,0:0:0:0:
112,96,9737,2,0,P|96:48|64:32,5,48.750001859665
320,288,10872,6,0,L|400:240,2,48.750001859665
256,224,11196,2,0,L|304:192,2,48.750001859665
176,176,11521,2,0,L|128:224,2,48.750001859665
48,144,11845,1,0,0:0:0:0:
96,288,12007,6,0,L|192:336,2,97.50000371933
224,240,12494,2,0,L|288:192,1,48.750001859665
288,336,12737,2,0,P|336:352|368:336,2,48.750001859665
144,288,13142,6,0,L|96:336,2,48.750001859665
64,208,13466,6,0,L|64:96,2,97.50000371933,0|8|0,0:0|0:0|0:0,0:0:0:0:
48,304,13953,1,0,0:0:0:0:
144,272,14115,2,0,P|192:304|224:272,1,97.50000371933
160,176,14439,2,0,P|192:144|256:128,1,97.50000371933
336,224,14764,1,0,0:0:0:0:
272,320,14926,1,0,0:0:0:0:
208,240,15088,2,0,L|256:192,2,48.750001859665,0|4|12,0:0|0:0|0:0,0:0:0:0:
144,144,15413,6,0,P|80:144|80:272,1,195.00000743866
160,336,15899,1,0,0:0:0:0:
240,272,16061,6,0,L|304:240,2,48.750001859665,4|4|0,0:0|0:0|0:0,0:0:0:0:
304,160,16385,2,0,L|224:64,1,97.50000371933
144,80,16710,1,0,0:0:0:0:
176,176,16872,2,0,L|128:192,2,48.750001859665
256,144,17115,1,0,0:0:0:0:
256,144,17196,1,0,0:0:0:0:
368,176,17359,2,0,P|384:240|272:304,1,195.00000743866
208,272,17845,2,0,L|192:336,2,48.750001859665
96,304,18332,6,0,P|96:224|128:208,1,97.50000371933
128,96,18656,2,0,P|176:48|208:64,1,97.5
208,64,18980,2,0,L|272:64,1,65
352,96,19305,2,0,L|320:224,1,130
224,160,19791,6,0,P|192:192|192:240,1,65,0|8,0:0|0:0,0:0:0:0:
288,160,20115,2,0,P|320:192|320:240,1,65,0|8,0:0|0:0,0:0:0:0:
224,288,20439,2,8,P|263:307|288:272,2,65,0|8|8,0:0|0:0|0:0,0:0:0:0:
272,208,20926,6,0,P|320:192|336:160,1,65,0|4,0:0|0:0,0:0:0:0:
320,64,21251,2,0,P|264:47|192:96,2,130
96,192,22142,2,0,L|48:240,2,65
240,288,22710,2,0,L|288:352,2,65
304,192,23196,6,0,L|336:160,2,32.5
208,96,23521,2,0,P|176:96|160:112,2,32.5
192,176,23764,1,0,0:0:0:0:
208,192,23845,1,0,0:0:0:0:
224,208,23926,1,0,0:0:0:0:
240,224,24007,1,0,0:0:0:0:
256,240,24088,1,0,0:0:0:0:
256,240,24169,2,0,P|288:288|240:352,1,130
208,288,24656,1,0,0:0:0:0:
112,352,24818,1,0,0:0:0:0:
128,272,24980,5,0,0:0:0:0:
128,272,25061,2,0,P|80:224|80:192,1,97.5
192,192,25467,2,0,L|256:144,3,65,0|4|0|0,0:0|0:0|0:0|0:0,0:0:0:0:
64,64,26115,6,0,L|128:80,1,65
144,80,26358,2,0,P|192:128|160:192,1,146.250005578995
80,224,26764,1,0,0:0:0:0:
112,288,26926,2,0,P|160:320|208:288,1,97.50000371933
272,240,27250,2,0,L|320:240,1,48.750001859665
352,224,27413,1,0,0:0:0:0:
384,208,27493,2,0,P|416:192|448:160,3,48.750001859665
304,144,28061,5,0,0:0:0:0:
176,160,28223,1,0,0:0:0:0:
240,256,28385,1,0,0:0:0:0:
240,256,28710,6,0,P|192:288|144:272,1,97.50000371933
144,288,28953,2,0,L|176:192,1,97.50000371933
96,160,29277,1,0,0:0:0:0:
160,80,29439,2,0,P|208:48|256:48,1,97.50000371933
240,160,29764,2,0,L|288:176,1,48.750001859665
368,112,30007,1,0,0:0:0:0:
368,112,30088,2,0,P|400:128|416:176,2,48.750001859665
256,192,30493,12,0,35845,0:0:0:0:
160,144,36494,6,0,P|112:160|96:176,2,65
256,96,36980,1,0,0:0:0:0:
352,144,37142,6,0,P|400:160|416:176,2,65
320,176,37629,2,0,P|352:208|320:256,1,97.5
208,176,38034,2,0,L|160:224,1,65
288,256,38359,5,0,0:0:0:0:
288,256,38440,2,0,P|368:224|384:160,1,146.250005578995
264,200,38926,1,0,0:0:0:0:
256,288,39088,2,0,P|288:320|352:320,1,97.50000371933
416,288,39413,2,0,L|480:240,2,48.750001859665
352,208,39737,1,0,0:0:0:0:
288,288,39899,1,0,0:0:0:0:
224,240,40061,1,0,0:0:0:0:
144,208,40223,1,0,0:0:0:0:
96,304,40386,1,0,0:0:0:0:
192,288,40548,6,0,L|272:256,3,48.750001859665
272,192,40953,2,0,P|304:144|256:112,1,97.50000371933
112,128,41358,6,0,P|48:128|32:64,1,97.50000371933
64,48,41683,2,0,P|96:48|128:48,1,48.750001859665
272,96,42007,2,0,L|336:176,1,97.50000371933
256,320,42493,1,0,0:0:0:0:
112,272,42656,2,0,P|96:256|64:224,2,48.750001859665
288,240,43142,2,0,P|333:192|336:144,1,97.50000371933
272,48,43629,1,0,0:0:0:0:
144,48,43791,1,0,0:0:0:0:
48,112,43953,2,0,P|48:160|96:208,1,97.50000371933
208,224,44439,2,0,L|256:256,2,48.750001859665
448,288,45088,6,0,P|432:304|384:336,1,73.1250027894975
288,288,45494,2,0,L|272:240,1,48.750001859665
272,224,45737,2,0,L|304:208,2,24.3750009298325
160,208,46061,2,0,L|128:176,2,24.3750009298325
368,112,46466,2,0,L|400:80,2,24.3750009298325
304,32,46791,2,0,L|224:32,1,73.1250027894975
128,128,47197,6,0,P|80:144|64:176,1,73.1250027894975
48,240,47521,1,0,0:0:0:0:
144,208,47683,2,0,L|224:272,2,97.50000371933
224,160,48169,1,0,0:0:0:0:
288,112,48331,1,0,0:0:0:0:
192,80,48493,1,0,0:0:0:0:
256,32,48656,1,0,0:0:0:0:
111,95,48818,2,0,P|47:127|48:208,1,146.250005578995
47,206,49142,1,0,0:0:0:0:
160,272,49304,6,0,P|112:304|64:272,1,97.50000371933
128,176,49629,2,0,L|240:144,3,97.50000371933
256,16,50277,2,0,P|320:32|352:64,1,97.50000371933
416,128,50602,1,0,0:0:0:0:
304,144,50764,2,0,P|337:202|384:224,1,97.50000371933
416,288,51088,1,0,0:0:0:0:
320,288,51250,2,0,P|288:336|224:352,2,97.50000371933
48,48,52061,6,0,L|16:160,1,97.50000371933
64,240,52386,2,0,P|64:272|128:304,2,97.50000371933
160,160,52872,1,0,0:0:0:0:
256,208,53034,1,0,0:0:0:0:
256,288,53197,2,0,P|320:304|368:256,1,97.50000371933
352,272,53440,2,0,L|448:240,2,97.50000371933
336,176,53926,2,0,L|400:80,1,97.50000371933
224,96,54251,6,0,L|160:160,2,48.750001859665
336,176,54575,2,0,P|368:208|352:288,1,97.50000371933
240,256,54899,2,0,L|304:336,2,97.50000371933
96,272,55386,1,0,0:0:0:0:
96,272,55467,1,0,0:0:0:0:
64,160,55629,2,0,L|160:128,2,97.50000371933
128,64,57575,6,0,P|96:112|112:176,2,97.50000371933
208,160,58061,2,0,L|304:96,1,97.50000371933
400,272,58548,2,0,P|416:304|448:320,3,65
272,208,59196,2,0,L|193:273,1,97.5
112,192,59521,2,0,L|32:192,4,48.750001859665
384,64,60169,6,0,P|416:112|432:176,2,97.50000371933
272,112,60656,2,0,L|208:144,2,48.750001859665
80,288,61142,2,0,P|64:320|32:352,3,65
240,208,61791,2,0,P|288:256|304:288,1,97.5
416,192,62115,2,0,L|496:208,3,65
160,96,62764,6,0,L|112:192,1,97.50000371933
112,192,63007,1,0,0:0:0:0:
128,208,63088,2,0,P|192:240|240:208,1,97.50000371933
304,288,63413,2,0,L|400:336,1,97.50000371933
320,192,63737,2,0,L|384:144,2,48.750001859665
224,32,64061,6,0,L|144:96,1,97.50000371933
144,112,64305,1,0,0:0:0:0:
160,128,64386,2,0,P|240:144|256:192,1,97.50000371933
304,256,64710,1,0,0:0:0:0:
160,256,64872,2,0,L|96:288,2,48.750001859665
320,224,65358,5,0,0:0:0:0:
320,224,65439,1,0,0:0:0:0:
320,224,65521,1,0,0:0:0:0:
208,176,65683,2,0,P|176:160|144:144,2,48.750001859665
224,64,66007,1,0,0:0:0:0:
336,112,66169,2,0,L|400:160,2,48.750001859665
448,64,66493,1,0,0:0:0:0:
464,160,66656,6,0,L|352:304,1,146.250005578995
368,272,66980,1,0,0:0:0:0:
336,256,67061,1,0,0:0:0:0:
304,240,67142,1,0,0:0:0:0:
272,224,67224,1,0,0:0:0:0:
240,208,67305,1,0,0:0:0:0:
208,192,67386,1,0,0:0:0:0:
192,176,67467,2,0,P|224:112|192:64,1,97.50000371933
64,64,67953,6,0,L|32:160,1,97.5
32,176,68278,1,0,0:0:0:0:
112,240,68440,2,0,P|83:275|96:304,2,48.750001859665
224,272,68764,1,0,0:0:0:0:
288,192,68926,2,0,L|368:288,2,97.50000371933
208,96,69412,1,0,0:0:0:0:
96,144,69575,1,0,0:0:0:0:
128,240,69737,2,0,P|176:288|206:256,3,97.50000371933
320,272,70385,5,0,0:0:0:0:
320,272,70466,1,0,0:0:0:0:
320,272,70548,1,0,0:0:0:0:
320,176,70710,1,0,0:0:0:0:
256,112,70872,2,0,P|224:64|160:80,1,97.50000371933
64,48,71196,1,0,0:0:0:0:
96,144,71359,2,0,L|64:224,1,48.750001859665
80,208,71521,5,0,0:0:0:0:
96,240,71602,1,0,0:0:0:0:
112,272,71683,1,0,0:0:0:0:
128,304,71764,2,0,L|160:352,3,48.750001859665
240,272,72169,1,0,0:0:0:0:
336,304,72332,2,0,P|393:306|416:256,3,97.50000371933
400,192,72980,5,0,0:0:0:0:
400,192,73061,1,0,0:0:0:0:
400,192,73142,1,0,0:0:0:0:
304,96,73304,1,0,0:0:0:0:
192,96,73466,1,0,0:0:0:0:
192,96,73548,1,0,0:0:0:0:
192,96,73629,2,0,L|96:176,1,97.50000371933
128,240,73953,1,0,0:0:0:0:
224,192,74115,2,0,P|272:224|304:192,2,97.50000371933
224,96,74602,1,0,0:0:0:0:
320,96,74764,2,0,L|400:160,1,97.50000371933
368,256,75088,5,0,0:0:0:0:
288,288,75250,1,0,0:0:0:0:
192,320,75413,2,0,P|144:320|96:272,2,97.50000371933
288,288,75899,1,0,0:0:0:0:
208,208,76061,2,0,P|160:224|128:176,1,97.50000371933
128,176,76305,1,0,0:0:0:0:
144,160,76386,1,0,0:0:0:0:
160,144,76467,1,0,0:0:0:0:
176,128,76548,1,0,0:0:0:0:
192,112,76629,1,0,0:0:0:0:
208,96,76710,2,0,P|256:80|304:112,1,97.50000371933
240,192,77034,5,0,0:0:0:0:
256,208,77115,1,0,0:0:0:0:
272,224,77197,1,0,0:0:0:0:
288,240,77277,1,0,0:0:0:0:
304,256,77358,1,0,0:0:0:0:
320,272,77440,1,0,0:0:0:0:
336,288,77521,2,0,P|400:256|400:208,2,97.50000371933
304,96,78007,6,0,L|208:112,1,97.50000371933
96,32,78331,2,0,L|32:128,1,97.50000371933
128,192,78656,2,0,L|224:256,1,97.50000371933
96,304,78980,1,0,0:0:0:0:
256,272,79142,2,0,L|336:336,1,97.50000371933
288,64,79466,2,0,P|336:48|400:128,1,146.250005578995
400,128,79791,2,0,P|368:192|384:224,1,97.50000371933
240,320,80115,5,0,0:0:0:0:
272,224,80277,1,0,0:0:0:0:
176,272,80439,1,0,0:0:0:0:
160,176,80602,1,0,0:0:0:0:
144,64,80764,2,0,L|240:96,1,97.50000371933
320,128,81088,2,0,P|368:96|432:128,1,97.50000371933
368,176,81413,1,0,0:0:0:0:
448,224,81575,2,0,L|384:320,1,97.50000371933
304,272,81899,1,0,0:0:0:0:
192,272,82061,2,0,L|96:320,3,97.50000371933
32,272,82872,6,0,P|48:224|48:176,1,97.50000371933
64,48,83196,1,0,0:0:0:0:
160,176,83358,1,0,0:0:0:0:
256,112,83521,2,0,L|336:64,2,73.1250027894975
80,144,84169,1,0,0:0:0:0:
128,240,84332,1,0,0:0:0:0:
192,320,84494,1,0,0:0:0:0:
304,272,84656,2,0,P|363:295|427:231,1,146.250005578995
432,128,85304,1,0,0:0:0:0:
304,144,85466,1,0,0:0:0:0:
192,192,85629,2,0,L|128:256,2,48.750001859665
192,64,86115,6,0,P|160:32|112:32,1,73.1250027894975
96,160,86602,2,0,P|80:192|64:224,1,48.750001859665
192,256,86926,2,0,L|192:320,1,48.750001859665
176,320,87169,2,0,L|160:352,2,24.3750009298325
368,240,87575,2,0,L|400:256,2,24.3750009298325
272,96,87980,2,0,L|256:64,2,24.3750009298325
80,96,88385,6,0,L|48:128,2,24.3750009298325
112,192,88710,2,0,P|160:224|160:272,1,97.50000371933
160,272,88953,2,0,P|167:336|208:336,1,97.50000371933
208,336,89197,2,0,L|304:304,1,97.50000371933
448,272,89521,1,0,0:0:0:0:
368,192,89683,1,0,0:0:0:0:
448,96,89845,2,0,P|416:48|352:48,1,97.50000371933
304,176,90169,1,0,0:0:0:0:
208,80,90331,2,0,P|164:91|112:128,1,97.50000371933
240,224,90656,6,0,P|280:276|336:240,2,97.50000371933
256,208,91061,1,0,0:0:0:0:
272,192,91142,1,0,0:0:0:0:
288,176,91223,1,0,0:0:0:0:
304,160,91304,1,0,0:0:0:0:
336,80,91466,2,0,L|464:64,2,97.50000371933
208,96,91953,1,0,0:0:0:0:
176,176,92115,2,0,P|224:192|256:240,1,97.50000371933
176,304,92440,1,0,0:0:0:0:
288,320,92602,2,0,L|400:272,1,97.50000371933
384,256,92845,2,0,L|448:224,5,48.750001859665
256,192,93575,12,0,99088,0:0:0:0:
