osu file format v14

[General]
AudioFilename: audio.mp3
AudioLeadIn: 0
PreviewTime: 97
Countdown: 1
SampleSet: Normal
StackLeniency: 0.7
Mode: 0
LetterboxInBreaks: 0
WidescreenStoryboard: 0

[Editor]
DistanceSpacing: 2.1
BeatDivisor: 16
GridSize: 4
TimelineZoom: 1.7

[Metadata]
Title:Hoken shitsu
TitleUnicode:保健室
Artist:Karameru
ArtistUnicode:からめる
Creator:NekoKamui
Version:777 Jackpot
Source:
Tags:
BeatmapID:1743102
BeatmapSetID:831972

[Difficulty]
HPDrainRate:1.8
CircleSize:3.8
OverallDifficulty:7.8
ApproachRate:9.8
SliderMultiplier:1.9
SliderTickRate:1

[Events]
//Background and Video events
0,0,"JACKPOT.png",0,0
//Break Periods
2,12052,12885
2,26297,29602
2,63041,64155
//Storyboard Layer 0 (Background)
//Storyboard Layer 1 (Fail)
//Storyboard Layer 2 (Pass)
//Storyboard Layer 3 (Foreground)
//Storyboard Layer 4 (Overlay)
//Storyboard Sound Samples

[TimingPoints]
97,387.096774193548,4,1,0,100,1,0
4935,-200,4,1,0,100,0,0
8903,-50,4,1,0,100,0,0
8951,387.096774193548,4,1,0,100,1,0
8951,-50,4,1,0,100,0,0
9144,-200,4,1,0,100,0,0
9821,387.096774193548,4,1,0,100,1,0
13380,387.096774193548,4,1,0,100,1,0
16186,-66.6666666666667,4,1,0,100,0,0
19476,387.096774193548,4,1,0,100,1,0
20323,125.523012552301,3,1,0,100,1,0
23000,387.096774193548,4,1,0,100,1,0
30097,394.736842105263,4,1,0,100,1,0
33933,387.096774193548,4,1,0,100,1,0
34971,394.736842105263,4,1,0,100,1,0
36795,387.096774193548,4,1,0,100,1,0
37827,394.736842105263,4,1,0,100,1,0
43589,125.523012552301,3,1,0,100,1,0
50042,125.523012552301,3,1,0,100,1,0
57009,370.37037037037,4,1,0,100,1,0
57194,-66.6666666666667,4,1,0,100,0,0
64639,400,4,1,0,100,1,0
64639,-50,4,1,0,100,0,0
66039,-200,4,1,0,100,0,0
66639,-100,4,1,0,100,0,0

[HitObjects]
120,64,97,6,0,P|139:76|200:76,1,47.5
296,104,290,2,0,P|351:107|368:108,3,47.5
264,128,677,5,0,0:0:0:0:
80,256,806,1,0,0:0:0:0:
388,252,935,1,0,0:0:0:0:
144,120,1064,1,0,0:0:0:0:
404,288,1193,1,0,0:0:0:0:
56,320,1322,1,0,0:0:0:0:
456,256,1451,1,0,0:0:0:0:
80,336,1580,1,0,0:0:0:0:
316,52,1709,1,0,0:0:0:0:
304,352,1838,5,0,0:0:0:0:
48,156,1967,1,0,0:0:0:0:
496,196,2096,1,0,0:0:0:0:
144,224,2225,1,0,0:0:0:0:
180,44,2354,1,0,0:0:0:0:
348,312,2483,1,0,0:0:0:0:
124,280,2612,1,0,0:0:0:0:
416,48,2741,1,0,0:0:0:0:
216,364,2870,1,0,0:0:0:0:
68,96,2999,1,0,0:0:0:0:
464,252,3128,6,0,B|392:244|284:272|284:272,1,142.5
176,112,3483,2,0,B|172:211|196:328|196:328|258:284|348:256,1,380
352,152,4354,5,0,0:0:0:0:
368,240,4451,1,0,0:0:0:0:
328,48,4645,2,0,L|260:64,1,47.5
144,52,4935,5,0,0:0:0:0:
144,136,5032,1,0,0:0:0:0:
284,224,5419,5,0,0:0:0:0:
336,160,5516,1,0,0:0:0:0:
340,80,5612,2,0,L|388:108,1,47.5
376,240,5903,5,0,0:0:0:0:
328,120,6000,1,0,0:0:0:0:
224,64,6096,1,0,0:0:0:0:
104,56,6193,2,0,L|88:56,1,11.875
92,184,6290,5,0,0:0:0:0:
120,80,6387,1,0,0:0:0:0:
316,64,6580,5,0,0:0:0:0:
340,208,6677,2,0,L|344:224,1,11.875
224,192,6774,2,0,L|220:188,3,5.9375
132,72,6870,5,0,0:0:0:0:
96,184,6967,1,0,0:0:0:0:
160,292,7064,1,0,0:0:0:0:
312,292,7161,2,0,L|328:284,1,11.875
240,72,7306,5,0,0:0:0:0:
280,180,7403,2,0,L|248:188,1,23.75
84,160,7596,5,0,0:0:0:0:
140,52,7693,1,0,0:0:0:0:
272,12,7790,1,0,0:0:0:0:
400,44,7887,1,0,0:0:0:0:
336,184,8032,5,0,0:0:0:0:
188,200,8129,1,0,0:0:0:0:
356,200,8225,1,0,0:0:0:0:
484,92,8322,2,0,L|488:96,3,5.9375
392,32,8467,5,0,0:0:0:0:
360,140,8564,1,0,0:0:0:0:
164,118,8951,6,0,B|168:112|160:132|160:132|152:104|159:79,2,71.25
160,212,9144,2,0,B|160:208|160:220|160:220|169:216|148:216|148:216|168:212|168:212|160:228|152:216|152:216|164:204|168:224|160:204|160:204|152:208|160:224|160:224|152:216|152:216|152:224|152:224|168:204,1,142.5
140,140,9821,5,0,0:0:0:0:
240,348,9917,1,0,0:0:0:0:
404,56,10208,5,0,0:0:0:0:
344,368,10304,1,0,0:0:0:0:
88,32,10595,5,0,0:0:0:0:
160,384,10691,1,0,0:0:0:0:
212,224,10788,6,0,L|248:224,1,23.75
344,212,10885,1,0,0:0:0:0:
100,244,10982,1,0,0:0:0:0:
252,60,11272,6,0,L|256:120,1,47.5
288,320,11466,2,0,L|292:380,1,47.5
304,76,11756,2,0,L|300:28,1,47.5
136,124,13380,5,0,0:0:0:0:
160,88,13428,5,0,0:0:0:0:
212,72,13476,1,0,0:0:0:0:
188,116,13525,1,0,0:0:0:0:
160,164,13621,2,0,L|224:164,1,47.5
304,164,13767,2,0,L|368:172,1,47.5
456,224,13960,1,0,0:0:0:0:
84,156,14154,6,0,L|84:132,1,23.75
168,64,14250,2,0,P|239:75|320:72,1,142.5
400,152,14638,2,0,B|464:160|500:193|500:193|500:272|408:280|408:280|356:292|320:272|320:272|280:304|240:292|240:292|152:264,1,475
84,216,15702,6,0,L|96:144,1,47.5
176,56,15896,2,0,L|188:4,1,47.5
304,100,16186,6,0,B|296:96|296:96|424:112,1,71.2500027179719
312,256,16476,6,0,L|288:160,1,71.2500027179719
188,116,16621,2,0,L|200:244,1,106.875004076958
64,176,16815,2,0,B|112:220|124:244|124:244|135:268|156:324|156:324|193:290|212:256|212:256|224:228|240:168|240:168|288:209|304:232|304:232|320:256|348:332|348:332,1,534.375020384789
384,156,17589,6,0,B|408:204|428:224|428:224|420:256|424:304,1,142.500005435944
284,232,17831,6,0,L|164:252,1,71.2500027179719
72,184,18025,2,0,L|-8:200,1,71.2500027179719
152,84,18218,6,0,L|72:96,1,71.2500027179719
288,184,18509,6,0,L|300:280,2,71.2500027179719
152,352,18799,2,0,L|144:268,1,71.2500027179719
168,188,18944,1,0,0:0:0:0:
36,180,19138,6,0,L|64:100,1,71.2500027179719
296,48,19476,6,0,L|344:56,1,35.625001358986
144,44,19621,1,0,0:0:0:0:
64,168,20323,5,0,0:0:0:0:
396,68,20448,1,0,0:0:0:0:
272,368,20574,1,0,0:0:0:0:
184,16,20699,1,0,0:0:0:0:
100,360,21327,5,0,0:0:0:0:
512,8,21452,1,0,0:0:0:0:
324,376,21578,1,0,0:0:0:0:
8,112,21703,1,0,0:0:0:0:
256,192,23000,12,0,26097,0:0:0:0:
36,52,30097,5,0,0:0:0:0:
148,56,30195,1,0,0:0:0:0:
272,72,30294,1,0,0:0:0:0:
384,144,30393,1,0,0:0:0:0:
448,248,30491,2,0,L|440:328,1,47.5
260,312,30689,5,0,0:0:0:0:
456,308,30787,1,0,0:0:0:0:
224,288,30886,2,0,L|152:284,1,47.5
60,100,31083,5,0,0:0:0:0:
144,88,31182,1,0,0:0:0:0:
232,80,31281,2,0,L|320:72,1,47.5
456,112,31478,5,0,0:0:0:0:
332,160,31577,1,0,0:0:0:0:
456,216,31675,1,0,0:0:0:0:
440,320,31774,1,0,0:0:0:0:
324,376,31873,1,0,0:0:0:0:
164,312,31972,1,0,0:0:0:0:
24,368,32070,1,0,0:0:0:0:
76,248,32169,5,0,0:0:0:0:
92,136,32268,1,0,0:0:0:0:
48,40,32366,1,0,0:0:0:0:
156,60,32465,1,0,0:0:0:0:
276,40,32564,1,0,0:0:0:0:
384,52,32662,5,0,0:0:0:0:
376,88,32728,1,0,0:0:0:0:
368,124,32794,1,0,0:0:0:0:
360,160,32860,1,0,0:0:0:0:
340,224,32958,5,0,0:0:0:0:
236,252,33057,1,0,0:0:0:0:
132,216,33156,1,0,0:0:0:0:
52,136,33254,1,0,0:0:0:0:
168,156,33353,1,0,0:0:0:0:
72,84,33452,1,0,0:0:0:0:
196,108,33550,1,0,0:0:0:0:
96,44,33649,2,0,L|156:-4,1,47.5
256,192,33933,12,0,34900,0:0:0:0:
180,184,34971,5,0,0:0:0:0:
96,220,35069,1,0,0:0:0:0:
16,176,35168,2,0,L|8:248,1,47.5
172,40,35365,2,0,L|164:104,1,47.5
168,324,35563,5,0,0:0:0:0:
276,280,35661,1,0,0:0:0:0:
356,196,35760,2,0,L|376:124,1,47.5
232,56,35957,5,0,0:0:0:0:
164,144,36056,1,0,0:0:0:0:
156,244,36155,1,0,0:0:0:0:
212,324,36253,1,0,0:0:0:0:
308,352,36352,1,0,0:0:0:0:
404,324,36451,1,0,0:0:0:0:
456,240,36549,5,0,0:0:0:0:
464,204,36615,1,0,0:0:0:0:
472,168,36681,1,0,0:0:0:0:
256,192,36795,12,0,37762,0:0:0:0:
196,176,37827,5,0,0:0:0:0:
216,132,37892,1,0,0:0:0:0:
252,100,37958,1,0,0:0:0:0:
340,80,38024,5,0,0:0:0:0:
424,128,38123,1,0,0:0:0:0:
452,216,38221,1,0,0:0:0:0:
392,296,38320,1,0,0:0:0:0:
296,312,38369,6,0,L|296:328,16,11.875
192,268,38813,5,0,0:0:0:0:
132,188,38912,1,0,0:0:0:0:
152,88,39011,1,0,0:0:0:0:
232,24,39109,1,0,0:0:0:0:
340,32,39208,1,0,0:0:0:0:
400,116,39307,1,0,0:0:0:0:
372,216,39405,1,0,0:0:0:0:
264,216,39504,5,0,0:0:0:0:
152,200,39603,1,0,0:0:0:0:
52,184,39702,1,0,0:0:0:0:
160,160,39800,1,0,0:0:0:0:
260,144,39899,1,0,0:0:0:0:
368,148,39998,1,0,0:0:0:0:
464,200,40096,1,0,0:0:0:0:
452,280,40195,5,0,0:0:0:0:
438,291,40244,1,0,0:0:0:0:
427,303,40294,1,0,0:0:0:0:
414,316,40343,1,0,0:0:0:0:
404,327,40392,1,0,0:0:0:0:
320,360,40491,5,0,0:0:0:0:
220,372,40590,1,0,0:0:0:0:
120,356,40688,1,0,0:0:0:0:
40,308,40787,1,0,0:0:0:0:
24,212,40886,1,0,0:0:0:0:
16,120,40984,1,0,0:0:0:0:
40,24,41083,1,0,0:0:0:0:
140,64,41182,1,0,0:0:0:0:
256,76,41280,1,0,0:0:0:0:
356,68,41379,1,0,0:0:0:0:
460,48,41478,1,0,0:0:0:0:
432,128,41577,5,0,0:0:0:0:
432,128,41626,1,0,0:0:0:0:
432,128,41675,1,0,0:0:0:0:
432,128,41725,1,0,0:0:0:0:
432,128,41774,6,0,L|428:144,7,11.875
404,212,41971,5,0,0:0:0:0:
376,304,42070,1,0,0:0:0:0:
304,360,42169,1,0,0:0:0:0:
188,368,42267,2,0,L|104:364,1,47.5
256,192,42465,12,0,43550,0:0:0:0:
68,148,43589,5,0,0:0:0:0:
288,112,43714,1,0,0:0:0:0:
132,60,43840,1,0,0:0:0:0:
272,216,43965,5,0,0:0:0:0:
96,284,44091,1,0,0:0:0:0:
332,264,44216,1,0,0:0:0:0:
132,184,44342,5,0,0:0:0:0:
280,40,44467,1,0,0:0:0:0:
32,180,44593,1,0,0:0:0:0:
344,296,44718,5,0,0:0:0:0:
204,104,44844,1,0,0:0:0:0:
152,364,44969,1,0,0:0:0:0:
312,296,45095,5,0,0:0:0:0:
180,176,45220,1,0,0:0:0:0:
96,360,45346,1,0,0:0:0:0:
96,204,45471,5,0,0:0:0:0:
376,300,45597,1,0,0:0:0:0:
288,64,45722,1,0,0:0:0:0:
276,236,45848,5,0,0:0:0:0:
184,80,45973,1,0,0:0:0:0:
176,200,46099,1,0,0:0:0:0:
328,136,46224,5,0,0:0:0:0:
56,176,46350,1,0,0:0:0:0:
440,72,46476,1,0,0:0:0:0:
392,264,46601,5,0,0:0:0:0:
180,60,46727,1,0,0:0:0:0:
276,360,46852,1,0,0:0:0:0:
56,264,46978,5,0,0:0:0:0:
232,88,47103,1,0,0:0:0:0:
460,180,47229,1,0,0:0:0:0:
316,272,47354,5,0,0:0:0:0:
136,168,47480,1,0,0:0:0:0:
180,360,47605,1,0,0:0:0:0:
344,124,47731,5,0,0:0:0:0:
104,248,47856,1,0,0:0:0:0:
464,236,47982,1,0,0:0:0:0:
160,96,48107,5,0,0:0:0:0:
236,332,48233,1,0,0:0:0:0:
432,172,48358,1,0,0:0:0:0:
72,240,48484,1,0,0:0:0:0:
136,288,50042,5,0,0:0:0:0:
304,56,50167,1,0,0:0:0:0:
344,308,50293,1,0,0:0:0:0:
72,148,50418,1,0,0:0:0:0:
176,72,51046,5,0,0:0:0:0:
160,344,51171,1,0,0:0:0:0:
8,112,51297,1,0,0:0:0:0:
356,248,51422,1,0,0:0:0:0:
260,112,52050,5,0,0:0:0:0:
448,188,52175,1,0,0:0:0:0:
76,124,52301,1,0,0:0:0:0:
160,312,52426,1,0,0:0:0:0:
16,272,53054,5,0,0:0:0:0:
104,80,53180,1,0,0:0:0:0:
408,140,53305,1,0,0:0:0:0:
216,232,53431,1,0,0:0:0:0:
332,384,54058,5,0,0:0:0:0:
244,80,54184,1,0,0:0:0:0:
56,304,54309,1,0,0:0:0:0:
360,360,54435,1,0,0:0:0:0:
400,272,55062,5,0,0:0:0:0:
20,24,55188,1,0,0:0:0:0:
340,32,55313,1,0,0:0:0:0:
8,316,55439,1,0,0:0:0:0:
168,128,56067,5,0,0:0:0:0:
200,256,56192,1,0,0:0:0:0:
256,16,56318,1,0,0:0:0:0:
88,384,56443,1,0,0:0:0:0:
60,72,57009,5,0,0:0:0:0:
144,40,57101,1,0,0:0:0:0:
224,72,57194,2,0,L|344:112,1,71.2500027179719
416,76,57379,5,0,0:0:0:0:
432,136,57471,1,0,0:0:0:0:
432,200,57564,1,0,0:0:0:0:
416,260,57657,1,0,0:0:0:0:
376,316,57749,6,0,L|376:364,1,35.625001358986
320,312,57842,2,0,L|320:260,1,35.625001358986
256,320,57934,2,0,L|256:368,1,35.625001358986
196,312,58027,2,0,L|196:264,1,35.625001358986
140,320,58120,2,0,B|96:312|96:312|124:216|72:252|100:144,1,213.750008153916
120,40,58490,6,0,L|128:128,1,71.2500027179719
200,40,58675,2,0,L|248:48,1,35.625001358986
272,52,58768,2,0,L|320:60,1,35.625001358986
348,64,58860,2,0,L|412:76,1,35.625001358986
448,80,58953,2,0,P|469:150|364:188,1,142.500005435944
468,272,59231,6,0,L|476:184,1,71.2500027179719
312,68,59416,2,0,B|311:116|320:144|320:144|301:173|292:220,1,142.500005435944
216,308,59694,5,0,0:0:0:0:
172,200,59786,2,0,B|188:140|188:140|168:152,1,71.2500027179719
112,72,59971,5,0,0:0:0:0:
180,76,60064,2,0,L|120:96,1,35.625001358986
244,84,60157,2,0,L|192:60,1,35.625001358986
304,92,60249,2,0,L|244:108,1,35.625001358986
368,104,60342,2,0,L|324:80,1,35.625001358986
432,128,60434,2,0,L|376:136,1,35.625001358986
468,176,60527,2,0,L|476:124,1,35.625001358986
448,232,60620,2,0,L|432:176,1,35.625001358986
452,292,60712,2,0,B|424:280|404:264|404:264|388:276|324:292,1,106.875004076958
308,228,60897,6,0,L|304:296,1,35.625001358986
240,224,60990,2,0,L|240:272,1,35.625001358986
160,224,61083,1,0,0:0:0:0:
88,180,61175,1,0,0:0:0:0:
68,96,61268,1,0,0:0:0:0:
116,28,61360,1,0,0:0:0:0:
196,0,61453,2,0,L|220:92,1,71.2500027179719
304,368,61638,6,0,L|332:284,1,71.2500027179719
280,4,61823,6,0,B|208:80|208:80|248:88|292:120|292:120|312:168,1,249.375009512902
248,248,62194,2,0,B|232:204|236:168|236:168|212:144,1,106.875004076958
144,120,62379,6,0,L|160:108,3,17.812500679493
224,64,62471,2,0,L|264:72,1,35.625001358986
380,84,62564,2,0,L|376:160,1,71.2500027179719
372,272,62749,2,0,L|372:300,4,17.812500679493
72,168,64639,6,0,P|121:164|176:180,1,95
204,272,64839,5,0,0:0:0:0:
300,376,64939,1,0,0:0:0:0:
424,360,65039,1,0,0:0:0:0:
488,224,65139,1,0,0:0:0:0:
392,104,65239,2,0,L|284:96,1,95
200,108,65439,5,0,0:0:0:0:
308,120,65539,1,0,0:0:0:0:
424,188,65639,1,0,0:0:0:0:
292,232,65739,1,0,0:0:0:0:
432,300,65839,6,0,L|272:304,1,95
196,232,66039,2,0,L|152:232,1,23.75
84,144,66239,5,0,0:0:0:0:
184,72,66339,1,0,0:0:0:0:
300,48,66439,1,0,0:0:0:0:
424,56,66539,1,0,0:0:0:0:
472,204,66639,1,0,0:0:0:0:
472,360,66739,1,0,0:0:0:0:
456,352,66839,6,0,L|384:348,1,47.5
264,360,67039,1,0,0:0:0:0:
124,160,67239,6,0,L|212:156,1,47.5
296,152,67439,1,0,0:0:0:0:
