osu file format v14

[General]
AudioFilename: audio.ogg
AudioLeadIn: 0
PreviewTime: 148635
Countdown: 0
SampleSet: Normal
StackLeniency: 0.7
Mode: 1
LetterboxInBreaks: 0
WidescreenStoryboard: 1

[Editor]
Bookmarks: 11985,31185,47985,52785,62385,91185,100785,110385,129585,148785,167985,177585,187185,196785,215985,235185,254385,273585,289185,298485,316785,326460,331185,335985,341685,373185
DistanceSpacing: 1.3
BeatDivisor: 4
GridSize: 4
TimelineZoom: 1.900001

[Metadata]
Title:Valley of Voices
TitleUnicode:Valley of Voices
Artist:Kara & Kurokotei
ArtistUnicode:Kara & 黒皇帝
Creator:kdj8381
Version:Fallen
Source:
Tags:electronic instrumental hardcore artcore Orchestral Frenchcore Hybrid Trap Drum and & 'n' Bass Future bass Myntian Snare dialgadu77 kurokoutei dnb
BeatmapID:2846341
BeatmapSetID:1377216

[Difficulty]
HPDrainRate:5
CircleSize:4
OverallDifficulty:6.5
ApproachRate:9
SliderMultiplier:1.4
SliderTickRate:1

[Events]
//Background and Video events
0,0,"81724614_p0_2.jpg",0,0
//Break Periods
2,91385,100185
2,235385,253785
//Storyboard Layer 0 (Background)
//Storyboard Layer 1 (Fail)
//Storyboard Layer 2 (Pass)
//Storyboard Layer 3 (Foreground)
//Storyboard Layer 4 (Overlay)
//Storyboard Sound Samples

[TimingPoints]
1185,300,4,1,0,80,1,0
1185,-142.857142857143,4,1,0,30,0,0
11965,-142.857142857143,4,1,0,20,0,0
31165,-125,4,1,0,40,0,0
40765,-125,4,1,0,60,0,0
41075,-126.582278481013,4,1,0,60,0,0
41375,-128.205128205128,4,1,0,60,0,0
41675,-129.87012987013,4,1,0,60,0,0
41985,-131.578947368421,4,1,0,60,0,0
42275,-133.333333333333,4,1,0,60,0,0
42575,-135.135135135135,4,1,0,60,0,0
42875,-136.986301369863,4,1,0,60,0,0
43175,-138.888888888889,4,1,0,60,0,0
43475,-140.845070422535,4,1,0,60,0,0
43775,-142.857142857143,4,1,0,60,0,0
44075,-144.927536231884,4,1,0,60,0,0
44375,-147.058823529412,4,1,0,60,0,0
44675,-149.253731343284,4,1,0,60,0,0
44975,-151.515151515152,4,1,0,60,0,0
45275,-153.846153846154,4,1,0,60,0,0
45575,-156.25,4,1,0,60,0,0
45875,-158.730158730159,4,1,0,60,0,0
46175,-161.290322580645,4,1,0,60,0,0
46475,-163.934426229508,4,1,0,60,0,0
46775,-166.666666666667,4,1,0,60,0,0
47075,-169.491525423729,4,1,0,60,0,0
47375,-172.413793103448,4,1,0,60,0,0
47675,-175.438596491228,4,1,0,60,0,0
47975,-142.857142857143,4,1,0,60,0,0
48040,-142.857142857143,4,1,0,40,0,0
49785,-133.333333333333,4,1,0,40,0,0
50225,-125,4,1,0,40,0,0
50365,-121.951219512195,4,1,0,44,0,0
50665,-116.279069767442,4,1,0,48,0,0
50965,-111.111111111111,4,1,0,52,0,0
51265,-106.382978723404,4,1,0,56,0,0
51565,-100,4,1,0,60,0,0
51715,-95.2380952380952,4,1,0,62,0,0
51865,-90.9090909090909,4,1,0,64,0,0
52015,-86.9565217391304,4,1,0,66,0,0
52165,-83.3333333333333,4,1,0,68,0,0
52465,-71.4285714285714,4,1,0,70,0,0
52765,-62.5,4,1,0,60,0,0
53065,-90.9090909090909,4,1,0,60,0,0
53365,-92.5925925925926,4,1,0,60,0,0
53665,-93.4579439252336,4,1,0,60,0,0
53965,-95.2380952380952,4,1,0,60,0,0
54265,-96.1538461538461,4,1,0,60,0,0
54565,-98.0392156862745,4,1,0,60,0,0
54865,-99.009900990099,4,1,0,60,0,0
55165,-100,4,1,0,60,0,0
55465,-102.040816326531,4,1,0,60,0,0
55765,-103.092783505155,4,1,0,60,0,0
56065,-105.263157894737,4,1,0,60,0,0
56365,-106.382978723404,4,1,0,60,0,0
56685,-108.695652173913,4,1,0,60,0,0
56815,-90.9090909090909,4,1,0,60,0,0
56865,-88.4955752212389,4,1,0,60,0,0
56915,-86.2068965517241,4,1,0,60,0,0
56965,-84.0336134453781,4,1,0,60,0,0
57115,-83.3333333333333,4,1,0,60,0,0
57265,-76.9230769230769,4,1,0,60,0,0
57585,-90.9090909090909,4,1,0,60,0,0
57865,-92.5925925925926,4,1,0,60,0,0
58165,-93.4579439252336,4,1,0,60,0,0
58465,-95.2380952380952,4,1,0,60,0,0
58765,-96.1538461538461,4,1,0,60,0,0
59065,-98.0392156862745,4,1,0,60,0,0
59365,-99.009900990099,4,1,0,60,0,0
59665,-101.010101010101,4,1,0,60,0,0
59965,-102.040816326531,4,1,0,60,0,0
60265,-104.166666666667,4,1,0,60,0,0
60565,-105.263157894737,4,1,0,60,0,0
60865,-107.52688172043,4,1,0,60,0,0
61165,-108.695652173913,4,1,0,60,0,0
61465,-111.111111111111,4,1,0,60,0,0
61765,-90.9090909090909,4,1,0,60,0,0
62065,-76.9230769230769,4,1,0,60,0,0
62365,-111.111111111111,4,1,0,75,0,0
62665,-109.89010989011,4,1,0,75,0,0
62965,-108.695652173913,4,1,0,75,0,0
63265,-107.52688172043,4,1,0,75,0,0
63565,-106.382978723404,4,1,0,75,0,0
63865,-105.263157894737,4,1,0,75,0,0
64165,-104.166666666667,4,1,0,75,0,0
64465,-103.092783505155,4,1,0,75,0,0
64765,-102.040816326531,4,1,0,75,0,0
65065,-101.010101010101,4,1,0,75,0,0
65365,-100,4,1,0,75,0,0
66865,-71.4285714285714,4,1,0,75,0,0
67165,-100,4,1,0,75,0,0
67465,-99.009900990099,4,1,0,75,0,0
67765,-98.0392156862745,4,1,0,75,0,0
68065,-97.0873786407767,4,1,0,75,0,0
68365,-96.1538461538461,4,1,0,75,0,0
68665,-95.2380952380952,4,1,0,75,0,0
68965,-94.3396226415094,4,1,0,75,0,0
69265,-93.4579439252336,4,1,0,75,0,0
69565,-92.5925925925926,4,1,0,75,0,0
69865,-91.743119266055,4,1,0,75,0,0
70165,-90.9090909090909,4,1,0,75,0,0
70560,-90.0900900900901,4,1,0,75,0,0
70635,-89.2857142857143,4,1,0,75,0,0
70685,-87.719298245614,4,1,0,75,0,0
70735,-86.2068965517241,4,1,0,75,0,0
70785,-84.7457627118644,4,1,0,75,0,0
71010,-83.3333333333333,4,1,0,75,0,0
71235,-80,4,1,0,75,0,0
71460,-83.3333333333333,4,1,0,75,0,0
71685,-71.4285714285714,4,1,0,75,0,0
71965,-100,4,1,0,90,0,0
76015,-98.0392156862745,4,1,0,90,0,0
76065,-96.1538461538461,4,1,0,90,0,0
76115,-94.3396226415094,4,1,0,90,0,0
76165,-92.5925925925926,4,1,0,90,0,0
76315,-90.9090909090909,4,1,0,90,0,0
76465,-71.4285714285714,4,1,0,90,0,0
76765,-100,4,1,0,90,0,0
80375,-100,4,1,0,46,0,0
80440,-101.010101010101,4,1,0,50,0,0
80515,-102.040816326531,4,1,0,54,0,0
80590,-103.092783505155,4,1,0,58,0,0
80665,-104.166666666667,4,1,0,62,0,0
80740,-105.263157894737,4,1,0,66,0,0
80815,-106.382978723404,4,1,0,70,0,0
80890,-107.52688172043,4,1,0,74,0,0
80965,-108.695652173913,4,1,0,78,0,0
81040,-109.89010989011,4,1,0,82,0,0
81115,-111.111111111111,4,1,0,86,0,0
81190,-112.359550561798,4,1,0,90,0,0
81565,-100,4,1,0,90,0,0
85615,-98.0392156862745,4,1,0,90,0,0
85665,-96.1538461538461,4,1,0,90,0,0
85715,-94.3396226415094,4,1,0,90,0,0
85765,-92.5925925925926,4,1,0,90,0,0
85915,-90.9090909090909,4,1,0,90,0,0
86065,-71.4285714285714,4,1,0,90,0,0
86365,-100,4,1,0,90,0,0
89965,-97.0873786407767,4,1,0,90,0,0
90190,-94.3396226415094,4,1,0,90,0,0
90415,-91.743119266055,4,1,0,90,0,0
90640,-95.2380952380952,4,1,0,90,0,0
90865,-71.4285714285714,4,1,0,90,0,0
91165,-83.3333333333333,4,1,0,90,0,0
91240,-100,4,1,0,60,0,0
100775,-100,4,1,0,60,0,0
105565,-100,4,1,0,80,0,0
115315,-95.2380952380952,4,1,0,80,0,0
115465,-90.9090909090909,4,1,0,80,0,0
115615,-86.9565217391304,4,1,0,80,0,0
115765,-83.3333333333333,4,1,0,80,0,0
116065,-100,4,1,0,80,0,0
117715,-95.2380952380952,4,1,0,80,0,0
117865,-90.9090909090909,4,1,0,80,0,0
118015,-86.9565217391304,4,1,0,80,0,0
118165,-83.3333333333333,4,1,0,80,0,0
118315,-86.9565217391304,4,1,0,80,0,0
118465,-90.9090909090909,4,1,0,80,0,0
118515,-91.743119266055,4,1,0,80,0,0
118565,-92.5925925925926,4,1,0,80,0,0
118615,-93.4579439252336,4,1,0,80,0,0
118765,-100,4,1,0,80,0,0
119825,-80,4,1,0,80,0,0
119875,-82.6446280991736,4,1,0,80,0,0
119925,-85.4700854700855,4,1,0,80,0,0
119975,-88.4955752212389,4,1,0,80,0,0
120115,-95.2380952380952,4,1,0,80,0,0
120265,-90.9090909090909,4,1,0,80,0,0
120415,-86.9565217391304,4,1,0,80,0,0
120565,-83.3333333333333,4,1,0,80,0,0
120715,-86.9565217391304,4,1,0,80,0,0
120790,-89.2857142857143,4,1,0,80,0,0
120865,-90.9090909090909,4,1,0,80,0,0
121015,-95.2380952380952,4,1,0,80,0,0
121165,-100,4,1,0,80,0,0
122515,-95.2380952380952,4,1,0,80,0,0
122665,-90.9090909090909,4,1,0,80,0,0
122815,-86.9565217391304,4,1,0,80,0,0
122965,-83.3333333333333,4,1,0,80,0,0
123115,-86.9565217391304,4,1,0,80,0,0
123265,-90.9090909090909,4,1,0,80,0,0
123315,-91.743119266055,4,1,0,80,0,0
123365,-92.5925925925926,4,1,0,80,0,0
123415,-93.4579439252336,4,1,0,80,0,0
123565,-100,4,1,0,80,0,0
124915,-95.2380952380952,4,1,0,80,0,0
125065,-90.9090909090909,4,1,0,80,0,0
125215,-86.9565217391304,4,1,0,80,0,0
125365,-83.3333333333333,4,1,0,80,0,0
125515,-86.9565217391304,4,1,0,80,0,0
125590,-89.2857142857143,4,1,0,80,0,0
125665,-90.9090909090909,4,1,0,80,0,0
125815,-95.2380952380952,4,1,0,80,0,0
125965,-100,4,1,0,80,0,0
127315,-95.2380952380952,4,1,0,80,0,0
127465,-90.9090909090909,4,1,0,80,0,0
127615,-86.9565217391304,4,1,0,80,0,0
127765,-83.3333333333333,4,1,0,80,0,0
127915,-86.9565217391304,4,1,0,80,0,0
128065,-90.9090909090909,4,1,0,80,0,0
128215,-95.2380952380952,4,1,0,80,0,0
128365,-100,4,1,0,80,0,0
128440,-101.010101010101,4,1,0,80,0,0
128515,-102.040816326531,4,1,0,80,0,0
128570,-103.092783505155,4,1,0,80,0,0
128665,-104.166666666667,4,1,0,80,0,0
128740,-105.263157894737,4,1,0,80,0,0
128815,-106.382978723404,4,1,0,80,0,0
128890,-107.52688172043,4,1,0,80,0,0
128965,-108.695652173913,4,1,0,80,0,0
129040,-109.89010989011,4,1,0,80,0,0
129115,-111.111111111111,4,1,0,80,0,0
129265,-100,4,1,0,80,0,0
129425,-98.0392156862745,4,1,0,80,0,0
129475,-97.0873786407767,4,1,0,80,0,0
129525,-96.1538461538461,4,1,0,80,0,0
129575,-95.2380952380952,4,1,0,90,0,0
129725,-90.9090909090909,4,1,0,90,0,0
129875,-86.9565217391304,4,1,0,90,0,0
130025,-83.3333333333333,4,1,0,90,0,0
130175,-80,4,1,0,90,0,0
130325,-83.3333333333333,4,1,0,90,0,0
130475,-88.4955752212389,4,1,0,90,0,0
130550,-90.0900900900901,4,1,0,90,0,0
130625,-91.743119266055,4,1,0,90,0,0
130700,-93.4579439252336,4,1,0,90,0,0
130775,-95.2380952380952,4,1,0,90,0,0
130925,-100,4,1,0,90,0,0
132265,-95.2380952380952,4,1,0,90,0,0
132415,-90.9090909090909,4,1,0,90,0,0
132565,-86.9565217391304,4,1,0,90,0,0
132715,-83.3333333333333,4,1,0,90,0,0
132865,-86.9565217391304,4,1,0,90,0,0
132940,-89.2857142857143,4,1,0,90,0,0
133015,-90.9090909090909,4,1,0,90,0,0
133165,-95.2380952380952,4,1,0,90,0,0
133775,-71.4285714285714,4,1,0,90,0,0
134075,-100,4,1,0,90,0,0
134375,-95.2380952380952,4,1,0,90,0,0
134525,-90.9090909090909,4,1,0,90,0,0
134665,-86.9565217391304,4,1,0,90,0,0
134825,-83.3333333333333,4,1,0,90,0,0
134975,-80,4,1,0,90,0,0
135125,-83.3333333333333,4,1,0,90,0,0
135275,-86.9565217391304,4,1,0,90,0,0
135425,-90.9090909090909,4,1,0,90,0,0
135500,-92.5925925925926,4,1,0,90,0,0
135575,-94.3396226415094,4,1,0,90,0,0
135725,-100,4,1,0,90,0,0
137065,-95.2380952380952,4,1,0,90,0,0
137215,-90.9090909090909,4,1,0,90,0,0
137365,-86.9565217391304,4,1,0,90,0,0
137515,-83.3333333333333,4,1,0,90,0,0
137665,-86.9565217391304,4,1,0,90,0,0
137740,-89.2857142857143,4,1,0,90,0,0
137815,-91.743119266055,4,1,0,90,0,0
137865,-92.5925925925926,4,1,0,90,0,0
137915,-93.4579439252336,4,1,0,90,0,0
137965,-94.3396226415094,4,1,0,90,0,0
138190,-100,4,1,0,90,0,0
139175,-95.2380952380952,4,1,0,90,0,0
139325,-90.9090909090909,4,1,0,90,0,0
139475,-86.9565217391304,4,1,0,90,0,0
139625,-83.3333333333333,4,1,0,90,0,0
139775,-80,4,1,0,90,0,0
139925,-83.3333333333333,4,1,0,90,0,0
140075,-88.4955752212389,4,1,0,90,0,0
140150,-90.0900900900901,4,1,0,90,0,0
140225,-91.743119266055,4,1,0,90,0,0
140300,-93.4579439252336,4,1,0,90,0,0
140375,-95.2380952380952,4,1,0,90,0,0
140525,-100,4,1,0,90,0,0
141865,-95.2380952380952,4,1,0,90,0,0
142015,-90.9090909090909,4,1,0,90,0,0
142165,-86.9565217391304,4,1,0,90,0,0
142315,-83.3333333333333,4,1,0,90,0,0
142465,-86.9565217391304,4,1,0,90,0,0
142540,-89.2857142857143,4,1,0,90,0,0
142615,-90.9090909090909,4,1,0,90,0,0
142765,-95.2380952380952,4,1,0,90,0,0
142915,-100,4,1,0,90,0,0
143975,-95.2380952380952,4,1,0,90,0,0
144115,-90.9090909090909,4,1,0,90,0,0
144265,-86.9565217391304,4,1,0,90,0,0
144415,-83.3333333333333,4,1,0,90,0,0
144565,-80,4,1,0,90,0,0
144715,-83.3333333333333,4,1,0,90,0,0
144865,-88.4955752212389,4,1,0,90,0,0
144950,-90.0900900900901,4,1,0,90,0,0
145025,-91.743119266055,4,1,0,90,0,0
145100,-93.4579439252336,4,1,0,90,0,0
145175,-95.2380952380952,4,1,0,90,0,0
145325,-100,4,1,0,90,0,0
148785,-90.9090909090909,4,1,0,100,0,1
166785,-90.9090909090909,4,1,0,60,0,0
166990,-95.2380952380952,4,1,0,60,0,0
167225,-100,4,1,0,60,0,0
167365,-83.3333333333333,4,1,0,90,0,0
167515,-83.3333333333333,4,1,0,60,0,0
167665,-83.3333333333333,4,1,0,90,0,0
167965,-100,4,1,0,80,0,0
168265,-100,4,1,0,80,0,0
168500,-106.382978723404,4,1,0,80,0,0
168725,-113.636363636364,4,1,0,80,0,0
168950,-121.951219512195,4,1,0,80,0,0
169090,-128.205128205128,4,1,0,80,0,0
169165,-131.578947368421,4,1,0,80,0,0
169465,-100,4,1,0,80,0,0
169700,-103.092783505155,4,1,0,80,0,0
169925,-106.382978723404,4,1,0,80,0,0
170075,-104.166666666667,4,1,0,80,0,0
170365,-100,4,1,0,80,0,0
170900,-106.382978723404,4,1,0,80,0,0
171125,-113.636363636364,4,1,0,80,0,0
171350,-121.951219512195,4,1,0,80,0,0
171500,-128.205128205128,4,1,0,80,0,0
171555,-131.578947368421,4,1,0,80,0,0
171865,-100,4,1,0,80,0,0
172100,-103.092783505155,4,1,0,80,0,0
172325,-106.382978723404,4,1,0,80,0,0
172465,-83.3333333333333,4,1,0,80,0,0
172765,-90.9090909090909,4,1,0,80,0,0
172915,-93.4579439252336,4,1,0,80,0,0
172990,-96.1538461538461,4,1,0,80,0,0
173065,-100,4,1,0,80,0,0
173300,-106.382978723404,4,1,0,80,0,0
173525,-113.636363636364,4,1,0,80,0,0
173750,-121.951219512195,4,1,0,80,0,0
173890,-128.205128205128,4,1,0,80,0,0
173965,-131.578947368421,4,1,0,80,0,0
174265,-100,4,1,0,80,0,0
174500,-103.092783505155,4,1,0,80,0,0
174725,-106.382978723404,4,1,0,80,0,0
174865,-90.9090909090909,4,1,0,90,0,0
174940,-93.4579439252336,4,1,0,80,0,0
175015,-96.1538461538461,4,1,0,70,0,0
175090,-99.009900990099,4,1,0,60,0,0
175165,-102.040816326531,4,1,0,80,0,0
175465,-100,4,1,0,80,0,0
175700,-106.382978723404,4,1,0,80,0,0
175925,-113.636363636364,4,1,0,80,0,0
176150,-121.951219512195,4,1,0,80,0,0
176290,-128.205128205128,4,1,0,80,0,0
176365,-131.578947368421,4,1,0,80,0,0
176665,-100,4,1,0,80,0,0
176900,-103.092783505155,4,1,0,80,0,0
177125,-106.382978723404,4,1,0,80,0,0
177265,-83.3333333333333,4,1,0,80,0,0
177565,-100,4,1,0,40,0,0
177865,-100,4,1,0,80,0,0
187165,-100,4,1,0,30,0,0
189190,-100,4,1,0,35,0,0
189415,-100,4,1,0,40,0,0
189565,-100,4,1,0,45,0,0
191365,-100,4,1,0,50,0,0
191515,-100,4,1,0,55,0,0
191665,-100,4,1,0,60,0,0
191965,-100,4,1,0,62,0,0
192190,-100,4,1,0,64,0,0
192415,-100,4,1,0,66,0,0
192790,-100,4,1,0,68,0,0
193015,-100,4,1,0,70,0,0
193390,-100,4,1,0,72,0,0
193615,-100,4,1,0,74,0,0
193990,-100,4,1,0,76,0,0
194215,-100,4,1,0,78,0,0
194365,-100,4,1,0,80,0,0
194440,-99.009900990099,4,1,0,80,0,0
194515,-98.0392156862745,4,1,0,80,0,0
194590,-97.0873786407767,4,1,0,80,0,0
194665,-96.1538461538461,4,1,0,80,0,0
194740,-95.2380952380952,4,1,0,80,0,0
194815,-94.3396226415094,4,1,0,80,0,0
194890,-93.4579439252336,4,1,0,80,0,0
194965,-92.5925925925926,4,1,0,80,0,0
195040,-91.743119266055,4,1,0,80,0,0
195115,-90.9090909090909,4,1,0,80,0,0
195190,-90.0900900900901,4,1,0,80,0,0
195265,-89.2857142857143,4,1,0,80,0,0
195340,-88.4955752212389,4,1,0,80,0,0
195415,-87.719298245614,4,1,0,80,0,0
195490,-86.9565217391304,4,1,0,80,0,0
195565,-86.2068965517241,4,1,0,80,0,0
196765,-66.6666666666667,4,1,0,60,0,0
197965,-100,4,1,0,90,0,0
199165,-66.6666666666667,4,1,0,60,0,0
200365,-100,4,1,0,90,0,0
201565,-66.6666666666667,4,1,0,60,0,0
202765,-100,4,1,0,90,0,0
203965,-66.6666666666667,4,1,0,60,0,0
204865,-100,4,1,0,90,0,0
206365,-66.6666666666667,4,1,0,60,0,0
207565,-100,4,1,0,90,0,0
208765,-66.6666666666667,4,1,0,60,0,0
209965,-100,4,1,0,90,0,0
211165,-66.6666666666667,4,1,0,60,0,0
212365,-100,4,1,0,90,0,0
213565,-66.6666666666667,4,1,0,60,0,0
214475,-100,4,1,0,90,0,0
215965,-105.263157894737,4,1,0,90,0,0
217915,-104.166666666667,4,1,0,90,0,0
218140,-102.040816326531,4,1,0,90,0,0
218365,-100,4,1,0,90,0,0
220765,-105.263157894737,4,1,0,90,0,0
223165,-111.111111111111,4,1,0,90,0,0
225115,-112.359550561798,4,1,0,90,0,0
225190,-113.636363636364,4,1,0,90,0,0
225265,-114.942528735632,4,1,0,90,0,0
225565,-117.647058823529,4,1,0,90,0,0
227515,-119.047619047619,4,1,0,90,0,0
227740,-121.951219512195,4,1,0,90,0,0
227965,-125,4,1,0,90,0,0
230065,-128.205128205128,4,1,0,90,0,0
230365,-133.333333333333,4,1,0,90,0,0
232315,-135.135135135135,4,1,0,90,0,0
232765,-142.857142857143,4,1,0,90,0,0
235260,-142.857142857143,4,1,0,20,0,0
254365,-142.857142857143,4,1,0,30,0,0
273415,-111.111111111111,4,1,0,30,0,0
273565,-111.111111111111,4,1,0,60,0,0
273640,-111.111111111111,4,1,0,30,0,0
274765,-111.111111111111,4,1,0,60,0,0
274840,-111.111111111111,4,1,0,30,0,0
275965,-111.111111111111,4,1,0,60,0,0
276040,-111.111111111111,4,1,0,30,0,0
277165,-111.111111111111,4,1,0,60,0,0
277240,-111.111111111111,4,1,0,30,0,0
278365,-111.111111111111,4,1,0,60,0,0
278440,-111.111111111111,4,1,0,30,0,0
279565,-111.111111111111,4,1,0,60,0,0
279640,-111.111111111111,4,1,0,30,0,0
280765,-111.111111111111,4,1,0,60,0,0
280840,-111.111111111111,4,1,0,30,0,0
281965,-111.111111111111,4,1,0,60,0,0
282040,-111.111111111111,4,1,0,30,0,0
283165,-111.111111111111,4,1,0,60,0,0
283240,-111.111111111111,4,1,0,30,0,0
284365,-111.111111111111,4,1,0,60,0,0
284440,-111.111111111111,4,1,0,30,0,0
285565,-111.111111111111,4,1,0,60,0,0
285640,-111.111111111111,4,1,0,30,0,0
286765,-111.111111111111,4,1,0,60,0,0
286840,-111.111111111111,4,1,0,30,0,0
287965,-111.111111111111,4,1,0,60,0,0
288040,-111.111111111111,4,1,0,30,0,0
289165,-111.111111111111,4,1,0,60,0,0
289240,-111.111111111111,4,1,0,30,0,0
290365,-125,4,1,0,40,0,0
291565,-133.333333333333,4,1,0,30,0,0
292165,-142.857142857143,4,1,0,25,0,0
292765,-166.666666666667,4,1,0,20,0,0
293365,-151.515151515152,4,1,0,25,0,0
293965,-140.845070422535,4,1,0,30,0,0
294565,-131.578947368421,4,1,0,35,0,0
295165,-121.951219512195,4,1,0,40,0,0
295765,-114.942528735632,4,1,0,45,0,0
296365,-107.52688172043,4,1,0,50,0,0
296965,-107.52688172043,4,1,0,55,0,0
297115,-100,4,1,0,70,0,0
297265,-100,4,1,0,90,0,0
297565,-100,4,1,0,80,0,0
297715,-95.2380952380952,4,1,0,80,0,0
297865,-90.9090909090909,4,1,0,80,0,0
298015,-86.9565217391304,4,1,0,80,0,0
298165,-83.3333333333333,4,1,0,80,0,0
298315,-86.9565217391304,4,1,0,80,0,0
298485,-90.9090909090909,4,1,0,100,0,1
299665,-98.0392156862745,4,1,0,100,0,1
299740,-96.1538461538461,4,1,0,100,0,1
299815,-94.3396226415094,4,1,0,100,0,1
299890,-92.5925925925926,4,1,0,100,0,1
299965,-90.9090909090909,4,1,0,100,0,1
300415,-76.9230769230769,4,1,0,100,0,1
300565,-83.3333333333333,4,1,0,100,0,1
300715,-90.9090909090909,4,1,0,100,0,1
301465,-71.4285714285714,4,1,0,100,0,1
301765,-90.9090909090909,4,1,0,100,0,1
301915,-71.4285714285714,4,1,0,100,0,1
302365,-90.9090909090909,4,1,0,100,0,1
302515,-86.9565217391304,4,1,0,100,0,1
302665,-83.3333333333333,4,1,0,100,0,1
302815,-80,4,1,0,100,0,1
302965,-76.9230769230769,4,1,0,100,0,1
303115,-80,4,1,0,100,0,1
303265,-83.3333333333333,4,1,0,100,0,1
303715,-86.9565217391304,4,1,0,100,0,1
304165,-90.9090909090909,4,1,0,100,0,1
304465,-98.0392156862745,4,1,0,100,0,1
304540,-96.1538461538461,4,1,0,100,0,1
304615,-94.3396226415094,4,1,0,100,0,1
304690,-92.5925925925926,4,1,0,100,0,1
304765,-90.9090909090909,4,1,0,100,0,1
305365,-76.9230769230769,4,1,0,100,0,1
306265,-90.9090909090909,4,1,0,100,0,1
306565,-76.9230769230769,4,1,0,100,0,1
306715,-90.9090909090909,4,1,0,100,0,1
307315,-86.9565217391304,4,1,0,100,0,1
307465,-83.3333333333333,4,1,0,100,0,1
307615,-80,4,1,0,100,0,1
307765,-76.9230769230769,4,1,0,100,0,1
307915,-80,4,1,0,100,0,1
308065,-83.3333333333333,4,1,0,100,0,1
308515,-86.9565217391304,4,1,0,100,0,1
308965,-90.0900900900901,4,1,0,100,0,1
309050,-90.0900900900901,4,1,0,70,0,1
309200,-90.0900900900901,4,1,0,100,0,1
309265,-94.3396226415094,4,1,0,100,0,1
309340,-98.0392156862745,4,1,0,100,0,1
309415,-102.040816326531,4,1,0,100,0,1
309490,-106.382978723404,4,1,0,100,0,1
309565,-111.111111111111,4,1,0,100,0,1
310015,-76.9230769230769,4,1,0,100,0,1
310165,-83.3333333333333,4,1,0,100,0,1
310315,-90.9090909090909,4,1,0,100,0,1
311065,-71.4285714285714,4,1,0,100,0,1
311365,-90.9090909090909,4,1,0,100,0,1
311515,-71.4285714285714,4,1,0,100,0,1
311965,-90.9090909090909,4,1,0,100,0,1
312115,-86.9565217391304,4,1,0,100,0,1
312265,-83.3333333333333,4,1,0,100,0,1
312415,-80,4,1,0,100,0,1
312565,-76.9230769230769,4,1,0,100,0,1
312715,-80,4,1,0,100,0,1
312865,-83.3333333333333,4,1,0,100,0,1
313315,-86.9565217391304,4,1,0,100,0,1
313765,-90.9090909090909,4,1,0,100,0,1
314065,-98.0392156862745,4,1,0,100,0,1
314140,-96.1538461538461,4,1,0,100,0,1
314215,-94.3396226415094,4,1,0,100,0,1
314290,-92.5925925925926,4,1,0,100,0,1
314365,-90.9090909090909,4,1,0,100,0,1
315415,-95.2380952380952,4,1,0,100,0,1
315715,-98.0392156862745,4,1,0,100,0,1
315865,-101.010101010101,4,1,0,100,0,1
316015,-104.166666666667,4,1,0,100,0,1
316315,-111.111111111111,4,1,0,100,0,1
316785,-125,4,1,0,75,0,0
326965,-123.456790123457,4,1,0,75,0,0
327265,-120.481927710843,4,1,0,75,0,0
328165,-119.047619047619,4,1,0,75,0,0
328465,-116.279069767442,4,1,0,75,0,0
329365,-114.942528735632,4,1,0,75,0,0
329665,-112.359550561798,4,1,0,75,0,0
330565,-111.111111111111,4,1,0,75,0,0
330865,-108.695652173913,4,1,0,75,0,0
331165,-106.382978723404,4,1,0,85,0,0
331465,-104.166666666667,4,1,0,85,0,0
331765,-102.040816326531,4,1,0,85,0,0
332065,-100,4,1,0,85,0,0
332365,-98.0392156862745,4,1,0,85,0,0
332665,-96.1538461538461,4,1,0,85,0,0
332965,-94.3396226415094,4,1,0,85,0,0
333265,-92.5925925925926,4,1,0,85,0,0
333415,-91.743119266055,4,1,0,85,0,0
333565,-90.9090909090909,4,1,0,85,0,0
333715,-90.0900900900901,4,1,0,85,0,0
333865,-89.2857142857143,4,1,0,85,0,0
334015,-88.4955752212389,4,1,0,85,0,0
334165,-87.719298245614,4,1,0,85,0,0
334240,-86.9565217391304,4,1,0,85,0,0
334315,-86.2068965517241,4,1,0,85,0,0
334390,-85.4700854700855,4,1,0,85,0,0
334465,-84.7457627118644,4,1,0,85,0,0
334540,-84.0336134453781,4,1,0,85,0,0
334615,-83.3333333333333,4,1,0,85,0,0
334690,-82.6446280991736,4,1,0,85,0,0
334765,-81.9672131147541,4,1,0,85,0,0
335985,-90.9090909090909,4,1,0,100,0,1
353985,-95.2380952380952,4,1,0,75,0,0
354425,-111.111111111111,4,1,0,75,0,0
354585,-117.647058823529,4,1,0,75,0,0
355035,-142.857142857143,4,1,0,75,0,0
355185,-90.9090909090909,4,1,0,100,0,1
373185,-90.9090909090909,4,1,0,90,0,0
373615,-100,4,1,0,75,0,0
374665,-100,4,1,0,70,0,0
389965,-100,4,1,0,75,0,0
391165,-100,4,1,0,80,0,0
392422,-100,4,1,0,5,0,0
393275,-149.253731343284,4,1,0,40,0,0
393565,-158.730158730159,4,1,0,20,0,0
393715,-163.934426229508,4,1,0,23,0,0
393865,-169.491525423729,4,1,0,26,0,0
394015,-175.438596491228,4,1,0,29,0,0

[HitObjects]
255,190,11985,5,8,0:0:0:0:
255,190,13185,1,0,0:0:0:0:
255,190,14235,1,0,0:0:0:0:
255,190,14385,1,8,0:0:0:0:
255,190,15435,1,8,0:0:0:0:
255,190,15585,1,0,0:0:0:0:
255,190,16185,1,8,0:0:0:0:
255,190,16635,1,8,0:0:0:0:
255,190,16785,1,0,0:0:0:0:
255,190,17985,1,0,0:0:0:0:
255,190,19035,1,0,0:0:0:0:
255,190,19185,1,8,0:0:0:0:
255,190,20235,1,8,0:0:0:0:
255,190,20385,1,0,0:0:0:0:
255,190,20985,1,8,0:0:0:0:
255,190,21435,1,0,0:0:0:0:
255,190,21585,1,8,0:0:0:0:
255,190,22785,1,0,0:0:0:0:
255,190,23835,1,0,0:0:0:0:
255,190,23985,1,8,0:0:0:0:
255,190,25035,1,8,0:0:0:0:
255,190,25185,1,0,0:0:0:0:
255,190,25785,1,8,0:0:0:0:
255,190,26235,1,8,0:0:0:0:
255,190,26385,1,0,0:0:0:0:
255,190,27585,1,0,0:0:0:0:
255,190,28635,1,0,0:0:0:0:
255,190,28785,1,8,0:0:0:0:
255,190,29835,1,8,0:0:0:0:
255,190,29985,1,0,0:0:0:0:
255,190,30585,1,0,0:0:0:0:
255,190,31185,1,12,0:0:0:0:
255,190,31785,1,0,0:0:0:0:
255,190,32235,1,0,0:0:0:0:
255,190,32385,1,8,0:0:0:0:
255,190,32985,1,0,0:0:0:0:
255,190,33435,1,0,0:0:0:0:
255,190,33585,1,8,0:0:0:0:
255,190,34185,1,0,0:0:0:0:
255,190,34635,1,8,0:0:0:0:
255,190,34785,1,0,0:0:0:0:
255,190,35385,1,8,0:0:0:0:
255,190,35835,1,8,0:0:0:0:
255,190,35985,1,0,0:0:0:0:
255,190,36585,1,0,0:0:0:0:
255,190,37035,1,0,0:0:0:0:
255,190,37185,1,8,0:0:0:0:
255,190,37785,1,0,0:0:0:0:
255,190,38235,1,0,0:0:0:0:
255,190,38385,1,8,0:0:0:0:
255,190,38985,1,0,0:0:0:0:
255,190,39435,1,0,0:0:0:0:
255,190,39585,1,0,0:0:0:0:
255,190,40185,1,8,0:0:0:0:
255,190,40635,1,0,0:0:0:0:
255,190,40785,1,4,0:0:0:0:
255,190,41085,1,8,0:0:0:0:
255,190,41385,1,8,0:0:0:0:
255,190,41685,1,8,0:0:0:0:
255,190,41985,1,0,0:0:0:0:
255,190,42285,1,8,0:0:0:0:
255,190,42585,1,8,0:0:0:0:
255,190,42885,1,8,0:0:0:0:
255,190,43185,1,0,0:0:0:0:
255,190,43485,1,0,0:0:0:0:
255,190,43785,1,8,0:0:0:0:
255,190,44085,1,8,0:0:0:0:
255,190,44385,1,0,0:0:0:0:
255,190,44685,1,0,0:0:0:0:
255,190,44985,1,8,0:0:0:0:
255,190,45285,1,8,0:0:0:0:
255,190,45585,1,0,0:0:0:0:
255,190,45885,1,0,0:0:0:0:
255,190,46185,1,0,0:0:0:0:
255,190,46485,1,8,0:0:0:0:
255,190,46785,1,0,0:0:0:0:
255,190,47085,1,0,0:0:0:0:
255,190,47385,1,0,0:0:0:0:
255,190,47685,1,8,0:0:0:0:
255,190,47985,1,4,0:0:0:0:
255,190,49035,1,8,0:0:0:0:
255,190,49185,1,0,0:0:0:0:
255,190,49785,1,8,0:0:0:0:
255,190,50235,1,0,0:0:0:0:
255,190,50385,1,8,0:0:0:0:
255,190,50685,1,8,0:0:0:0:
255,190,50985,1,8,0:0:0:0:
255,190,51285,1,8,0:0:0:0:
255,190,51585,1,0,0:0:0:0:
255,190,51735,1,0,0:0:0:0:
255,190,51885,1,8,0:0:0:0:
255,190,52035,1,8,0:0:0:0:
255,190,52185,1,8,0:0:0:0:
255,190,52260,1,8,0:0:0:0:
255,190,52335,1,8,0:0:0:0:
255,190,52410,1,8,0:0:0:0:
255,190,52485,1,4,0:0:0:0:
255,190,52785,1,12,0:0:0:0:
255,190,53085,1,0,0:0:0:0:
255,190,53385,1,0,0:0:0:0:
255,190,53685,1,0,0:0:0:0:
255,190,53985,1,8,0:0:0:0:
255,190,54285,1,0,0:0:0:0:
255,190,54585,1,0,0:0:0:0:
255,190,54885,1,0,0:0:0:0:
255,190,55035,1,8,0:0:0:0:
255,190,55185,1,0,0:0:0:0:
255,190,55485,1,0,0:0:0:0:
255,190,55785,1,0,0:0:0:0:
255,190,56085,1,0,0:0:0:0:
255,190,56235,1,8,0:0:0:0:
255,190,56385,1,0,0:0:0:0:
255,190,56685,1,0,0:0:0:0:
255,190,56835,1,8,0:0:0:0:
255,190,56885,1,8,0:0:0:0:
255,190,56935,1,8,0:0:0:0:
255,190,56985,1,0,0:0:0:0:
255,190,57135,1,0,0:0:0:0:
255,190,57285,1,12,0:0:0:0:
255,190,57585,1,8,0:0:0:0:
255,190,57885,1,0,0:0:0:0:
255,190,58185,1,0,0:0:0:0:
255,190,58485,1,0,0:0:0:0:
255,190,58785,1,8,0:0:0:0:
255,190,59085,1,0,0:0:0:0:
255,190,59385,1,0,0:0:0:0:
255,190,59685,1,0,0:0:0:0:
255,190,59835,1,0,0:0:0:0:
255,190,59985,1,8,0:0:0:0:
255,190,60285,1,0,0:0:0:0:
255,190,60585,1,0,0:0:0:0:
255,190,60885,1,0,0:0:0:0:
255,190,61035,1,8,0:0:0:0:
255,190,61185,1,0,0:0:0:0:
255,190,61485,1,0,0:0:0:0:
255,190,61785,1,0,0:0:0:0:
255,190,61935,1,8,0:0:0:0:
255,190,62085,1,12,0:0:0:0:
255,190,62385,1,8,0:0:0:0:
255,190,62535,1,0,0:0:0:0:
255,190,62685,1,8,0:0:0:0:
255,190,62835,1,0,0:0:0:0:
255,190,62985,1,8,0:0:0:0:
255,190,63135,1,0,0:0:0:0:
255,190,63285,1,8,0:0:0:0:
255,190,63360,1,8,0:0:0:0:
255,190,63435,1,8,0:0:0:0:
255,190,63585,1,8,0:0:0:0:
255,190,63735,1,0,0:0:0:0:
255,190,63885,1,0,0:0:0:0:
255,190,64035,1,0,0:0:0:0:
255,190,64185,1,8,0:0:0:0:
255,190,64335,1,8,0:0:0:0:
255,190,64485,1,0,0:0:0:0:
255,190,64635,1,8,0:0:0:0:
255,190,64785,1,8,0:0:0:0:
255,190,64935,1,0,0:0:0:0:
255,190,65085,1,8,0:0:0:0:
255,190,65235,1,0,0:0:0:0:
255,190,65385,1,8,0:0:0:0:
255,190,65535,1,0,0:0:0:0:
255,190,65685,1,8,0:0:0:0:
255,190,65760,1,8,0:0:0:0:
255,190,65835,1,8,0:0:0:0:
255,190,65985,1,8,0:0:0:0:
255,190,66135,1,0,0:0:0:0:
255,190,66210,1,0,0:0:0:0:
255,190,66285,1,0,0:0:0:0:
255,190,66435,1,0,0:0:0:0:
255,190,66585,1,8,0:0:0:0:
255,190,66735,1,8,0:0:0:0:
255,190,66885,1,4,0:0:0:0:
255,190,67185,1,8,0:0:0:0:
255,190,67335,1,0,0:0:0:0:
255,190,67485,1,8,0:0:0:0:
255,190,67635,1,0,0:0:0:0:
255,190,67785,1,8,0:0:0:0:
255,190,67935,1,0,0:0:0:0:
255,190,68085,1,8,0:0:0:0:
255,190,68160,1,8,0:0:0:0:
255,190,68235,1,8,0:0:0:0:
255,190,68385,1,8,0:0:0:0:
255,190,68535,1,0,0:0:0:0:
255,190,68685,1,0,0:0:0:0:
255,190,68835,1,0,0:0:0:0:
255,190,68985,1,8,0:0:0:0:
255,190,69135,1,8,0:0:0:0:
255,190,69285,1,0,0:0:0:0:
255,190,69435,1,8,0:0:0:0:
255,190,69510,1,8,0:0:0:0:
255,190,69585,1,8,0:0:0:0:
255,190,69735,1,0,0:0:0:0:
255,190,69885,1,8,0:0:0:0:
255,190,70035,1,0,0:0:0:0:
255,190,70185,1,8,0:0:0:0:
255,190,70335,1,0,0:0:0:0:
255,190,70485,1,8,0:0:0:0:
255,190,70560,1,8,0:0:0:0:
255,190,70635,1,0,0:0:0:0:
255,190,70685,1,0,0:0:0:0:
255,190,70735,1,0,0:0:0:0:
255,190,70785,1,8,0:0:0:0:
255,190,71010,1,8,0:0:0:0:
255,190,71235,1,8,0:0:0:0:
255,190,71460,1,8,0:0:0:0:
255,190,71535,1,0,0:0:0:0:
255,190,71685,1,12,0:0:0:0:
255,190,71985,1,12,0:0:0:0:
255,190,72135,1,0,0:0:0:0:
255,190,72285,1,8,0:0:0:0:
255,190,72435,1,0,0:0:0:0:
255,190,72585,1,8,0:0:0:0:
255,190,72735,1,0,0:0:0:0:
255,190,72885,1,8,0:0:0:0:
255,190,72960,1,8,0:0:0:0:
255,190,73035,1,8,0:0:0:0:
255,190,73185,1,0,0:0:0:0:
255,190,73335,1,8,0:0:0:0:
255,190,73485,1,0,0:0:0:0:
255,190,73635,1,0,0:0:0:0:
255,190,73785,1,8,0:0:0:0:
255,190,73860,1,8,0:0:0:0:
255,190,73935,1,0,0:0:0:0:
255,190,74010,1,0,0:0:0:0:
255,190,74085,1,8,0:0:0:0:
255,190,74235,1,0,0:0:0:0:
255,190,74310,1,0,0:0:0:0:
255,190,74385,1,8,0:0:0:0:
255,190,74535,1,0,0:0:0:0:
255,190,74685,1,8,0:0:0:0:
255,190,74835,1,0,0:0:0:0:
255,190,74985,1,8,0:0:0:0:
255,190,75135,1,0,0:0:0:0:
255,190,75285,1,8,0:0:0:0:
255,190,75360,1,8,0:0:0:0:
255,190,75435,1,8,0:0:0:0:
255,190,75585,1,8,0:0:0:0:
255,190,75735,1,0,0:0:0:0:
255,190,75885,1,8,0:0:0:0:
255,190,76035,1,0,0:0:0:0:
255,190,76085,1,0,0:0:0:0:
255,190,76135,1,0,0:0:0:0:
255,190,76185,1,8,0:0:0:0:
255,190,76335,1,8,0:0:0:0:
255,190,76485,1,4,0:0:0:0:
255,190,76785,1,8,0:0:0:0:
255,190,76935,1,8,0:0:0:0:
255,190,77085,1,0,0:0:0:0:
255,190,77235,1,0,0:0:0:0:
255,190,77385,1,8,0:0:0:0:
255,190,77535,1,8,0:0:0:0:
255,190,77685,1,0,0:0:0:0:
255,190,77760,1,8,0:0:0:0:
255,190,77835,1,8,0:0:0:0:
255,190,77985,1,0,0:0:0:0:
255,190,78135,1,0,0:0:0:0:
255,190,78285,1,8,0:0:0:0:
255,190,78435,1,0,0:0:0:0:
255,190,78585,1,8,0:0:0:0:
255,190,78660,1,0,0:0:0:0:
255,190,78735,1,8,0:0:0:0:
255,190,78810,1,0,0:0:0:0:
255,190,78885,1,8,0:0:0:0:
255,190,79035,1,0,0:0:0:0:
255,190,79185,1,8,0:0:0:0:
255,190,79335,1,0,0:0:0:0:
255,190,79485,1,0,0:0:0:0:
255,190,79635,1,0,0:0:0:0:
255,190,79785,1,8,0:0:0:0:
255,190,79935,1,0,0:0:0:0:
255,190,80085,1,8,0:0:0:0:
255,190,80160,1,8,0:0:0:0:
255,190,80235,1,0,0:0:0:0:
255,190,80385,1,8,0:0:0:0:
255,190,80535,1,0,0:0:0:0:
255,190,80685,1,8,0:0:0:0:
255,190,80760,1,8,0:0:0:0:
255,190,80835,1,0,0:0:0:0:
255,190,80910,1,0,0:0:0:0:
255,190,80985,1,8,0:0:0:0:
255,190,81060,1,0,0:0:0:0:
255,190,81135,1,8,0:0:0:0:
255,190,81210,1,8,0:0:0:0:
255,190,81585,1,12,0:0:0:0:
255,190,81735,1,0,0:0:0:0:
255,190,81885,1,0,0:0:0:0:
255,190,82035,1,8,0:0:0:0:
255,190,82185,1,8,0:0:0:0:
255,190,82335,1,0,0:0:0:0:
255,190,82485,1,8,0:0:0:0:
255,190,82560,1,0,0:0:0:0:
255,190,82635,1,8,0:0:0:0:
255,190,82785,1,0,0:0:0:0:
255,190,82935,1,0,0:0:0:0:
255,190,83085,1,8,0:0:0:0:
255,190,83235,1,0,0:0:0:0:
255,190,83385,1,8,0:0:0:0:
255,190,83460,1,0,0:0:0:0:
255,190,83535,1,8,0:0:0:0:
255,190,83610,1,8,0:0:0:0:
255,190,83685,1,0,0:0:0:0:
255,190,83760,1,0,0:0:0:0:
255,190,83835,1,8,0:0:0:0:
255,190,83985,1,0,0:0:0:0:
255,190,84135,1,0,0:0:0:0:
255,190,84285,1,8,0:0:0:0:
255,190,84435,1,0,0:0:0:0:
255,190,84585,1,8,0:0:0:0:
255,190,84735,1,0,0:0:0:0:
255,190,84885,1,8,0:0:0:0:
255,190,84960,1,0,0:0:0:0:
255,190,85035,1,8,0:0:0:0:
255,190,85185,1,8,0:0:0:0:
255,190,85335,1,0,0:0:0:0:
255,190,85485,1,8,0:0:0:0:
255,190,85635,1,0,0:0:0:0:
255,190,85685,1,0,0:0:0:0:
255,190,85735,1,0,0:0:0:0:
255,190,85785,1,8,0:0:0:0:
255,190,85935,1,8,0:0:0:0:
255,190,86085,1,4,0:0:0:0:
255,190,86385,1,8,0:0:0:0:
255,190,86535,1,8,0:0:0:0:
255,190,86685,1,0,0:0:0:0:
255,190,86835,1,0,0:0:0:0:
255,190,86985,1,8,0:0:0:0:
255,190,87135,1,0,0:0:0:0:
255,190,87285,1,8,0:0:0:0:
255,190,87360,1,8,0:0:0:0:
255,190,87435,1,0,0:0:0:0:
255,190,87585,1,8,0:0:0:0:
255,190,87735,1,0,0:0:0:0:
255,190,87885,1,8,0:0:0:0:
255,190,88035,1,0,0:0:0:0:
255,190,88185,1,8,0:0:0:0:
255,190,88260,1,8,0:0:0:0:
255,190,88335,1,0,0:0:0:0:
255,190,88410,1,8,0:0:0:0:
255,190,88485,1,0,0:0:0:0:
255,190,88560,1,0,0:0:0:0:
255,190,88635,1,8,0:0:0:0:
255,190,88785,1,0,0:0:0:0:
255,190,88935,1,8,0:0:0:0:
255,190,89085,1,8,0:0:0:0:
255,190,89235,1,0,0:0:0:0:
255,190,89385,1,8,0:0:0:0:
255,190,89535,1,0,0:0:0:0:
255,190,89685,1,8,0:0:0:0:
255,190,89760,1,8,0:0:0:0:
255,190,89835,1,0,0:0:0:0:
255,190,89985,1,8,0:0:0:0:
255,190,90210,1,8,0:0:0:0:
255,190,90435,1,8,0:0:0:0:
255,190,90660,1,8,0:0:0:0:
255,190,90735,1,0,0:0:0:0:
255,190,90885,1,12,0:0:0:0:
255,190,91185,1,4,0:0:0:0:
255,190,100785,5,4,0:0:0:0:
255,190,101085,1,8,0:0:0:0:
255,190,101385,1,8,0:0:0:0:
255,190,101685,1,8,0:0:0:0:
255,190,101985,1,8,0:0:0:0:
255,190,102285,1,8,0:0:0:0:
255,190,102585,1,8,0:0:0:0:
255,190,102810,1,8,0:0:0:0:
255,190,103035,1,8,0:0:0:0:
255,190,103185,1,8,0:0:0:0:
255,190,103485,1,8,0:0:0:0:
255,190,103785,1,8,0:0:0:0:
255,190,104085,1,8,0:0:0:0:
255,190,104160,1,8,0:0:0:0:
255,190,104235,1,8,0:0:0:0:
255,190,104385,1,8,0:0:0:0:
255,190,104610,1,8,0:0:0:0:
255,190,104835,1,8,0:0:0:0:
255,190,104985,1,8,0:0:0:0:
255,190,105135,1,8,0:0:0:0:
255,190,105210,1,8,0:0:0:0:
255,190,105285,1,0,0:0:0:0:
255,190,105585,1,4,0:0:0:0:
255,190,105735,1,8,0:0:0:0:
255,190,105885,1,8,0:0:0:0:
255,190,106035,1,8,0:0:0:0:
255,190,106185,1,8,0:0:0:0:
255,190,106335,1,8,0:0:0:0:
255,190,106485,1,8,0:0:0:0:
255,190,106635,1,8,0:0:0:0:
255,190,106785,1,4,0:0:0:0:
255,190,106935,1,8,0:0:0:0:
255,190,107085,1,8,0:0:0:0:
255,190,107235,1,8,0:0:0:0:
255,190,107385,1,8,0:0:0:0:
255,190,107535,1,8,0:0:0:0:
255,190,107685,1,8,0:0:0:0:
255,190,107760,1,8,0:0:0:0:
255,190,107985,5,0,0:0:0:0:
255,190,108060,1,8,0:0:0:0:
255,190,108135,1,8,0:0:0:0:
255,190,108210,1,8,0:0:0:0:
255,190,108285,1,0,0:0:0:0:
255,190,108360,1,0,0:0:0:0:
255,190,108435,1,8,0:0:0:0:
255,190,108510,1,8,0:0:0:0:
255,190,108585,1,0,0:0:0:0:
255,190,108660,1,8,0:0:0:0:
255,190,108735,1,8,0:0:0:0:
255,190,108810,1,0,0:0:0:0:
255,190,108885,1,8,0:0:0:0:
255,190,108960,1,8,0:0:0:0:
255,190,109035,1,0,0:0:0:0:
255,190,109085,1,0,0:0:0:0:
255,190,109135,1,0,0:0:0:0:
255,190,109185,1,8,0:0:0:0:
255,190,110385,2,0,B|292:121|292:121|369:255,1,210
255,190,110985,5,12,0:0:0:0:
255,190,111135,1,0,0:0:0:0:
255,190,111435,1,0,0:0:0:0:
255,190,111585,1,8,0:0:0:0:
255,190,111735,1,0,0:0:0:0:
255,190,111810,1,0,0:0:0:0:
255,190,111885,1,8,0:0:0:0:
255,190,111960,1,0,0:0:0:0:
255,190,112035,1,8,0:0:0:0:
255,190,112110,1,8,0:0:0:0:
255,190,112185,1,0,0:0:0:0:
255,190,112260,5,0,0:0:0:0:
255,190,112335,1,8,0:0:0:0:
255,190,112410,1,0,0:0:0:0:
255,190,112485,1,8,0:0:0:0:
255,190,112560,1,0,0:0:0:0:
255,190,112635,1,8,0:0:0:0:
255,190,112710,1,8,0:0:0:0:
255,190,112785,1,0,0:0:0:0:
255,190,112935,1,8,0:0:0:0:
255,190,113085,1,0,0:0:0:0:
255,190,113135,1,0,0:0:0:0:
255,190,113185,1,8,0:0:0:0:
255,190,113235,1,8,0:0:0:0:
255,190,113310,1,0,0:0:0:0:
255,190,113385,1,12,0:0:0:0:
255,190,113535,1,0,0:0:0:0:
255,190,113685,1,8,0:0:0:0:
255,190,113835,1,0,0:0:0:0:
255,190,113910,1,0,0:0:0:0:
255,190,113985,1,8,0:0:0:0:
255,190,114135,1,8,0:0:0:0:
255,190,114210,1,8,0:0:0:0:
255,190,114285,1,0,0:0:0:0:
255,190,114335,1,0,0:0:0:0:
255,190,114385,1,0,0:0:0:0:
255,190,114435,1,0,0:0:0:0:
255,190,114585,1,8,0:0:0:0:
255,190,114885,1,0,0:0:0:0:
255,190,115035,1,8,0:0:0:0:
255,190,115185,1,0,0:0:0:0:
255,190,115335,1,8,0:0:0:0:
255,190,115372,1,8,0:0:0:0:
255,190,115485,1,8,0:0:0:0:
255,190,115522,1,8,0:0:0:0:
255,190,115635,1,8,0:0:0:0:
255,190,115672,1,8,0:0:0:0:
255,190,115785,1,4,0:0:0:0:
255,190,116085,1,0,0:0:0:0:
255,190,116160,1,0,0:0:0:0:
255,190,116235,1,8,0:0:0:0:
255,190,116385,1,0,0:0:0:0:
255,190,116535,1,8,0:0:0:0:
255,190,116610,1,8,0:0:0:0:
255,190,116685,1,0,0:0:0:0:
255,190,116760,1,8,0:0:0:0:
255,190,116835,1,0,0:0:0:0:
255,190,116910,1,0,0:0:0:0:
255,190,116985,1,8,0:0:0:0:
255,190,117060,1,0,0:0:0:0:
255,190,117135,1,8,0:0:0:0:
255,190,117210,1,8,0:0:0:0:
255,190,117285,1,0,0:0:0:0:
255,190,117360,1,0,0:0:0:0:
255,190,117435,1,8,0:0:0:0:
255,190,117510,1,8,0:0:0:0:
255,190,117585,1,0,0:0:0:0:
255,190,117735,1,8,0:0:0:0:
255,190,117772,1,8,0:0:0:0:
255,190,117885,1,0,0:0:0:0:
255,190,117922,1,0,0:0:0:0:
255,190,118035,1,8,0:0:0:0:
255,190,118072,1,8,0:0:0:0:
255,190,118185,1,4,0:0:0:0:
255,190,118335,1,0,0:0:0:0:
255,190,118485,1,8,0:0:0:0:
255,190,118535,1,8,0:0:0:0:
255,190,118585,1,8,0:0:0:0:
255,190,118635,1,0,0:0:0:0:
255,190,118785,1,8,0:0:0:0:
255,190,119010,1,8,0:0:0:0:
255,190,119235,1,8,0:0:0:0:
255,190,119385,1,0,0:0:0:0:
255,190,119835,1,8,0:0:0:0:
255,190,119885,1,8,0:0:0:0:
255,190,119935,1,8,0:0:0:0:
255,190,119985,1,0,0:0:0:0:
255,190,120135,1,8,0:0:0:0:
255,190,120172,1,8,0:0:0:0:
255,190,120285,1,8,0:0:0:0:
255,190,120322,1,8,0:0:0:0:
255,190,120435,1,8,0:0:0:0:
255,190,120472,1,8,0:0:0:0:
255,190,120585,1,4,0:0:0:0:
255,190,120735,1,8,0:0:0:0:
255,190,120810,1,8,0:0:0:0:
255,190,120885,1,0,0:0:0:0:
255,190,121035,1,8,0:0:0:0:
255,190,121185,1,0,0:0:0:0:
255,190,121335,1,8,0:0:0:0:
255,190,121410,1,8,0:0:0:0:
255,190,121485,1,0,0:0:0:0:
255,190,121560,1,0,0:0:0:0:
255,190,121635,1,8,0:0:0:0:
255,190,121710,1,0,0:0:0:0:
255,190,121785,1,8,0:0:0:0:
255,190,121860,1,8,0:0:0:0:
255,190,121935,1,0,0:0:0:0:
255,190,122010,1,0,0:0:0:0:
255,190,122085,1,8,0:0:0:0:
255,190,122160,1,8,0:0:0:0:
255,190,122235,1,0,0:0:0:0:
255,190,122310,1,8,0:0:0:0:
255,190,122385,1,0,0:0:0:0:
255,190,122535,1,8,0:0:0:0:
255,190,122572,1,8,0:0:0:0:
255,190,122685,1,0,0:0:0:0:
255,190,122722,1,0,0:0:0:0:
255,190,122835,1,8,0:0:0:0:
255,190,122872,1,8,0:0:0:0:
255,190,122985,1,4,0:0:0:0:
255,190,123135,1,8,0:0:0:0:
255,190,123285,1,0,0:0:0:0:
255,190,123335,1,0,0:0:0:0:
255,190,123385,1,0,0:0:0:0:
255,190,123435,1,8,0:0:0:0:
255,190,123585,1,0,0:0:0:0:
255,190,123735,1,8,0:0:0:0:
255,190,123810,1,8,0:0:0:0:
255,190,123885,1,0,0:0:0:0:
255,190,123935,1,0,0:0:0:0:
255,190,123985,1,0,0:0:0:0:
255,190,124035,1,0,0:0:0:0:
255,190,124185,1,8,0:0:0:0:
255,190,124485,1,0,0:0:0:0:
255,190,124635,1,8,0:0:0:0:
255,190,124785,1,0,0:0:0:0:
255,190,124935,1,8,0:0:0:0:
255,190,124972,1,8,0:0:0:0:
255,190,125085,1,8,0:0:0:0:
255,190,125122,1,8,0:0:0:0:
255,190,125235,1,8,0:0:0:0:
255,190,125272,1,8,0:0:0:0:
255,190,125385,1,4,0:0:0:0:
255,190,125535,1,0,0:0:0:0:
255,190,125610,1,8,0:0:0:0:
255,190,125685,1,8,0:0:0:0:
255,190,125835,1,8,0:0:0:0:
255,190,125985,1,0,0:0:0:0:
255,190,126135,1,8,0:0:0:0:
255,190,126210,1,8,0:0:0:0:
255,190,126285,1,0,0:0:0:0:
255,190,126360,1,8,0:0:0:0:
255,190,126435,1,0,0:0:0:0:
255,190,126510,1,0,0:0:0:0:
255,190,126585,1,8,0:0:0:0:
255,190,126660,1,8,0:0:0:0:
255,190,126735,1,0,0:0:0:0:
255,190,126810,1,0,0:0:0:0:
255,190,126885,1,8,0:0:0:0:
255,190,126960,1,0,0:0:0:0:
255,190,127035,1,8,0:0:0:0:
255,190,127110,1,8,0:0:0:0:
255,190,127185,1,0,0:0:0:0:
255,190,127335,1,8,0:0:0:0:
255,190,127372,1,8,0:0:0:0:
255,190,127485,1,0,0:0:0:0:
255,190,127522,1,0,0:0:0:0:
255,190,127635,1,8,0:0:0:0:
255,190,127672,1,8,0:0:0:0:
255,190,127785,1,4,0:0:0:0:
255,190,127935,1,0,0:0:0:0:
255,190,128085,1,8,0:0:0:0:
255,190,128235,1,0,0:0:0:0:
255,190,128385,1,8,0:0:0:0:
255,190,128460,1,0,0:0:0:0:
255,190,128610,1,8,0:0:0:0:
255,190,128685,1,0,0:0:0:0:
255,190,128760,1,0,0:0:0:0:
255,190,128835,1,8,0:0:0:0:
255,190,128910,1,0,0:0:0:0:
255,190,128985,1,8,0:0:0:0:
255,190,129060,1,0,0:0:0:0:
255,190,129135,1,0,0:0:0:0:
255,190,129285,1,8,0:0:0:0:
255,190,129435,1,0,0:0:0:0:
255,190,129485,1,0,0:0:0:0:
255,190,129535,1,0,0:0:0:0:
255,190,129585,1,8,0:0:0:0:
255,190,129735,1,0,0:0:0:0:
255,190,129772,1,0,0:0:0:0:
255,190,129885,1,0,0:0:0:0:
255,190,129922,1,0,0:0:0:0:
255,190,130035,1,0,0:0:0:0:
255,190,130072,1,0,0:0:0:0:
255,190,130185,1,8,0:0:0:0:
255,190,130222,1,8,0:0:0:0:
255,190,130335,1,0,0:0:0:0:
255,190,130485,1,8,0:0:0:0:
255,190,130560,1,0,0:0:0:0:
255,190,130635,1,8,0:0:0:0:
255,190,130710,1,0,0:0:0:0:
255,190,130785,1,8,0:0:0:0:
255,190,130935,1,0,0:0:0:0:
255,190,131085,1,8,0:0:0:0:
255,190,131235,1,0,0:0:0:0:
255,190,131385,1,8,0:0:0:0:
255,190,131460,1,0,0:0:0:0:
255,190,131535,1,8,0:0:0:0:
255,190,131610,1,8,0:0:0:0:
255,190,131685,1,0,0:0:0:0:
255,190,131760,1,8,0:0:0:0:
255,190,131835,1,0,0:0:0:0:
255,190,131910,1,0,0:0:0:0:
255,190,131985,1,8,0:0:0:0:
255,190,132135,1,0,0:0:0:0:
255,190,132285,1,8,0:0:0:0:
255,190,132322,1,8,0:0:0:0:
255,190,132435,1,0,0:0:0:0:
255,190,132472,1,0,0:0:0:0:
255,190,132585,1,8,0:0:0:0:
255,190,132622,1,8,0:0:0:0:
255,190,132735,1,0,0:0:0:0:
255,190,132885,1,8,0:0:0:0:
255,190,132960,1,0,0:0:0:0:
255,190,133035,1,8,0:0:0:0:
255,190,133185,1,8,0:0:0:0:
255,190,133335,1,0,0:0:0:0:
255,190,133410,1,0,0:0:0:0:
255,190,133485,1,0,0:0:0:0:
255,190,133635,1,0,0:0:0:0:
255,190,133785,1,12,0:0:0:0:
255,190,134085,1,0,0:0:0:0:
255,190,134385,1,0,0:0:0:0:
255,190,134535,1,8,0:0:0:0:
255,190,134572,1,8,0:0:0:0:
255,190,134685,1,0,0:0:0:0:
255,190,134722,1,0,0:0:0:0:
255,190,134835,1,8,0:0:0:0:
255,190,134872,1,8,0:0:0:0:
255,190,134985,1,0,0:0:0:0:
255,190,135022,1,0,0:0:0:0:
255,190,135135,1,8,0:0:0:0:
255,190,135285,1,0,0:0:0:0:
255,190,135435,1,8,0:0:0:0:
255,190,135510,1,8,0:0:0:0:
255,190,135585,1,8,0:0:0:0:
255,190,135735,1,0,0:0:0:0:
255,190,135810,1,8,0:0:0:0:
255,190,135885,1,0,0:0:0:0:
255,190,135960,1,8,0:0:0:0:
255,190,136035,1,0,0:0:0:0:
255,190,136110,1,8,0:0:0:0:
255,190,136185,1,0,0:0:0:0:
255,190,136260,1,0,0:0:0:0:
255,190,136335,1,8,0:0:0:0:
255,190,136410,1,0,0:0:0:0:
255,190,136485,1,8,0:0:0:0:
255,190,136560,1,8,0:0:0:0:
255,190,136635,1,0,0:0:0:0:
255,190,136710,1,8,0:0:0:0:
255,190,136785,1,0,0:0:0:0:
255,190,136935,1,8,0:0:0:0:
255,190,137085,1,0,0:0:0:0:
255,190,137122,1,0,0:0:0:0:
255,190,137235,1,0,0:0:0:0:
255,190,137272,1,0,0:0:0:0:
255,190,137385,1,8,0:0:0:0:
255,190,137422,1,8,0:0:0:0:
255,190,137535,1,0,0:0:0:0:
255,190,137685,1,8,0:0:0:0:
255,190,137760,1,8,0:0:0:0:
255,190,137835,1,0,0:0:0:0:
255,190,137885,1,0,0:0:0:0:
255,190,137935,1,0,0:0:0:0:
255,190,137985,1,0,0:0:0:0:
255,190,138210,1,0,0:0:0:0:
255,190,138435,1,0,0:0:0:0:
255,190,138585,1,12,0:0:0:0:
255,190,138885,1,0,0:0:0:0:
255,190,139185,1,8,0:0:0:0:
255,190,139335,1,0,0:0:0:0:
255,190,139372,1,0,0:0:0:0:
255,190,139485,1,8,0:0:0:0:
255,190,139522,1,8,0:0:0:0:
255,190,139635,1,0,0:0:0:0:
255,190,139672,1,0,0:0:0:0:
255,190,139785,1,8,0:0:0:0:
255,190,139822,1,8,0:0:0:0:
255,190,139935,1,0,0:0:0:0:
255,190,140085,1,8,0:0:0:0:
255,190,140160,1,0,0:0:0:0:
255,190,140235,1,8,0:0:0:0:
255,190,140310,1,8,0:0:0:0:
255,190,140385,1,0,0:0:0:0:
255,190,140535,1,0,0:0:0:0:
255,190,140685,1,8,0:0:0:0:
255,190,140835,1,0,0:0:0:0:
255,190,140985,1,8,0:0:0:0:
255,190,141060,1,0,0:0:0:0:
255,190,141135,1,8,0:0:0:0:
255,190,141210,1,0,0:0:0:0:
255,190,141285,1,0,0:0:0:0:
255,190,141360,1,8,0:0:0:0:
255,190,141435,1,8,0:0:0:0:
255,190,141510,1,0,0:0:0:0:
255,190,141585,1,8,0:0:0:0:
255,190,141735,1,0,0:0:0:0:
255,190,141885,1,8,0:0:0:0:
255,190,141922,1,8,0:0:0:0:
255,190,142035,1,0,0:0:0:0:
255,190,142072,1,0,0:0:0:0:
255,190,142185,1,8,0:0:0:0:
255,190,142222,1,8,0:0:0:0:
255,190,142335,1,0,0:0:0:0:
255,190,142485,1,0,0:0:0:0:
255,190,142560,1,8,0:0:0:0:
255,190,142635,1,8,0:0:0:0:
255,190,142785,1,8,0:0:0:0:
255,190,142935,1,0,0:0:0:0:
255,190,143010,1,0,0:0:0:0:
255,190,143085,1,8,0:0:0:0:
255,190,143235,1,0,0:0:0:0:
255,190,143385,1,8,0:0:0:0:
255,190,143535,1,0,0:0:0:0:
255,190,143835,1,8,0:0:0:0:
255,190,143985,1,0,0:0:0:0:
255,190,144135,1,8,0:0:0:0:
255,190,144172,1,8,0:0:0:0:
255,190,144285,1,8,0:0:0:0:
255,190,144322,1,8,0:0:0:0:
255,190,144435,1,0,0:0:0:0:
255,190,144472,1,0,0:0:0:0:
255,190,144585,1,8,0:0:0:0:
255,190,144622,1,8,0:0:0:0:
255,190,144735,1,0,0:0:0:0:
255,190,144885,1,8,0:0:0:0:
255,190,144960,1,0,0:0:0:0:
255,190,145035,1,8,0:0:0:0:
255,190,145110,1,8,0:0:0:0:
255,190,145185,1,0,0:0:0:0:
255,190,145335,1,8,0:0:0:0:
255,190,145410,1,0,0:0:0:0:
255,190,145485,1,8,0:0:0:0:
255,190,145635,1,0,0:0:0:0:
255,190,145785,1,8,0:0:0:0:
255,190,145860,1,0,0:0:0:0:
255,190,145935,1,0,0:0:0:0:
255,190,146085,1,8,0:0:0:0:
255,190,146160,1,0,0:0:0:0:
255,190,146235,1,8,0:0:0:0:
255,190,146285,1,8,0:0:0:0:
255,190,146335,1,8,0:0:0:0:
255,190,146385,1,0,0:0:0:0:
255,190,146460,1,0,0:0:0:0:
255,190,146535,1,8,0:0:0:0:
255,190,146610,1,8,0:0:0:0:
255,190,146685,1,0,0:0:0:0:
255,190,146760,1,8,0:0:0:0:
255,190,146835,1,8,0:0:0:0:
255,190,146910,1,8,0:0:0:0:
255,190,146985,1,0,0:0:0:0:
255,190,147060,1,8,0:0:0:0:
255,190,147135,1,0,0:0:0:0:
255,190,147210,1,0,0:0:0:0:
255,190,147285,1,8,0:0:0:0:
255,190,147360,1,8,0:0:0:0:
255,190,147435,1,0,0:0:0:0:
255,190,147485,1,8,0:0:0:0:
255,190,147535,1,8,0:0:0:0:
255,190,147585,1,0,0:0:0:0:
255,190,147810,1,0,0:0:0:0:
255,190,148035,1,0,0:0:0:0:
255,190,148185,1,8,0:0:0:0:
255,190,148335,1,0,0:0:0:0:
255,190,148635,1,0,0:0:0:0:
255,190,148785,1,12,0:0:0:0:
255,190,148935,1,0,0:0:0:0:
255,190,149085,1,8,0:0:0:0:
255,190,149160,1,0,0:0:0:0:
255,190,149235,1,0,0:0:0:0:
255,190,149310,1,0,0:0:0:0:
255,190,149385,1,8,0:0:0:0:
255,190,149535,1,0,0:0:0:0:
255,190,149685,1,8,0:0:0:0:
255,190,149760,1,0,0:0:0:0:
255,190,149835,1,8,0:0:0:0:
255,190,149985,1,8,0:0:0:0:
255,190,150135,1,0,0:0:0:0:
255,190,150285,1,8,0:0:0:0:
255,190,150360,1,8,0:0:0:0:
255,190,150435,1,0,0:0:0:0:
255,190,150585,1,8,0:0:0:0:
255,190,150660,1,0,0:0:0:0:
255,190,150735,1,8,0:0:0:0:
255,190,150885,1,0,0:0:0:0:
255,190,151035,1,8,0:0:0:0:
255,190,151185,1,8,0:0:0:0:
255,190,151260,1,8,0:0:0:0:
255,190,151335,1,0,0:0:0:0:
255,190,151485,1,8,0:0:0:0:
255,190,151560,1,0,0:0:0:0:
255,190,151635,1,0,0:0:0:0:
255,190,151785,1,8,0:0:0:0:
255,190,151935,1,0,0:0:0:0:
255,190,152085,1,8,0:0:0:0:
255,190,152160,1,0,0:0:0:0:
255,190,152235,1,8,0:0:0:0:
255,190,152385,1,8,0:0:0:0:
255,190,152535,1,0,0:0:0:0:
255,190,152610,1,0,0:0:0:0:
255,190,152685,1,0,0:0:0:0:
255,190,152835,1,0,0:0:0:0:
255,190,152985,1,8,0:0:0:0:
255,190,153135,1,8,0:0:0:0:
255,190,153285,1,0,0:0:0:0:
255,190,153360,1,0,0:0:0:0:
255,190,153435,1,8,0:0:0:0:
255,190,153585,1,8,0:0:0:0:
255,190,153735,1,0,0:0:0:0:
255,190,153885,1,8,0:0:0:0:
255,190,153960,1,8,0:0:0:0:
255,190,154035,1,0,0:0:0:0:
255,190,154110,1,0,0:0:0:0:
255,190,154185,1,8,0:0:0:0:
255,190,154335,1,0,0:0:0:0:
255,190,154485,1,8,0:0:0:0:
255,190,154560,1,0,0:0:0:0:
255,190,154635,1,8,0:0:0:0:
255,190,154785,1,0,0:0:0:0:
255,190,154935,1,8,0:0:0:0:
255,190,155085,1,8,0:0:0:0:
255,190,155160,1,0,0:0:0:0:
255,190,155235,1,0,0:0:0:0:
255,190,155385,1,8,0:0:0:0:
255,190,155535,1,8,0:0:0:0:
255,190,155610,1,8,0:0:0:0:
255,190,155685,1,0,0:0:0:0:
255,190,155835,1,8,0:0:0:0:
255,190,155985,1,8,0:0:0:0:
255,190,156060,1,0,0:0:0:0:
255,190,156135,1,0,0:0:0:0:
255,190,156285,1,8,0:0:0:0:
255,190,156360,1,8,0:0:0:0:
255,190,156435,1,0,0:0:0:0:
255,190,156585,1,8,0:0:0:0:
255,190,156735,1,0,0:0:0:0:
255,190,156885,1,8,0:0:0:0:
255,190,156960,1,0,0:0:0:0:
255,190,157035,1,8,0:0:0:0:
255,190,157185,1,0,0:0:0:0:
255,190,157335,1,8,0:0:0:0:
255,190,157410,1,0,0:0:0:0:
255,190,157485,1,8,0:0:0:0:
255,190,157560,1,0,0:0:0:0:
255,190,157635,1,8,0:0:0:0:
255,190,157710,1,8,0:0:0:0:
255,190,157785,1,0,0:0:0:0:
255,190,157860,1,8,0:0:0:0:
255,190,157935,1,0,0:0:0:0:
255,190,158010,1,0,0:0:0:0:
255,190,158085,1,8,0:0:0:0:
255,190,158160,1,8,0:0:0:0:
255,190,158385,1,12,0:0:0:0:
255,190,158535,1,0,0:0:0:0:
255,190,158685,1,8,0:0:0:0:
255,190,158760,1,0,0:0:0:0:
255,190,158835,1,0,0:0:0:0:
255,190,158910,1,0,0:0:0:0:
255,190,158985,1,8,0:0:0:0:
255,190,159135,1,0,0:0:0:0:
255,190,159285,1,8,0:0:0:0:
255,190,159360,1,0,0:0:0:0:
255,190,159435,1,8,0:0:0:0:
255,190,159585,1,8,0:0:0:0:
255,190,159735,1,0,0:0:0:0:
255,190,159885,1,8,0:0:0:0:
255,190,159960,1,8,0:0:0:0:
255,190,160035,1,0,0:0:0:0:
255,190,160185,1,8,0:0:0:0:
255,190,160260,1,0,0:0:0:0:
255,190,160335,1,8,0:0:0:0:
255,190,160485,1,0,0:0:0:0:
255,190,160635,1,8,0:0:0:0:
255,190,160785,1,8,0:0:0:0:
255,190,160860,1,8,0:0:0:0:
255,190,160935,1,0,0:0:0:0:
255,190,161085,1,8,0:0:0:0:
255,190,161160,1,0,0:0:0:0:
255,190,161235,1,0,0:0:0:0:
255,190,161385,1,8,0:0:0:0:
255,190,161535,1,0,0:0:0:0:
255,190,161685,1,8,0:0:0:0:
255,190,161760,1,0,0:0:0:0:
255,190,161835,1,8,0:0:0:0:
255,190,161985,1,0,0:0:0:0:
255,190,162135,1,8,0:0:0:0:
255,190,162210,1,8,0:0:0:0:
255,190,162285,1,8,0:0:0:0:
255,190,162435,1,0,0:0:0:0:
255,190,162585,1,0,0:0:0:0:
255,190,162735,1,8,0:0:0:0:
255,190,162885,1,0,0:0:0:0:
255,190,162960,1,0,0:0:0:0:
255,190,163035,1,8,0:0:0:0:
255,190,163185,1,8,0:0:0:0:
255,190,163335,1,0,0:0:0:0:
255,190,163485,1,8,0:0:0:0:
255,190,163560,1,8,0:0:0:0:
255,190,163635,1,0,0:0:0:0:
255,190,163710,1,0,0:0:0:0:
255,190,163785,1,8,0:0:0:0:
255,190,163935,1,0,0:0:0:0:
255,190,164085,1,8,0:0:0:0:
255,190,164160,1,0,0:0:0:0:
255,190,164235,1,8,0:0:0:0:
255,190,164385,1,0,0:0:0:0:
255,190,164535,1,8,0:0:0:0:
255,190,164685,1,8,0:0:0:0:
255,190,164760,1,0,0:0:0:0:
255,190,164835,1,0,0:0:0:0:
255,190,164985,1,8,0:0:0:0:
255,190,165135,1,8,0:0:0:0:
255,190,165210,1,8,0:0:0:0:
255,190,165285,1,0,0:0:0:0:
255,190,165435,1,8,0:0:0:0:
255,190,165585,1,8,0:0:0:0:
255,190,165660,1,0,0:0:0:0:
255,190,165735,1,0,0:0:0:0:
255,190,165885,1,8,0:0:0:0:
255,190,165960,1,8,0:0:0:0:
255,190,166035,1,0,0:0:0:0:
255,190,166185,1,8,0:0:0:0:
255,190,166260,1,0,0:0:0:0:
255,190,166335,1,8,0:0:0:0:
255,190,166385,1,8,0:0:0:0:
255,190,166435,1,8,0:0:0:0:
255,190,166485,1,0,0:0:0:0:
255,190,166560,1,8,0:0:0:0:
255,190,166635,1,0,0:0:0:0:
255,190,166710,1,8,0:0:0:0:
255,190,166785,1,0,0:0:0:0:
255,190,167010,1,0,0:0:0:0:
255,190,167235,1,0,0:0:0:0:
255,190,167385,1,8,0:0:0:0:
255,190,167535,1,0,0:0:0:0:
255,190,167685,1,12,0:0:0:0:
255,190,167985,1,4,0:0:0:0:
255,190,168285,1,0,0:0:0:0:
255,190,168510,1,0,0:0:0:0:
255,190,168735,1,0,0:0:0:0:
255,190,168960,1,0,0:0:0:0:
255,190,169110,1,0,0:0:0:0:
255,190,169185,1,12,0:0:0:0:
255,190,169485,1,0,0:0:0:0:
255,190,169710,1,0,0:0:0:0:
255,190,169935,1,0,0:0:0:0:
255,190,170085,1,8,0:0:0:0:
255,190,170385,1,4,0:0:0:0:
255,190,170685,1,0,0:0:0:0:
255,190,170910,1,0,0:0:0:0:
255,190,171135,1,0,0:0:0:0:
255,190,171360,1,0,0:0:0:0:
255,190,171510,1,0,0:0:0:0:
255,190,171585,1,12,0:0:0:0:
255,190,171885,1,0,0:0:0:0:
255,190,172110,1,0,0:0:0:0:
255,190,172335,1,0,0:0:0:0:
255,190,172485,1,12,0:0:0:0:
255,190,172785,1,0,0:0:0:0:
255,190,172935,1,8,0:0:0:0:
255,190,173010,1,8,0:0:0:0:
255,190,173085,1,0,0:0:0:0:
255,190,173310,1,0,0:0:0:0:
255,190,173535,1,0,0:0:0:0:
255,190,173760,1,0,0:0:0:0:
255,190,173910,1,0,0:0:0:0:
255,190,173985,1,12,0:0:0:0:
255,190,174285,1,0,0:0:0:0:
255,190,174510,1,0,0:0:0:0:
255,190,174735,1,0,0:0:0:0:
255,190,174885,1,8,0:0:0:0:
255,190,174960,1,8,0:0:0:0:
255,190,175035,1,8,0:0:0:0:
255,190,175110,1,8,0:0:0:0:
255,190,175185,1,4,0:0:0:0:
255,190,175485,1,0,0:0:0:0:
255,190,175710,1,0,0:0:0:0:
255,190,175935,1,0,0:0:0:0:
255,190,176160,1,0,0:0:0:0:
255,190,176310,1,0,0:0:0:0:
255,190,176385,1,12,0:0:0:0:
255,190,176685,1,0,0:0:0:0:
255,190,176910,1,0,0:0:0:0:
255,190,177135,1,0,0:0:0:0:
255,190,177285,1,12,0:0:0:0:
255,190,177585,1,8,0:0:0:0:
255,190,177885,1,0,0:0:0:0:
255,190,178110,1,0,0:0:0:0:
255,190,178185,1,8,0:0:0:0:
255,190,178335,1,0,0:0:0:0:
255,190,178485,1,8,0:0:0:0:
255,190,178560,1,0,0:0:0:0:
255,190,178710,1,0,0:0:0:0:
255,190,178785,1,0,0:0:0:0:
255,190,178935,1,8,0:0:0:0:
255,190,179085,1,0,0:0:0:0:
255,190,179235,1,8,0:0:0:0:
255,190,179310,1,0,0:0:0:0:
255,190,179385,1,8,0:0:0:0:
255,190,179535,1,0,0:0:0:0:
255,190,179985,1,0,0:0:0:0:
255,190,180135,1,8,0:0:0:0:
255,190,180285,1,0,0:0:0:0:
255,190,180435,1,8,0:0:0:0:
255,190,180510,1,0,0:0:0:0:
255,190,180585,1,8,0:0:0:0:
255,190,180735,1,0,0:0:0:0:
255,190,180885,1,8,0:0:0:0:
255,190,180960,1,0,0:0:0:0:
255,190,181110,1,0,0:0:0:0:
255,190,181185,1,0,0:0:0:0:
255,190,181335,1,8,0:0:0:0:
255,190,181410,1,8,0:0:0:0:
255,190,181485,1,0,0:0:0:0:
255,190,181635,1,8,0:0:0:0:
255,190,181710,1,0,0:0:0:0:
255,190,181785,1,8,0:0:0:0:
255,190,181935,1,0,0:0:0:0:
255,190,182085,1,12,0:0:0:0:
255,190,182385,1,8,0:0:0:0:
255,190,182460,1,8,0:0:0:0:
255,190,182535,1,8,0:0:0:0:
255,190,182610,1,8,0:0:0:0:
255,190,182685,1,4,0:0:0:0:
255,190,182910,1,0,0:0:0:0:
255,190,182985,1,8,0:0:0:0:
255,190,183135,1,0,0:0:0:0:
255,190,183285,1,8,0:0:0:0:
255,190,183360,1,0,0:0:0:0:
255,190,183510,1,0,0:0:0:0:
255,190,183585,1,0,0:0:0:0:
255,190,183735,1,8,0:0:0:0:
255,190,183885,1,0,0:0:0:0:
255,190,184035,1,8,0:0:0:0:
255,190,184110,1,0,0:0:0:0:
255,190,184185,1,8,0:0:0:0:
255,190,184335,1,0,0:0:0:0:
255,190,184785,1,0,0:0:0:0:
255,190,184935,1,8,0:0:0:0:
255,190,185085,1,0,0:0:0:0:
255,190,185235,1,8,0:0:0:0:
255,190,185310,1,0,0:0:0:0:
255,190,185385,1,8,0:0:0:0:
255,190,185535,1,0,0:0:0:0:
255,190,185685,1,8,0:0:0:0:
255,190,185760,1,0,0:0:0:0:
255,190,185910,1,0,0:0:0:0:
255,190,185985,1,0,0:0:0:0:
255,190,186285,1,0,0:0:0:0:
255,190,186510,1,8,0:0:0:0:
255,190,186547,1,8,0:0:0:0:
255,190,186585,1,0,0:0:0:0:
255,190,186660,1,0,0:0:0:0:
255,190,186735,1,0,0:0:0:0:
255,190,186810,1,0,0:0:0:0:
255,190,187185,1,4,0:0:0:0:
255,190,187485,1,0,0:0:0:0:
255,190,187785,1,0,0:0:0:0:
255,190,188085,1,0,0:0:0:0:
255,190,188385,1,8,0:0:0:0:
255,190,188685,1,8,0:0:0:0:
255,190,188985,1,8,0:0:0:0:
255,190,189210,1,8,0:0:0:0:
255,190,189435,1,8,0:0:0:0:
255,190,189585,1,0,0:0:0:0:
255,190,189885,1,0,0:0:0:0:
255,190,190185,1,0,0:0:0:0:
255,190,190485,1,0,0:0:0:0:
255,190,190785,1,8,0:0:0:0:
255,190,191085,1,8,0:0:0:0:
255,190,191385,1,8,0:0:0:0:
255,190,191535,1,8,0:0:0:0:
255,190,191685,1,8,0:0:0:0:
255,190,191985,1,0,0:0:0:0:
255,190,192210,1,8,0:0:0:0:
255,190,192435,1,8,0:0:0:0:
255,190,192585,1,0,0:0:0:0:
255,190,192810,1,8,0:0:0:0:
255,190,193035,1,8,0:0:0:0:
255,190,193185,1,0,0:0:0:0:
255,190,193410,1,8,0:0:0:0:
255,190,193635,1,8,0:0:0:0:
255,190,193785,1,0,0:0:0:0:
255,190,194010,1,8,0:0:0:0:
255,190,194235,1,8,0:0:0:0:
255,190,194385,1,0,0:0:0:0:
255,190,194460,1,0,0:0:0:0:
255,190,194535,1,8,0:0:0:0:
255,190,194610,1,8,0:0:0:0:
255,190,194685,1,0,0:0:0:0:
255,190,194760,1,0,0:0:0:0:
255,190,194835,1,8,0:0:0:0:
255,190,194910,1,0,0:0:0:0:
255,190,194985,1,0,0:0:0:0:
255,190,195060,1,8,0:0:0:0:
255,190,195135,1,8,0:0:0:0:
255,190,195210,1,8,0:0:0:0:
255,190,195285,1,0,0:0:0:0:
255,190,195360,1,0,0:0:0:0:
255,190,195435,1,8,0:0:0:0:
255,190,195510,1,8,0:0:0:0:
255,190,195585,1,0,0:0:0:0:
256,192,196785,12,0,197835,0:0:0:0:
255,190,197985,5,8,0:0:0:0:
255,190,198135,1,0,0:0:0:0:
255,190,198185,1,0,0:0:0:0:
255,190,198235,1,0,0:0:0:0:
255,190,198285,1,8,0:0:0:0:
255,190,198435,1,0,0:0:0:0:
255,190,198585,1,8,0:0:0:0:
255,190,198660,1,0,0:0:0:0:
255,190,198735,1,8,0:0:0:0:
255,190,198885,1,8,0:0:0:0:
255,190,198960,1,0,0:0:0:0:
255,190,199035,1,8,0:0:0:0:
255,190,199110,1,8,0:0:0:0:
256,192,199185,12,0,200235,0:0:0:0:
255,190,200385,5,8,0:0:0:0:
255,190,200535,1,0,0:0:0:0:
255,190,200685,1,8,0:0:0:0:
255,190,200835,1,0,0:0:0:0:
255,190,200985,1,8,0:0:0:0:
255,190,201060,1,0,0:0:0:0:
255,190,201285,1,8,0:0:0:0:
255,190,201335,1,8,0:0:0:0:
255,190,201385,1,8,0:0:0:0:
255,190,201435,1,8,0:0:0:0:
255,190,201485,1,8,0:0:0:0:
255,190,201535,1,8,0:0:0:0:
256,192,201585,12,0,202635,0:0:0:0:
255,190,202785,5,8,0:0:0:0:
255,190,202935,1,0,0:0:0:0:
255,190,202985,1,0,0:0:0:0:
255,190,203035,1,0,0:0:0:0:
255,190,203085,1,8,0:0:0:0:
255,190,203235,1,0,0:0:0:0:
255,190,203310,1,0,0:0:0:0:
255,190,203385,1,8,0:0:0:0:
255,190,203685,1,8,0:0:0:0:
255,190,203760,1,8,0:0:0:0:
255,190,203835,1,8,0:0:0:0:
255,190,203910,1,8,0:0:0:0:
256,192,203985,12,0,204735,0:0:0:0:
255,190,204885,5,0,0:0:0:0:
255,190,205035,1,0,0:0:0:0:
255,190,205185,1,8,0:0:0:0:
255,190,205335,1,8,0:0:0:0:
255,190,205385,1,8,0:0:0:0:
255,190,205435,1,8,0:0:0:0:
255,190,205485,1,0,0:0:0:0:
255,190,205635,1,8,0:0:0:0:
255,190,205935,1,0,0:0:0:0:
255,190,206085,1,8,0:0:0:0:
255,190,206235,1,8,0:0:0:0:
255,190,206310,1,0,0:0:0:0:
256,192,206385,12,0,207435,0:0:0:0:
255,190,207585,5,8,0:0:0:0:
255,190,207735,1,8,0:0:0:0:
255,190,207810,1,8,0:0:0:0:
255,190,207885,1,0,0:0:0:0:
255,190,207935,1,0,0:0:0:0:
255,190,207985,1,0,0:0:0:0:
255,190,208035,1,0,0:0:0:0:
255,190,208335,1,8,0:0:0:0:
255,190,208485,1,8,0:0:0:0:
255,190,208560,1,0,0:0:0:0:
255,190,208635,1,8,0:0:0:0:
256,192,208785,12,0,209835,0:0:0:0:
255,190,209985,5,8,0:0:0:0:
255,190,210135,1,0,0:0:0:0:
255,190,210285,1,8,0:0:0:0:
255,190,210335,1,8,0:0:0:0:
255,190,210385,1,8,0:0:0:0:
255,190,210435,1,0,0:0:0:0:
255,190,210485,1,0,0:0:0:0:
255,190,210535,1,0,0:0:0:0:
255,190,210735,1,8,0:0:0:0:
255,190,210810,1,0,0:0:0:0:
255,190,210885,1,8,0:0:0:0:
255,190,211035,1,0,0:0:0:0:
256,192,211185,12,0,212235,0:0:0:0:
255,190,212385,5,8,0:0:0:0:
255,190,212535,1,0,0:0:0:0:
255,190,212585,1,0,0:0:0:0:
255,190,212635,1,0,0:0:0:0:
255,190,212685,1,8,0:0:0:0:
255,190,212760,1,0,0:0:0:0:
255,190,212835,1,8,0:0:0:0:
255,190,212910,1,0,0:0:0:0:
255,190,212985,1,8,0:0:0:0:
255,190,213035,1,8,0:0:0:0:
255,190,213085,1,8,0:0:0:0:
255,190,213135,1,0,0:0:0:0:
255,190,213285,1,0,0:0:0:0:
255,190,213435,1,8,0:0:0:0:
255,190,213485,1,8,0:0:0:0:
255,190,213535,1,8,0:0:0:0:
256,192,213585,12,0,214335,0:0:0:0:
255,190,214485,5,0,0:0:0:0:
255,190,214635,1,0,0:0:0:0:
255,190,214785,5,8,0:0:0:0:
255,190,214935,1,0,0:0:0:0:
255,190,214985,1,8,0:0:0:0:
255,190,215035,1,8,0:0:0:0:
255,190,215085,1,0,0:0:0:0:
255,190,215235,1,0,0:0:0:0:
255,190,215335,1,0,0:0:0:0:
255,190,215535,1,0,0:0:0:0:
255,190,215685,1,12,0:0:0:0:
255,190,215985,1,12,0:0:0:0:
255,190,216585,1,12,0:0:0:0:
255,190,217035,1,0,0:0:0:0:
255,190,217335,1,0,0:0:0:0:
255,190,217410,1,0,0:0:0:0:
255,190,217485,1,8,0:0:0:0:
255,190,217635,1,0,0:0:0:0:
255,190,217785,1,12,0:0:0:0:
255,190,217935,1,0,0:0:0:0:
255,190,218160,1,0,0:0:0:0:
255,190,218385,1,12,0:0:0:0:
255,190,218985,1,12,0:0:0:0:
255,190,219435,1,0,0:0:0:0:
255,190,219735,1,0,0:0:0:0:
255,190,220035,1,0,0:0:0:0:
255,190,220185,1,12,0:0:0:0:
255,190,220485,1,0,0:0:0:0:
255,190,220785,1,12,0:0:0:0:
255,190,221385,1,12,0:0:0:0:
255,190,221835,1,0,0:0:0:0:
255,190,222135,1,0,0:0:0:0:
255,190,222285,1,0,0:0:0:0:
255,190,222435,1,0,0:0:0:0:
255,190,222510,1,0,0:0:0:0:
255,190,222585,1,12,0:0:0:0:
255,190,222735,1,0,0:0:0:0:
255,190,223185,1,12,0:0:0:0:
255,190,223635,1,0,0:0:0:0:
255,190,223785,1,12,0:0:0:0:
255,190,224235,1,12,0:0:0:0:
255,190,224535,1,12,0:0:0:0:
255,190,224685,1,0,0:0:0:0:
255,190,224985,1,12,0:0:0:0:
255,190,225135,1,0,0:0:0:0:
255,190,225210,1,0,0:0:0:0:
255,190,225285,1,0,0:0:0:0:
255,190,225585,1,4,0:0:0:0:
255,190,226185,1,12,0:0:0:0:
255,190,226635,1,0,0:0:0:0:
255,190,226935,1,0,0:0:0:0:
255,190,227010,1,0,0:0:0:0:
255,190,227085,1,0,0:0:0:0:
255,190,227385,1,12,0:0:0:0:
255,190,227535,1,0,0:0:0:0:
255,190,227760,1,0,0:0:0:0:
255,190,227985,1,4,0:0:0:0:
255,190,228585,1,12,0:0:0:0:
255,190,229035,1,0,0:0:0:0:
255,190,229335,1,0,0:0:0:0:
255,190,229635,1,0,0:0:0:0:
255,190,229785,1,12,0:0:0:0:
255,190,230085,1,0,0:0:0:0:
255,190,230385,1,4,0:0:0:0:
255,190,230985,1,12,0:0:0:0:
255,190,231435,1,0,0:0:0:0:
255,190,231735,1,0,0:0:0:0:
255,190,231885,1,0,0:0:0:0:
255,190,232035,1,0,0:0:0:0:
255,190,232110,1,0,0:0:0:0:
255,190,232185,1,12,0:0:0:0:
255,190,232335,1,0,0:0:0:0:
255,190,232785,1,4,0:0:0:0:
255,190,233235,1,0,0:0:0:0:
255,190,233385,1,12,0:0:0:0:
255,190,233835,1,12,0:0:0:0:
255,190,234135,1,12,0:0:0:0:
255,190,234285,1,0,0:0:0:0:
255,190,234585,1,12,0:0:0:0:
255,190,234735,1,0,0:0:0:0:
255,190,234810,1,0,0:0:0:0:
255,190,234885,1,0,0:0:0:0:
255,190,235185,5,12,0:0:0:0:
255,190,254385,5,8,0:0:0:0:
255,190,254985,1,0,0:0:0:0:
255,190,255435,1,0,0:0:0:0:
255,190,255735,1,0,0:0:0:0:
255,190,255885,1,8,0:0:0:0:
255,190,256035,1,8,0:0:0:0:
255,190,256185,1,0,0:0:0:0:
255,190,256335,1,8,0:0:0:0:
255,190,256635,1,8,0:0:0:0:
255,190,256785,1,0,0:0:0:0:
255,190,257385,1,0,0:0:0:0:
255,190,257835,1,0,0:0:0:0:
255,190,258135,1,0,0:0:0:0:
255,190,258285,1,8,0:0:0:0:
255,190,258435,1,8,0:0:0:0:
255,190,258585,1,0,0:0:0:0:
255,190,258735,1,8,0:0:0:0:
255,190,259185,1,8,0:0:0:0:
255,190,259785,1,0,0:0:0:0:
255,190,260085,1,8,0:0:0:0:
255,190,260235,1,0,0:0:0:0:
255,190,260385,1,8,0:0:0:0:
255,190,260535,1,8,0:0:0:0:
255,190,260685,1,0,0:0:0:0:
255,190,260835,1,8,0:0:0:0:
255,190,260985,1,0,0:0:0:0:
255,190,261135,1,8,0:0:0:0:
255,190,261435,1,0,0:0:0:0:
255,190,261585,1,0,0:0:0:0:
255,190,262185,1,8,0:0:0:0:
255,190,262485,1,8,0:0:0:0:
255,190,262635,1,0,0:0:0:0:
255,190,262785,1,0,0:0:0:0:
255,190,262935,1,0,0:0:0:0:
255,190,263085,1,8,0:0:0:0:
255,190,263235,1,8,0:0:0:0:
255,190,263385,1,0,0:0:0:0:
255,190,263535,1,8,0:0:0:0:
255,190,263835,1,0,0:0:0:0:
255,190,263985,1,8,0:0:0:0:
255,190,264585,1,8,0:0:0:0:
255,190,264885,1,0,0:0:0:0:
255,190,265035,1,0,0:0:0:0:
255,190,265335,1,0,0:0:0:0:
255,190,265485,1,8,0:0:0:0:
255,190,265635,1,8,0:0:0:0:
255,190,265785,1,0,0:0:0:0:
255,190,265935,1,8,0:0:0:0:
255,190,266235,1,8,0:0:0:0:
255,190,266385,1,0,0:0:0:0:
255,190,266985,1,0,0:0:0:0:
255,190,267285,1,8,0:0:0:0:
255,190,267435,1,0,0:0:0:0:
255,190,267735,1,0,0:0:0:0:
255,190,267885,1,8,0:0:0:0:
255,190,268035,1,8,0:0:0:0:
255,190,268185,1,0,0:0:0:0:
255,190,268335,1,8,0:0:0:0:
255,190,268785,1,8,0:0:0:0:
255,190,269385,1,0,0:0:0:0:
255,190,269685,1,0,0:0:0:0:
255,190,269835,1,8,0:0:0:0:
255,190,269985,1,8,0:0:0:0:
255,190,270135,1,0,0:0:0:0:
255,190,270285,1,0,0:0:0:0:
255,190,270435,1,8,0:0:0:0:
255,190,270585,1,0,0:0:0:0:
255,190,270735,1,8,0:0:0:0:
255,190,271035,1,0,0:0:0:0:
255,190,271185,1,0,0:0:0:0:
255,190,271785,1,8,0:0:0:0:
255,190,272085,1,8,0:0:0:0:
255,190,272235,1,0,0:0:0:0:
255,190,272385,1,8,0:0:0:0:
255,190,272535,1,0,0:0:0:0:
255,190,272685,1,8,0:0:0:0:
255,190,272835,1,8,0:0:0:0:
255,190,272985,1,0,0:0:0:0:
255,190,273135,1,8,0:0:0:0:
255,190,273435,1,8,0:0:0:0:
255,190,273510,1,8,0:0:0:0:
255,190,273585,1,4,0:0:0:0:
255,190,274635,1,0,0:0:0:0:
255,190,274785,1,12,0:0:0:0:
255,190,275985,1,4,0:0:0:0:
255,190,277035,1,0,0:0:0:0:
255,190,277185,1,12,0:0:0:0:
255,190,278235,1,8,0:0:0:0:
255,190,278310,1,8,0:0:0:0:
255,190,278385,1,4,0:0:0:0:
255,190,279435,1,0,0:0:0:0:
255,190,279585,1,12,0:0:0:0:
255,190,280635,1,8,0:0:0:0:
255,190,280785,1,4,0:0:0:0:
255,190,281835,1,0,0:0:0:0:
255,190,281985,1,12,0:0:0:0:
255,190,283185,1,4,0:0:0:0:
255,190,284235,1,0,0:0:0:0:
255,190,284385,1,12,0:0:0:0:
255,190,285585,1,4,0:0:0:0:
255,190,286635,1,0,0:0:0:0:
255,190,286785,1,12,0:0:0:0:
255,190,287835,1,8,0:0:0:0:
255,190,287910,1,8,0:0:0:0:
255,190,287985,1,4,0:0:0:0:
255,190,289035,1,0,0:0:0:0:
255,190,289185,1,12,0:0:0:0:
255,190,290385,1,8,0:0:0:0:
255,190,291585,1,8,0:0:0:0:
255,190,292185,1,0,0:0:0:0:
256,192,292785,12,0,296985,0:0:0:0:
255,190,297135,5,0,0:0:0:0:
255,190,297210,1,0,0:0:0:0:
255,190,297285,1,12,0:0:0:0:
255,190,297585,1,4,0:0:0:0:
255,190,297735,1,8,0:0:0:0:
255,190,297772,1,8,0:0:0:0:
255,190,297885,1,8,0:0:0:0:
255,190,297922,1,8,0:0:0:0:
255,190,298035,1,0,0:0:0:0:
255,190,298072,1,0,0:0:0:0:
255,190,298185,1,8,0:0:0:0:
255,190,298335,1,0,0:0:0:0:
255,190,298485,1,12,0:0:0:0:
255,190,298935,1,12,0:0:0:0:
255,190,299385,1,8,0:0:0:0:
255,190,299685,1,0,0:0:0:0:
255,190,299760,1,0,0:0:0:0:
255,190,299835,1,0,0:0:0:0:
255,190,299910,1,0,0:0:0:0:
255,190,299985,1,12,0:0:0:0:
255,190,300435,1,12,0:0:0:0:
255,190,300585,1,0,0:0:0:0:
255,190,300735,1,8,0:0:0:0:
255,190,301035,1,8,0:0:0:0:
255,190,301335,1,0,0:0:0:0:
255,190,301485,1,12,0:0:0:0:
255,190,301785,1,0,0:0:0:0:
255,190,301935,1,12,0:0:0:0:
255,190,302385,1,4,0:0:0:0:
255,190,302535,1,8,0:0:0:0:
255,190,302572,1,8,0:0:0:0:
255,190,302685,1,0,0:0:0:0:
255,190,302722,1,0,0:0:0:0:
255,190,302835,1,8,0:0:0:0:
255,190,302872,1,8,0:0:0:0:
255,190,302985,1,0,0:0:0:0:
255,190,303135,1,0,0:0:0:0:
255,190,303285,1,12,0:0:0:0:
255,190,303735,1,4,0:0:0:0:
255,190,304185,1,12,0:0:0:0:
255,190,304485,1,0,0:0:0:0:
255,190,304560,1,0,0:0:0:0:
255,190,304635,1,0,0:0:0:0:
255,190,304710,1,0,0:0:0:0:
255,190,304785,1,12,0:0:0:0:
255,190,305235,1,0,0:0:0:0:
255,190,305385,1,12,0:0:0:0:
255,190,305835,1,12,0:0:0:0:
255,190,306135,1,12,0:0:0:0:
255,190,306285,1,0,0:0:0:0:
255,190,306585,1,12,0:0:0:0:
255,190,306735,1,0,0:0:0:0:
255,190,307185,1,4,0:0:0:0:
255,190,307335,1,8,0:0:0:0:
255,190,307372,1,8,0:0:0:0:
255,190,307485,1,8,0:0:0:0:
255,190,307522,1,8,0:0:0:0:
255,190,307635,1,0,0:0:0:0:
255,190,307672,1,0,0:0:0:0:
255,190,307785,1,8,0:0:0:0:
255,190,307935,1,0,0:0:0:0:
255,190,308085,1,12,0:0:0:0:
255,190,308535,1,12,0:0:0:0:
255,190,308985,1,8,0:0:0:0:
255,190,309060,1,0,0:0:0:0:
255,190,309210,1,8,0:0:0:0:
255,190,309285,1,0,0:0:0:0:
255,190,309360,1,0,0:0:0:0:
255,190,309435,1,0,0:0:0:0:
255,190,309510,1,0,0:0:0:0:
255,190,309585,1,8,0:0:0:0:
255,190,310035,1,12,0:0:0:0:
255,190,310185,1,0,0:0:0:0:
255,190,310335,1,8,0:0:0:0:
255,190,310635,1,8,0:0:0:0:
255,190,310935,1,0,0:0:0:0:
255,190,311085,1,12,0:0:0:0:
255,190,311385,1,0,0:0:0:0:
255,190,311535,1,12,0:0:0:0:
255,190,311985,1,12,0:0:0:0:
255,190,312135,1,0,0:0:0:0:
255,190,312172,1,0,0:0:0:0:
255,190,312285,1,8,0:0:0:0:
255,190,312322,1,8,0:0:0:0:
255,190,312435,1,0,0:0:0:0:
255,190,312472,1,0,0:0:0:0:
255,190,312585,1,8,0:0:0:0:
255,190,312735,1,0,0:0:0:0:
255,190,312885,1,12,0:0:0:0:
255,190,313335,1,12,0:0:0:0:
255,190,313785,1,4,0:0:0:0:
255,190,314085,1,0,0:0:0:0:
255,190,314160,1,0,0:0:0:0:
255,190,314235,1,0,0:0:0:0:
255,190,314310,1,0,0:0:0:0:
255,190,314385,1,12,0:0:0:0:
255,190,314835,1,0,0:0:0:0:
255,190,314985,1,12,0:0:0:0:
255,190,315435,1,12,0:0:0:0:
255,190,315735,1,8,0:0:0:0:
255,190,315885,1,8,0:0:0:0:
255,190,316035,1,8,0:0:0:0:
255,190,316335,1,8,0:0:0:0:
255,190,316785,1,12,0:0:0:0:
255,190,317235,1,0,0:0:0:0:
255,190,317385,1,8,0:0:0:0:
255,190,317685,1,0,0:0:0:0:
255,190,318285,1,0,0:0:0:0:
255,190,318585,1,8,0:0:0:0:
255,190,318735,1,0,0:0:0:0:
255,190,318885,1,0,0:0:0:0:
255,190,319185,1,0,0:0:0:0:
255,190,319635,1,0,0:0:0:0:
255,190,319785,1,8,0:0:0:0:
255,190,320085,1,0,0:0:0:0:
255,190,320535,1,0,0:0:0:0:
255,190,320685,1,0,0:0:0:0:
255,190,320985,1,8,0:0:0:0:
255,190,321135,1,0,0:0:0:0:
255,190,321285,1,0,0:0:0:0:
255,190,321585,1,0,0:0:0:0:
255,190,322035,1,0,0:0:0:0:
255,190,322185,1,8,0:0:0:0:
255,190,322485,1,0,0:0:0:0:
255,190,323085,1,0,0:0:0:0:
255,190,323385,1,8,0:0:0:0:
255,190,323535,1,0,0:0:0:0:
255,190,323685,1,0,0:0:0:0:
255,190,323985,1,0,0:0:0:0:
255,190,324435,1,0,0:0:0:0:
255,190,324585,1,8,0:0:0:0:
255,190,324885,1,0,0:0:0:0:
255,190,325335,1,0,0:0:0:0:
255,190,325485,1,0,0:0:0:0:
255,190,325785,1,8,0:0:0:0:
255,190,325935,1,0,0:0:0:0:
255,190,326085,1,0,0:0:0:0:
255,190,326385,1,12,0:0:0:0:
255,190,326985,1,0,0:0:0:0:
255,190,327285,1,8,0:0:0:0:
255,190,327585,1,0,0:0:0:0:
255,190,328185,1,0,0:0:0:0:
255,190,328485,1,8,0:0:0:0:
255,190,328785,1,0,0:0:0:0:
255,190,329385,1,0,0:0:0:0:
255,190,329685,1,8,0:0:0:0:
255,190,329985,1,0,0:0:0:0:
255,190,330585,1,0,0:0:0:0:
255,190,330885,1,8,0:0:0:0:
255,190,331035,1,0,0:0:0:0:
255,190,331185,1,12,0:0:0:0:
255,190,331485,1,8,0:0:0:0:
255,190,331785,1,8,0:0:0:0:
255,190,332085,1,8,0:0:0:0:
255,190,332235,1,0,0:0:0:0:
255,190,332385,1,12,0:0:0:0:
255,190,332685,1,8,0:0:0:0:
255,190,332985,1,8,0:0:0:0:
255,190,333285,1,8,0:0:0:0:
255,190,333435,1,0,0:0:0:0:
255,190,333585,1,8,0:0:0:0:
255,190,333735,1,8,0:0:0:0:
255,190,333885,1,8,0:0:0:0:
255,190,334035,1,8,0:0:0:0:
255,190,334185,1,0,0:0:0:0:
255,190,334260,1,0,0:0:0:0:
255,190,334335,1,0,0:0:0:0:
255,190,334410,1,0,0:0:0:0:
255,190,334485,1,8,0:0:0:0:
255,190,334560,1,8,0:0:0:0:
255,190,334635,1,8,0:0:0:0:
255,190,334710,1,8,0:0:0:0:
255,190,334785,1,0,0:0:0:0:
255,190,335985,1,12,0:0:0:0:
255,190,336135,1,0,0:0:0:0:
255,190,336285,1,8,0:0:0:0:
255,190,336360,1,0,0:0:0:0:
255,190,336435,1,0,0:0:0:0:
255,190,336510,1,0,0:0:0:0:
255,190,336585,1,8,0:0:0:0:
255,190,336735,1,0,0:0:0:0:
255,190,336885,1,8,0:0:0:0:
255,190,336960,1,0,0:0:0:0:
255,190,337035,1,8,0:0:0:0:
255,190,337185,1,8,0:0:0:0:
255,190,337335,1,0,0:0:0:0:
255,190,337485,1,8,0:0:0:0:
255,190,337560,1,8,0:0:0:0:
255,190,337635,1,0,0:0:0:0:
255,190,337785,1,8,0:0:0:0:
255,190,337860,1,0,0:0:0:0:
255,190,337935,1,8,0:0:0:0:
255,190,338085,1,0,0:0:0:0:
255,190,338235,1,8,0:0:0:0:
255,190,338385,1,8,0:0:0:0:
255,190,338460,1,8,0:0:0:0:
255,190,338535,1,0,0:0:0:0:
255,190,338685,1,8,0:0:0:0:
255,190,338760,1,0,0:0:0:0:
255,190,338835,1,0,0:0:0:0:
255,190,338985,1,8,0:0:0:0:
255,190,339135,1,0,0:0:0:0:
255,190,339285,1,8,0:0:0:0:
255,190,339360,1,0,0:0:0:0:
255,190,339435,1,8,0:0:0:0:
255,190,339585,1,8,0:0:0:0:
255,190,339735,1,0,0:0:0:0:
255,190,339810,1,0,0:0:0:0:
255,190,339885,1,0,0:0:0:0:
255,190,340035,1,0,0:0:0:0:
255,190,340185,1,8,0:0:0:0:
255,190,340335,1,8,0:0:0:0:
255,190,340485,1,0,0:0:0:0:
255,190,340560,1,0,0:0:0:0:
255,190,340635,1,8,0:0:0:0:
255,190,340785,1,8,0:0:0:0:
255,190,340935,1,0,0:0:0:0:
255,190,341085,1,8,0:0:0:0:
255,190,341160,1,8,0:0:0:0:
255,190,341235,1,0,0:0:0:0:
255,190,341310,1,0,0:0:0:0:
255,190,341385,1,8,0:0:0:0:
255,190,341535,1,0,0:0:0:0:
255,190,341685,1,8,0:0:0:0:
255,190,341760,1,0,0:0:0:0:
255,190,341835,1,8,0:0:0:0:
255,190,341985,1,0,0:0:0:0:
255,190,342135,1,8,0:0:0:0:
255,190,342285,1,8,0:0:0:0:
255,190,342360,1,0,0:0:0:0:
255,190,342435,1,0,0:0:0:0:
255,190,342585,1,8,0:0:0:0:
255,190,342735,1,8,0:0:0:0:
255,190,342810,1,8,0:0:0:0:
255,190,342885,1,0,0:0:0:0:
255,190,343035,1,8,0:0:0:0:
255,190,343185,1,8,0:0:0:0:
255,190,343260,1,0,0:0:0:0:
255,190,343335,1,0,0:0:0:0:
255,190,343485,1,8,0:0:0:0:
255,190,343560,1,8,0:0:0:0:
255,190,343635,1,0,0:0:0:0:
255,190,343785,1,8,0:0:0:0:
255,190,343935,1,0,0:0:0:0:
255,190,344085,1,8,0:0:0:0:
255,190,344160,1,0,0:0:0:0:
255,190,344235,1,8,0:0:0:0:
255,190,344385,1,0,0:0:0:0:
255,190,344535,1,8,0:0:0:0:
255,190,344610,1,0,0:0:0:0:
255,190,344685,1,8,0:0:0:0:
255,190,344760,1,0,0:0:0:0:
255,190,344835,1,8,0:0:0:0:
255,190,344910,1,8,0:0:0:0:
255,190,344985,1,0,0:0:0:0:
255,190,345060,1,8,0:0:0:0:
255,190,345135,1,0,0:0:0:0:
255,190,345210,1,0,0:0:0:0:
255,190,345285,1,8,0:0:0:0:
255,190,345360,1,8,0:0:0:0:
255,190,345435,1,0,0:0:0:0:
255,190,345585,1,12,0:0:0:0:
255,190,345735,1,0,0:0:0:0:
255,190,345885,1,8,0:0:0:0:
255,190,345960,1,0,0:0:0:0:
255,190,346035,1,0,0:0:0:0:
255,190,346110,1,0,0:0:0:0:
255,190,346185,1,8,0:0:0:0:
255,190,346335,1,0,0:0:0:0:
255,190,346485,1,8,0:0:0:0:
255,190,346560,1,0,0:0:0:0:
255,190,346635,1,8,0:0:0:0:
255,190,346785,1,8,0:0:0:0:
255,190,346935,1,0,0:0:0:0:
255,190,347085,1,8,0:0:0:0:
255,190,347160,1,8,0:0:0:0:
255,190,347235,1,0,0:0:0:0:
255,190,347385,1,8,0:0:0:0:
255,190,347460,1,0,0:0:0:0:
255,190,347535,1,8,0:0:0:0:
255,190,347685,1,0,0:0:0:0:
255,190,347835,1,8,0:0:0:0:
255,190,347985,1,8,0:0:0:0:
255,190,348060,1,8,0:0:0:0:
255,190,348135,1,0,0:0:0:0:
255,190,348285,1,8,0:0:0:0:
255,190,348360,1,0,0:0:0:0:
255,190,348435,1,0,0:0:0:0:
255,190,348585,1,8,0:0:0:0:
255,190,348735,1,0,0:0:0:0:
255,190,348885,1,8,0:0:0:0:
255,190,348960,1,0,0:0:0:0:
255,190,349035,1,8,0:0:0:0:
255,190,349185,1,0,0:0:0:0:
255,190,349335,1,8,0:0:0:0:
255,190,349410,1,8,0:0:0:0:
255,190,349485,1,8,0:0:0:0:
255,190,349635,1,0,0:0:0:0:
255,190,349785,1,0,0:0:0:0:
255,190,349935,1,8,0:0:0:0:
255,190,350085,1,0,0:0:0:0:
255,190,350160,1,0,0:0:0:0:
255,190,350235,1,8,0:0:0:0:
255,190,350385,1,8,0:0:0:0:
255,190,350535,1,0,0:0:0:0:
255,190,350685,1,8,0:0:0:0:
255,190,350760,1,8,0:0:0:0:
255,190,350835,1,0,0:0:0:0:
255,190,350910,1,0,0:0:0:0:
255,190,350985,1,8,0:0:0:0:
255,190,351135,1,0,0:0:0:0:
255,190,351285,1,8,0:0:0:0:
255,190,351360,1,0,0:0:0:0:
255,190,351435,1,8,0:0:0:0:
255,190,351585,1,0,0:0:0:0:
255,190,351735,1,8,0:0:0:0:
255,190,351885,1,8,0:0:0:0:
255,190,351960,1,0,0:0:0:0:
255,190,352035,1,0,0:0:0:0:
255,190,352185,1,8,0:0:0:0:
255,190,352335,1,8,0:0:0:0:
255,190,352410,1,8,0:0:0:0:
255,190,352485,1,0,0:0:0:0:
255,190,352635,1,8,0:0:0:0:
255,190,352785,1,8,0:0:0:0:
255,190,352860,1,0,0:0:0:0:
255,190,352935,1,0,0:0:0:0:
255,190,353085,1,8,0:0:0:0:
255,190,353160,1,8,0:0:0:0:
255,190,353235,1,0,0:0:0:0:
255,190,353385,1,8,0:0:0:0:
255,190,353535,1,0,0:0:0:0:
255,190,353685,1,8,0:0:0:0:
255,190,353760,1,8,0:0:0:0:
255,190,353835,1,0,0:0:0:0:
255,190,353985,1,0,0:0:0:0:
255,190,354435,1,0,0:0:0:0:
255,190,354585,1,8,0:0:0:0:
255,190,355035,1,8,0:0:0:0:
255,190,355185,1,4,0:0:0:0:
255,190,355335,1,8,0:0:0:0:
255,190,355485,1,8,0:0:0:0:
255,190,355560,1,8,0:0:0:0:
255,190,355635,1,0,0:0:0:0:
255,190,355710,1,0,0:0:0:0:
255,190,355785,1,8,0:0:0:0:
255,190,355935,1,0,0:0:0:0:
255,190,356085,1,8,0:0:0:0:
255,190,356235,1,0,0:0:0:0:
255,190,356385,1,8,0:0:0:0:
255,190,356460,1,8,0:0:0:0:
255,190,356535,1,0,0:0:0:0:
255,190,356685,1,8,0:0:0:0:
255,190,356760,1,0,0:0:0:0:
255,190,356835,1,0,0:0:0:0:
255,190,356985,1,8,0:0:0:0:
255,190,357135,1,0,0:0:0:0:
255,190,357285,1,0,0:0:0:0:
255,190,357435,1,8,0:0:0:0:
255,190,357585,1,8,0:0:0:0:
255,190,357660,1,8,0:0:0:0:
255,190,357735,1,0,0:0:0:0:
255,190,357885,1,8,0:0:0:0:
255,190,357960,1,8,0:0:0:0:
255,190,358035,1,0,0:0:0:0:
255,190,358110,1,0,0:0:0:0:
255,190,358185,1,8,0:0:0:0:
255,190,358335,1,0,0:0:0:0:
255,190,358485,1,8,0:0:0:0:
255,190,358560,1,0,0:0:0:0:
255,190,358635,1,8,0:0:0:0:
255,190,358785,1,8,0:0:0:0:
255,190,358935,1,0,0:0:0:0:
255,190,359010,1,0,0:0:0:0:
255,190,359085,1,0,0:0:0:0:
255,190,359235,1,0,0:0:0:0:
255,190,359385,1,8,0:0:0:0:
255,190,359535,1,0,0:0:0:0:
255,190,359685,1,0,0:0:0:0:
255,190,359835,1,8,0:0:0:0:
255,190,359985,1,8,0:0:0:0:
255,190,360060,1,0,0:0:0:0:
255,190,360135,1,0,0:0:0:0:
255,190,360285,1,8,0:0:0:0:
255,190,360360,1,0,0:0:0:0:
255,190,360435,1,8,0:0:0:0:
255,190,360510,1,8,0:0:0:0:
255,190,360585,1,0,0:0:0:0:
255,190,360735,1,0,0:0:0:0:
255,190,360885,1,8,0:0:0:0:
255,190,361035,1,8,0:0:0:0:
255,190,361185,1,0,0:0:0:0:
255,190,361335,1,8,0:0:0:0:
255,190,361485,1,8,0:0:0:0:
255,190,361560,1,0,0:0:0:0:
255,190,361635,1,0,0:0:0:0:
255,190,361785,1,8,0:0:0:0:
255,190,361935,1,8,0:0:0:0:
255,190,362085,1,0,0:0:0:0:
255,190,362235,1,8,0:0:0:0:
255,190,362385,1,8,0:0:0:0:
255,190,362460,1,8,0:0:0:0:
255,190,362535,1,0,0:0:0:0:
255,190,362685,1,8,0:0:0:0:
255,190,362760,1,0,0:0:0:0:
255,190,362835,1,0,0:0:0:0:
255,190,362910,1,0,0:0:0:0:
255,190,362985,1,8,0:0:0:0:
255,190,363135,1,0,0:0:0:0:
255,190,363285,1,8,0:0:0:0:
255,190,363360,1,0,0:0:0:0:
255,190,363435,1,8,0:0:0:0:
255,190,363585,1,8,0:0:0:0:
255,190,363660,1,8,0:0:0:0:
255,190,363810,1,0,0:0:0:0:
255,190,363885,1,0,0:0:0:0:
255,190,364035,1,8,0:0:0:0:
255,190,364185,1,8,0:0:0:0:
255,190,364485,1,0,0:0:0:0:
255,190,364785,1,12,0:0:0:0:
255,190,364935,1,0,0:0:0:0:
255,190,365085,1,8,0:0:0:0:
255,190,365160,1,8,0:0:0:0:
255,190,365235,1,0,0:0:0:0:
255,190,365310,1,0,0:0:0:0:
255,190,365385,1,8,0:0:0:0:
255,190,365535,1,0,0:0:0:0:
255,190,365685,1,8,0:0:0:0:
255,190,365835,1,0,0:0:0:0:
255,190,365985,1,8,0:0:0:0:
255,190,366060,1,8,0:0:0:0:
255,190,366135,1,0,0:0:0:0:
255,190,366285,1,8,0:0:0:0:
255,190,366360,1,0,0:0:0:0:
255,190,366435,1,0,0:0:0:0:
255,190,366585,1,8,0:0:0:0:
255,190,366735,1,0,0:0:0:0:
255,190,366885,1,0,0:0:0:0:
255,190,367035,1,8,0:0:0:0:
255,190,367185,1,8,0:0:0:0:
255,190,367260,1,8,0:0:0:0:
255,190,367335,1,0,0:0:0:0:
255,190,367485,1,8,0:0:0:0:
255,190,367560,1,8,0:0:0:0:
255,190,367635,1,0,0:0:0:0:
255,190,367710,1,0,0:0:0:0:
255,190,367785,1,8,0:0:0:0:
255,190,367935,1,0,0:0:0:0:
255,190,368085,1,8,0:0:0:0:
255,190,368160,1,0,0:0:0:0:
255,190,368235,1,8,0:0:0:0:
255,190,368385,1,8,0:0:0:0:
255,190,368535,1,0,0:0:0:0:
255,190,368610,1,0,0:0:0:0:
255,190,368685,1,0,0:0:0:0:
255,190,368835,1,0,0:0:0:0:
255,190,368985,1,8,0:0:0:0:
255,190,369135,1,8,0:0:0:0:
255,190,369285,1,0,0:0:0:0:
255,190,369435,1,8,0:0:0:0:
255,190,369510,1,0,0:0:0:0:
255,190,369585,1,12,0:0:0:0:
255,190,369735,1,0,0:0:0:0:
255,190,369885,1,8,0:0:0:0:
255,190,370035,1,0,0:0:0:0:
255,190,370185,1,8,0:0:0:0:
255,190,370335,1,0,0:0:0:0:
255,190,370485,1,8,0:0:0:0:
255,190,370635,1,0,0:0:0:0:
255,190,370710,1,0,0:0:0:0:
255,190,370785,1,12,0:0:0:0:
255,190,370935,1,0,0:0:0:0:
255,190,371085,1,8,0:0:0:0:
255,190,371235,1,0,0:0:0:0:
255,190,371385,1,8,0:0:0:0:
255,190,371535,1,0,0:0:0:0:
255,190,371685,1,8,0:0:0:0:
255,190,371835,1,0,0:0:0:0:
255,190,371985,1,8,0:0:0:0:
255,190,372060,1,0,0:0:0:0:
255,190,372135,1,0,0:0:0:0:
255,190,372210,1,0,0:0:0:0:
255,190,372285,1,8,0:0:0:0:
255,190,372360,1,8,0:0:0:0:
255,190,372435,1,0,0:0:0:0:
255,190,372510,1,0,0:0:0:0:
255,190,372585,1,8,0:0:0:0:
255,190,372660,1,0,0:0:0:0:
255,190,372735,1,8,0:0:0:0:
255,190,372810,1,0,0:0:0:0:
255,190,372885,1,0,0:0:0:0:
255,190,372960,1,8,0:0:0:0:
255,190,373035,1,8,0:0:0:0:
255,190,373110,1,0,0:0:0:0:
255,190,373185,1,8,0:0:0:0:
255,190,373635,1,0,0:0:0:0:
255,190,373785,1,8,0:0:0:0:
255,190,374235,1,8,0:0:0:0:
255,190,374385,1,4,0:0:0:0:
255,190,374685,1,0,0:0:0:0:
255,190,374985,1,0,0:0:0:0:
255,190,375285,1,0,0:0:0:0:
255,190,375585,1,0,0:0:0:0:
255,190,375885,1,0,0:0:0:0:
255,190,376185,1,0,0:0:0:0:
255,190,376335,1,8,0:0:0:0:
255,190,376485,1,0,0:0:0:0:
255,190,376635,1,0,0:0:0:0:
255,190,376785,1,8,0:0:0:0:
255,190,377085,1,8,0:0:0:0:
255,190,377385,1,8,0:0:0:0:
255,190,377685,1,8,0:0:0:0:
255,190,377985,1,8,0:0:0:0:
255,190,378285,1,8,0:0:0:0:
255,190,378585,1,8,0:0:0:0:
255,190,378735,1,0,0:0:0:0:
255,190,378885,1,8,0:0:0:0:
255,190,379035,1,8,0:0:0:0:
255,190,379185,1,0,0:0:0:0:
255,190,379485,1,0,0:0:0:0:
255,190,379785,1,0,0:0:0:0:
255,190,380085,1,0,0:0:0:0:
255,190,380385,1,0,0:0:0:0:
255,190,380685,1,0,0:0:0:0:
255,190,380985,1,0,0:0:0:0:
255,190,381285,1,0,0:0:0:0:
255,190,381435,1,0,0:0:0:0:
255,190,381585,1,8,0:0:0:0:
255,190,381885,1,8,0:0:0:0:
255,190,382185,1,8,0:0:0:0:
255,190,382485,1,8,0:0:0:0:
255,190,382785,1,8,0:0:0:0:
255,190,383985,1,0,0:0:0:0:
255,190,384285,1,8,0:0:0:0:
255,190,384585,1,0,0:0:0:0:
255,190,384885,1,8,0:0:0:0:
255,190,385185,1,0,0:0:0:0:
255,190,385485,1,8,0:0:0:0:
255,190,385785,1,0,0:0:0:0:
255,190,385935,1,0,0:0:0:0:
255,190,386085,1,8,0:0:0:0:
255,190,386385,1,0,0:0:0:0:
255,190,386685,1,8,0:0:0:0:
255,190,386985,1,0,0:0:0:0:
255,190,387285,1,8,0:0:0:0:
255,190,387585,1,0,0:0:0:0:
255,190,387885,1,8,0:0:0:0:
255,190,388185,1,0,0:0:0:0:
255,190,388335,1,0,0:0:0:0:
255,190,388485,1,8,0:0:0:0:
255,190,388635,1,0,0:0:0:0:
255,190,388785,1,8,0:0:0:0:
255,190,389085,1,8,0:0:0:0:
255,190,389385,1,8,0:0:0:0:
255,190,389685,1,8,0:0:0:0:
255,190,389835,1,8,0:0:0:0:
255,190,389910,1,8,0:0:0:0:
255,190,389985,1,0,0:0:0:0:
255,190,390135,1,8,0:0:0:0:
255,190,390285,1,0,0:0:0:0:
255,190,390435,1,8,0:0:0:0:
255,190,390585,1,0,0:0:0:0:
255,190,390735,1,8,0:0:0:0:
255,190,390885,1,0,0:0:0:0:
255,190,391035,1,8,0:0:0:0:
255,190,391110,1,8,0:0:0:0:
255,190,391185,1,0,0:0:0:0:
255,190,391260,1,0,0:0:0:0:
255,190,391335,1,0,0:0:0:0:
255,190,391410,1,0,0:0:0:0:
255,190,391485,1,8,0:0:0:0:
255,190,391560,1,8,0:0:0:0:
255,190,391635,1,8,0:0:0:0:
255,190,391710,1,8,0:0:0:0:
255,190,391785,1,0,0:0:0:0:
255,190,391860,1,0,0:0:0:0:
255,190,391935,1,0,0:0:0:0:
255,190,392010,1,0,0:0:0:0:
255,190,392085,1,8,0:0:0:0:
255,190,392160,1,8,0:0:0:0:
255,190,392235,1,8,0:0:0:0:
255,190,392310,1,8,0:0:0:0:
255,190,392385,1,0,0:0:0:0:
255,190,393285,1,8,0:0:0:0:
255,190,393585,1,0,0:0:0:0:
255,190,393735,1,8,0:0:0:0:
255,190,393885,1,8,0:0:0:0:
255,190,394035,1,8,0:0:0:0:
