osu file format v14

[General]
AudioFilename: audio.mp3
AudioLeadIn: 0
PreviewTime: 196785
Countdown: 0
SampleSet: Normal
StackLeniency: 0.7
Mode: 1
LetterboxInBreaks: 0
WidescreenStoryboard: 0

[Editor]
DistanceSpacing: 1
BeatDivisor: 4
GridSize: 32
TimelineZoom: 3.099999

[Metadata]
Title:Valley of Voices
TitleUnicode:Valley of Voices
Artist:Kara & Kurokotei
ArtistUnicode:Kara & 黒皇帝
Creator:Optimus Prime
Version:Melodic Purgatory
Source:
Tags:electronic instrumental featured artist fa collab song orchestral frenchcore artcore hybrid trap drum & bass dnb future bass hardcore myntian snare edm melodic dubstep
BeatmapID:3707301
BeatmapSetID:1807672

[Difficulty]
HPDrainRate:4.5
CircleSize:2
OverallDifficulty:7
ApproachRate:5
SliderMultiplier:1.4
SliderTickRate:1

[Events]
//Background and Video events
0,0,"valley of voices 2.jpg",0,25
//Break Periods
2,235385,253185
//Storyboard Layer 0 (Background)
//Storyboard Layer 1 (Fail)
//Storyboard Layer 2 (Pass)
//Storyboard Layer 3 (Foreground)
//Storyboard Layer 4 (Overlay)
//Storyboard Sound Samples

[TimingPoints]
1185,300,4,1,0,30,1,0
1185,-200,4,1,0,5,0,0
2385,-190.47619047619,4,1,0,10,0,0
3585,-181.818181818182,4,1,0,15,0,0
4785,-173.913043478261,4,1,0,20,0,0
5985,-166.666666666667,4,1,0,25,0,0
7185,-160,4,1,0,30,0,0
8385,-153.846153846154,4,1,0,35,0,0
9585,-148.148148148148,4,1,0,40,0,0
10785,-142.857142857143,4,1,0,45,0,0
11985,-133.333333333333,4,1,0,30,0,0
30882,-125,4,1,0,30,0,0
31032,-121.212121212121,4,1,0,30,0,0
31182,-117.647058823529,4,1,0,30,0,0
40782,-80,4,1,0,40,0,0
40932,-81.5789473684211,4,1,0,20,0,0
41082,-83.2214765100671,4,1,0,20,0,0
41232,-84.9315068493151,4,1,0,21,0,0
41382,-86.7132867132867,4,1,0,21,0,0
41532,-88.5714285714286,4,1,0,22,0,0
41682,-90.5109489051095,4,1,0,22,0,0
41832,-92.5373134328358,4,1,0,23,0,0
41982,-94.6564885496183,4,1,0,23,0,0
42132,-96.875,4,1,0,24,0,0
42282,-99.2,4,1,0,24,0,0
42432,-101.639344262295,4,1,0,25,0,0
42582,-104.201680672269,4,1,0,25,0,0
42732,-106.896551724138,4,1,0,26,0,0
42882,-109.734513274336,4,1,0,26,0,0
43032,-112.727272727273,4,1,0,27,0,0
43182,-115.88785046729,4,1,0,27,0,0
43332,-119.230769230769,4,1,0,28,0,0
43482,-122.772277227723,4,1,0,28,0,0
43632,-126.530612244898,4,1,0,29,0,0
43782,-130.526315789474,4,1,0,29,0,0
43932,-134.782608695652,4,1,0,30,0,0
44082,-139.325842696629,4,1,0,30,0,0
44232,-144.186046511628,4,1,0,31,0,0
44382,-149.397590361446,4,1,0,31,0,0
44532,-155,4,1,0,32,0,0
44682,-161.038961038961,4,1,0,32,0,0
44832,-167.567567567568,4,1,0,33,0,0
44982,-174.647887323944,4,1,0,33,0,0
45132,-182.352941176471,4,1,0,34,0,0
45282,-190.769230769231,4,1,0,34,0,0
45432,-200,4,1,0,35,0,0
45732,-179.640718562874,4,1,0,35,0,0
45882,-163.04347826087,4,1,0,35,0,0
46032,-149.253731343284,4,1,0,36,0,0
46182,-137.614678899083,4,1,0,36,0,0
46332,-127.659574468085,4,1,0,37,0,0
46482,-119.047619047619,4,1,0,37,0,0
46632,-111.524163568773,4,1,0,38,0,0
46782,-104.895104895105,4,1,0,38,0,0
46932,-99.009900990099,4,1,0,39,0,0
47082,-93.75,4,1,0,39,0,0
47232,-89.0207715133531,4,1,0,40,0,0
47382,-84.7457627118644,4,1,0,40,0,0
47532,-80.8625336927224,4,1,0,41,0,0
47682,-77.319587628866,4,1,0,41,0,0
47832,-74.0740740740741,4,1,0,42,0,0
47985,-66.6666666666667,4,1,0,40,0,0
49035,-133.333333333333,4,1,0,50,0,0
50385,-100,4,1,0,40,0,0
50532,-102.941176470588,4,1,0,30,0,0
50682,-106.060606060606,4,1,0,30,0,0
50832,-109.375,4,1,0,30,0,0
50982,-112.903225806452,4,1,0,30,0,0
51132,-116.666666666667,4,1,0,30,0,0
51282,-120.689655172414,4,1,0,30,0,0
51432,-125,4,1,0,30,0,0
51732,-117.647058823529,4,1,0,32,0,0
51882,-111.111111111111,4,1,0,33,0,0
52032,-105.263157894737,4,1,0,34,0,0
52182,-100,4,1,0,35,0,0
52257,-97.5609756097561,4,1,0,36,0,0
52332,-95.2380952380952,4,1,0,37,0,0
52407,-93.0232558139535,4,1,0,38,0,0
52482,-90.9090909090909,4,1,0,39,0,0
52785,-100,4,1,0,70,0,0
52932,-101.694915254237,4,1,0,70,0,0
53007,-102.564102564103,4,1,0,70,0,0
53082,-103.448275862069,4,1,0,70,0,0
53232,-105.263157894737,4,1,0,70,0,0
53382,-107.142857142857,4,1,0,70,0,0
53532,-109.090909090909,4,1,0,70,0,0
53682,-111.111111111111,4,1,0,70,0,0
53982,-100,4,1,0,70,0,0
54132,-101.851851851852,4,1,0,70,0,0
54207,-102.803738317757,4,1,0,70,0,0
54282,-103.77358490566,4,1,0,70,0,0
54432,-105.769230769231,4,1,0,70,0,0
54582,-107.843137254902,4,1,0,70,0,0
54657,-108.910891089109,4,1,0,70,0,0
54732,-110,4,1,0,70,0,0
54807,-111.111111111111,4,1,0,70,0,0
54957,-108.108108108108,4,1,0,70,0,0
55032,-105.263157894737,4,1,0,70,0,0
55182,-100,4,1,0,70,0,0
55332,-101.351351351351,4,1,0,70,0,0
55482,-102.739726027397,4,1,0,70,0,0
55632,-104.166666666667,4,1,0,70,0,0
55707,-104.895104895105,4,1,0,70,0,0
55782,-105.633802816901,4,1,0,70,0,0
55932,-107.142857142857,4,1,0,70,0,0
56082,-108.695652173913,4,1,0,70,0,0
56157,-109.489051094891,4,1,0,70,0,0
56232,-110.294117647059,4,1,0,70,0,0
56307,-111.111111111111,4,1,0,70,0,0
56385,-100,4,1,0,70,0,0
57285,-76.9230769230769,4,1,0,70,0,0
57582,-100,4,1,0,70,0,0
57732,-100.671140939597,4,1,0,70,0,0
57882,-101.351351351351,4,1,0,70,0,0
58032,-102.040816326531,4,1,0,70,0,0
58107,-102.389078498294,4,1,0,70,0,0
58182,-102.739726027397,4,1,0,70,0,0
58332,-103.448275862069,4,1,0,70,0,0
58407,-103.806228373702,4,1,0,70,0,0
58482,-104.166666666667,4,1,0,70,0,0
58557,-104.529616724739,4,1,0,70,0,0
58632,-104.895104895105,4,1,0,70,0,0
58707,-105.263157894737,4,1,0,70,0,0
58782,-105.633802816901,4,1,0,70,0,0
58932,-106.382978723404,4,1,0,70,0,0
59007,-106.761565836299,4,1,0,70,0,0
59082,-107.142857142857,4,1,0,70,0,0
59232,-107.913669064748,4,1,0,70,0,0
59307,-108.303249097473,4,1,0,70,0,0
59382,-108.695652173913,4,1,0,70,0,0
59532,-109.489051094891,4,1,0,70,0,0
59607,-109.89010989011,4,1,0,70,0,0
59682,-110.294117647059,4,1,0,70,0,0
59757,-110.70110701107,4,1,0,70,0,0
59832,-111.111111111111,4,1,0,70,0,0
59982,-100,4,1,0,70,0,0
60132,-100.746268656716,4,1,0,70,0,0
60207,-101.123595505618,4,1,0,70,0,0
60282,-101.503759398496,4,1,0,70,0,0
60432,-102.272727272727,4,1,0,70,0,0
60582,-103.053435114504,4,1,0,70,0,0
60657,-103.448275862069,4,1,0,70,0,0
60732,-103.846153846154,4,1,0,70,0,0
60807,-104.247104247104,4,1,0,70,0,0
60882,-104.651162790698,4,1,0,70,0,0
61032,-105.46875,4,1,0,70,0,0
61182,-106.299212598425,4,1,0,70,0,0
61332,-107.142857142857,4,1,0,70,0,0
61482,-108,4,1,0,70,0,0
61632,-108.870967741935,4,1,0,70,0,0
61782,-109.756097560976,4,1,0,70,0,0
61932,-110.655737704918,4,1,0,70,0,0
62007,-111.111111111111,4,1,0,70,0,0
62085,-76.9230769230769,4,1,0,70,0,0
62385,-100,4,1,0,70,0,0
66885,-76.9230769230769,4,1,0,70,0,0
67185,-100,4,1,0,70,0,0
70932,-101.694915254237,4,1,0,70,0,0
71007,-102.564102564103,4,1,0,70,0,0
71157,-104.347826086957,4,1,0,70,0,0
71232,-105.263157894737,4,1,0,70,0,0
71307,-106.194690265487,4,1,0,70,0,0
71382,-107.142857142857,4,1,0,70,0,0
71457,-108.108108108108,4,1,0,70,0,0
71532,-109.090909090909,4,1,0,70,0,0
71607,-110.091743119266,4,1,0,70,0,0
71682,-111.111111111111,4,1,0,70,0,0
71985,-76.9230769230769,4,1,0,70,0,0
72135,-100,4,1,0,70,0,0
80382,-101.449275362319,4,1,0,70,0,0
80532,-102.941176470588,4,1,0,70,0,0
80607,-103.703703703704,4,1,0,70,0,0
80682,-104.477611940299,4,1,0,70,0,0
80757,-105.263157894737,4,1,0,70,0,0
80832,-106.060606060606,4,1,0,70,0,0
80907,-106.870229007634,4,1,0,70,0,0
80982,-107.692307692308,4,1,0,70,0,0
81057,-108.527131782946,4,1,0,70,0,0
81132,-109.375,4,1,0,70,0,0
81207,-110.236220472441,4,1,0,70,0,0
81282,-111.111111111111,4,1,0,70,0,0
81585,-76.9230769230769,4,1,0,70,0,0
81735,-100,4,1,0,70,0,0
89982,-100,4,1,0,70,0,0
90132,-101.694915254237,4,1,0,70,0,0
90207,-102.564102564103,4,1,0,70,0,0
90357,-104.347826086957,4,1,0,70,0,0
90432,-105.263157894737,4,1,0,70,0,0
90507,-106.194690265487,4,1,0,70,0,0
90582,-107.142857142857,4,1,0,70,0,0
90657,-108.108108108108,4,1,0,70,0,0
90732,-109.090909090909,4,1,0,70,0,0
90807,-110.091743119266,4,1,0,70,0,0
90882,-111.111111111111,4,1,0,70,0,0
91632,-117.647058823529,4,1,0,70,0,0
91782,-118.446601941748,4,1,0,70,0,0
92082,-120.07874015748,4,1,0,70,0,0
92382,-121.756487025948,4,1,0,70,0,0
92532,-122.613065326633,4,1,0,70,0,0
92982,-125.256673511294,4,1,0,70,0,0
93282,-127.083333333333,4,1,0,70,0,0
93432,-128.016789087093,4,1,0,70,0,0
93582,-128.964059196617,4,1,0,70,0,0
94032,-131.891891891892,4,1,0,70,0,0
94182,-132.897603485839,4,1,0,70,0,0
94332,-133.918770581778,4,1,0,70,0,0
94482,-134.955752212389,4,1,0,70,0,0
94782,-137.078651685393,4,1,0,70,0,0
94932,-138.165345413364,4,1,0,70,0,0
95232,-140.391254315305,4,1,0,70,0,0
95382,-141.5313225058,4,1,0,70,0,0
95682,-143.867924528302,4,1,0,70,0,0
95982,-146.282973621103,4,1,0,70,0,0
96432,-150.061500615006,4,1,0,70,0,0
96582,-151.36476426799,4,1,0,70,0,0
96732,-152.690863579474,4,1,0,70,0,0
96882,-154.040404040404,4,1,0,70,0,0
97182,-156.81233933162,4,1,0,70,0,0
97332,-158.236057068742,4,1,0,70,0,0
97482,-159.685863874346,4,1,0,70,0,0
97632,-161.16248348745,4,1,0,70,0,0
97782,-162.666666666667,4,1,0,70,0,0
97932,-164.199192462988,4,1,0,70,0,0
98082,-165.760869565217,4,1,0,70,0,0
98382,-168.975069252078,4,1,0,70,0,0
98682,-172.316384180791,4,1,0,70,0,0
98832,-174.037089871612,4,1,0,70,0,0
98982,-175.792507204611,4,1,0,70,0,0
99282,-179.411764705882,4,1,0,70,0,0
99582,-183.183183183183,4,1,0,70,0,0
99732,-185.128983308043,4,1,0,70,0,0
99882,-187.116564417178,4,1,0,70,0,0
100032,-189.147286821705,4,1,0,70,0,0
100182,-191.222570532915,4,1,0,70,0,0
100332,-193.343898573693,4,1,0,70,0,0
100482,-195.51282051282,4,1,0,70,0,0
100782,-200,4,1,0,70,0,0
101082,-191.959260251943,4,1,0,70,0,0
101232,-188.176563321072,4,1,0,70,0,0
101382,-184.540066993043,4,1,0,70,0,0
101682,-177.673033986604,4,1,0,70,0,0
101982,-171.298732360679,4,1,0,70,0,0
102282,-165.365966289541,4,1,0,70,0,0
102432,-162.55106672719,4,1,0,70,0,0
102582,-159.830395001116,4,1,0,70,0,0
102807,-155.915968215957,4,1,0,70,0,0
102882,-154.653422586914,4,1,0,70,0,0
103032,-152.188695282618,4,1,0,70,0,0
103182,-149.801296799833,4,1,0,70,0,0
103482,-145.244372338268,4,1,0,70,0,0
103632,-143.068318018378,4,1,0,70,0,0
103782,-140.956504625074,4,1,0,70,0,0
104082,-136.914547887593,4,1,0,70,0,0
104157,-135.940020878808,4,1,0,70,0,0
104232,-134.979268752356,4,1,0,70,0,0
104382,-133.097937186397,4,1,0,70,0,0
104607,-130.372258123237,4,1,0,70,0,0
104832,-127.755975740278,4,1,0,70,0,0
104982,-126.069353986974,4,1,0,70,0,0
105132,-124.426685198054,4,1,0,70,0,0
105207,-123.621299732459,4,1,0,70,0,0
105282,-122.826273366489,4,1,0,70,0,0
105582,-119.745861896004,4,1,0,70,0,0
105732,-118.262879788639,4,1,0,70,0,0
105882,-116.816180068504,4,1,0,70,0,0
106032,-115.404447309056,4,1,0,70,0,0
106182,-114.026428912594,4,1,0,70,0,0
106332,-112.680931403398,4,1,0,70,0,0
106482,-111.366816980252,4,1,0,70,0,0
106632,-110.083000307409,4,1,0,70,0,0
106707,-109.45212806602,4,1,0,70,0,0
106782,-108.828445524996,4,1,0,70,0,0
106932,-107.602163461538,4,1,0,70,0,0
107082,-106.403209032833,4,1,0,70,0,0
107232,-105.230678812812,4,1,0,70,0,0
107382,-104.083708763261,4,1,0,70,0,0
107532,-102.961472110408,4,1,0,70,0,0
107682,-101.863177357417,4,1,0,70,0,0
107757,-101.322770036076,4,1,0,70,0,0
107907,-100.258976692098,4,1,0,70,0,0
107944,-100,4,1,0,70,0,0
108057,-98.159509202454,4,1,0,70,0,0
108132,-96.3855421686747,4,1,0,70,0,0
108207,-94.6745562130178,4,1,0,70,0,0
108282,-93.0232558139535,4,1,0,70,0,0
108357,-91.4285714285714,4,1,0,70,0,0
108432,-89.8876404494382,4,1,0,70,0,0
108507,-88.3977900552486,4,1,0,70,0,0
108582,-86.9565217391304,4,1,0,70,0,0
108657,-85.5614973262032,4,1,0,70,0,0
108732,-84.2105263157895,4,1,0,70,0,0
108807,-82.9015544041451,4,1,0,70,0,0
108882,-81.6326530612245,4,1,0,70,0,0
108957,-80.4020100502513,4,1,0,70,0,0
109032,-79.2079207920792,4,1,0,70,0,0
109069,-78.6318065657559,4,1,0,70,0,0
109107,-78.0487804878049,4,1,0,70,0,0
109144,-77.4893452150329,4,1,0,70,0,0
109182,-76.9230769230769,4,1,0,70,0,0
109257,-78.125,4,1,0,70,0,0
109332,-79.3650793650794,4,1,0,70,0,0
109407,-80.6451612903226,4,1,0,70,0,0
109482,-81.9672131147541,4,1,0,70,0,0
109582,-83.7988826815643,4,1,0,70,0,0
109682,-85.7142857142857,4,1,0,70,0,0
109782,-87.719298245614,4,1,0,70,0,0
109932,-90.9090909090909,4,1,0,70,0,0
109982,-92.0245398773006,4,1,0,70,0,0
110032,-93.167701863354,4,1,0,70,0,0
110082,-94.3396226415094,4,1,0,70,0,0
110232,-98.0392156862745,4,1,0,70,0,0
110307,-99.009900990099,4,1,0,70,0,0
110385,-100,4,1,0,70,0,1
111732,-101.351351351351,4,1,0,70,0,1
111807,-102.040816326531,4,1,0,70,0,1
111882,-102.739726027397,4,1,0,70,0,1
111957,-103.448275862069,4,1,0,70,0,1
112032,-104.166666666667,4,1,0,70,0,1
112107,-104.895104895105,4,1,0,70,0,1
112182,-105.633802816901,4,1,0,70,0,1
112232,-106.132075471698,4,1,0,70,0,1
112282,-106.635071090047,4,1,0,70,0,1
112332,-107.142857142857,4,1,0,70,0,1
112407,-107.913669064748,4,1,0,70,0,1
112482,-108.695652173913,4,1,0,70,0,1
112557,-109.489051094891,4,1,0,70,0,1
112632,-110.294117647059,4,1,0,70,0,1
112707,-111.111111111111,4,1,0,70,0,1
112785,-100,4,1,0,70,0,1
114585,-100,4,1,0,70,0,0
115185,-100,4,1,0,70,0,1
116607,-100.77519379845,4,1,0,70,0,1
116682,-101.5625,4,1,0,70,0,1
116757,-102.362204724409,4,1,0,70,0,1
116832,-103.174603174603,4,1,0,70,0,1
116907,-104,4,1,0,70,0,1
116982,-104.838709677419,4,1,0,70,0,1
117057,-105.691056910569,4,1,0,70,0,1
117132,-106.55737704918,4,1,0,70,0,1
117207,-107.438016528926,4,1,0,70,0,1
117282,-108.333333333333,4,1,0,70,0,1
117357,-109.243697478992,4,1,0,70,0,1
117432,-110.169491525424,4,1,0,70,0,1
117507,-111.111111111111,4,1,0,70,0,1
117585,-100,4,1,0,70,0,1
119385,-100,4,1,0,70,0,0
119685,-102.040816326531,4,1,0,70,0,0
119835,-104.166666666667,4,1,0,70,0,0
119885,-106.382978723404,4,1,0,70,0,0
119935,-108.695652173913,4,1,0,70,0,0
119985,-66.6666666666667,4,1,0,70,0,1
120135,-100,4,1,0,70,0,1
121182,-100.62893081761,4,1,0,70,0,1
121332,-101.910828025478,4,1,0,70,0,1
121407,-102.564102564103,4,1,0,70,0,1
121482,-103.225806451613,4,1,0,70,0,1
121557,-103.896103896104,4,1,0,70,0,1
121632,-104.575163398693,4,1,0,70,0,1
121707,-105.263157894737,4,1,0,70,0,1
121782,-105.960264900662,4,1,0,70,0,1
121857,-106.666666666667,4,1,0,70,0,1
121932,-107.38255033557,4,1,0,70,0,1
122007,-108.108108108108,4,1,0,70,0,1
122082,-108.843537414966,4,1,0,70,0,1
122157,-109.58904109589,4,1,0,70,0,1
122232,-110.344827586207,4,1,0,70,0,1
122307,-111.111111111111,4,1,0,70,0,1
122385,-100,4,1,0,70,0,1
123582,-100,4,1,0,70,0,1
123585,-100,4,1,0,70,0,0
123732,-101.351351351351,4,1,0,70,0,0
123807,-102.040816326531,4,1,0,70,0,0
123882,-102.739726027397,4,1,0,70,0,0
123932,-103.211009174312,4,1,0,70,0,0
123982,-103.6866359447,4,1,0,70,0,0
124182,-105.633802816901,4,1,0,70,0,0
124332,-107.142857142857,4,1,0,70,0,0
124407,-107.913669064748,4,1,0,70,0,0
124482,-108.695652173913,4,1,0,70,0,0
124632,-110.294117647059,4,1,0,70,0,0
124707,-111.111111111111,4,1,0,70,0,0
124785,-100,4,1,0,70,0,1
125982,-100.62893081761,4,1,0,70,0,1
126132,-101.910828025478,4,1,0,70,0,1
126207,-102.564102564103,4,1,0,70,0,1
126282,-103.225806451613,4,1,0,70,0,1
126357,-103.896103896104,4,1,0,70,0,1
126432,-104.575163398693,4,1,0,70,0,1
126507,-105.263157894737,4,1,0,70,0,1
126582,-105.960264900662,4,1,0,70,0,1
126657,-106.666666666667,4,1,0,70,0,1
126732,-107.38255033557,4,1,0,70,0,1
126807,-108.108108108108,4,1,0,70,0,1
126882,-108.843537414966,4,1,0,70,0,1
126957,-109.58904109589,4,1,0,70,0,1
127032,-110.344827586207,4,1,0,70,0,1
127107,-111.111111111111,4,1,0,70,0,1
127185,-100,4,1,0,70,0,1
128985,-100,4,1,0,70,0,0
129585,-100,4,1,0,70,0,1
133785,-100,4,1,0,70,0,0
134085,-100,4,1,0,40,0,0
134385,-100,4,1,0,70,0,1
135582,-100.62893081761,4,1,0,70,0,1
135732,-101.910828025478,4,1,0,70,0,1
135807,-102.564102564103,4,1,0,70,0,1
135882,-103.225806451613,4,1,0,70,0,1
135957,-103.896103896104,4,1,0,70,0,1
136032,-104.575163398693,4,1,0,70,0,1
136107,-105.263157894737,4,1,0,70,0,1
136182,-105.960264900662,4,1,0,70,0,1
136257,-106.666666666667,4,1,0,70,0,1
136332,-107.38255033557,4,1,0,70,0,1
136407,-108.108108108108,4,1,0,70,0,1
136482,-108.843537414966,4,1,0,70,0,1
136557,-109.58904109589,4,1,0,70,0,1
136632,-110.344827586207,4,1,0,70,0,1
136707,-111.111111111111,4,1,0,70,0,1
136785,-99.9999999999999,4,1,0,70,0,1
138585,-100,4,1,0,70,0,0
138885,-100,4,1,0,40,0,0
139185,-100,4,1,0,70,0,1
143385,-100,4,1,0,70,0,0
143760,-100,4,1,0,40,0,0
143985,-100,4,1,0,70,0,1
144132,-99.5850622406639,4,1,0,70,0,1
144207,-99.3788819875776,4,1,0,70,0,1
144282,-99.1735537190083,4,1,0,70,0,1
144432,-98.7654320987654,4,1,0,70,0,1
144582,-98.3606557377049,4,1,0,70,0,1
144657,-98.159509202454,4,1,0,70,0,1
144732,-97.9591836734694,4,1,0,70,0,1
144882,-97.5609756097561,4,1,0,70,0,1
145032,-97.165991902834,4,1,0,70,0,1
145107,-96.969696969697,4,1,0,70,0,1
145182,-96.7741935483871,4,1,0,70,0,1
145332,-96.3855421686747,4,1,0,70,0,1
145407,-96.1923847695391,4,1,0,70,0,1
145482,-96,4,1,0,70,0,1
145632,-95.6175298804781,4,1,0,70,0,1
145782,-95.2380952380952,4,1,0,70,0,1
145857,-95.049504950495,4,1,0,70,0,1
145932,-94.8616600790514,4,1,0,70,0,1
146082,-94.488188976378,4,1,0,70,0,1
146232,-94.1176470588235,4,1,0,70,0,1
146307,-93.9334637964775,4,1,0,70,0,1
146382,-93.75,4,1,0,70,0,1
146457,-93.5672514619883,4,1,0,70,0,1
146532,-93.3852140077821,4,1,0,70,0,1
146607,-93.2038834951456,4,1,0,70,0,1
146682,-93.0232558139535,4,1,0,70,0,1
146757,-92.8433268858801,4,1,0,70,0,1
146832,-92.6640926640926,4,1,0,70,0,1
146907,-92.485549132948,4,1,0,70,0,1
146982,-92.3076923076923,4,1,0,70,0,1
147057,-92.1305182341651,4,1,0,70,0,1
147132,-91.9540229885057,4,1,0,70,0,1
147207,-91.7782026768642,4,1,0,70,0,1
147282,-91.6030534351145,4,1,0,70,0,1
147357,-91.4285714285714,4,1,0,70,0,1
147432,-91.254752851711,4,1,0,70,0,1
147482,-91.1392405063291,4,1,0,70,0,1
147532,-91.02402022756,4,1,0,70,0,1
147585,-90.9090909090909,4,1,0,70,0,0
147732,-91.9540229885057,4,1,0,70,0,0
147807,-92.485549132948,4,1,0,70,0,0
147957,-93.5672514619883,4,1,0,70,0,0
148032,-94.1176470588235,4,1,0,70,0,0
148182,-95.2380952380952,4,1,0,70,0,0
148332,-97.5609756097561,4,1,0,70,0,0
148632,-98.7654320987654,4,1,0,70,0,0
148785,-100,4,1,0,70,0,1
157182,-101.351351351351,4,1,0,70,0,1
157332,-102.739726027397,4,1,0,70,0,1
157407,-103.448275862069,4,1,0,70,0,1
157482,-104.166666666667,4,1,0,70,0,1
157557,-104.895104895105,4,1,0,70,0,1
157632,-105.633802816901,4,1,0,70,0,1
157707,-106.382978723404,4,1,0,70,0,1
157782,-107.142857142857,4,1,0,70,0,1
157857,-107.913669064748,4,1,0,70,0,1
157932,-108.695652173913,4,1,0,70,0,1
158007,-109.489051094891,4,1,0,70,0,1
158082,-110.294117647059,4,1,0,70,0,1
158157,-111.111111111111,4,1,0,70,0,1
158385,-100,4,1,0,70,0,1
166782,-100.719424460432,4,1,0,70,0,1
166932,-102.189781021898,4,1,0,70,0,1
167007,-102.941176470588,4,1,0,70,0,1
167157,-104.477611940299,4,1,0,70,0,1
167232,-105.263157894737,4,1,0,70,0,1
167307,-106.060606060606,4,1,0,70,0,1
167382,-106.870229007634,4,1,0,70,0,1
167532,-108.527131782946,4,1,0,70,0,1
167682,-110.236220472441,4,1,0,70,0,1
167757,-111.111111111111,4,1,0,70,0,1
167985,-76.9230769230769,4,1,0,70,0,0
168285,-100,4,1,0,70,0,0
170085,-100,4,1,0,35,0,0
170160,-107.142857142857,4,1,0,35,0,0
170232,-115.384615384615,4,1,0,35,0,0
170310,-125,4,1,0,35,0,0
170385,-100,4,1,0,70,0,0
179685,-100,4,1,0,35,0,0
179760,-107.146683810136,4,1,0,35,0,0
179835,-115.380177685474,4,1,0,35,0,0
179910,-125,4,1,0,35,0,0
179985,-100,4,1,0,70,0,0
187182,-133.333333333333,4,1,0,70,0,0
187482,-131.764705882353,4,1,0,70,0,0
187632,-130.994152046784,4,1,0,70,0,0
187782,-130.232558139535,4,1,0,70,0,0
188082,-128.735632183908,4,1,0,70,0,0
188382,-127.272727272727,4,1,0,70,0,0
188682,-125.842696629213,4,1,0,70,0,0
188832,-125.139664804469,4,1,0,70,0,0
188982,-124.444444444444,4,1,0,70,0,0
189132,-123.756906077348,4,1,0,70,0,0
189207,-123.415977961433,4,1,0,70,0,0
189432,-122.404371584699,4,1,0,70,0,0
189582,-121.739130434783,4,1,0,70,0,0
189882,-120.430107526882,4,1,0,70,0,0
190032,-119.786096256684,4,1,0,70,0,0
190182,-119.148936170213,4,1,0,70,0,0
190482,-117.894736842105,4,1,0,70,0,0
190782,-116.666666666667,4,1,0,70,0,0
191082,-115.463917525773,4,1,0,70,0,0
191382,-114.285714285714,4,1,0,70,0,0
191532,-113.705583756345,4,1,0,70,0,0
191682,-113.131313131313,4,1,0,70,0,0
191982,-112,4,1,0,70,0,0
192207,-111.166253101737,4,1,0,70,0,0
192432,-110.344827586207,4,1,0,70,0,0
192582,-109.803921568627,4,1,0,70,0,0
192807,-109.002433090024,4,1,0,70,0,0
193032,-108.212560386473,4,1,0,70,0,0
193182,-107.692307692308,4,1,0,70,0,0
193407,-106.921241050119,4,1,0,70,0,0
193632,-106.161137440758,4,1,0,70,0,0
193782,-105.660377358491,4,1,0,70,0,0
194007,-104.918032786885,4,1,0,70,0,0
194232,-104.186046511628,4,1,0,70,0,0
194382,-103.703703703704,4,1,0,70,0,0
194457,-103.464203233256,4,1,0,70,0,0
194532,-103.225806451613,4,1,0,70,0,0
194607,-102.988505747126,4,1,0,70,0,0
194682,-102.752293577982,4,1,0,70,0,0
194757,-102.517162471396,4,1,0,70,0,0
194832,-102.283105022831,4,1,0,70,0,0
194907,-102.050113895216,4,1,0,70,0,0
194982,-101.818181818182,4,1,0,70,0,0
195057,-101.587301587302,4,1,0,70,0,0
195132,-101.357466063348,4,1,0,70,0,0
195207,-101.128668171558,4,1,0,70,0,0
195282,-100.900900900901,4,1,0,70,0,0
195357,-100.674157303371,4,1,0,70,0,0
195432,-100.448430493274,4,1,0,70,0,0
195507,-100.223713646532,4,1,0,70,0,0
195582,-100,4,1,0,70,0,0
196785,-50,4,1,0,70,0,1
197985,-100,4,1,0,70,0,0
198182,-100.77519379845,4,1,0,70,0,0
198232,-101.5625,4,1,0,70,0,0
198282,-102.362204724409,4,1,0,70,0,0
198432,-104.838709677419,4,1,0,70,0,0
198482,-105.691056910569,4,1,0,70,0,0
198532,-106.55737704918,4,1,0,70,0,0
198582,-107.438016528926,4,1,0,70,0,0
198632,-108.333333333333,4,1,0,70,0,0
198682,-109.243697478992,4,1,0,70,0,0
198732,-110.169491525424,4,1,0,70,0,0
198882,-113.04347826087,4,1,0,70,0,0
198957,-114.537444933921,4,1,0,70,0,0
199032,-116.071428571429,4,1,0,70,0,0
199107,-117.647058823529,4,1,0,70,0,0
199185,-50,4,1,0,70,0,1
200385,-100,4,1,0,70,0,0
200582,-100.755667506297,4,1,0,70,0,0
200632,-101.522842639594,4,1,0,70,0,0
200682,-102.30179028133,4,1,0,70,0,0
200832,-104.712041884817,4,1,0,70,0,0
200982,-107.238605898123,4,1,0,70,0,0
201082,-108.991825613079,4,1,0,70,0,0
201282,-112.676056338028,4,1,0,70,0,0
201332,-113.636363636364,4,1,0,70,0,0
201382,-114.613180515759,4,1,0,70,0,0
201432,-115.606936416185,4,1,0,70,0,0
201482,-116.618075801749,4,1,0,70,0,0
201532,-117.647058823529,4,1,0,70,0,0
201585,-50,4,1,0,70,0,1
202785,-100,4,1,0,70,0,0
202982,-100.77519379845,4,1,0,70,0,0
203032,-101.5625,4,1,0,70,0,0
203082,-102.362204724409,4,1,0,70,0,0
203132,-103.174603174603,4,1,0,70,0,0
203182,-104,4,1,0,70,0,0
203232,-104.838709677419,4,1,0,70,0,0
203282,-105.691056910569,4,1,0,70,0,0
203332,-106.55737704918,4,1,0,70,0,0
203382,-107.438016528926,4,1,0,70,0,0
203432,-108.333333333333,4,1,0,70,0,0
203682,-113.04347826087,4,1,0,70,0,0
203757,-114.537444933921,4,1,0,70,0,0
203832,-116.071428571429,4,1,0,70,0,0
203907,-117.647058823529,4,1,0,70,0,0
203985,-50,4,1,0,70,0,1
204885,-100,4,1,0,70,0,1
205185,-100,4,1,0,70,0,0
206385,-50,4,1,0,70,0,1
207585,-100,4,1,0,70,0,0
207807,-101.26582278481,4,1,0,70,0,0
207882,-102.564102564103,4,1,0,70,0,0
207932,-103.448275862069,4,1,0,70,0,0
207982,-104.347826086957,4,1,0,70,0,0
208032,-105.263157894737,4,1,0,70,0,0
208082,-106.194690265487,4,1,0,70,0,0
208132,-107.142857142857,4,1,0,70,0,0
208182,-108.108108108108,4,1,0,70,0,0
208332,-111.111111111111,4,1,0,70,0,0
208382,-112.14953271028,4,1,0,70,0,0
208432,-113.207547169811,4,1,0,70,0,0
208482,-114.285714285714,4,1,0,70,0,0
208532,-115.384615384615,4,1,0,70,0,0
208582,-116.504854368932,4,1,0,70,0,0
208632,-117.647058823529,4,1,0,70,0,0
208785,-50,4,1,0,70,0,1
209985,-100,4,1,0,70,0,0
210207,-101.26582278481,4,1,0,70,0,0
210282,-102.564102564103,4,1,0,70,0,0
210332,-103.448275862069,4,1,0,70,0,0
210382,-104.347826086957,4,1,0,70,0,0
210432,-105.263157894737,4,1,0,70,0,0
210482,-106.194690265487,4,1,0,70,0,0
210532,-107.142857142857,4,1,0,70,0,0
210732,-111.111111111111,4,1,0,70,0,0
210807,-112.676056338028,4,1,0,70,0,0
210882,-114.285714285714,4,1,0,70,0,0
211032,-117.647058823529,4,1,0,70,0,0
211185,-50,4,1,0,70,0,1
212385,-100,4,1,0,70,0,0
212569,-100.620493040416,4,1,0,70,0,0
212682,-102.564102564103,4,1,0,70,0,0
212757,-103.896103896104,4,1,0,70,0,0
212832,-105.263157894737,4,1,0,70,0,0
212907,-106.666666666667,4,1,0,70,0,0
212982,-108.108108108108,4,1,0,70,0,0
213032,-109.090909090909,4,1,0,70,0,0
213082,-110.091743119266,4,1,0,70,0,0
213132,-111.111111111111,4,1,0,70,0,0
213182,-112.14953271028,4,1,0,70,0,0
213232,-113.207547169811,4,1,0,70,0,0
213282,-114.285714285714,4,1,0,70,0,0
213332,-115.384615384615,4,1,0,70,0,0
213382,-116.504854368932,4,1,0,70,0,0
213432,-117.647058823529,4,1,0,70,0,0
213585,-50,4,1,0,70,0,1
214485,-100,4,1,0,70,0,1
214785,-100,4,1,0,70,0,0
215985,-100,4,1,0,70,0,1
217182,-100.946372239748,4,1,0,70,0,1
217332,-102.893890675241,4,1,0,70,0,1
217407,-103.896103896104,4,1,0,70,0,1
217482,-104.918032786885,4,1,0,70,0,1
217532,-105.610561056106,4,1,0,70,0,1
217582,-106.312292358804,4,1,0,70,0,1
217632,-107.023411371237,4,1,0,70,0,1
217682,-107.744107744108,4,1,0,70,0,1
217732,-108.474576271186,4,1,0,70,0,1
217782,-109.215017064846,4,1,0,70,0,1
217932,-111.498257839721,4,1,0,70,0,1
218007,-112.676056338028,4,1,0,70,0,1
218157,-115.107913669065,4,1,0,70,0,1
218232,-116.363636363636,4,1,0,70,0,1
218307,-117.647058823529,4,1,0,70,0,1
218385,-100,4,1,0,70,0,1
219582,-101.761252446184,4,1,0,70,0,1
219732,-103.585657370518,4,1,0,70,0,1
219782,-104.208416833667,4,1,0,70,0,1
219832,-104.838709677419,4,1,0,70,0,1
219882,-105.476673427992,4,1,0,70,0,1
220032,-107.438016528926,4,1,0,70,0,1
220182,-109.473684210526,4,1,0,70,0,1
220257,-110.520722635494,4,1,0,70,0,1
220332,-111.587982832618,4,1,0,70,0,1
220407,-112.676056338028,4,1,0,70,0,1
220482,-113.785557986871,4,1,0,70,0,1
220532,-114.537444933921,4,1,0,70,0,1
220582,-115.29933481153,4,1,0,70,0,1
220632,-116.071428571429,4,1,0,70,0,1
220682,-116.85393258427,4,1,0,70,0,1
220732,-117.647058823529,4,1,0,70,0,1
220785,-100,4,1,0,70,0,1
221982,-100.946372239748,4,1,0,70,0,1
222132,-102.893890675241,4,1,0,70,0,1
222207,-103.896103896104,4,1,0,70,0,1
222282,-104.918032786885,4,1,0,70,0,1
222357,-105.960264900662,4,1,0,70,0,1
222432,-107.023411371237,4,1,0,70,0,1
222507,-108.108108108108,4,1,0,70,0,1
222582,-109.215017064846,4,1,0,70,0,1
222732,-111.498257839721,4,1,0,70,0,1
222807,-112.676056338028,4,1,0,70,0,1
222957,-115.107913669065,4,1,0,70,0,1
223032,-116.363636363636,4,1,0,70,0,1
223107,-117.647058823529,4,1,0,70,0,1
223185,-100,4,1,0,70,0,1
226782,-101.910828025478,4,1,0,70,0,1
226932,-103.896103896104,4,1,0,70,0,1
227007,-104.918032786885,4,1,0,70,0,1
227082,-105.960264900662,4,1,0,70,0,1
227132,-106.666666666667,4,1,0,70,0,1
227182,-107.38255033557,4,1,0,70,0,1
227232,-108.108108108108,4,1,0,70,0,1
227282,-108.843537414966,4,1,0,70,0,1
227332,-109.58904109589,4,1,0,70,0,1
227382,-110.344827586207,4,1,0,70,0,1
227532,-112.676056338028,4,1,0,70,0,1
227569,-113.266317428855,4,1,0,70,0,1
227607,-113.879003558719,4,1,0,70,0,1
227682,-115.107913669065,4,1,0,70,0,1
227757,-116.363636363636,4,1,0,70,0,1
227794,-116.993272886809,4,1,0,70,0,1
227832,-117.647058823529,4,1,0,70,0,1
227985,-100,4,1,0,70,0,1
229182,-100.946372239748,4,1,0,70,0,1
229332,-102.893890675241,4,1,0,70,0,1
229407,-103.896103896104,4,1,0,70,0,1
229482,-104.918032786885,4,1,0,70,0,1
229532,-105.610561056106,4,1,0,70,0,1
229582,-106.312292358804,4,1,0,70,0,1
229632,-107.023411371237,4,1,0,70,0,1
229682,-107.744107744108,4,1,0,70,0,1
229732,-108.474576271186,4,1,0,70,0,1
229782,-109.215017064846,4,1,0,70,0,1
229932,-111.498257839721,4,1,0,70,0,1
230007,-112.676056338028,4,1,0,70,0,1
230082,-113.879003558719,4,1,0,70,0,1
230232,-116.363636363636,4,1,0,70,0,1
230307,-117.647058823529,4,1,0,70,0,1
230385,-100,4,1,0,70,0,1
231582,-101.83299389002,4,1,0,70,0,1
231657,-102.774922918808,4,1,0,70,0,1
231732,-103.734439834025,4,1,0,70,0,1
231882,-105.708245243129,4,1,0,70,0,1
231957,-106.723585912487,4,1,0,70,0,1
232032,-107.758620689655,4,1,0,70,0,1
232107,-108.813928182807,4,1,0,70,0,1
232182,-109.89010989011,4,1,0,70,0,1
232332,-112.107623318386,4,1,0,70,0,1
232382,-112.866817155756,4,1,0,70,0,1
232432,-113.636363636364,4,1,0,70,0,1
232482,-114.41647597254,4,1,0,70,0,1
232532,-115.207373271889,4,1,0,70,0,1
232582,-116.009280742459,4,1,0,70,0,1
232635,-117.647058823529,4,1,0,70,0,1
232785,-100,4,1,0,70,0,1
235185,-100,4,1,0,70,0,0
236385,-102.564102564103,4,1,0,70,0,0
237585,-105.263157894737,4,1,0,70,0,0
238785,-108.108108108108,4,1,0,70,0,0
239985,-111.111111111111,4,1,0,50,0,0
241185,-114.285714285714,4,1,0,50,0,0
242385,-117.647058823529,4,1,0,50,0,0
243585,-121.212121212121,4,1,0,50,0,0
244785,-125,4,1,0,30,0,0
245985,-133.333333333333,4,1,0,30,0,0
247185,-142.857142857143,4,1,0,30,0,0
248385,-153.846153846154,4,1,0,30,0,0
249585,-166.666666666667,4,1,0,30,0,0
250785,-181.818181818182,4,1,0,30,0,0
251985,-200,4,1,0,15,0,0
254385,-200,4,1,0,35,0,0
254832,-201.450443190975,4,1,0,35,0,0
254982,-201.938610662359,4,1,0,35,0,0
255282,-202.922077922078,4,1,0,35,0,0
255432,-203.417412530513,4,1,0,35,0,0
255732,-204.415372035977,4,1,0,35,0,0
255882,-204.918032786885,4,1,0,35,0,0
256032,-205.423171733772,4,1,0,35,0,0
256332,-206.440957886045,4,1,0,35,0,0
256482,-206.953642384106,4,1,0,35,0,0
256632,-207.46887966805,4,1,0,35,0,0
256782,-207.986688851913,4,1,0,35,0,0
257232,-209.555741827326,4,1,0,35,0,0
257382,-210.084033613445,4,1,0,35,0,0
257682,-211.148648648649,4,1,0,35,0,0
257832,-211.685012701101,4,1,0,35,0,0
257982,-212.224108658744,4,1,0,35,0,0
258132,-212.765957446809,4,1,0,35,0,0
258282,-213.310580204778,4,1,0,35,0,0
258432,-213.857998289136,4,1,0,35,0,0
258582,-214.408233276158,4,1,0,35,0,0
258732,-214.961306964746,4,1,0,35,0,0
259182,-216.637781629116,4,1,0,35,0,0
259782,-218.914185639229,4,1,0,35,0,0
260082,-220.070422535211,4,1,0,35,0,0
260232,-220.653133274492,4,1,0,35,0,0
260532,-221.827861579414,4,1,0,35,0,0
260682,-222.419928825623,4,1,0,35,0,0
260832,-223.015165031222,4,1,0,35,0,0
260982,-223.613595706619,4,1,0,35,0,0
261132,-224.215246636771,4,1,0,35,0,0
261432,-225.428313796213,4,1,0,35,0,0
261582,-226.039783001808,4,1,0,35,0,0
261882,-227.272727272727,4,1,0,35,0,0
262032,-227.894257064722,4,1,0,35,0,0
262182,-228.519195612431,4,1,0,35,0,0
262482,-229.779411764706,4,1,0,35,0,0
262632,-230.414746543779,4,1,0,35,0,0
262782,-231.053604436229,4,1,0,35,0,0
262932,-231.696014828545,4,1,0,35,0,0
263082,-232.342007434944,4,1,0,35,0,0
263232,-232.991612301957,4,1,0,35,0,0
263382,-233.644859813084,4,1,0,35,0,0
263532,-234.301780693533,4,1,0,35,0,0
263982,-236.294896030246,4,1,0,35,0,0
264582,-239.005736137667,4,1,0,35,0,0
265032,-241.080038572806,4,1,0,35,0,0
265332,-242.483026188167,4,1,0,35,0,0
265632,-243.90243902439,4,1,0,35,0,0
265782,-244.618395303327,4,1,0,35,0,0
265932,-245.338567222767,4,1,0,35,0,0
266232,-246.791707798618,4,1,0,35,0,0
266382,-247.524752475248,4,1,0,35,0,0
266682,-249.003984063745,4,1,0,35,0,0
266832,-249.75024975025,4,1,0,35,0,0
266982,-250.501002004008,4,1,0,35,0,0
267132,-251.256281407035,4,1,0,35,0,0
267432,-252.780586450961,4,1,0,35,0,0
267582,-253.549695740365,4,1,0,35,0,0
267882,-255.102040816327,4,1,0,35,0,0
268032,-255.885363357216,4,1,0,35,0,0
268182,-256.673511293634,4,1,0,35,0,0
268332,-257.466529351184,4,1,0,35,0,0
268482,-258.264462809917,4,1,0,35,0,0
268782,-259.87525987526,4,1,0,35,0,0
269232,-262.329485834208,4,1,0,35,0,0
269382,-263.157894736842,4,1,0,35,0,0
269682,-264.830508474576,4,1,0,35,0,0
269832,-265.67481402763,4,1,0,35,0,0
270132,-267.379679144385,4,1,0,35,0,0
270282,-268.240343347639,4,1,0,35,0,0
270432,-269.106566200215,4,1,0,35,0,0
270582,-269.978401727862,4,1,0,35,0,0
270732,-270.855904658722,4,1,0,35,0,0
271032,-272.628135223555,4,1,0,35,0,0
271182,-273.522975929978,4,1,0,35,0,0
271482,-275.330396475771,4,1,0,35,0,0
271632,-276.243093922652,4,1,0,35,0,0
271782,-277.161862527716,4,1,0,35,0,0
272082,-279.017857142857,4,1,0,35,0,0
272232,-279.955207166853,4,1,0,35,0,0
272382,-280.898876404494,4,1,0,35,0,0
272532,-281.84892897407,4,1,0,35,0,0
272682,-282.805429864253,4,1,0,35,0,0
272832,-283.768444948922,4,1,0,35,0,0
272982,-284.738041002278,4,1,0,35,0,0
273132,-285.714285714286,4,1,0,35,0,0
273585,-133.333333333333,4,1,0,60,0,0
293985,-250,4,1,0,60,0,0
295185,-333.333333333333,4,1,0,60,0,0
296385,-500,4,1,0,60,0,0
297135,-100,4,1,0,80,0,0
297285,-76.9230769230769,4,1,0,80,0,0
297585,-100,4,1,0,80,0,0
297619,-101.542952460384,4,1,0,80,0,0
297732,-106.564551422319,4,1,0,80,0,0
297769,-108.318505338078,4,1,0,80,0,0
297882,-114.051522248244,4,1,0,80,0,0
297919,-116.06291706387,4,1,0,80,0,0
298032,-122.670025188917,4,1,0,80,0,0
298069,-125,4,1,0,80,0,0
298185,-100,4,1,0,80,0,1
298485,-90.9090909090909,4,1,0,80,0,1
298635,-100,4,1,0,80,0,1
298935,-90.9090909090909,4,1,0,80,0,1
299085,-100,4,1,0,80,0,1
303285,-90.9090909090909,4,1,0,80,0,1
303435,-100,4,1,0,80,0,1
303735,-90.9090909090909,4,1,0,80,0,1
303885,-100,4,1,0,80,0,1
308085,-90.9090909090909,4,1,0,80,0,1
308235,-100,4,1,0,80,0,1
308535,-90.9090909090909,4,1,0,80,0,1
308685,-100,4,1,0,80,0,1
312885,-90.9090909090909,4,1,0,80,0,1
313035,-100,4,1,0,80,0,1
313335,-90.9090909090909,4,1,0,80,0,1
313485,-100,4,1,0,80,0,1
316785,-100,4,1,0,80,0,0
317382,-100.340136054422,4,1,0,80,0,0
317682,-101.027397260274,4,1,0,80,0,0
318282,-102.430555555556,4,1,0,80,0,0
318582,-103.146853146853,4,1,0,80,0,0
318732,-103.508771929825,4,1,0,80,0,0
318882,-103.87323943662,4,1,0,80,0,0
319182,-104.609929078014,4,1,0,80,0,0
319632,-105.73476702509,4,1,0,80,0,0
319782,-106.115107913669,4,1,0,80,0,0
320082,-106.884057971014,4,1,0,80,0,0
320532,-108.058608058608,4,1,0,80,0,0
320682,-108.455882352941,4,1,0,80,0,0
320982,-109.259259259259,4,1,0,80,0,0
321132,-109.665427509294,4,1,0,80,0,0
321282,-110.074626865672,4,1,0,80,0,0
321582,-110.902255639098,4,1,0,80,0,0
322032,-112.167300380228,4,1,0,80,0,0
322182,-112.595419847328,4,1,0,80,0,0
322482,-113.461538461538,4,1,0,80,0,0
323082,-115.234375,4,1,0,80,0,0
323382,-116.141732283465,4,1,0,80,0,0
323532,-116.600790513834,4,1,0,80,0,0
323682,-117.063492063492,4,1,0,80,0,0
323982,-118,4,1,0,80,0,0
324432,-119.433198380567,4,1,0,80,0,0
324582,-119.918699186992,4,1,0,80,0,0
324882,-120.901639344262,4,1,0,80,0,0
325332,-122.406639004149,4,1,0,80,0,0
325482,-122.916666666667,4,1,0,80,0,0
325782,-123.949579831933,4,1,0,80,0,0
325932,-124.472573839662,4,1,0,80,0,0
326082,-125,4,1,0,80,0,0
326832,-122.53829321663,4,1,0,80,0,0
326982,-121.739130434783,4,1,0,80,0,0
327282,-120.171673819742,4,1,0,80,0,0
327582,-118.64406779661,4,1,0,80,0,0
328032,-116.424116424116,4,1,0,80,0,0
328182,-115.702479338843,4,1,0,80,0,0
328482,-114.285714285714,4,1,0,80,0,0
328632,-113.590263691684,4,1,0,80,0,0
328782,-112.903225806452,4,1,0,80,0,0
329232,-110.891089108911,4,1,0,80,0,0
329382,-110.236220472441,4,1,0,80,0,0
329682,-108.949416342412,4,1,0,80,0,0
329982,-107.692307692308,4,1,0,80,0,0
330432,-105.86011342155,4,1,0,80,0,0
330582,-105.263157894737,4,1,0,80,0,0
330882,-104.089219330855,4,1,0,80,0,0
331032,-103.512014787431,4,1,0,80,0,0
331182,-102.941176470588,4,1,0,80,0,0
331482,-101.818181818182,4,1,0,80,0,0
331632,-101.26582278481,4,1,0,80,0,0
331782,-100.719424460432,4,1,0,80,0,0
332082,-99.644128113879,4,1,0,80,0,0
332232,-99.1150442477876,4,1,0,80,0,0
332382,-98.5915492957746,4,1,0,80,0,0
332682,-97.5609756097561,4,1,0,80,0,0
332832,-97.053726169844,4,1,0,80,0,0
332982,-96.551724137931,4,1,0,80,0,0
333282,-95.5631399317406,4,1,0,80,0,0
333432,-95.0764006791171,4,1,0,80,0,0
333582,-94.5945945945946,4,1,0,80,0,0
333732,-94.1176470588235,4,1,0,80,0,0
333882,-93.6454849498328,4,1,0,80,0,0
334032,-93.1780366056572,4,1,0,80,0,0
334182,-92.7152317880795,4,1,0,80,0,0
334257,-92.485549132948,4,1,0,80,0,0
334332,-92.2570016474464,4,1,0,80,0,0
334407,-92.0295809367297,4,1,0,80,0,0
334482,-91.8032786885246,4,1,0,80,0,0
334557,-91.5780866721177,4,1,0,80,0,0
334632,-91.3539967373572,4,1,0,80,0,0
334707,-91.1310008136697,4,1,0,80,0,0
334782,-90.9090909090909,4,1,0,80,0,0
335985,-90.9090909090909,4,1,0,80,0,1
344532,-92.1052631578947,4,1,0,80,0,1
344607,-92.7152317880795,4,1,0,80,0,1
344682,-93.3333333333333,4,1,0,80,0,1
344757,-93.9597315436242,4,1,0,80,0,1
344832,-94.5945945945946,4,1,0,80,0,1
344982,-95.8904109589041,4,1,0,80,0,1
345057,-96.551724137931,4,1,0,80,0,1
345132,-97.2222222222222,4,1,0,80,0,1
345207,-97.9020979020979,4,1,0,80,0,1
345282,-98.5915492957747,4,1,0,80,0,1
345432,-100,4,1,0,80,0,1
345585,-71.4285714285714,4,1,0,80,0,1
345735,-90.9090909090909,4,1,0,80,0,1
353985,-90.9090909090909,4,1,0,80,0,0
354432,-98.5915492957747,4,1,0,80,0,0
354582,-101.449275362319,4,1,0,80,0,0
354882,-107.692307692308,4,1,0,80,0,0
355032,-111.111111111111,4,1,0,80,0,0
355185,-90.9090909090909,4,1,0,80,0,1
363582,-90,4,1,0,80,0,1
363807,-88.6699507389163,4,1,0,80,0,1
364032,-87.378640776699,4,1,0,80,0,1
364182,-86.5384615384615,4,1,0,80,0,1
364482,-84.9056603773585,4,1,0,80,0,1
364632,-84.1121495327103,4,1,0,80,0,1
364782,-83.3333333333333,4,1,0,80,0,1
364932,-83.0860534124629,4,1,0,80,0,1
365007,-82.962962962963,4,1,0,80,0,1
365082,-82.8402366863905,4,1,0,80,0,1
365232,-82.5958702064897,4,1,0,80,0,1
365382,-82.3529411764706,4,1,0,80,0,1
365457,-82.2320117474303,4,1,0,80,0,1
365532,-82.1114369501466,4,1,0,80,0,1
365682,-81.8713450292398,4,1,0,80,0,1
365757,-81.7518248175183,4,1,0,80,0,1
365832,-81.6326530612245,4,1,0,80,0,1
365982,-81.3953488372093,4,1,0,80,0,1
366132,-81.1594202898551,4,1,0,80,0,1
366207,-81.0419681620839,4,1,0,80,0,1
366282,-80.9248554913295,4,1,0,80,0,1
366357,-80.8080808080808,4,1,0,80,0,1
366432,-80.6916426512968,4,1,0,80,0,1
366582,-80.4597701149425,4,1,0,80,0,1
366657,-80.3443328550933,4,1,0,80,0,1
366732,-80.2292263610315,4,1,0,80,0,1
366807,-80.1144492131617,4,1,0,80,0,1
366882,-80,4,1,0,80,0,1
366957,-79.885877318117,4,1,0,80,0,1
367032,-79.7720797720798,4,1,0,80,0,1
367182,-79.5454545454545,4,1,0,80,0,1
367332,-79.3201133144476,4,1,0,80,0,1
367407,-79.2079207920792,4,1,0,80,0,1
367482,-79.0960451977401,4,1,0,80,0,1
367632,-78.8732394366197,4,1,0,80,0,1
367782,-78.6516853932584,4,1,0,80,0,1
367857,-78.5413744740533,4,1,0,80,0,1
367932,-78.4313725490196,4,1,0,80,0,1
368082,-78.2122905027933,4,1,0,80,0,1
368232,-77.9944289693593,4,1,0,80,0,1
368307,-77.8859527121001,4,1,0,80,0,1
368382,-77.7777777777778,4,1,0,80,0,1
368457,-77.6699029126214,4,1,0,80,0,1
368532,-77.5623268698061,4,1,0,80,0,1
368682,-77.3480662983425,4,1,0,80,0,1
368832,-77.1349862258953,4,1,0,80,0,1
368907,-77.0288858321871,4,1,0,80,0,1
368982,-76.9230769230769,4,1,0,80,0,1
369132,-76.7123287671233,4,1,0,80,0,1
369282,-76.5027322404372,4,1,0,80,0,1
369357,-76.3983628922237,4,1,0,80,0,1
369432,-76.2942779291553,4,1,0,80,0,1
369582,-76.0869565217391,4,1,0,80,0,1
369732,-75.8807588075881,4,1,0,80,0,1
369807,-75.7780784844384,4,1,0,80,0,1
369882,-75.6756756756757,4,1,0,80,0,1
370032,-75.4716981132076,4,1,0,80,0,1
370182,-75.2688172043011,4,1,0,80,0,1
370257,-75.1677852348993,4,1,0,80,0,1
370332,-75.0670241286863,4,1,0,80,0,1
370482,-74.8663101604278,4,1,0,80,0,1
370632,-74.6666666666667,4,1,0,80,0,1
370707,-74.5672436750999,4,1,0,80,0,1
370782,-74.468085106383,4,1,0,80,0,1
370932,-74.2705570291777,4,1,0,80,0,1
371007,-74.1721854304636,4,1,0,80,0,1
371082,-74.0740740740741,4,1,0,80,0,1
371232,-73.8786279683377,4,1,0,80,0,1
371382,-73.6842105263158,4,1,0,80,0,1
371457,-73.5873850197109,4,1,0,80,0,1
371532,-73.490813648294,4,1,0,80,0,1
371607,-73.3944954128441,4,1,0,80,0,1
371682,-73.2984293193717,4,1,0,80,0,1
371832,-73.1070496083551,4,1,0,80,0,1
371907,-73.0117340286832,4,1,0,80,0,1
371982,-72.9166666666667,4,1,0,80,0,1
372057,-72.8218465539662,4,1,0,80,0,1
372132,-72.7272727272727,4,1,0,80,0,1
372207,-72.632944228275,4,1,0,80,0,1
372282,-72.5388601036269,4,1,0,80,0,1
372357,-72.4450194049159,4,1,0,80,0,1
372432,-72.3514211886305,4,1,0,80,0,1
372507,-72.258064516129,4,1,0,80,0,1
372582,-72.1649484536082,4,1,0,80,0,1
372657,-72.0720720720721,4,1,0,80,0,1
372732,-71.9794344473008,4,1,0,80,0,1
372807,-71.8870346598203,4,1,0,80,0,1
372882,-71.7948717948718,4,1,0,80,0,1
372957,-71.7029449423816,4,1,0,80,0,1
373032,-71.6112531969309,4,1,0,80,0,1
373107,-71.5197956577267,4,1,0,80,0,1
373185,-71.4285714285714,4,1,0,80,0,0
373632,-101.052631578947,4,1,0,80,0,0
373782,-101.408450704225,4,1,0,80,0,0
374082,-102.127659574468,4,1,0,80,0,0
374232,-102.491103202847,4,1,0,80,0,0
374382,-102.857142857143,4,1,0,80,0,0
374532,-103.225806451613,4,1,0,80,0,0
374682,-103.597122302158,4,1,0,80,0,0
374757,-103.783783783784,4,1,0,80,0,0
374832,-103.971119133574,4,1,0,80,0,0
374982,-104.347826086957,4,1,0,80,0,0
375132,-104.727272727273,4,1,0,80,0,0
375282,-105.109489051095,4,1,0,80,0,0
375357,-105.301645338208,4,1,0,80,0,0
375432,-105.494505494506,4,1,0,80,0,0
375582,-105.882352941176,4,1,0,80,0,0
375732,-106.273062730627,4,1,0,80,0,0
375807,-106.469500924214,4,1,0,80,0,0
375882,-106.666666666667,4,1,0,80,0,0
375957,-106.864564007421,4,1,0,80,0,0
376032,-107.063197026022,4,1,0,80,0,0
376182,-107.462686567164,4,1,0,80,0,0
376332,-107.865168539326,4,1,0,80,0,0
376407,-108.067542213884,4,1,0,80,0,0
376482,-108.270676691729,4,1,0,80,0,0
376557,-108.474576271186,4,1,0,80,0,0
376632,-108.679245283019,4,1,0,80,0,0
376782,-109.090909090909,4,1,0,80,0,0
376857,-109.297912713472,4,1,0,80,0,0
376932,-109.505703422053,4,1,0,80,0,0
377082,-109.923664122137,4,1,0,80,0,0
377157,-110.133843212237,4,1,0,80,0,0
377232,-110.344827586207,4,1,0,80,0,0
377382,-110.769230769231,4,1,0,80,0,0
377457,-110.982658959538,4,1,0,80,0,0
377532,-111.196911196911,4,1,0,80,0,0
377682,-111.627906976744,4,1,0,80,0,0
377757,-111.844660194175,4,1,0,80,0,0
377832,-112.062256809339,4,1,0,80,0,0
377982,-112.5,4,1,0,80,0,0
378132,-112.941176470588,4,1,0,80,0,0
378207,-113.163064833006,4,1,0,80,0,0
378282,-113.385826771654,4,1,0,80,0,0
378432,-113.833992094862,4,1,0,80,0,0
378507,-114.059405940594,4,1,0,80,0,0
378582,-114.285714285714,4,1,0,80,0,0
378732,-114.741035856574,4,1,0,80,0,0
378882,-115.2,4,1,0,80,0,0
379032,-115.66265060241,4,1,0,80,0,0
379182,-116.129032258065,4,1,0,80,0,0
379332,-116.599190283401,4,1,0,80,0,0
379482,-117.073170731707,4,1,0,80,0,0
379557,-117.311608961303,4,1,0,80,0,0
379632,-117.551020408163,4,1,0,80,0,0
379782,-118.032786885246,4,1,0,80,0,0
379932,-118.518518518519,4,1,0,80,0,0
380082,-119.00826446281,4,1,0,80,0,0
380157,-119.254658385093,4,1,0,80,0,0
380232,-119.502074688797,4,1,0,80,0,0
380382,-120,4,1,0,80,0,0
380532,-120.502092050209,4,1,0,80,0,0
380607,-120.754716981132,4,1,0,80,0,0
380682,-121.008403361345,4,1,0,80,0,0
380757,-121.263157894737,4,1,0,80,0,0
380832,-121.518987341772,4,1,0,80,0,0
380982,-122.033898305085,4,1,0,80,0,0
381132,-122.553191489362,4,1,0,80,0,0
381282,-123.076923076923,4,1,0,80,0,0
381357,-123.340471092077,4,1,0,80,0,0
381432,-123.605150214592,4,1,0,80,0,0
381582,-124.137931034483,4,1,0,80,0,0
381657,-124.406047516199,4,1,0,80,0,0
381732,-124.675324675325,4,1,0,80,0,0
381882,-125.217391304348,4,1,0,80,0,0
381957,-125.490196078431,4,1,0,80,0,0
382032,-125.764192139738,4,1,0,80,0,0
382182,-126.315789473684,4,1,0,80,0,0
382257,-126.593406593407,4,1,0,80,0,0
382332,-126.872246696035,4,1,0,80,0,0
382482,-127.433628318584,4,1,0,80,0,0
382557,-127.716186252772,4,1,0,80,0,0
382632,-128,4,1,0,80,0,0
382782,-128.571428571429,4,1,0,80,0,0
382932,-129.14798206278,4,1,0,80,0,0
383232,-130.316742081448,4,1,0,80,0,0
383532,-131.506849315069,4,1,0,80,0,0
383832,-132.718894009217,4,1,0,80,0,0
383982,-133.333333333333,4,1,0,80,0,0
384132,-132.544378698225,4,1,0,80,0,0
384282,-131.764705882353,4,1,0,80,0,0
384357,-131.378299120235,4,1,0,80,0,0
384432,-130.994152046784,4,1,0,80,0,0
384582,-130.232558139535,4,1,0,80,0,0
384732,-129.479768786127,4,1,0,80,0,0
384807,-129.106628242075,4,1,0,80,0,0
384882,-128.735632183908,4,1,0,80,0,0
384957,-128.36676217765,4,1,0,80,0,0
385032,-128,4,1,0,80,0,0
385182,-127.272727272727,4,1,0,80,0,0
385332,-126.553672316384,4,1,0,80,0,0
385407,-126.197183098592,4,1,0,80,0,0
385482,-125.842696629213,4,1,0,80,0,0
385632,-125.139664804469,4,1,0,80,0,0
385707,-124.791086350975,4,1,0,80,0,0
385782,-124.444444444444,4,1,0,80,0,0
385857,-124.09972299169,4,1,0,80,0,0
385932,-123.756906077348,4,1,0,80,0,0
386082,-123.076923076923,4,1,0,80,0,0
386232,-122.404371584699,4,1,0,80,0,0
386307,-122.070844686648,4,1,0,80,0,0
386382,-121.739130434783,4,1,0,80,0,0
386532,-121.081081081081,4,1,0,80,0,0
386682,-120.430107526882,4,1,0,80,0,0
386757,-120.107238605898,4,1,0,80,0,0
386832,-119.786096256684,4,1,0,80,0,0
386982,-119.148936170213,4,1,0,80,0,0
387132,-118.518518518519,4,1,0,80,0,0
387207,-118.20580474934,4,1,0,80,0,0
387282,-117.894736842105,4,1,0,80,0,0
387357,-117.58530183727,4,1,0,80,0,0
387432,-117.277486910995,4,1,0,80,0,0
387582,-116.666666666667,4,1,0,80,0,0
387732,-116.062176165803,4,1,0,80,0,0
387807,-115.762273901809,4,1,0,80,0,0
387882,-115.463917525773,4,1,0,80,0,0
387957,-115.167095115681,4,1,0,80,0,0
388032,-114.871794871795,4,1,0,80,0,0
388182,-114.285714285714,4,1,0,80,0,0
388332,-113.705583756345,4,1,0,80,0,0
388407,-113.417721518987,4,1,0,80,0,0
388482,-113.131313131313,4,1,0,80,0,0
388632,-112.562814070352,4,1,0,80,0,0
388707,-112.280701754386,4,1,0,80,0,0
388782,-112,4,1,0,80,0,0
388932,-111.442786069652,4,1,0,80,0,0
389082,-110.891089108911,4,1,0,80,0,0
389232,-110.344827586207,4,1,0,80,0,0
389382,-109.803921568627,4,1,0,80,0,0
389532,-109.268292682927,4,1,0,80,0,0
389682,-108.73786407767,4,1,0,80,0,0
389832,-108.212560386473,4,1,0,80,0,0
389907,-107.951807228916,4,1,0,80,0,0
389982,-107.692307692308,4,1,0,80,0,0
390132,-107.177033492823,4,1,0,80,0,0
390282,-106.666666666667,4,1,0,80,0,0
390432,-106.161137440758,4,1,0,80,0,0
390582,-105.660377358491,4,1,0,80,0,0
390732,-105.164319248826,4,1,0,80,0,0
390882,-104.672897196262,4,1,0,80,0,0
391032,-104.186046511628,4,1,0,80,0,0
391107,-103.944315545244,4,1,0,80,0,0
391182,-103.703703703704,4,1,0,80,0,0
391257,-103.464203233256,4,1,0,80,0,0
391332,-103.225806451613,4,1,0,80,0,0
391407,-102.988505747126,4,1,0,80,0,0
391482,-102.752293577982,4,1,0,80,0,0
391557,-102.517162471396,4,1,0,80,0,0
391632,-102.283105022831,4,1,0,80,0,0
391707,-102.050113895216,4,1,0,80,0,0
391782,-101.818181818182,4,1,0,80,0,0
391857,-101.587301587302,4,1,0,80,0,0
391932,-101.357466063348,4,1,0,80,0,0
392007,-101.128668171558,4,1,0,80,0,0
392082,-100.900900900901,4,1,0,80,0,0
392157,-100.674157303371,4,1,0,80,0,0
392232,-100.448430493274,4,1,0,80,0,0
392307,-100.223713646532,4,1,0,80,0,0
392382,-100,4,1,0,80,0,0
393285,-133.333333333333,4,1,0,80,0,0
393585,-66.6666666666667,4,1,0,80,0,0
394785,-100,4,1,0,80,0,0

[HitObjects]
256,192,11985,5,8,0:0:0:0:
256,192,13185,1,0,0:0:0:0:
256,192,14235,1,0,0:0:0:0:
256,192,14385,1,8,0:0:0:0:
256,192,15435,1,8,0:0:0:0:
256,192,15585,1,0,0:0:0:0:
256,192,16185,1,8,0:0:0:0:
256,192,16635,1,8,0:0:0:0:
256,192,16785,1,0,0:0:0:0:
256,192,17985,1,0,0:0:0:0:
256,192,19035,1,0,0:0:0:0:
256,192,19185,1,8,0:0:0:0:
256,192,20235,1,8,0:0:0:0:
256,192,20385,1,0,0:0:0:0:
256,192,20985,1,8,0:0:0:0:
256,192,21435,1,0,0:0:0:0:
256,192,21585,1,8,0:0:0:0:
256,192,22785,1,8,0:0:0:0:
256,192,23835,1,0,0:0:0:0:
256,192,23985,1,8,0:0:0:0:
256,192,25035,1,8,0:0:0:0:
256,192,25185,1,0,0:0:0:0:
256,192,25785,1,8,0:0:0:0:
256,192,26085,1,0,0:0:0:0:
256,192,26235,1,8,0:0:0:0:
256,192,26385,1,0,0:0:0:0:
256,192,27585,1,0,0:0:0:0:
256,192,28635,1,0,0:0:0:0:
256,192,28785,1,8,0:0:0:0:
256,192,29835,1,8,0:0:0:0:
256,192,29985,1,0,0:0:0:0:
256,192,30585,1,8,0:0:0:0:
256,192,30885,1,0,0:0:0:0:
256,192,31035,1,8,0:0:0:0:
256,192,31185,1,4,0:0:0:0:
256,192,31635,1,0,0:0:0:0:
256,192,31785,1,8,0:0:0:0:
256,192,32085,1,0,0:0:0:0:
256,192,32235,1,0,0:0:0:0:
256,192,32385,1,8,0:0:0:0:
256,192,32835,1,0,0:0:0:0:
256,192,32985,1,8,0:0:0:0:
256,192,33135,1,8,0:0:0:0:
256,192,33285,1,0,0:0:0:0:
256,192,33435,1,8,0:0:0:0:
256,192,33585,1,0,0:0:0:0:
256,192,34035,1,0,0:0:0:0:
256,192,34185,1,8,0:0:0:0:
256,192,34485,1,0,0:0:0:0:
256,192,34635,1,8,0:0:0:0:
256,192,34785,1,0,0:0:0:0:
256,192,35235,1,0,0:0:0:0:
256,192,35385,1,8,0:0:0:0:
256,192,35685,1,0,0:0:0:0:
256,192,35835,1,8,0:0:0:0:
256,192,35985,1,0,0:0:0:0:
256,192,36435,1,0,0:0:0:0:
256,192,36585,1,8,0:0:0:0:
256,192,36885,1,0,0:0:0:0:
256,192,37035,1,0,0:0:0:0:
256,192,37185,1,8,0:0:0:0:
256,192,37635,1,0,0:0:0:0:
256,192,37785,1,8,0:0:0:0:
256,192,37935,1,8,0:0:0:0:
256,192,38085,1,0,0:0:0:0:
256,192,38235,1,0,0:0:0:0:
256,192,38310,1,0,0:0:0:0:
256,192,38385,1,8,0:0:0:0:
256,192,38835,1,0,0:0:0:0:
256,192,38985,1,8,0:0:0:0:
256,192,39285,1,0,0:0:0:0:
256,192,39435,1,8,0:0:0:0:
256,192,39585,1,0,0:0:0:0:
256,192,40185,1,0,0:0:0:0:
256,192,40485,1,0,0:0:0:0:
256,192,40635,1,0,0:0:0:0:
256,192,40785,1,12,0:0:0:0:
256,192,40935,1,0,0:0:0:0:
256,192,41085,1,8,0:0:0:0:
256,192,41235,1,0,0:0:0:0:
256,192,41385,1,8,0:0:0:0:
256,192,41535,1,0,0:0:0:0:
256,192,41685,1,8,0:0:0:0:
256,192,41835,1,0,0:0:0:0:
256,192,41985,1,8,0:0:0:0:
256,192,42135,1,0,0:0:0:0:
256,192,42285,1,8,0:0:0:0:
256,192,42435,1,0,0:0:0:0:
256,192,42585,1,8,0:0:0:0:
256,192,42735,1,0,0:0:0:0:
256,192,42885,1,8,0:0:0:0:
256,192,43035,1,0,0:0:0:0:
256,192,43185,1,8,0:0:0:0:
256,192,43335,1,0,0:0:0:0:
256,192,43485,1,8,0:0:0:0:
256,192,43635,1,0,0:0:0:0:
256,192,43785,1,8,0:0:0:0:
256,192,43935,1,0,0:0:0:0:
256,192,44085,1,8,0:0:0:0:
256,192,44235,1,0,0:0:0:0:
256,192,44385,1,8,0:0:0:0:
256,192,44535,1,0,0:0:0:0:
256,192,44685,1,8,0:0:0:0:
256,192,44835,1,0,0:0:0:0:
256,192,44985,1,8,0:0:0:0:
256,192,45135,1,0,0:0:0:0:
256,192,45285,1,8,0:0:0:0:
256,192,45435,1,0,0:0:0:0:
256,192,45585,1,8,0:0:0:0:
256,192,45735,1,0,0:0:0:0:
256,192,45885,1,8,0:0:0:0:
256,192,46035,1,0,0:0:0:0:
256,192,46185,1,8,0:0:0:0:
256,192,46335,1,0,0:0:0:0:
256,192,46485,1,8,0:0:0:0:
256,192,46635,1,0,0:0:0:0:
256,192,46785,1,8,0:0:0:0:
256,192,46935,1,0,0:0:0:0:
256,192,47085,1,8,0:0:0:0:
256,192,47235,1,0,0:0:0:0:
256,192,47385,1,8,0:0:0:0:
256,192,47535,1,0,0:0:0:0:
256,192,47685,1,8,0:0:0:0:
256,192,47835,1,0,0:0:0:0:
256,192,47985,1,12,0:0:0:0:
256,192,49035,1,8,0:0:0:0:
256,192,49185,1,0,0:0:0:0:
256,192,49785,1,8,0:0:0:0:
256,192,50385,1,8,0:0:0:0:
256,192,50535,1,0,0:0:0:0:
256,192,50685,1,8,0:0:0:0:
256,192,50835,1,0,0:0:0:0:
256,192,50985,1,8,0:0:0:0:
256,192,51135,1,0,0:0:0:0:
256,192,51285,1,8,0:0:0:0:
256,192,51435,1,0,0:0:0:0:
256,192,51585,1,8,0:0:0:0:
256,192,51735,1,8,0:0:0:0:
256,192,51885,1,8,0:0:0:0:
256,192,52035,1,8,0:0:0:0:
256,192,52185,1,8,0:0:0:0:
256,192,52260,1,8,0:0:0:0:
256,192,52335,1,8,0:0:0:0:
256,192,52410,1,8,0:0:0:0:
256,192,52485,1,0,0:0:0:0:
256,192,52785,1,12,0:0:0:0:
256,192,52935,1,0,0:0:0:0:
256,192,53010,1,0,0:0:0:0:
256,192,53085,1,8,0:0:0:0:
256,192,53235,1,0,0:0:0:0:
256,192,53385,1,8,0:0:0:0:
256,192,53535,1,0,0:0:0:0:
256,192,53685,1,8,0:0:0:0:
256,192,53985,1,8,0:0:0:0:
256,192,54135,1,0,0:0:0:0:
256,192,54210,1,0,0:0:0:0:
256,192,54285,1,8,0:0:0:0:
256,192,54435,1,0,0:0:0:0:
256,192,54585,1,8,0:0:0:0:
256,192,54660,1,0,0:0:0:0:
256,192,54735,1,8,0:0:0:0:
256,192,54810,1,8,0:0:0:0:
256,192,54885,1,0,0:0:0:0:
256,192,54960,1,0,0:0:0:0:
256,192,55035,1,8,0:0:0:0:
256,192,55185,1,8,0:0:0:0:
256,192,55335,1,0,0:0:0:0:
256,192,55485,1,8,0:0:0:0:
256,192,55635,1,0,0:0:0:0:
256,192,55710,1,0,0:0:0:0:
256,192,55785,1,8,0:0:0:0:
256,192,55935,1,0,0:0:0:0:
256,192,56085,1,8,0:0:0:0:
256,192,56160,1,0,0:0:0:0:
256,192,56235,1,0,0:0:0:0:
256,192,56310,1,0,0:0:0:0:
256,192,56385,1,8,0:0:0:0:
256,192,56535,1,0,0:0:0:0:
256,192,56685,1,8,0:0:0:0:
256,192,56835,1,0,0:0:0:0:
256,192,56872,1,0,0:0:0:0:
256,192,56910,1,0,0:0:0:0:
256,192,56947,1,0,0:0:0:0:
256,192,56985,1,8,0:0:0:0:
256,192,57135,1,8,0:0:0:0:
256,192,57285,1,4,0:0:0:0:
256,192,57585,1,8,0:0:0:0:
256,192,57735,1,0,0:0:0:0:
256,192,57885,1,8,0:0:0:0:
256,192,58035,1,0,0:0:0:0:
256,192,58110,1,0,0:0:0:0:
256,192,58185,1,8,0:0:0:0:
256,192,58335,1,0,0:0:0:0:
256,192,58410,1,0,0:0:0:0:
256,192,58485,1,8,0:0:0:0:
256,192,58560,1,0,0:0:0:0:
256,192,58635,1,8,0:0:0:0:
256,192,58710,1,8,0:0:0:0:
256,192,58785,1,8,0:0:0:0:
256,192,58935,1,0,0:0:0:0:
256,192,59010,1,0,0:0:0:0:
256,192,59085,1,8,0:0:0:0:
256,192,59235,1,0,0:0:0:0:
256,192,59310,1,0,0:0:0:0:
256,192,59385,1,8,0:0:0:0:
256,192,59535,1,0,0:0:0:0:
256,192,59610,1,0,0:0:0:0:
256,192,59685,1,8,0:0:0:0:
256,192,59760,1,0,0:0:0:0:
256,192,59835,1,8,0:0:0:0:
256,192,59985,1,8,0:0:0:0:
256,192,60135,1,0,0:0:0:0:
256,192,60210,1,0,0:0:0:0:
256,192,60285,1,8,0:0:0:0:
256,192,60435,1,0,0:0:0:0:
256,192,60585,1,8,0:0:0:0:
256,192,60660,1,0,0:0:0:0:
256,192,60735,1,0,0:0:0:0:
256,192,60810,1,0,0:0:0:0:
256,192,60885,1,8,0:0:0:0:
256,192,61035,1,0,0:0:0:0:
256,192,61185,1,8,0:0:0:0:
256,192,61335,1,0,0:0:0:0:
256,192,61485,1,8,0:0:0:0:
256,192,61635,1,0,0:0:0:0:
256,192,61785,1,8,0:0:0:0:
256,192,61935,1,8,0:0:0:0:
256,192,62010,1,8,0:0:0:0:
256,192,62085,1,4,0:0:0:0:
256,192,62385,1,8,0:0:0:0:
256,192,62535,1,0,0:0:0:0:
256,192,62610,1,0,0:0:0:0:
256,192,62685,1,8,0:0:0:0:
256,192,62835,1,0,0:0:0:0:
256,192,62985,1,8,0:0:0:0:
256,192,63060,1,8,0:0:0:0:
256,192,63135,1,0,0:0:0:0:
256,192,63285,1,8,0:0:0:0:
256,192,63360,1,0,0:0:0:0:
256,192,63435,1,8,0:0:0:0:
256,192,63510,1,8,0:0:0:0:
256,192,63585,1,0,0:0:0:0:
256,192,63735,1,8,0:0:0:0:
256,192,63810,1,0,0:0:0:0:
256,192,63885,1,8,0:0:0:0:
256,192,64035,1,0,0:0:0:0:
256,192,64185,1,8,0:0:0:0:
256,192,64260,1,8,0:0:0:0:
256,192,64335,1,0,0:0:0:0:
256,192,64485,1,0,0:0:0:0:
256,192,64635,1,8,0:0:0:0:
256,192,64785,1,8,0:0:0:0:
256,192,64935,1,0,0:0:0:0:
256,192,65010,1,0,0:0:0:0:
256,192,65085,1,8,0:0:0:0:
256,192,65235,1,0,0:0:0:0:
256,192,65385,1,8,0:0:0:0:
256,192,65460,1,8,0:0:0:0:
256,192,65535,1,0,0:0:0:0:
256,192,65685,1,8,0:0:0:0:
256,192,65760,1,0,0:0:0:0:
256,192,65835,1,8,0:0:0:0:
256,192,65910,1,8,0:0:0:0:
256,192,65985,1,0,0:0:0:0:
256,192,66135,1,0,0:0:0:0:
256,192,66210,1,0,0:0:0:0:
256,192,66285,1,8,0:0:0:0:
256,192,66435,1,0,0:0:0:0:
256,192,66510,1,0,0:0:0:0:
256,192,66585,1,8,0:0:0:0:
256,192,66660,1,0,0:0:0:0:
256,192,66735,1,8,0:0:0:0:
256,192,66885,1,4,0:0:0:0:
256,192,67185,1,8,0:0:0:0:
256,192,67335,1,0,0:0:0:0:
256,192,67410,1,0,0:0:0:0:
256,192,67485,1,8,0:0:0:0:
256,192,67635,1,0,0:0:0:0:
256,192,67710,1,0,0:0:0:0:
256,192,67785,1,8,0:0:0:0:
256,192,67860,1,8,0:0:0:0:
256,192,67935,1,0,0:0:0:0:
256,192,68085,1,8,0:0:0:0:
256,192,68160,1,0,0:0:0:0:
256,192,68235,1,8,0:0:0:0:
256,192,68310,1,8,0:0:0:0:
256,192,68385,1,0,0:0:0:0:
256,192,68535,1,8,0:0:0:0:
256,192,68610,1,8,0:0:0:0:
256,192,68685,1,0,0:0:0:0:
256,192,68835,1,8,0:0:0:0:
256,192,68910,1,8,0:0:0:0:
256,192,68985,1,0,0:0:0:0:
256,192,69060,1,0,0:0:0:0:
256,192,69135,1,8,0:0:0:0:
256,192,69210,1,0,0:0:0:0:
256,192,69285,1,8,0:0:0:0:
256,192,69360,1,8,0:0:0:0:
256,192,69435,1,0,0:0:0:0:
256,192,69510,1,0,0:0:0:0:
256,192,69585,1,8,0:0:0:0:
256,192,69735,1,8,0:0:0:0:
256,192,69810,1,0,0:0:0:0:
256,192,69885,1,8,0:0:0:0:
256,192,70035,1,0,0:0:0:0:
256,192,70185,1,8,0:0:0:0:
256,192,70260,1,8,0:0:0:0:
256,192,70335,1,0,0:0:0:0:
256,192,70485,1,8,0:0:0:0:
256,192,70560,1,0,0:0:0:0:
256,192,70635,1,8,0:0:0:0:
256,192,70685,1,8,0:0:0:0:
256,192,70735,1,8,0:0:0:0:
256,192,70785,1,0,0:0:0:0:
256,192,70935,1,8,0:0:0:0:
256,192,71010,1,0,0:0:0:0:
256,192,71160,1,8,0:0:0:0:
256,192,71235,1,0,0:0:0:0:
256,192,71310,1,0,0:0:0:0:
256,192,71385,1,8,0:0:0:0:
256,192,71460,1,8,0:0:0:0:
256,192,71535,1,0,0:0:0:0:
256,192,71610,1,8,0:0:0:0:
256,192,71685,1,0,0:0:0:0:
256,192,71985,1,12,0:0:0:0:
256,192,72135,1,0,0:0:0:0:
256,192,72210,1,0,0:0:0:0:
256,192,72285,1,8,0:0:0:0:
256,192,72435,1,0,0:0:0:0:
256,192,72585,1,8,0:0:0:0:
256,192,72660,1,8,0:0:0:0:
256,192,72735,1,0,0:0:0:0:
256,192,72885,1,8,0:0:0:0:
256,192,72960,1,0,0:0:0:0:
256,192,73035,1,8,0:0:0:0:
256,192,73110,1,8,0:0:0:0:
256,192,73185,1,0,0:0:0:0:
256,192,73335,1,8,0:0:0:0:
256,192,73410,1,8,0:0:0:0:
256,192,73485,1,0,0:0:0:0:
256,192,73635,1,8,0:0:0:0:
256,192,73710,1,0,0:0:0:0:
256,192,73785,1,8,0:0:0:0:
256,192,73860,1,8,0:0:0:0:
256,192,73935,1,0,0:0:0:0:
256,192,74085,1,8,0:0:0:0:
256,192,74160,1,0,0:0:0:0:
256,192,74235,1,0,0:0:0:0:
256,192,74310,1,8,0:0:0:0:
256,192,74385,1,8,0:0:0:0:
256,192,74535,1,0,0:0:0:0:
256,192,74610,1,0,0:0:0:0:
256,192,74685,1,8,0:0:0:0:
256,192,74835,1,8,0:0:0:0:
256,192,74910,1,0,0:0:0:0:
256,192,74985,1,8,0:0:0:0:
256,192,75060,1,8,0:0:0:0:
256,192,75135,1,0,0:0:0:0:
256,192,75285,1,8,0:0:0:0:
256,192,75360,1,8,0:0:0:0:
256,192,75435,1,0,0:0:0:0:
256,192,75510,1,0,0:0:0:0:
256,192,75585,1,8,0:0:0:0:
256,192,75735,1,0,0:0:0:0:
256,192,75810,1,0,0:0:0:0:
256,192,75885,1,8,0:0:0:0:
256,192,76035,1,0,0:0:0:0:
256,192,76072,1,0,0:0:0:0:
256,192,76110,1,0,0:0:0:0:
256,192,76147,1,0,0:0:0:0:
256,192,76185,1,8,0:0:0:0:
256,192,76335,1,8,0:0:0:0:
256,192,76485,1,8,0:0:0:0:
256,192,76560,1,0,0:0:0:0:
256,192,76710,1,0,0:0:0:0:
256,192,76785,1,8,0:0:0:0:
256,192,76935,1,0,0:0:0:0:
256,192,77010,1,0,0:0:0:0:
256,192,77085,1,8,0:0:0:0:
256,192,77235,1,0,0:0:0:0:
256,192,77385,1,8,0:0:0:0:
256,192,77460,1,8,0:0:0:0:
256,192,77535,1,0,0:0:0:0:
256,192,77685,1,8,0:0:0:0:
256,192,77760,1,0,0:0:0:0:
256,192,77835,1,8,0:0:0:0:
256,192,77910,1,8,0:0:0:0:
256,192,77985,1,0,0:0:0:0:
256,192,78135,1,8,0:0:0:0:
256,192,78210,1,8,0:0:0:0:
256,192,78285,1,0,0:0:0:0:
256,192,78360,1,0,0:0:0:0:
256,192,78435,1,8,0:0:0:0:
256,192,78585,1,8,0:0:0:0:
256,192,78660,1,0,0:0:0:0:
256,192,78735,1,8,0:0:0:0:
256,192,78810,1,8,0:0:0:0:
256,192,78885,1,0,0:0:0:0:
256,192,79035,1,8,0:0:0:0:
256,192,79185,1,8,0:0:0:0:
256,192,79335,1,0,0:0:0:0:
256,192,79410,1,0,0:0:0:0:
256,192,79485,1,8,0:0:0:0:
256,192,79635,1,0,0:0:0:0:
256,192,79785,1,8,0:0:0:0:
256,192,79860,1,8,0:0:0:0:
256,192,79935,1,0,0:0:0:0:
256,192,80085,1,8,0:0:0:0:
256,192,80160,1,0,0:0:0:0:
256,192,80235,1,8,0:0:0:0:
256,192,80385,1,0,0:0:0:0:
256,192,80535,1,8,0:0:0:0:
256,192,80610,1,0,0:0:0:0:
256,192,80685,1,8,0:0:0:0:
256,192,80760,1,8,0:0:0:0:
256,192,80835,1,0,0:0:0:0:
256,192,80910,1,8,0:0:0:0:
256,192,80985,1,0,0:0:0:0:
256,192,81060,1,0,0:0:0:0:
256,192,81135,1,8,0:0:0:0:
256,192,81210,1,8,0:0:0:0:
256,192,81285,1,0,0:0:0:0:
256,192,81585,1,12,0:0:0:0:
256,192,81735,1,0,0:0:0:0:
256,192,81810,1,0,0:0:0:0:
256,192,81885,1,8,0:0:0:0:
256,192,82035,1,0,0:0:0:0:
256,192,82185,1,8,0:0:0:0:
256,192,82260,1,8,0:0:0:0:
256,192,82335,1,0,0:0:0:0:
256,192,82485,1,8,0:0:0:0:
256,192,82560,1,0,0:0:0:0:
256,192,82635,1,8,0:0:0:0:
256,192,82710,1,8,0:0:0:0:
256,192,82785,1,0,0:0:0:0:
256,192,82935,1,8,0:0:0:0:
256,192,83010,1,8,0:0:0:0:
256,192,83085,1,0,0:0:0:0:
256,192,83235,1,8,0:0:0:0:
256,192,83310,1,0,0:0:0:0:
256,192,83385,1,8,0:0:0:0:
256,192,83460,1,8,0:0:0:0:
256,192,83535,1,0,0:0:0:0:
256,192,83685,1,8,0:0:0:0:
256,192,83835,1,0,0:0:0:0:
256,192,83910,1,0,0:0:0:0:
256,192,83985,1,8,0:0:0:0:
256,192,84135,1,0,0:0:0:0:
256,192,84210,1,0,0:0:0:0:
256,192,84285,1,8,0:0:0:0:
256,192,84435,1,0,0:0:0:0:
256,192,84585,1,8,0:0:0:0:
256,192,84660,1,8,0:0:0:0:
256,192,84735,1,0,0:0:0:0:
256,192,84885,1,8,0:0:0:0:
256,192,84960,1,0,0:0:0:0:
256,192,85035,1,8,0:0:0:0:
256,192,85110,1,8,0:0:0:0:
256,192,85185,1,0,0:0:0:0:
256,192,85335,1,0,0:0:0:0:
256,192,85410,1,0,0:0:0:0:
256,192,85485,1,8,0:0:0:0:
256,192,85635,1,0,0:0:0:0:
256,192,85685,1,0,0:0:0:0:
256,192,85735,1,0,0:0:0:0:
256,192,85785,1,8,0:0:0:0:
256,192,85860,1,0,0:0:0:0:
256,192,85935,1,8,0:0:0:0:
256,192,86085,1,0,0:0:0:0:
256,192,86235,1,8,0:0:0:0:
256,192,86310,1,8,0:0:0:0:
256,192,86385,1,0,0:0:0:0:
256,192,86535,1,0,0:0:0:0:
256,192,86610,1,0,0:0:0:0:
256,192,86685,1,8,0:0:0:0:
256,192,86835,1,8,0:0:0:0:
256,192,86910,1,0,0:0:0:0:
256,192,86985,1,8,0:0:0:0:
256,192,87060,1,8,0:0:0:0:
256,192,87135,1,0,0:0:0:0:
256,192,87285,1,8,0:0:0:0:
256,192,87360,1,8,0:0:0:0:
256,192,87435,1,0,0:0:0:0:
256,192,87510,1,8,0:0:0:0:
256,192,87585,1,0,0:0:0:0:
256,192,87735,1,8,0:0:0:0:
256,192,87810,1,8,0:0:0:0:
256,192,87885,1,0,0:0:0:0:
256,192,88035,1,8,0:0:0:0:
256,192,88110,1,0,0:0:0:0:
256,192,88185,1,8,0:0:0:0:
256,192,88260,1,8,0:0:0:0:
256,192,88335,1,0,0:0:0:0:
256,192,88410,1,8,0:0:0:0:
256,192,88485,1,0,0:0:0:0:
256,192,88560,1,0,0:0:0:0:
256,192,88635,1,8,0:0:0:0:
256,192,88785,1,8,0:0:0:0:
256,192,88935,1,0,0:0:0:0:
256,192,89010,1,0,0:0:0:0:
256,192,89085,1,8,0:0:0:0:
256,192,89235,1,0,0:0:0:0:
256,192,89385,1,8,0:0:0:0:
256,192,89460,1,8,0:0:0:0:
256,192,89535,1,0,0:0:0:0:
256,192,89685,1,0,0:0:0:0:
256,192,89760,1,8,0:0:0:0:
256,192,89835,1,0,0:0:0:0:
256,192,89985,1,8,0:0:0:0:
256,192,90135,1,0,0:0:0:0:
256,192,90210,1,8,0:0:0:0:
256,192,90360,1,0,0:0:0:0:
256,192,90435,1,8,0:0:0:0:
256,192,90510,1,0,0:0:0:0:
256,192,90585,1,0,0:0:0:0:
256,192,90660,1,8,0:0:0:0:
256,192,90735,1,8,0:0:0:0:
256,192,90810,1,0,0:0:0:0:
256,192,90885,1,8,0:0:0:0:
256,192,91185,1,12,0:0:0:0:
256,192,91635,1,8,0:0:0:0:
256,192,91785,1,0,0:0:0:0:
256,192,92085,1,8,0:0:0:0:
256,192,92385,1,0,0:0:0:0:
256,192,92535,1,8,0:0:0:0:
256,192,92985,1,8,0:0:0:0:
256,192,93285,1,8,0:0:0:0:
256,192,93435,1,0,0:0:0:0:
256,192,93585,1,8,0:0:0:0:
256,192,94035,1,8,0:0:0:0:
256,192,94185,1,0,0:0:0:0:
256,192,94335,1,0,0:0:0:0:
256,192,94485,1,8,0:0:0:0:
256,192,94785,1,0,0:0:0:0:
256,192,94935,1,8,0:0:0:0:
256,192,95235,1,0,0:0:0:0:
256,192,95385,1,8,0:0:0:0:
256,192,95685,1,8,0:0:0:0:
256,192,95985,1,0,0:0:0:0:
256,192,96435,1,8,0:0:0:0:
256,192,96585,1,0,0:0:0:0:
256,192,96735,1,0,0:0:0:0:
256,192,96885,1,8,0:0:0:0:
256,192,97185,1,0,0:0:0:0:
256,192,97335,1,8,0:0:0:0:
256,192,97485,1,0,0:0:0:0:
256,192,97635,1,0,0:0:0:0:
256,192,97785,1,8,0:0:0:0:
256,192,97935,1,0,0:0:0:0:
256,192,98085,1,8,0:0:0:0:
256,192,98385,1,8,0:0:0:0:
256,192,98685,1,0,0:0:0:0:
256,192,98835,1,8,0:0:0:0:
256,192,98985,1,0,0:0:0:0:
256,192,99285,1,8,0:0:0:0:
256,192,99585,1,0,0:0:0:0:
256,192,99735,1,8,0:0:0:0:
256,192,99885,1,0,0:0:0:0:
256,192,100035,1,0,0:0:0:0:
256,192,100185,1,8,0:0:0:0:
256,192,100335,1,8,0:0:0:0:
256,192,100485,1,0,0:0:0:0:
256,192,100785,1,4,0:0:0:0:
256,192,101085,1,0,0:0:0:0:
256,192,101235,1,8,0:0:0:0:
256,192,101385,1,0,0:0:0:0:
256,192,101685,1,0,0:0:0:0:
256,192,101985,1,0,0:0:0:0:
256,192,102285,1,0,0:0:0:0:
256,192,102435,1,8,0:0:0:0:
256,192,102585,1,8,0:0:0:0:
256,192,102810,1,8,0:0:0:0:
256,192,102885,1,0,0:0:0:0:
256,192,103035,1,8,0:0:0:0:
256,192,103185,1,0,0:0:0:0:
256,192,103485,1,0,0:0:0:0:
256,192,103635,1,8,0:0:0:0:
256,192,103785,1,0,0:0:0:0:
256,192,104085,1,0,0:0:0:0:
256,192,104160,1,0,0:0:0:0:
256,192,104235,1,8,0:0:0:0:
256,192,104385,1,0,0:0:0:0:
256,192,104610,1,0,0:0:0:0:
256,192,104835,1,0,0:0:0:0:
256,192,104985,1,8,0:0:0:0:
256,192,105135,1,8,0:0:0:0:
256,192,105210,1,8,0:0:0:0:
256,192,105285,1,0,0:0:0:0:
256,192,105585,1,4,0:0:0:0:
256,192,105735,1,0,0:0:0:0:
256,192,105885,1,0,0:0:0:0:
256,192,106035,1,0,0:0:0:0:
256,192,106185,1,0,0:0:0:0:
256,192,106335,1,0,0:0:0:0:
256,192,106485,1,0,0:0:0:0:
256,192,106635,1,8,0:0:0:0:
256,192,106710,1,8,0:0:0:0:
256,192,106785,1,4,0:0:0:0:
256,192,106935,1,0,0:0:0:0:
256,192,107085,1,0,0:0:0:0:
256,192,107235,1,0,0:0:0:0:
256,192,107385,1,0,0:0:0:0:
256,192,107535,1,0,0:0:0:0:
256,192,107685,1,0,0:0:0:0:
256,192,107760,1,0,0:0:0:0:
256,192,107910,1,8,0:0:0:0:
256,192,107947,1,8,0:0:0:0:
256,192,107985,1,0,0:0:0:0:
256,192,108060,1,8,0:0:0:0:
256,192,108135,1,8,0:0:0:0:
256,192,108210,1,8,0:0:0:0:
256,192,108285,1,0,0:0:0:0:
256,192,108360,1,8,0:0:0:0:
256,192,108435,1,8,0:0:0:0:
256,192,108510,1,8,0:0:0:0:
256,192,108585,1,0,0:0:0:0:
256,192,108660,1,8,0:0:0:0:
256,192,108735,1,8,0:0:0:0:
256,192,108810,1,0,0:0:0:0:
256,192,108885,1,8,0:0:0:0:
256,192,108960,1,8,0:0:0:0:
256,192,109035,1,0,0:0:0:0:
256,192,109072,1,0,0:0:0:0:
256,192,109110,1,8,0:0:0:0:
256,192,109147,1,8,0:0:0:0:
256,192,109185,1,0,0:0:0:0:
256,192,109260,1,0,0:0:0:0:
256,192,109335,1,8,0:0:0:0:
256,192,109410,1,8,0:0:0:0:
256,192,109485,1,0,0:0:0:0:
256,192,109585,1,8,0:0:0:0:
256,192,109685,1,8,0:0:0:0:
256,192,109785,1,0,0:0:0:0:
256,192,109935,1,8,0:0:0:0:
256,192,109985,1,8,0:0:0:0:
256,192,110035,1,8,0:0:0:0:
256,192,110085,1,0,0:0:0:0:
256,192,110235,1,8,0:0:0:0:
256,192,110310,1,8,0:0:0:0:
256,192,110385,1,0,0:0:0:0:
256,192,110985,1,8,0:0:0:0:
256,192,111022,1,8,0:0:0:0:
256,192,111135,1,0,0:0:0:0:
256,192,111285,1,8,0:0:0:0:
256,192,111360,1,8,0:0:0:0:
256,192,111435,1,0,0:0:0:0:
256,192,111510,1,8,0:0:0:0:
256,192,111585,1,0,0:0:0:0:
256,192,111735,1,8,0:0:0:0:
256,192,111810,1,0,0:0:0:0:
256,192,111885,1,8,0:0:0:0:
256,192,111960,1,8,0:0:0:0:
256,192,112035,1,0,0:0:0:0:
256,192,112110,1,0,0:0:0:0:
256,192,112185,1,8,0:0:0:0:
256,192,112235,1,8,0:0:0:0:
256,192,112285,1,8,0:0:0:0:
256,192,112335,1,0,0:0:0:0:
256,192,112410,1,8,0:0:0:0:
256,192,112485,1,0,0:0:0:0:
256,192,112560,1,0,0:0:0:0:
256,192,112635,1,8,0:0:0:0:
256,192,112710,1,8,0:0:0:0:
256,192,112785,1,0,0:0:0:0:
256,192,112835,1,0,0:0:0:0:
256,192,112885,1,0,0:0:0:0:
256,192,112935,1,8,0:0:0:0:
256,192,113085,1,0,0:0:0:0:
256,192,113235,1,0,0:0:0:0:
256,192,113310,1,0,0:0:0:0:
256,192,113385,1,8,0:0:0:0:
256,192,113535,1,0,0:0:0:0:
256,192,113610,1,0,0:0:0:0:
256,192,113685,1,8,0:0:0:0:
256,192,113722,1,8,0:0:0:0:
256,192,113835,1,0,0:0:0:0:
256,192,113910,1,8,0:0:0:0:
256,192,113985,1,0,0:0:0:0:
256,192,114135,1,8,0:0:0:0:
256,192,114210,1,0,0:0:0:0:
256,192,114285,1,8,0:0:0:0:
256,192,114335,1,8,0:0:0:0:
256,192,114385,1,8,0:0:0:0:
256,192,114435,1,0,0:0:0:0:
256,192,114585,1,8,0:0:0:0:
256,192,114885,1,0,0:0:0:0:
256,192,114922,1,0,0:0:0:0:
256,192,115035,1,0,0:0:0:0:
256,192,115072,1,0,0:0:0:0:
256,192,115185,1,0,0:0:0:0:
256,192,115335,1,8,0:0:0:0:
256,192,115410,1,0,0:0:0:0:
256,192,115485,1,8,0:0:0:0:
256,192,115560,1,8,0:0:0:0:
256,192,115635,1,0,0:0:0:0:
256,192,115710,1,0,0:0:0:0:
256,192,115785,1,8,0:0:0:0:
256,192,115935,1,0,0:0:0:0:
256,192,116085,1,8,0:0:0:0:
256,192,116235,1,0,0:0:0:0:
256,192,116310,1,8,0:0:0:0:
256,192,116385,1,0,0:0:0:0:
256,192,116535,1,8,0:0:0:0:
256,192,116610,1,0,0:0:0:0:
256,192,116685,1,8,0:0:0:0:
256,192,116760,1,8,0:0:0:0:
256,192,116835,1,0,0:0:0:0:
256,192,116910,1,0,0:0:0:0:
256,192,116985,1,8,0:0:0:0:
256,192,117060,1,0,0:0:0:0:
256,192,117135,1,8,0:0:0:0:
256,192,117210,1,8,0:0:0:0:
256,192,117285,1,0,0:0:0:0:
256,192,117360,1,8,0:0:0:0:
256,192,117435,1,8,0:0:0:0:
256,192,117510,1,8,0:0:0:0:
256,192,117585,1,0,0:0:0:0:
256,192,117885,1,8,0:0:0:0:
256,192,117935,1,8,0:0:0:0:
256,192,117985,1,8,0:0:0:0:
256,192,118035,1,0,0:0:0:0:
256,192,118085,1,0,0:0:0:0:
256,192,118135,1,0,0:0:0:0:
256,192,118185,1,8,0:0:0:0:
256,192,118335,1,8,0:0:0:0:
256,192,118485,1,0,0:0:0:0:
256,192,118635,1,8,0:0:0:0:
256,192,118710,1,8,0:0:0:0:
256,192,118785,1,0,0:0:0:0:
256,192,118935,1,8,0:0:0:0:
256,192,119010,1,0,0:0:0:0:
256,192,119160,1,8,0:0:0:0:
256,192,119235,1,0,0:0:0:0:
256,192,119310,1,8,0:0:0:0:
256,192,119385,1,0,0:0:0:0:
256,192,119685,1,0,0:0:0:0:
256,192,119835,1,8,0:0:0:0:
256,192,119885,1,8,0:0:0:0:
256,192,119935,1,8,0:0:0:0:
256,192,119985,1,4,0:0:0:0:
256,192,120135,1,8,0:0:0:0:
256,192,120285,1,0,0:0:0:0:
256,192,120435,1,8,0:0:0:0:
256,192,120510,1,0,0:0:0:0:
256,192,120585,1,8,0:0:0:0:
256,192,120660,1,8,0:0:0:0:
256,192,120735,1,0,0:0:0:0:
256,192,120810,1,0,0:0:0:0:
256,192,120885,1,8,0:0:0:0:
256,192,121035,1,0,0:0:0:0:
256,192,121110,1,0,0:0:0:0:
256,192,121185,1,8,0:0:0:0:
256,192,121335,1,8,0:0:0:0:
256,192,121410,1,0,0:0:0:0:
256,192,121485,1,8,0:0:0:0:
256,192,121560,1,8,0:0:0:0:
256,192,121635,1,0,0:0:0:0:
256,192,121710,1,0,0:0:0:0:
256,192,121785,1,8,0:0:0:0:
256,192,121860,1,0,0:0:0:0:
256,192,121935,1,8,0:0:0:0:
256,192,122010,1,8,0:0:0:0:
256,192,122085,1,0,0:0:0:0:
256,192,122160,1,8,0:0:0:0:
256,192,122235,1,8,0:0:0:0:
256,192,122310,1,8,0:0:0:0:
256,192,122385,1,0,0:0:0:0:
256,192,122535,1,8,0:0:0:0:
256,192,122610,1,0,0:0:0:0:
256,192,122685,1,8,0:0:0:0:
256,192,122760,1,8,0:0:0:0:
256,192,122835,1,0,0:0:0:0:
256,192,122910,1,0,0:0:0:0:
256,192,122985,1,8,0:0:0:0:
256,192,123022,1,8,0:0:0:0:
256,192,123135,1,8,0:0:0:0:
256,192,123285,1,0,0:0:0:0:
256,192,123435,1,8,0:0:0:0:
256,192,123510,1,8,0:0:0:0:
256,192,123585,1,0,0:0:0:0:
256,192,123735,1,8,0:0:0:0:
256,192,123810,1,8,0:0:0:0:
256,192,123885,1,0,0:0:0:0:
256,192,123935,1,0,0:0:0:0:
256,192,123985,1,0,0:0:0:0:
256,192,124185,1,8,0:0:0:0:
256,192,124335,1,0,0:0:0:0:
256,192,124410,1,0,0:0:0:0:
256,192,124485,1,8,0:0:0:0:
256,192,124635,1,0,0:0:0:0:
256,192,124710,1,8,0:0:0:0:
256,192,124785,1,0,0:0:0:0:
256,192,124935,1,8,0:0:0:0:
256,192,125010,1,8,0:0:0:0:
256,192,125085,1,0,0:0:0:0:
256,192,125135,1,0,0:0:0:0:
256,192,125185,1,0,0:0:0:0:
256,192,125235,1,8,0:0:0:0:
256,192,125385,1,8,0:0:0:0:
256,192,125422,1,8,0:0:0:0:
256,192,125535,1,0,0:0:0:0:
256,192,125685,1,8,0:0:0:0:
256,192,125760,1,8,0:0:0:0:
256,192,125835,1,0,0:0:0:0:
256,192,125910,1,8,0:0:0:0:
256,192,125985,1,0,0:0:0:0:
256,192,126135,1,8,0:0:0:0:
256,192,126210,1,0,0:0:0:0:
256,192,126285,1,8,0:0:0:0:
256,192,126360,1,8,0:0:0:0:
256,192,126435,1,0,0:0:0:0:
256,192,126510,1,0,0:0:0:0:
256,192,126585,1,8,0:0:0:0:
256,192,126660,1,8,0:0:0:0:
256,192,126735,1,0,0:0:0:0:
256,192,126810,1,8,0:0:0:0:
256,192,126885,1,0,0:0:0:0:
256,192,126960,1,8,0:0:0:0:
256,192,127035,1,8,0:0:0:0:
256,192,127110,1,0,0:0:0:0:
256,192,127185,1,8,0:0:0:0:
256,192,127335,1,0,0:0:0:0:
256,192,127410,1,0,0:0:0:0:
256,192,127485,1,8,0:0:0:0:
256,192,127535,1,8,0:0:0:0:
256,192,127585,1,8,0:0:0:0:
256,192,127635,1,0,0:0:0:0:
256,192,127685,1,0,0:0:0:0:
256,192,127735,1,0,0:0:0:0:
256,192,127785,1,8,0:0:0:0:
256,192,127935,1,8,0:0:0:0:
256,192,128010,1,0,0:0:0:0:
256,192,128085,1,8,0:0:0:0:
256,192,128235,1,0,0:0:0:0:
256,192,128310,1,0,0:0:0:0:
256,192,128385,1,8,0:0:0:0:
256,192,128535,1,0,0:0:0:0:
256,192,128610,1,8,0:0:0:0:
256,192,128760,1,0,0:0:0:0:
256,192,128835,1,8,0:0:0:0:
256,192,128910,1,0,0:0:0:0:
256,192,128985,1,8,0:0:0:0:
256,192,129135,1,8,0:0:0:0:
256,192,129210,1,8,0:0:0:0:
256,192,129285,1,0,0:0:0:0:
256,192,129435,1,0,0:0:0:0:
256,192,129485,1,0,0:0:0:0:
256,192,129535,1,0,0:0:0:0:
256,192,129585,1,8,0:0:0:0:
256,192,129735,1,0,0:0:0:0:
256,192,129810,1,0,0:0:0:0:
256,192,129885,1,8,0:0:0:0:
256,192,130035,1,8,0:0:0:0:
256,192,130110,1,0,0:0:0:0:
256,192,130185,1,8,0:0:0:0:
256,192,130260,1,8,0:0:0:0:
256,192,130335,1,0,0:0:0:0:
256,192,130485,1,8,0:0:0:0:
256,192,130560,1,8,0:0:0:0:
256,192,130635,1,0,0:0:0:0:
256,192,130710,1,8,0:0:0:0:
256,192,130785,1,0,0:0:0:0:
256,192,130935,1,8,0:0:0:0:
256,192,131010,1,0,0:0:0:0:
256,192,131085,1,8,0:0:0:0:
256,192,131160,1,8,0:0:0:0:
256,192,131235,1,0,0:0:0:0:
256,192,131385,1,8,0:0:0:0:
256,192,131460,1,8,0:0:0:0:
256,192,131535,1,0,0:0:0:0:
256,192,131610,1,8,0:0:0:0:
256,192,131685,1,0,0:0:0:0:
256,192,131760,1,0,0:0:0:0:
256,192,131835,1,8,0:0:0:0:
256,192,131985,1,0,0:0:0:0:
256,192,132135,1,8,0:0:0:0:
256,192,132210,1,8,0:0:0:0:
256,192,132285,1,0,0:0:0:0:
256,192,132435,1,8,0:0:0:0:
256,192,132585,1,0,0:0:0:0:
256,192,132660,1,0,0:0:0:0:
256,192,132735,1,8,0:0:0:0:
256,192,132885,1,8,0:0:0:0:
256,192,132960,1,0,0:0:0:0:
256,192,133035,1,8,0:0:0:0:
256,192,133110,1,8,0:0:0:0:
256,192,133185,1,0,0:0:0:0:
256,192,133335,1,8,0:0:0:0:
256,192,133410,1,8,0:0:0:0:
256,192,133485,1,0,0:0:0:0:
256,192,133560,1,8,0:0:0:0:
256,192,133635,1,0,0:0:0:0:
256,192,133785,1,8,0:0:0:0:
256,192,134085,1,0,0:0:0:0:
256,192,134385,1,0,0:0:0:0:
256,192,134535,1,8,0:0:0:0:
256,192,134610,1,0,0:0:0:0:
256,192,134685,1,8,0:0:0:0:
256,192,134760,1,8,0:0:0:0:
256,192,134835,1,0,0:0:0:0:
256,192,134910,1,0,0:0:0:0:
256,192,134985,1,8,0:0:0:0:
256,192,135022,1,8,0:0:0:0:
256,192,135135,1,0,0:0:0:0:
256,192,135285,1,8,0:0:0:0:
256,192,135360,1,8,0:0:0:0:
256,192,135435,1,0,0:0:0:0:
256,192,135510,1,8,0:0:0:0:
256,192,135585,1,0,0:0:0:0:
256,192,135735,1,8,0:0:0:0:
256,192,135810,1,0,0:0:0:0:
256,192,135885,1,8,0:0:0:0:
256,192,135960,1,8,0:0:0:0:
256,192,136035,1,0,0:0:0:0:
256,192,136110,1,0,0:0:0:0:
256,192,136185,1,8,0:0:0:0:
256,192,136260,1,8,0:0:0:0:
256,192,136335,1,0,0:0:0:0:
256,192,136410,1,8,0:0:0:0:
256,192,136485,1,0,0:0:0:0:
256,192,136560,1,8,0:0:0:0:
256,192,136635,1,8,0:0:0:0:
256,192,136710,1,8,0:0:0:0:
256,192,136785,1,0,0:0:0:0:
256,192,136935,1,8,0:0:0:0:
256,192,137010,1,8,0:0:0:0:
256,192,137085,1,0,0:0:0:0:
256,192,137235,1,8,0:0:0:0:
256,192,137310,1,0,0:0:0:0:
256,192,137385,1,8,0:0:0:0:
256,192,137460,1,8,0:0:0:0:
256,192,137535,1,0,0:0:0:0:
256,192,137685,1,8,0:0:0:0:
256,192,137760,1,8,0:0:0:0:
256,192,137835,1,0,0:0:0:0:
256,192,137910,1,8,0:0:0:0:
256,192,137947,1,8,0:0:0:0:
256,192,137985,1,0,0:0:0:0:
256,192,138135,1,8,0:0:0:0:
256,192,138210,1,0,0:0:0:0:
256,192,138360,1,8,0:0:0:0:
256,192,138435,1,0,0:0:0:0:
256,192,138585,1,8,0:0:0:0:
256,192,138885,1,0,0:0:0:0:
256,192,139185,1,8,0:0:0:0:
256,192,139335,1,0,0:0:0:0:
256,192,139410,1,0,0:0:0:0:
256,192,139485,1,8,0:0:0:0:
256,192,139635,1,0,0:0:0:0:
256,192,139710,1,0,0:0:0:0:
256,192,139785,1,8,0:0:0:0:
256,192,139860,1,8,0:0:0:0:
256,192,139935,1,0,0:0:0:0:
256,192,140085,1,8,0:0:0:0:
256,192,140160,1,0,0:0:0:0:
256,192,140235,1,8,0:0:0:0:
256,192,140310,1,8,0:0:0:0:
256,192,140385,1,0,0:0:0:0:
256,192,140535,1,8,0:0:0:0:
256,192,140610,1,0,0:0:0:0:
256,192,140685,1,8,0:0:0:0:
256,192,140835,1,0,0:0:0:0:
256,192,140985,1,8,0:0:0:0:
256,192,141060,1,8,0:0:0:0:
256,192,141135,1,0,0:0:0:0:
256,192,141210,1,8,0:0:0:0:
256,192,141285,1,0,0:0:0:0:
256,192,141360,1,0,0:0:0:0:
256,192,141435,1,8,0:0:0:0:
256,192,141585,1,0,0:0:0:0:
256,192,141735,1,8,0:0:0:0:
256,192,141810,1,8,0:0:0:0:
256,192,141885,1,0,0:0:0:0:
256,192,142035,1,8,0:0:0:0:
256,192,142185,1,0,0:0:0:0:
256,192,142260,1,0,0:0:0:0:
256,192,142335,1,8,0:0:0:0:
256,192,142410,1,0,0:0:0:0:
256,192,142485,1,8,0:0:0:0:
256,192,142560,1,8,0:0:0:0:
256,192,142635,1,0,0:0:0:0:
256,192,142785,1,8,0:0:0:0:
256,192,142935,1,0,0:0:0:0:
256,192,143010,1,0,0:0:0:0:
256,192,143085,1,8,0:0:0:0:
256,192,143235,1,0,0:0:0:0:
256,192,143385,1,8,0:0:0:0:
256,192,143760,1,8,0:0:0:0:
256,192,143835,1,8,0:0:0:0:
256,192,143910,1,8,0:0:0:0:
256,192,143985,1,0,0:0:0:0:
256,192,144135,1,8,0:0:0:0:
256,192,144210,1,8,0:0:0:0:
256,192,144285,1,0,0:0:0:0:
256,192,144435,1,8,0:0:0:0:
256,192,144585,1,0,0:0:0:0:
256,192,144660,1,0,0:0:0:0:
256,192,144735,1,8,0:0:0:0:
256,192,144885,1,8,0:0:0:0:
256,192,145035,1,0,0:0:0:0:
256,192,145110,1,8,0:0:0:0:
256,192,145185,1,0,0:0:0:0:
256,192,145335,1,8,0:0:0:0:
256,192,145410,1,8,0:0:0:0:
256,192,145485,1,0,0:0:0:0:
256,192,145635,1,8,0:0:0:0:
256,192,145785,1,0,0:0:0:0:
256,192,145860,1,0,0:0:0:0:
256,192,145935,1,8,0:0:0:0:
256,192,146085,1,0,0:0:0:0:
256,192,146235,1,0,0:0:0:0:
256,192,146310,1,8,0:0:0:0:
256,192,146385,1,0,0:0:0:0:
256,192,146460,1,8,0:0:0:0:
256,192,146535,1,8,0:0:0:0:
256,192,146610,1,8,0:0:0:0:
256,192,146685,1,0,0:0:0:0:
256,192,146760,1,8,0:0:0:0:
256,192,146835,1,8,0:0:0:0:
256,192,146910,1,8,0:0:0:0:
256,192,146985,1,0,0:0:0:0:
256,192,147060,1,8,0:0:0:0:
256,192,147135,1,8,0:0:0:0:
256,192,147210,1,0,0:0:0:0:
256,192,147285,1,8,0:0:0:0:
256,192,147360,1,8,0:0:0:0:
256,192,147435,1,0,0:0:0:0:
256,192,147485,1,8,0:0:0:0:
256,192,147535,1,8,0:0:0:0:
256,192,147585,1,0,0:0:0:0:
256,192,147735,1,8,0:0:0:0:
256,192,147810,1,0,0:0:0:0:
256,192,147960,1,8,0:0:0:0:
256,192,148035,1,0,0:0:0:0:
256,192,148185,1,0,0:0:0:0:
256,192,148335,1,8,0:0:0:0:
256,192,148635,1,8,0:0:0:0:
256,192,148785,1,12,0:0:0:0:
256,192,148935,1,0,0:0:0:0:
256,192,149010,1,0,0:0:0:0:
256,192,149085,1,8,0:0:0:0:
256,192,149235,1,8,0:0:0:0:
256,192,149310,1,0,0:0:0:0:
256,192,149385,1,8,0:0:0:0:
256,192,149460,1,8,0:0:0:0:
256,192,149535,1,0,0:0:0:0:
256,192,149685,1,8,0:0:0:0:
256,192,149760,1,8,0:0:0:0:
256,192,149835,1,0,0:0:0:0:
256,192,149910,1,0,0:0:0:0:
256,192,149985,1,8,0:0:0:0:
256,192,150135,1,0,0:0:0:0:
256,192,150210,1,8,0:0:0:0:
256,192,150285,1,0,0:0:0:0:
256,192,150435,1,8,0:0:0:0:
256,192,150585,1,0,0:0:0:0:
256,192,150660,1,0,0:0:0:0:
256,192,150735,1,8,0:0:0:0:
256,192,150810,1,0,0:0:0:0:
256,192,150885,1,0,0:0:0:0:
256,192,150960,1,0,0:0:0:0:
256,192,151035,1,8,0:0:0:0:
256,192,151185,1,0,0:0:0:0:
256,192,151335,1,8,0:0:0:0:
256,192,151410,1,8,0:0:0:0:
256,192,151485,1,0,0:0:0:0:
256,192,151635,1,8,0:0:0:0:
256,192,151710,1,0,0:0:0:0:
256,192,151785,1,8,0:0:0:0:
256,192,151860,1,8,0:0:0:0:
256,192,151935,1,0,0:0:0:0:
256,192,152085,1,8,0:0:0:0:
256,192,152160,1,8,0:0:0:0:
256,192,152235,1,0,0:0:0:0:
256,192,152310,1,8,0:0:0:0:
256,192,152385,1,0,0:0:0:0:
256,192,152535,1,8,0:0:0:0:
256,192,152610,1,8,0:0:0:0:
256,192,152685,1,0,0:0:0:0:
256,192,152835,1,8,0:0:0:0:
256,192,152910,1,0,0:0:0:0:
256,192,152985,1,8,0:0:0:0:
256,192,153060,1,8,0:0:0:0:
256,192,153135,1,0,0:0:0:0:
256,192,153285,1,8,0:0:0:0:
256,192,153435,1,0,0:0:0:0:
256,192,153510,1,0,0:0:0:0:
256,192,153585,1,8,0:0:0:0:
256,192,153735,1,0,0:0:0:0:
256,192,153810,1,0,0:0:0:0:
256,192,153885,1,8,0:0:0:0:
256,192,154035,1,0,0:0:0:0:
256,192,154185,1,8,0:0:0:0:
256,192,154260,1,8,0:0:0:0:
256,192,154335,1,0,0:0:0:0:
256,192,154485,1,8,0:0:0:0:
256,192,154560,1,0,0:0:0:0:
256,192,154635,1,8,0:0:0:0:
256,192,154710,1,8,0:0:0:0:
256,192,154785,1,0,0:0:0:0:
256,192,154935,1,8,0:0:0:0:
256,192,155010,1,8,0:0:0:0:
256,192,155085,1,0,0:0:0:0:
256,192,155235,1,8,0:0:0:0:
256,192,155310,1,0,0:0:0:0:
256,192,155385,1,8,0:0:0:0:
256,192,155460,1,8,0:0:0:0:
256,192,155535,1,0,0:0:0:0:
256,192,155685,1,8,0:0:0:0:
256,192,155760,1,8,0:0:0:0:
256,192,155835,1,0,0:0:0:0:
256,192,155910,1,8,0:0:0:0:
256,192,155985,1,0,0:0:0:0:
256,192,156135,1,8,0:0:0:0:
256,192,156210,1,8,0:0:0:0:
256,192,156285,1,0,0:0:0:0:
256,192,156435,1,8,0:0:0:0:
256,192,156585,1,0,0:0:0:0:
256,192,156660,1,0,0:0:0:0:
256,192,156735,1,8,0:0:0:0:
256,192,156885,1,8,0:0:0:0:
256,192,156960,1,0,0:0:0:0:
256,192,157035,1,8,0:0:0:0:
256,192,157185,1,0,0:0:0:0:
256,192,157335,1,8,0:0:0:0:
256,192,157410,1,0,0:0:0:0:
256,192,157485,1,8,0:0:0:0:
256,192,157560,1,8,0:0:0:0:
256,192,157635,1,0,0:0:0:0:
256,192,157710,1,0,0:0:0:0:
256,192,157785,1,8,0:0:0:0:
256,192,157860,1,0,0:0:0:0:
256,192,157935,1,8,0:0:0:0:
256,192,158010,1,8,0:0:0:0:
256,192,158085,1,0,0:0:0:0:
256,192,158160,1,0,0:0:0:0:
256,192,158385,1,12,0:0:0:0:
256,192,158535,1,0,0:0:0:0:
256,192,158610,1,0,0:0:0:0:
256,192,158685,1,8,0:0:0:0:
256,192,158835,1,0,0:0:0:0:
256,192,158985,1,8,0:0:0:0:
256,192,159060,1,8,0:0:0:0:
256,192,159135,1,0,0:0:0:0:
256,192,159285,1,8,0:0:0:0:
256,192,159360,1,0,0:0:0:0:
256,192,159435,1,8,0:0:0:0:
256,192,159585,1,8,0:0:0:0:
256,192,159735,1,0,0:0:0:0:
256,192,159810,1,0,0:0:0:0:
256,192,159885,1,8,0:0:0:0:
256,192,160035,1,0,0:0:0:0:
256,192,160185,1,8,0:0:0:0:
256,192,160260,1,8,0:0:0:0:
256,192,160335,1,0,0:0:0:0:
256,192,160410,1,0,0:0:0:0:
256,192,160485,1,8,0:0:0:0:
256,192,160560,1,0,0:0:0:0:
256,192,160635,1,8,0:0:0:0:
256,192,160785,1,8,0:0:0:0:
256,192,160935,1,0,0:0:0:0:
256,192,161010,1,0,0:0:0:0:
256,192,161085,1,8,0:0:0:0:
256,192,161235,1,0,0:0:0:0:
256,192,161385,1,8,0:0:0:0:
256,192,161460,1,8,0:0:0:0:
256,192,161535,1,0,0:0:0:0:
256,192,161685,1,8,0:0:0:0:
256,192,161760,1,0,0:0:0:0:
256,192,161835,1,8,0:0:0:0:
256,192,161910,1,8,0:0:0:0:
256,192,161985,1,0,0:0:0:0:
256,192,162135,1,8,0:0:0:0:
256,192,162210,1,8,0:0:0:0:
256,192,162285,1,0,0:0:0:0:
256,192,162435,1,8,0:0:0:0:
256,192,162510,1,0,0:0:0:0:
256,192,162585,1,8,0:0:0:0:
256,192,162660,1,8,0:0:0:0:
256,192,162735,1,0,0:0:0:0:
256,192,162885,1,8,0:0:0:0:
256,192,163035,1,0,0:0:0:0:
256,192,163110,1,8,0:0:0:0:
256,192,163185,1,0,0:0:0:0:
256,192,163335,1,8,0:0:0:0:
256,192,163410,1,8,0:0:0:0:
256,192,163485,1,0,0:0:0:0:
256,192,163635,1,8,0:0:0:0:
256,192,163785,1,0,0:0:0:0:
256,192,163860,1,0,0:0:0:0:
256,192,163935,1,8,0:0:0:0:
256,192,164010,1,0,0:0:0:0:
256,192,164085,1,8,0:0:0:0:
256,192,164160,1,8,0:0:0:0:
256,192,164235,1,0,0:0:0:0:
256,192,164385,1,8,0:0:0:0:
256,192,164535,1,0,0:0:0:0:
256,192,164610,1,0,0:0:0:0:
256,192,164685,1,8,0:0:0:0:
256,192,164835,1,0,0:0:0:0:
256,192,164985,1,8,0:0:0:0:
256,192,165060,1,8,0:0:0:0:
256,192,165135,1,0,0:0:0:0:
256,192,165210,1,0,0:0:0:0:
256,192,165285,1,8,0:0:0:0:
256,192,165360,1,0,0:0:0:0:
256,192,165435,1,8,0:0:0:0:
256,192,165585,1,8,0:0:0:0:
256,192,165735,1,0,0:0:0:0:
256,192,165810,1,0,0:0:0:0:
256,192,165885,1,8,0:0:0:0:
256,192,166035,1,0,0:0:0:0:
256,192,166185,1,8,0:0:0:0:
256,192,166260,1,8,0:0:0:0:
256,192,166335,1,0,0:0:0:0:
256,192,166485,1,8,0:0:0:0:
256,192,166560,1,0,0:0:0:0:
256,192,166635,1,8,0:0:0:0:
256,192,166710,1,8,0:0:0:0:
256,192,166785,1,0,0:0:0:0:
256,192,166935,1,8,0:0:0:0:
256,192,167010,1,0,0:0:0:0:
256,192,167160,1,8,0:0:0:0:
256,192,167235,1,0,0:0:0:0:
256,192,167310,1,8,0:0:0:0:
256,192,167385,1,0,0:0:0:0:
256,192,167535,1,8,0:0:0:0:
256,192,167685,1,0,0:0:0:0:
256,192,167760,1,8,0:0:0:0:
256,192,167985,1,4,0:0:0:0:
256,192,168285,1,12,0:0:0:0:
256,192,168510,1,12,0:0:0:0:
256,192,168735,1,12,0:0:0:0:
256,192,168960,1,12,0:0:0:0:
256,192,169110,1,12,0:0:0:0:
256,192,169185,1,4,0:0:0:0:
256,192,169485,1,12,0:0:0:0:
256,192,169710,1,12,0:0:0:0:
256,192,169935,1,12,0:0:0:0:
256,192,170085,1,0,0:0:0:0:
256,192,170160,1,8,0:0:0:0:
256,192,170235,1,8,0:0:0:0:
256,192,170310,1,8,0:0:0:0:
256,192,170385,1,4,0:0:0:0:
256,192,170685,1,12,0:0:0:0:
256,192,170910,1,12,0:0:0:0:
256,192,171135,1,12,0:0:0:0:
256,192,171360,1,12,0:0:0:0:
256,192,171510,1,12,0:0:0:0:
256,192,171585,1,4,0:0:0:0:
256,192,171885,1,12,0:0:0:0:
256,192,172110,1,12,0:0:0:0:
256,192,172335,1,12,0:0:0:0:
256,192,172485,1,0,0:0:0:0:
256,192,172635,1,0,0:0:0:0:
256,192,172710,1,8,0:0:0:0:
256,192,172785,1,0,0:0:0:0:
256,192,172935,1,0,0:0:0:0:
256,192,173010,1,0,0:0:0:0:
256,192,173085,1,12,0:0:0:0:
256,192,173310,1,12,0:0:0:0:
256,192,173535,1,12,0:0:0:0:
256,192,173760,1,12,0:0:0:0:
256,192,173910,1,12,0:0:0:0:
256,192,173985,1,4,0:0:0:0:
256,192,174285,1,12,0:0:0:0:
256,192,174510,1,12,0:0:0:0:
256,192,174735,1,12,0:0:0:0:
256,192,174885,1,0,0:0:0:0:
256,192,174935,1,8,0:0:0:0:
256,192,174985,1,8,0:0:0:0:
256,192,175035,1,0,0:0:0:0:
256,192,175185,1,4,0:0:0:0:
256,192,175485,1,12,0:0:0:0:
256,192,175710,1,12,0:0:0:0:
256,192,175935,1,12,0:0:0:0:
256,192,176160,1,12,0:0:0:0:
256,192,176310,1,12,0:0:0:0:
256,192,176385,1,4,0:0:0:0:
256,192,176685,1,12,0:0:0:0:
256,192,176910,1,12,0:0:0:0:
256,192,177135,1,12,0:0:0:0:
256,192,177285,1,4,0:0:0:0:
256,192,177585,1,0,0:0:0:0:
256,192,177660,1,8,0:0:0:0:
256,192,177735,1,0,0:0:0:0:
256,192,177810,1,0,0:0:0:0:
256,192,177885,1,8,0:0:0:0:
256,192,178035,1,0,0:0:0:0:
256,192,178110,1,8,0:0:0:0:
256,192,178185,1,0,0:0:0:0:
256,192,178335,1,8,0:0:0:0:
256,192,178485,1,0,0:0:0:0:
256,192,178560,1,8,0:0:0:0:
256,192,178710,1,8,0:0:0:0:
256,192,178785,1,8,0:0:0:0:
256,192,178935,1,0,0:0:0:0:
256,192,179010,1,0,0:0:0:0:
256,192,179085,1,8,0:0:0:0:
256,192,179235,1,0,0:0:0:0:
256,192,179310,1,8,0:0:0:0:
256,192,179385,1,0,0:0:0:0:
256,192,179460,1,0,0:0:0:0:
256,192,179535,1,8,0:0:0:0:
256,192,179685,1,0,0:0:0:0:
256,192,179760,1,8,0:0:0:0:
256,192,179835,1,8,0:0:0:0:
256,192,179910,1,8,0:0:0:0:
256,192,179985,1,0,0:0:0:0:
256,192,180135,1,0,0:0:0:0:
256,192,180210,1,0,0:0:0:0:
256,192,180285,1,8,0:0:0:0:
256,192,180435,1,0,0:0:0:0:
256,192,180510,1,8,0:0:0:0:
256,192,180585,1,0,0:0:0:0:
256,192,180735,1,8,0:0:0:0:
256,192,180885,1,0,0:0:0:0:
256,192,180960,1,8,0:0:0:0:
256,192,181110,1,8,0:0:0:0:
256,192,181185,1,8,0:0:0:0:
256,192,181335,1,0,0:0:0:0:
256,192,181410,1,0,0:0:0:0:
256,192,181485,1,8,0:0:0:0:
256,192,181635,1,0,0:0:0:0:
256,192,181710,1,0,0:0:0:0:
256,192,181785,1,8,0:0:0:0:
256,192,181860,1,0,0:0:0:0:
256,192,181935,1,8,0:0:0:0:
256,192,182085,1,4,0:0:0:0:
256,192,182385,1,8,0:0:0:0:
256,192,182460,1,8,0:0:0:0:
256,192,182535,1,0,0:0:0:0:
256,192,182610,1,0,0:0:0:0:
256,192,182685,1,8,0:0:0:0:
256,192,182835,1,0,0:0:0:0:
256,192,182910,1,8,0:0:0:0:
256,192,182985,1,0,0:0:0:0:
256,192,183135,1,8,0:0:0:0:
256,192,183285,1,0,0:0:0:0:
256,192,183360,1,8,0:0:0:0:
256,192,183510,1,8,0:0:0:0:
256,192,183585,1,8,0:0:0:0:
256,192,183735,1,0,0:0:0:0:
256,192,183810,1,0,0:0:0:0:
256,192,183885,1,8,0:0:0:0:
256,192,184035,1,0,0:0:0:0:
256,192,184110,1,8,0:0:0:0:
256,192,184185,1,0,0:0:0:0:
256,192,184260,1,0,0:0:0:0:
256,192,184335,1,8,0:0:0:0:
256,192,184485,1,0,0:0:0:0:
256,192,184535,1,8,0:0:0:0:
256,192,184585,1,8,0:0:0:0:
256,192,184635,1,0,0:0:0:0:
256,192,184785,1,8,0:0:0:0:
256,192,184935,1,0,0:0:0:0:
256,192,185010,1,0,0:0:0:0:
256,192,185085,1,8,0:0:0:0:
256,192,185235,1,0,0:0:0:0:
256,192,185310,1,8,0:0:0:0:
256,192,185385,1,0,0:0:0:0:
256,192,185460,1,0,0:0:0:0:
256,192,185535,1,8,0:0:0:0:
256,192,185685,1,0,0:0:0:0:
256,192,185760,1,8,0:0:0:0:
256,192,185835,1,0,0:0:0:0:
256,192,185910,1,8,0:0:0:0:
256,192,185985,1,8,0:0:0:0:
256,192,186135,1,0,0:0:0:0:
256,192,186210,1,8,0:0:0:0:
256,192,186285,1,8,0:0:0:0:
256,192,186360,1,0,0:0:0:0:
256,192,186435,1,0,0:0:0:0:
256,192,186510,1,8,0:0:0:0:
256,192,186547,1,8,0:0:0:0:
256,192,186585,1,8,0:0:0:0:
256,192,186660,1,8,0:0:0:0:
256,192,186735,1,8,0:0:0:0:
256,192,186810,1,8,0:0:0:0:
256,192,187185,1,4,0:0:0:0:
256,192,187485,1,0,0:0:0:0:
256,192,187635,1,8,0:0:0:0:
256,192,187785,1,0,0:0:0:0:
256,192,188085,1,0,0:0:0:0:
256,192,188385,1,0,0:0:0:0:
256,192,188685,1,0,0:0:0:0:
256,192,188835,1,8,0:0:0:0:
256,192,188985,1,0,0:0:0:0:
256,192,189135,1,8,0:0:0:0:
256,192,189210,1,0,0:0:0:0:
256,192,189435,1,8,0:0:0:0:
256,192,189585,1,0,0:0:0:0:
256,192,189885,1,0,0:0:0:0:
256,192,190035,1,8,0:0:0:0:
256,192,190185,1,0,0:0:0:0:
256,192,190485,1,8,0:0:0:0:
256,192,190785,1,0,0:0:0:0:
256,192,191085,1,8,0:0:0:0:
256,192,191385,1,0,0:0:0:0:
256,192,191535,1,8,0:0:0:0:
256,192,191685,1,8,0:0:0:0:
256,192,191985,1,0,0:0:0:0:
256,192,192210,1,0,0:0:0:0:
256,192,192435,1,0,0:0:0:0:
256,192,192585,1,8,0:0:0:0:
256,192,192810,1,8,0:0:0:0:
256,192,193035,1,8,0:0:0:0:
256,192,193185,1,0,0:0:0:0:
256,192,193410,1,0,0:0:0:0:
256,192,193635,1,0,0:0:0:0:
256,192,193785,1,8,0:0:0:0:
256,192,194010,1,8,0:0:0:0:
256,192,194235,1,8,0:0:0:0:
256,192,194385,1,0,0:0:0:0:
256,192,194460,1,8,0:0:0:0:
256,192,194535,1,8,0:0:0:0:
256,192,194610,1,8,0:0:0:0:
256,192,194685,1,0,0:0:0:0:
256,192,194760,1,8,0:0:0:0:
256,192,194835,1,8,0:0:0:0:
256,192,194910,1,8,0:0:0:0:
256,192,194985,1,0,0:0:0:0:
256,192,195060,1,8,0:0:0:0:
256,192,195135,1,8,0:0:0:0:
256,192,195210,1,8,0:0:0:0:
256,192,195285,1,0,0:0:0:0:
256,192,195360,1,8,0:0:0:0:
256,192,195435,1,8,0:0:0:0:
256,192,195510,1,8,0:0:0:0:
256,192,195585,1,0,0:0:0:0:
256,192,195735,12,0,196485,0:0:0:0:
256,192,196785,5,4,0:0:0:0:
256,192,196935,12,0,197835,0:0:0:0:
256,192,197985,5,8,0:0:0:0:
256,192,198135,1,0,0:0:0:0:
256,192,198185,1,0,0:0:0:0:
256,192,198235,1,0,0:0:0:0:
256,192,198285,1,8,0:0:0:0:
256,192,198435,1,8,0:0:0:0:
256,192,198485,1,0,0:0:0:0:
256,192,198535,1,0,0:0:0:0:
256,192,198585,1,8,0:0:0:0:
256,192,198635,1,8,0:0:0:0:
256,192,198685,1,8,0:0:0:0:
256,192,198735,1,0,0:0:0:0:
256,192,198885,1,8,0:0:0:0:
256,192,198960,1,8,0:0:0:0:
256,192,199035,1,8,0:0:0:0:
256,192,199110,1,8,0:0:0:0:
256,192,199185,1,4,0:0:0:0:
256,192,199335,12,0,200235,0:0:0:0:
256,192,200385,5,8,0:0:0:0:
256,192,200535,1,0,0:0:0:0:
256,192,200585,1,8,0:0:0:0:
256,192,200635,1,8,0:0:0:0:
256,192,200685,1,0,0:0:0:0:
256,192,200835,1,8,0:0:0:0:
256,192,200985,1,0,0:0:0:0:
256,192,201085,1,8,0:0:0:0:
256,192,201285,1,8,0:0:0:0:
256,192,201335,1,8,0:0:0:0:
256,192,201385,1,8,0:0:0:0:
256,192,201435,1,8,0:0:0:0:
256,192,201485,1,8,0:0:0:0:
256,192,201535,1,8,0:0:0:0:
256,192,201585,1,4,0:0:0:0:
256,192,201660,12,0,202710,0:0:0:0:
256,192,202785,5,8,0:0:0:0:
256,192,202935,1,0,0:0:0:0:
256,192,202985,1,8,0:0:0:0:
256,192,203035,1,8,0:0:0:0:
256,192,203085,1,0,0:0:0:0:
256,192,203135,1,0,0:0:0:0:
256,192,203185,1,0,0:0:0:0:
256,192,203235,1,8,0:0:0:0:
256,192,203285,1,8,0:0:0:0:
256,192,203335,1,8,0:0:0:0:
256,192,203385,1,0,0:0:0:0:
256,192,203435,1,8,0:0:0:0:
256,192,203685,1,8,0:0:0:0:
256,192,203760,1,8,0:0:0:0:
256,192,203835,1,8,0:0:0:0:
256,192,203910,1,8,0:0:0:0:
256,192,203985,1,4,0:0:0:0:
256,192,204135,12,0,204735,0:0:0:0:
256,192,204885,5,0,0:0:0:0:
256,192,205035,1,0,0:0:0:0:
256,192,205185,1,8,0:0:0:0:
256,192,205335,1,0,0:0:0:0:
256,192,205410,1,0,0:0:0:0:
256,192,205485,1,0,0:0:0:0:
256,192,205635,1,8,0:0:0:0:
256,192,205935,1,0,0:0:0:0:
256,192,206085,1,8,0:0:0:0:
256,192,206160,1,0,0:0:0:0:
256,192,206235,1,8,0:0:0:0:
256,192,206310,1,8,0:0:0:0:
256,192,206385,1,4,0:0:0:0:
256,192,206535,12,0,207435,0:0:0:0:
256,192,207585,5,8,0:0:0:0:
256,192,207735,1,8,0:0:0:0:
256,192,207810,1,8,0:0:0:0:
256,192,207885,1,0,0:0:0:0:
256,192,207935,1,0,0:0:0:0:
256,192,207985,1,0,0:0:0:0:
256,192,208035,1,8,0:0:0:0:
256,192,208085,1,8,0:0:0:0:
256,192,208135,1,0,0:0:0:0:
256,192,208185,1,0,0:0:0:0:
256,192,208335,1,8,0:0:0:0:
256,192,208385,1,0,0:0:0:0:
256,192,208435,1,0,0:0:0:0:
256,192,208485,1,8,0:0:0:0:
256,192,208535,1,8,0:0:0:0:
256,192,208585,1,0,0:0:0:0:
256,192,208635,1,8,0:0:0:0:
256,192,208785,1,4,0:0:0:0:
256,192,208935,12,0,209835,0:0:0:0:
256,192,209985,5,8,0:0:0:0:
256,192,210135,1,8,0:0:0:0:
256,192,210210,1,8,0:0:0:0:
256,192,210285,1,0,0:0:0:0:
256,192,210335,1,0,0:0:0:0:
256,192,210385,1,0,0:0:0:0:
256,192,210435,1,0,0:0:0:0:
256,192,210485,1,0,0:0:0:0:
256,192,210535,1,0,0:0:0:0:
256,192,210735,1,8,0:0:0:0:
256,192,210810,1,8,0:0:0:0:
256,192,210885,1,0,0:0:0:0:
256,192,211035,1,8,0:0:0:0:
256,192,211185,1,4,0:0:0:0:
256,192,211335,12,0,212235,0:0:0:0:
256,192,212385,5,8,0:0:0:0:
256,192,212535,1,0,0:0:0:0:
256,192,212572,1,0,0:0:0:0:
256,192,212685,1,8,0:0:0:0:
256,192,212760,1,0,0:0:0:0:
256,192,212835,1,8,0:0:0:0:
256,192,212910,1,8,0:0:0:0:
256,192,212985,1,0,0:0:0:0:
256,192,213035,1,8,0:0:0:0:
256,192,213085,1,8,0:0:0:0:
256,192,213135,1,0,0:0:0:0:
256,192,213185,1,0,0:0:0:0:
256,192,213235,1,8,0:0:0:0:
256,192,213285,1,0,0:0:0:0:
256,192,213335,1,8,0:0:0:0:
256,192,213385,1,8,0:0:0:0:
256,192,213435,1,0,0:0:0:0:
256,192,213585,1,4,0:0:0:0:
256,192,213735,12,0,214335,0:0:0:0:
256,192,214485,5,0,0:0:0:0:
256,192,214635,1,0,0:0:0:0:
256,192,214785,1,8,0:0:0:0:
256,192,214935,1,0,0:0:0:0:
256,192,214985,1,0,0:0:0:0:
256,192,215035,1,0,0:0:0:0:
256,192,215085,1,8,0:0:0:0:
256,192,215235,1,0,0:0:0:0:
256,192,215310,1,0,0:0:0:0:
256,192,215385,1,8,0:0:0:0:
256,192,215535,1,0,0:0:0:0:
256,192,215685,1,8,0:0:0:0:
256,192,215985,1,0,0:0:0:0:
256,192,216285,1,8,0:0:0:0:
256,192,216435,1,0,0:0:0:0:
256,192,216510,1,0,0:0:0:0:
256,192,216585,1,8,0:0:0:0:
256,192,216735,1,0,0:0:0:0:
256,192,216885,1,8,0:0:0:0:
256,192,216960,1,0,0:0:0:0:
256,192,217035,1,8,0:0:0:0:
256,192,217110,1,8,0:0:0:0:
256,192,217185,1,0,0:0:0:0:
256,192,217335,1,0,0:0:0:0:
256,192,217410,1,0,0:0:0:0:
256,192,217485,1,8,0:0:0:0:
256,192,217535,1,8,0:0:0:0:
256,192,217585,1,8,0:0:0:0:
256,192,217635,1,0,0:0:0:0:
256,192,217685,1,0,0:0:0:0:
256,192,217735,1,0,0:0:0:0:
256,192,217785,1,8,0:0:0:0:
256,192,217935,1,8,0:0:0:0:
256,192,218010,1,0,0:0:0:0:
256,192,218160,1,8,0:0:0:0:
256,192,218235,1,0,0:0:0:0:
256,192,218310,1,8,0:0:0:0:
256,192,218385,1,0,0:0:0:0:
256,192,218535,1,8,0:0:0:0:
256,192,218610,1,0,0:0:0:0:
256,192,218685,1,8,0:0:0:0:
256,192,218760,1,8,0:0:0:0:
256,192,218835,1,0,0:0:0:0:
256,192,218910,1,0,0:0:0:0:
256,192,218985,1,8,0:0:0:0:
256,192,219135,1,0,0:0:0:0:
256,192,219210,1,8,0:0:0:0:
256,192,219285,1,0,0:0:0:0:
256,192,219435,1,8,0:0:0:0:
256,192,219585,1,0,0:0:0:0:
256,192,219735,1,8,0:0:0:0:
256,192,219785,1,0,0:0:0:0:
256,192,219835,1,0,0:0:0:0:
256,192,219885,1,8,0:0:0:0:
256,192,220035,1,0,0:0:0:0:
256,192,220185,1,8,0:0:0:0:
256,192,220260,1,8,0:0:0:0:
256,192,220335,1,0,0:0:0:0:
256,192,220410,1,8,0:0:0:0:
256,192,220485,1,0,0:0:0:0:
256,192,220535,1,0,0:0:0:0:
256,192,220585,1,0,0:0:0:0:
256,192,220635,1,0,0:0:0:0:
256,192,220685,1,0,0:0:0:0:
256,192,220735,1,0,0:0:0:0:
256,192,220785,1,8,0:0:0:0:
256,192,220935,1,0,0:0:0:0:
256,192,221010,1,0,0:0:0:0:
256,192,221085,1,8,0:0:0:0:
256,192,221135,1,8,0:0:0:0:
256,192,221185,1,8,0:0:0:0:
256,192,221235,1,0,0:0:0:0:
256,192,221385,1,8,0:0:0:0:
256,192,221422,1,8,0:0:0:0:
256,192,221535,1,0,0:0:0:0:
256,192,221610,1,0,0:0:0:0:
256,192,221685,1,8,0:0:0:0:
256,192,221760,1,8,0:0:0:0:
256,192,221835,1,0,0:0:0:0:
256,192,221910,1,8,0:0:0:0:
256,192,221985,1,0,0:0:0:0:
256,192,222135,1,8,0:0:0:0:
256,192,222210,1,0,0:0:0:0:
256,192,222285,1,8,0:0:0:0:
256,192,222360,1,8,0:0:0:0:
256,192,222435,1,0,0:0:0:0:
256,192,222510,1,0,0:0:0:0:
256,192,222585,1,8,0:0:0:0:
256,192,222735,1,0,0:0:0:0:
256,192,222810,1,8,0:0:0:0:
256,192,222960,1,8,0:0:0:0:
256,192,223035,1,8,0:0:0:0:
256,192,223110,1,8,0:0:0:0:
256,192,223185,1,0,0:0:0:0:
256,192,223485,1,8,0:0:0:0:
256,192,223535,1,8,0:0:0:0:
256,192,223585,1,8,0:0:0:0:
256,192,223635,1,0,0:0:0:0:
256,192,223785,1,8,0:0:0:0:
256,192,223935,1,0,0:0:0:0:
256,192,224010,1,8,0:0:0:0:
256,192,224085,1,0,0:0:0:0:
256,192,224235,1,8,0:0:0:0:
256,192,224310,1,8,0:0:0:0:
256,192,224385,1,0,0:0:0:0:
256,192,224535,1,8,0:0:0:0:
256,192,224610,1,8,0:0:0:0:
256,192,224685,1,0,0:0:0:0:
256,192,224760,1,8,0:0:0:0:
256,192,224835,1,0,0:0:0:0:
256,192,224985,1,8,0:0:0:0:
256,192,225135,1,0,0:0:0:0:
256,192,225210,1,0,0:0:0:0:
256,192,225285,1,8,0:0:0:0:
256,192,225360,1,8,0:0:0:0:
256,192,225435,1,8,0:0:0:0:
256,192,225510,1,8,0:0:0:0:
256,192,225585,1,0,0:0:0:0:
256,192,225885,1,8,0:0:0:0:
256,192,226035,1,0,0:0:0:0:
256,192,226085,1,0,0:0:0:0:
256,192,226135,1,0,0:0:0:0:
256,192,226185,1,8,0:0:0:0:
256,192,226335,1,0,0:0:0:0:
256,192,226410,1,0,0:0:0:0:
256,192,226485,1,8,0:0:0:0:
256,192,226560,1,0,0:0:0:0:
256,192,226635,1,8,0:0:0:0:
256,192,226785,1,0,0:0:0:0:
256,192,226935,1,0,0:0:0:0:
256,192,227010,1,0,0:0:0:0:
256,192,227085,1,8,0:0:0:0:
256,192,227135,1,8,0:0:0:0:
256,192,227185,1,8,0:0:0:0:
256,192,227235,1,0,0:0:0:0:
256,192,227285,1,0,0:0:0:0:
256,192,227335,1,0,0:0:0:0:
256,192,227385,1,8,0:0:0:0:
256,192,227535,1,8,0:0:0:0:
256,192,227572,1,8,0:0:0:0:
256,192,227610,1,8,0:0:0:0:
256,192,227685,1,0,0:0:0:0:
256,192,227760,1,8,0:0:0:0:
256,192,227797,1,8,0:0:0:0:
256,192,227835,1,8,0:0:0:0:
256,192,227985,1,0,0:0:0:0:
256,192,228135,1,0,0:0:0:0:
256,192,228210,1,0,0:0:0:0:
256,192,228285,1,8,0:0:0:0:
256,192,228335,1,8,0:0:0:0:
256,192,228385,1,8,0:0:0:0:
256,192,228435,1,0,0:0:0:0:
256,192,228485,1,0,0:0:0:0:
256,192,228535,1,0,0:0:0:0:
256,192,228585,1,8,0:0:0:0:
256,192,228735,1,0,0:0:0:0:
256,192,228810,1,8,0:0:0:0:
256,192,228885,1,0,0:0:0:0:
256,192,229035,1,8,0:0:0:0:
256,192,229110,1,8,0:0:0:0:
256,192,229185,1,0,0:0:0:0:
256,192,229335,1,8,0:0:0:0:
256,192,229410,1,8,0:0:0:0:
256,192,229485,1,0,0:0:0:0:
256,192,229535,1,0,0:0:0:0:
256,192,229585,1,0,0:0:0:0:
256,192,229635,1,0,0:0:0:0:
256,192,229685,1,0,0:0:0:0:
256,192,229735,1,0,0:0:0:0:
256,192,229785,1,8,0:0:0:0:
256,192,229935,1,0,0:0:0:0:
256,192,230010,1,8,0:0:0:0:
256,192,230085,1,0,0:0:0:0:
256,192,230235,1,8,0:0:0:0:
256,192,230310,1,8,0:0:0:0:
256,192,230385,1,0,0:0:0:0:
256,192,230685,1,8,0:0:0:0:
256,192,230735,1,8,0:0:0:0:
256,192,230785,1,8,0:0:0:0:
256,192,230835,1,0,0:0:0:0:
256,192,230985,1,8,0:0:0:0:
256,192,231135,1,0,0:0:0:0:
256,192,231210,1,8,0:0:0:0:
256,192,231285,1,0,0:0:0:0:
256,192,231435,1,8,0:0:0:0:
256,192,231585,1,0,0:0:0:0:
256,192,231660,1,0,0:0:0:0:
256,192,231735,1,8,0:0:0:0:
256,192,231885,1,0,0:0:0:0:
256,192,231960,1,8,0:0:0:0:
256,192,232035,1,0,0:0:0:0:
256,192,232110,1,0,0:0:0:0:
256,192,232185,1,8,0:0:0:0:
256,192,232335,1,0,0:0:0:0:
256,192,232385,1,0,0:0:0:0:
256,192,232435,1,0,0:0:0:0:
256,192,232485,1,8,0:0:0:0:
256,192,232535,1,8,0:0:0:0:
256,192,232585,1,8,0:0:0:0:
256,192,232635,1,0,0:0:0:0:
256,192,232785,1,8,0:0:0:0:
256,192,232935,1,0,0:0:0:0:
256,192,233010,1,0,0:0:0:0:
256,192,233085,1,8,0:0:0:0:
256,192,233160,1,8,0:0:0:0:
256,192,233235,1,0,0:0:0:0:
256,192,233310,1,0,0:0:0:0:
256,192,233385,1,8,0:0:0:0:
256,192,233535,1,8,0:0:0:0:
256,192,233610,1,0,0:0:0:0:
256,192,233685,1,0,0:0:0:0:
256,192,233835,1,0,0:0:0:0:
256,192,233910,1,8,0:0:0:0:
256,192,234060,1,0,0:0:0:0:
256,192,234135,1,8,0:0:0:0:
256,192,234285,1,8,0:0:0:0:
256,192,234435,1,0,0:0:0:0:
256,192,234510,1,0,0:0:0:0:
256,192,234585,1,8,0:0:0:0:
256,192,234735,1,0,0:0:0:0:
256,192,234810,1,8,0:0:0:0:
256,192,234885,1,0,0:0:0:0:
256,192,234960,1,0,0:0:0:0:
256,192,235035,1,8,0:0:0:0:
256,192,235085,1,8,0:0:0:0:
256,192,235135,1,8,0:0:0:0:
256,192,235185,1,4,0:0:0:0:
256,192,254385,5,8,0:0:0:0:
256,192,254835,1,0,0:0:0:0:
256,192,254985,1,8,0:0:0:0:
256,192,255285,1,0,0:0:0:0:
256,192,255435,1,8,0:0:0:0:
256,192,255735,1,8,0:0:0:0:
256,192,255885,1,0,0:0:0:0:
256,192,256035,1,8,0:0:0:0:
256,192,256335,1,0,0:0:0:0:
256,192,256485,1,0,0:0:0:0:
256,192,256635,1,0,0:0:0:0:
256,192,256785,1,8,0:0:0:0:
256,192,257235,1,0,0:0:0:0:
256,192,257385,1,8,0:0:0:0:
256,192,257685,1,0,0:0:0:0:
256,192,257835,1,8,0:0:0:0:
256,192,257985,1,8,0:0:0:0:
256,192,258135,1,0,0:0:0:0:
256,192,258285,1,8,0:0:0:0:
256,192,258435,1,8,0:0:0:0:
256,192,258585,1,0,0:0:0:0:
256,192,258735,1,8,0:0:0:0:
256,192,259185,1,0,0:0:0:0:
256,192,259785,1,8,0:0:0:0:
256,192,260085,1,0,0:0:0:0:
256,192,260235,1,8,0:0:0:0:
256,192,260535,1,8,0:0:0:0:
256,192,260685,1,0,0:0:0:0:
256,192,260835,1,8,0:0:0:0:
256,192,260985,1,8,0:0:0:0:
256,192,261135,1,0,0:0:0:0:
256,192,261435,1,0,0:0:0:0:
256,192,261585,1,8,0:0:0:0:
256,192,261885,1,0,0:0:0:0:
256,192,262035,1,0,0:0:0:0:
256,192,262185,1,8,0:0:0:0:
256,192,262485,1,0,0:0:0:0:
256,192,262635,1,8,0:0:0:0:
256,192,262785,1,8,0:0:0:0:
256,192,262935,1,0,0:0:0:0:
256,192,263085,1,8,0:0:0:0:
256,192,263235,1,8,0:0:0:0:
256,192,263385,1,0,0:0:0:0:
256,192,263535,1,8,0:0:0:0:
256,192,263985,1,0,0:0:0:0:
256,192,264585,1,0,0:0:0:0:
256,192,265035,1,0,0:0:0:0:
256,192,265335,1,0,0:0:0:0:
256,192,265635,1,0,0:0:0:0:
256,192,265785,1,8,0:0:0:0:
256,192,265935,1,8,0:0:0:0:
256,192,266235,1,0,0:0:0:0:
256,192,266385,1,8,0:0:0:0:
256,192,266685,1,0,0:0:0:0:
256,192,266835,1,8,0:0:0:0:
256,192,266985,1,0,0:0:0:0:
256,192,267135,1,8,0:0:0:0:
256,192,267435,1,8,0:0:0:0:
256,192,267585,1,0,0:0:0:0:
256,192,267885,1,8,0:0:0:0:
256,192,268035,1,8,0:0:0:0:
256,192,268185,1,0,0:0:0:0:
256,192,268335,1,8,0:0:0:0:
256,192,268485,1,0,0:0:0:0:
256,192,268785,1,0,0:0:0:0:
256,192,269235,1,0,0:0:0:0:
256,192,269385,1,8,0:0:0:0:
256,192,269685,1,0,0:0:0:0:
256,192,269835,1,8,0:0:0:0:
256,192,270135,1,8,0:0:0:0:
256,192,270285,1,0,0:0:0:0:
256,192,270435,1,8,0:0:0:0:
256,192,270585,1,8,0:0:0:0:
256,192,270735,1,0,0:0:0:0:
256,192,271035,1,0,0:0:0:0:
256,192,271185,1,8,0:0:0:0:
256,192,271485,1,0,0:0:0:0:
256,192,271635,1,0,0:0:0:0:
256,192,271785,1,8,0:0:0:0:
256,192,272085,1,0,0:0:0:0:
256,192,272235,1,8,0:0:0:0:
256,192,272385,1,8,0:0:0:0:
256,192,272535,1,0,0:0:0:0:
256,192,272685,1,8,0:0:0:0:
256,192,272835,1,8,0:0:0:0:
256,192,272985,1,0,0:0:0:0:
256,192,273135,1,8,0:0:0:0:
256,192,273585,1,4,0:0:0:0:
256,192,274035,1,0,0:0:0:0:
256,192,274185,1,8,0:0:0:0:
256,192,274485,1,0,0:0:0:0:
256,192,274635,1,0,0:0:0:0:
256,192,274785,1,8,0:0:0:0:
256,192,274935,1,0,0:0:0:0:
256,192,275235,1,0,0:0:0:0:
256,192,275385,1,8,0:0:0:0:
256,192,275835,1,0,0:0:0:0:
256,192,275910,1,0,0:0:0:0:
256,192,275985,1,8,0:0:0:0:
256,192,276285,1,0,0:0:0:0:
256,192,276435,1,8,0:0:0:0:
256,192,276585,1,0,0:0:0:0:
256,192,276735,1,0,0:0:0:0:
256,192,276885,1,8,0:0:0:0:
256,192,277185,1,0,0:0:0:0:
256,192,277335,1,8,0:0:0:0:
256,192,277635,1,8,0:0:0:0:
256,192,277785,1,0,0:0:0:0:
256,192,277935,1,0,0:0:0:0:
256,192,278085,1,8,0:0:0:0:
256,192,278385,1,8,0:0:0:0:
256,192,278485,1,0,0:0:0:0:
256,192,278585,1,0,0:0:0:0:
256,192,278685,1,8,0:0:0:0:
256,192,278785,1,8,0:0:0:0:
256,192,278885,1,0,0:0:0:0:
256,192,278985,1,8,0:0:0:0:
256,192,279285,1,0,0:0:0:0:
256,192,279435,1,0,0:0:0:0:
256,192,279585,1,8,0:0:0:0:
256,192,279885,1,0,0:0:0:0:
256,192,280035,1,8,0:0:0:0:
256,192,280185,1,0,0:0:0:0:
256,192,280335,1,8,0:0:0:0:
256,192,280635,1,0,0:0:0:0:
256,192,280785,1,8,0:0:0:0:
256,192,281085,1,0,0:0:0:0:
256,192,281235,1,0,0:0:0:0:
256,192,281385,1,8,0:0:0:0:
256,192,281685,1,0,0:0:0:0:
256,192,281835,1,8,0:0:0:0:
256,192,281985,1,0,0:0:0:0:
256,192,282135,1,8,0:0:0:0:
256,192,282435,1,8,0:0:0:0:
256,192,282585,1,0,0:0:0:0:
256,192,282735,1,0,0:0:0:0:
256,192,282885,1,8,0:0:0:0:
256,192,283185,1,8,0:0:0:0:
256,192,283285,1,0,0:0:0:0:
256,192,283385,1,0,0:0:0:0:
256,192,283485,1,8,0:0:0:0:
256,192,283585,1,8,0:0:0:0:
256,192,283685,1,0,0:0:0:0:
256,192,283785,1,8,0:0:0:0:
256,192,284085,1,0,0:0:0:0:
256,192,284235,1,0,0:0:0:0:
256,192,284385,1,8,0:0:0:0:
256,192,284535,1,0,0:0:0:0:
256,192,284685,1,8,0:0:0:0:
256,192,284835,1,8,0:0:0:0:
256,192,284985,1,0,0:0:0:0:
256,192,285435,1,0,0:0:0:0:
256,192,285510,1,0,0:0:0:0:
256,192,285585,1,8,0:0:0:0:
256,192,285885,1,0,0:0:0:0:
256,192,286035,1,8,0:0:0:0:
256,192,286185,1,0,0:0:0:0:
256,192,286485,1,8,0:0:0:0:
256,192,286635,1,8,0:0:0:0:
256,192,286785,1,0,0:0:0:0:
256,192,287085,1,8,0:0:0:0:
256,192,287235,1,0,0:0:0:0:
256,192,287385,1,8,0:0:0:0:
256,192,287535,1,8,0:0:0:0:
256,192,287685,1,0,0:0:0:0:
256,192,287985,1,8,0:0:0:0:
256,192,288085,1,0,0:0:0:0:
256,192,288185,1,8,0:0:0:0:
256,192,288285,1,0,0:0:0:0:
256,192,288385,1,0,0:0:0:0:
256,192,288485,1,8,0:0:0:0:
256,192,288585,1,8,0:0:0:0:
256,192,288885,1,0,0:0:0:0:
256,192,289035,1,0,0:0:0:0:
256,192,289185,1,8,0:0:0:0:
256,192,289485,1,0,0:0:0:0:
256,192,289635,1,8,0:0:0:0:
256,192,289785,1,0,0:0:0:0:
256,192,289935,1,8,0:0:0:0:
256,192,290235,1,8,0:0:0:0:
256,192,290385,1,0,0:0:0:0:
256,192,290985,1,8,0:0:0:0:
256,192,291285,1,0,0:0:0:0:
256,192,291435,1,0,0:0:0:0:
256,192,291585,1,8,0:0:0:0:
256,192,291735,1,0,0:0:0:0:
256,192,291885,1,8,0:0:0:0:
256,192,292035,1,8,0:0:0:0:
256,192,292185,1,0,0:0:0:0:
256,192,292335,1,8,0:0:0:0:
256,192,292635,1,0,0:0:0:0:
256,192,292785,12,8,296985,0:0:0:0:
256,192,297135,5,8,0:0:0:0:
256,192,297210,1,8,0:0:0:0:
256,192,297285,1,4,0:0:0:0:
256,192,297585,1,8,0:0:0:0:
256,192,297622,1,0,0:0:0:0:
256,192,297735,1,8,0:0:0:0:
256,192,297772,1,0,0:0:0:0:
256,192,297885,1,8,0:0:0:0:
256,192,297922,1,0,0:0:0:0:
256,192,298035,1,8,0:0:0:0:
256,192,298072,1,0,0:0:0:0:
256,192,298185,1,8,0:0:0:0:
256,192,298335,1,0,0:0:0:0:
256,192,298485,1,12,0:0:0:0:
256,192,298635,1,0,0:0:0:0:
256,192,298710,1,0,0:0:0:0:
256,192,298785,1,0,0:0:0:0:
256,192,298935,1,12,0:0:0:0:
256,192,299085,1,0,0:0:0:0:
256,192,299160,1,8,0:0:0:0:
256,192,299235,1,0,0:0:0:0:
256,192,299385,1,12,0:0:0:0:
256,192,299610,1,0,0:0:0:0:
256,192,299685,1,8,0:0:0:0:
256,192,299760,1,8,0:0:0:0:
256,192,299835,1,8,0:0:0:0:
256,192,299910,1,8,0:0:0:0:
256,192,299985,1,4,0:0:0:0:
256,192,300285,1,0,0:0:0:0:
256,192,300435,1,12,0:0:0:0:
256,192,300585,1,0,0:0:0:0:
256,192,300735,1,12,0:0:0:0:
256,192,300885,1,0,0:0:0:0:
256,192,301035,1,12,0:0:0:0:
256,192,301185,1,0,0:0:0:0:
256,192,301260,1,0,0:0:0:0:
256,192,301335,1,12,0:0:0:0:
256,192,301485,1,12,0:0:0:0:
256,192,301635,1,0,0:0:0:0:
256,192,301785,1,12,0:0:0:0:
256,192,301935,1,0,0:0:0:0:
256,192,302085,1,8,0:0:0:0:
256,192,302160,1,8,0:0:0:0:
256,192,302235,1,8,0:0:0:0:
256,192,302310,1,8,0:0:0:0:
256,192,302385,1,0,0:0:0:0:
256,192,302535,1,8,0:0:0:0:
256,192,302610,1,0,0:0:0:0:
256,192,302685,1,8,0:0:0:0:
256,192,302760,1,8,0:0:0:0:
256,192,302835,1,0,0:0:0:0:
256,192,302985,1,8,0:0:0:0:
256,192,303135,1,0,0:0:0:0:
256,192,303210,1,0,0:0:0:0:
256,192,303285,1,12,0:0:0:0:
256,192,303435,1,0,0:0:0:0:
256,192,303510,1,8,0:0:0:0:
256,192,303585,1,0,0:0:0:0:
256,192,303735,1,12,0:0:0:0:
256,192,303885,1,0,0:0:0:0:
256,192,303960,1,0,0:0:0:0:
256,192,304035,1,8,0:0:0:0:
256,192,304185,1,12,0:0:0:0:
256,192,304335,1,0,0:0:0:0:
256,192,304410,1,0,0:0:0:0:
256,192,304485,1,8,0:0:0:0:
256,192,304560,1,8,0:0:0:0:
256,192,304635,1,8,0:0:0:0:
256,192,304710,1,8,0:0:0:0:
256,192,304785,1,0,0:0:0:0:
256,192,304935,1,8,0:0:0:0:
256,192,305010,1,0,0:0:0:0:
256,192,305085,1,8,0:0:0:0:
256,192,305160,1,8,0:0:0:0:
256,192,305235,1,0,0:0:0:0:
256,192,305385,1,8,0:0:0:0:
256,192,305535,1,0,0:0:0:0:
256,192,305610,1,0,0:0:0:0:
256,192,305685,1,8,0:0:0:0:
256,192,305835,1,8,0:0:0:0:
256,192,305910,1,8,0:0:0:0:
256,192,305985,1,0,0:0:0:0:
256,192,306060,1,0,0:0:0:0:
256,192,306135,1,8,0:0:0:0:
256,192,306210,1,0,0:0:0:0:
256,192,306285,1,0,0:0:0:0:
256,192,306435,1,0,0:0:0:0:
256,192,306510,1,8,0:0:0:0:
256,192,306585,1,0,0:0:0:0:
256,192,306735,1,8,0:0:0:0:
256,192,307185,1,4,0:0:0:0:
256,192,307485,1,8,0:0:0:0:
256,192,307560,1,8,0:0:0:0:
256,192,307635,1,0,0:0:0:0:
256,192,307785,1,8,0:0:0:0:
256,192,307935,1,0,0:0:0:0:
256,192,308010,1,0,0:0:0:0:
256,192,308085,1,12,0:0:0:0:
256,192,308235,1,0,0:0:0:0:
256,192,308310,1,0,0:0:0:0:
256,192,308385,1,0,0:0:0:0:
256,192,308535,1,12,0:0:0:0:
256,192,308685,1,0,0:0:0:0:
256,192,308760,1,8,0:0:0:0:
256,192,308835,1,0,0:0:0:0:
256,192,308985,1,12,0:0:0:0:
256,192,309210,1,0,0:0:0:0:
256,192,309285,1,8,0:0:0:0:
256,192,309360,1,8,0:0:0:0:
256,192,309435,1,8,0:0:0:0:
256,192,309510,1,8,0:0:0:0:
256,192,309585,1,4,0:0:0:0:
256,192,309885,1,0,0:0:0:0:
256,192,310035,1,12,0:0:0:0:
256,192,310185,1,0,0:0:0:0:
256,192,310335,1,12,0:0:0:0:
256,192,310485,1,0,0:0:0:0:
256,192,310635,1,12,0:0:0:0:
256,192,310785,1,0,0:0:0:0:
256,192,310860,1,0,0:0:0:0:
256,192,310935,1,12,0:0:0:0:
256,192,311085,1,12,0:0:0:0:
256,192,311235,1,0,0:0:0:0:
256,192,311310,1,0,0:0:0:0:
256,192,311385,1,8,0:0:0:0:
256,192,311460,1,8,0:0:0:0:
256,192,311535,1,0,0:0:0:0:
256,192,311685,1,8,0:0:0:0:
256,192,311985,1,0,0:0:0:0:
256,192,312135,1,8,0:0:0:0:
256,192,312210,1,0,0:0:0:0:
256,192,312285,1,8,0:0:0:0:
256,192,312360,1,8,0:0:0:0:
256,192,312435,1,0,0:0:0:0:
256,192,312510,1,0,0:0:0:0:
256,192,312585,1,8,0:0:0:0:
256,192,312735,1,0,0:0:0:0:
256,192,312810,1,0,0:0:0:0:
256,192,312885,1,12,0:0:0:0:
256,192,313035,1,0,0:0:0:0:
256,192,313110,1,0,0:0:0:0:
256,192,313185,1,0,0:0:0:0:
256,192,313335,1,12,0:0:0:0:
256,192,313485,1,0,0:0:0:0:
256,192,313560,1,8,0:0:0:0:
256,192,313635,1,0,0:0:0:0:
256,192,313785,1,12,0:0:0:0:
256,192,313935,1,0,0:0:0:0:
256,192,314010,1,0,0:0:0:0:
256,192,314085,1,8,0:0:0:0:
256,192,314160,1,8,0:0:0:0:
256,192,314235,1,8,0:0:0:0:
256,192,314310,1,8,0:0:0:0:
256,192,314385,1,0,0:0:0:0:
256,192,314535,1,8,0:0:0:0:
256,192,314610,1,0,0:0:0:0:
256,192,314685,1,8,0:0:0:0:
256,192,314835,1,0,0:0:0:0:
256,192,314985,1,8,0:0:0:0:
256,192,315060,1,8,0:0:0:0:
256,192,315135,1,0,0:0:0:0:
256,192,315285,1,0,0:0:0:0:
256,192,315360,1,0,0:0:0:0:
256,192,315435,1,8,0:0:0:0:
256,192,315510,1,8,0:0:0:0:
256,192,315585,1,0,0:0:0:0:
256,192,315735,1,8,0:0:0:0:
256,192,315810,1,8,0:0:0:0:
256,192,315885,1,0,0:0:0:0:
256,192,316035,1,8,0:0:0:0:
256,192,316110,1,0,0:0:0:0:
256,192,316185,1,8,0:0:0:0:
256,192,316335,1,0,0:0:0:0:
256,192,316485,1,8,0:0:0:0:
256,192,316785,1,4,0:0:0:0:
256,192,317235,1,0,0:0:0:0:
256,192,317385,1,8,0:0:0:0:
256,192,317685,1,0,0:0:0:0:
256,192,318285,1,0,0:0:0:0:
256,192,318585,1,8,0:0:0:0:
256,192,318735,1,0,0:0:0:0:
256,192,318885,1,0,0:0:0:0:
256,192,319185,1,0,0:0:0:0:
256,192,319635,1,0,0:0:0:0:
256,192,319785,1,8,0:0:0:0:
256,192,320085,1,0,0:0:0:0:
256,192,320535,1,0,0:0:0:0:
256,192,320685,1,0,0:0:0:0:
256,192,320985,1,8,0:0:0:0:
256,192,321135,1,0,0:0:0:0:
256,192,321285,1,0,0:0:0:0:
256,192,321585,1,0,0:0:0:0:
256,192,322035,1,0,0:0:0:0:
256,192,322185,1,8,0:0:0:0:
256,192,322485,1,0,0:0:0:0:
256,192,323085,1,0,0:0:0:0:
256,192,323385,1,8,0:0:0:0:
256,192,323535,1,0,0:0:0:0:
256,192,323685,1,0,0:0:0:0:
256,192,323985,1,0,0:0:0:0:
256,192,324435,1,0,0:0:0:0:
256,192,324585,1,8,0:0:0:0:
256,192,324885,1,0,0:0:0:0:
256,192,325335,1,0,0:0:0:0:
256,192,325485,1,0,0:0:0:0:
256,192,325785,1,8,0:0:0:0:
256,192,325935,1,0,0:0:0:0:
256,192,326085,1,0,0:0:0:0:
256,192,326385,1,12,0:0:0:0:
256,192,326835,1,0,0:0:0:0:
256,192,326985,1,8,0:0:0:0:
256,192,327285,1,0,0:0:0:0:
256,192,327585,1,8,0:0:0:0:
256,192,328035,1,0,0:0:0:0:
256,192,328185,1,8,0:0:0:0:
256,192,328485,1,0,0:0:0:0:
256,192,328635,1,0,0:0:0:0:
256,192,328785,1,8,0:0:0:0:
256,192,329235,1,0,0:0:0:0:
256,192,329385,1,8,0:0:0:0:
256,192,329685,1,0,0:0:0:0:
256,192,329985,1,8,0:0:0:0:
256,192,330435,1,0,0:0:0:0:
256,192,330585,1,8,0:0:0:0:
256,192,330885,1,0,0:0:0:0:
256,192,331035,1,0,0:0:0:0:
256,192,331185,1,4,0:0:0:0:
256,192,331485,1,8,0:0:0:0:
256,192,331635,1,0,0:0:0:0:
256,192,331785,1,8,0:0:0:0:
256,192,332085,1,8,0:0:0:0:
256,192,332235,1,8,0:0:0:0:
256,192,332385,1,4,0:0:0:0:
256,192,332685,1,8,0:0:0:0:
256,192,332835,1,0,0:0:0:0:
256,192,332985,1,8,0:0:0:0:
256,192,333285,1,8,0:0:0:0:
256,192,333435,1,8,0:0:0:0:
256,192,333585,1,4,0:0:0:0:
256,192,333735,1,0,0:0:0:0:
256,192,333885,1,8,0:0:0:0:
256,192,334035,1,8,0:0:0:0:
256,192,334185,1,0,0:0:0:0:
256,192,334260,1,0,0:0:0:0:
256,192,334335,1,8,0:0:0:0:
256,192,334410,1,8,0:0:0:0:
256,192,334485,1,0,0:0:0:0:
256,192,334560,1,0,0:0:0:0:
256,192,334635,1,8,0:0:0:0:
256,192,334710,1,8,0:0:0:0:
256,192,334785,1,0,0:0:0:0:
256,192,335985,1,8,0:0:0:0:
256,192,336135,1,0,0:0:0:0:
256,192,336210,1,0,0:0:0:0:
256,192,336285,1,8,0:0:0:0:
256,192,336435,1,0,0:0:0:0:
256,192,336585,1,8,0:0:0:0:
256,192,336660,1,8,0:0:0:0:
256,192,336735,1,0,0:0:0:0:
256,192,336885,1,0,0:0:0:0:
256,192,336960,1,0,0:0:0:0:
256,192,337035,1,8,0:0:0:0:
256,192,337185,1,8,0:0:0:0:
256,192,337260,1,0,0:0:0:0:
256,192,337335,1,0,0:0:0:0:
256,192,337410,1,0,0:0:0:0:
256,192,337485,1,8,0:0:0:0:
256,192,337635,1,0,0:0:0:0:
256,192,337785,1,8,0:0:0:0:
256,192,337860,1,0,0:0:0:0:
256,192,337935,1,8,0:0:0:0:
256,192,338010,1,8,0:0:0:0:
256,192,338085,1,0,0:0:0:0:
256,192,338235,1,8,0:0:0:0:
256,192,338310,1,0,0:0:0:0:
256,192,338385,1,8,0:0:0:0:
256,192,338535,1,0,0:0:0:0:
256,192,338610,1,0,0:0:0:0:
256,192,338685,1,8,0:0:0:0:
256,192,338835,1,0,0:0:0:0:
256,192,338985,1,8,0:0:0:0:
256,192,339060,1,8,0:0:0:0:
256,192,339135,1,0,0:0:0:0:
256,192,339285,1,8,0:0:0:0:
256,192,339360,1,0,0:0:0:0:
256,192,339435,1,8,0:0:0:0:
256,192,339585,1,8,0:0:0:0:
256,192,339735,1,0,0:0:0:0:
256,192,339810,1,0,0:0:0:0:
256,192,339885,1,8,0:0:0:0:
256,192,340035,1,0,0:0:0:0:
256,192,340110,1,0,0:0:0:0:
256,192,340185,1,8,0:0:0:0:
256,192,340260,1,0,0:0:0:0:
256,192,340335,1,8,0:0:0:0:
256,192,340410,1,8,0:0:0:0:
256,192,340485,1,0,0:0:0:0:
256,192,340635,1,0,0:0:0:0:
256,192,340785,1,8,0:0:0:0:
256,192,340935,1,0,0:0:0:0:
256,192,341010,1,0,0:0:0:0:
256,192,341085,1,8,0:0:0:0:
256,192,341235,1,0,0:0:0:0:
256,192,341385,1,8,0:0:0:0:
256,192,341460,1,8,0:0:0:0:
256,192,341535,1,0,0:0:0:0:
256,192,341685,1,8,0:0:0:0:
256,192,341760,1,0,0:0:0:0:
256,192,341835,1,8,0:0:0:0:
256,192,341985,1,0,0:0:0:0:
256,192,342135,1,8,0:0:0:0:
256,192,342210,1,0,0:0:0:0:
256,192,342285,1,8,0:0:0:0:
256,192,342360,1,8,0:0:0:0:
256,192,342435,1,0,0:0:0:0:
256,192,342585,1,8,0:0:0:0:
256,192,342660,1,8,0:0:0:0:
256,192,342735,1,0,0:0:0:0:
256,192,342810,1,0,0:0:0:0:
256,192,342885,1,8,0:0:0:0:
256,192,342960,1,0,0:0:0:0:
256,192,343035,1,8,0:0:0:0:
256,192,343185,1,8,0:0:0:0:
256,192,343335,1,0,0:0:0:0:
256,192,343410,1,0,0:0:0:0:
256,192,343485,1,8,0:0:0:0:
256,192,343635,1,0,0:0:0:0:
256,192,343785,1,8,0:0:0:0:
256,192,343935,1,0,0:0:0:0:
256,192,344010,1,0,0:0:0:0:
256,192,344085,1,8,0:0:0:0:
256,192,344160,1,0,0:0:0:0:
256,192,344235,1,8,0:0:0:0:
256,192,344385,1,0,0:0:0:0:
256,192,344535,1,8,0:0:0:0:
256,192,344610,1,0,0:0:0:0:
256,192,344685,1,8,0:0:0:0:
256,192,344760,1,8,0:0:0:0:
256,192,344835,1,0,0:0:0:0:
256,192,344985,1,8,0:0:0:0:
256,192,345060,1,0,0:0:0:0:
256,192,345135,1,0,0:0:0:0:
256,192,345210,1,0,0:0:0:0:
256,192,345285,1,8,0:0:0:0:
256,192,345435,1,0,0:0:0:0:
256,192,345585,1,12,0:0:0:0:
256,192,345735,1,0,0:0:0:0:
256,192,345810,1,0,0:0:0:0:
256,192,345885,1,8,0:0:0:0:
256,192,346035,1,0,0:0:0:0:
256,192,346110,1,0,0:0:0:0:
256,192,346185,1,8,0:0:0:0:
256,192,346260,1,8,0:0:0:0:
256,192,346335,1,0,0:0:0:0:
256,192,346485,1,8,0:0:0:0:
256,192,346560,1,0,0:0:0:0:
256,192,346635,1,8,0:0:0:0:
256,192,346785,1,8,0:0:0:0:
256,192,346860,1,8,0:0:0:0:
256,192,346935,1,0,0:0:0:0:
256,192,347010,1,8,0:0:0:0:
256,192,347085,1,0,0:0:0:0:
256,192,347235,1,0,0:0:0:0:
256,192,347310,1,0,0:0:0:0:
256,192,347385,1,8,0:0:0:0:
256,192,347460,1,8,0:0:0:0:
256,192,347535,1,0,0:0:0:0:
256,192,347685,1,0,0:0:0:0:
256,192,347760,1,0,0:0:0:0:
256,192,347835,1,8,0:0:0:0:
256,192,347985,1,8,0:0:0:0:
256,192,348135,1,0,0:0:0:0:
256,192,348210,1,0,0:0:0:0:
256,192,348285,1,8,0:0:0:0:
256,192,348435,1,0,0:0:0:0:
256,192,348585,1,8,0:0:0:0:
256,192,348660,1,8,0:0:0:0:
256,192,348735,1,0,0:0:0:0:
256,192,348885,1,8,0:0:0:0:
256,192,348960,1,0,0:0:0:0:
256,192,349035,1,8,0:0:0:0:
256,192,349185,1,0,0:0:0:0:
256,192,349335,1,8,0:0:0:0:
256,192,349410,1,8,0:0:0:0:
256,192,349485,1,0,0:0:0:0:
256,192,349635,1,8,0:0:0:0:
256,192,349785,1,0,0:0:0:0:
256,192,349860,1,0,0:0:0:0:
256,192,349935,1,8,0:0:0:0:
256,192,350085,1,0,0:0:0:0:
256,192,350235,1,8,0:0:0:0:
256,192,350310,1,8,0:0:0:0:
256,192,350385,1,0,0:0:0:0:
256,192,350535,1,8,0:0:0:0:
256,192,350610,1,0,0:0:0:0:
256,192,350685,1,8,0:0:0:0:
256,192,350835,1,0,0:0:0:0:
256,192,350985,1,8,0:0:0:0:
256,192,351060,1,8,0:0:0:0:
256,192,351135,1,0,0:0:0:0:
256,192,351285,1,0,0:0:0:0:
256,192,351360,1,8,0:0:0:0:
256,192,351435,1,0,0:0:0:0:
256,192,351585,1,0,0:0:0:0:
256,192,351735,1,8,0:0:0:0:
256,192,351810,1,0,0:0:0:0:
256,192,351885,1,8,0:0:0:0:
256,192,352035,1,0,0:0:0:0:
256,192,352185,1,8,0:0:0:0:
256,192,352260,1,0,0:0:0:0:
256,192,352335,1,8,0:0:0:0:
256,192,352410,1,8,0:0:0:0:
256,192,352485,1,0,0:0:0:0:
256,192,352560,1,0,0:0:0:0:
256,192,352635,1,8,0:0:0:0:
256,192,352785,1,8,0:0:0:0:
256,192,352935,1,0,0:0:0:0:
256,192,353010,1,0,0:0:0:0:
256,192,353085,1,8,0:0:0:0:
256,192,353235,1,0,0:0:0:0:
256,192,353385,1,8,0:0:0:0:
256,192,353460,1,8,0:0:0:0:
256,192,353535,1,0,0:0:0:0:
256,192,353685,1,8,0:0:0:0:
256,192,353760,1,0,0:0:0:0:
256,192,353835,1,8,0:0:0:0:
256,192,353985,1,0,0:0:0:0:
256,192,354435,1,0,0:0:0:0:
256,192,354585,1,8,0:0:0:0:
256,192,354885,1,0,0:0:0:0:
256,192,355035,1,8,0:0:0:0:
256,192,355185,1,4,0:0:0:0:
256,192,355335,1,8,0:0:0:0:
256,192,355410,1,8,0:0:0:0:
256,192,355485,1,0,0:0:0:0:
256,192,355635,1,8,0:0:0:0:
256,192,355785,1,0,0:0:0:0:
256,192,355860,1,0,0:0:0:0:
256,192,355935,1,8,0:0:0:0:
256,192,356010,1,0,0:0:0:0:
256,192,356085,1,0,0:0:0:0:
256,192,356235,1,8,0:0:0:0:
256,192,356310,1,8,0:0:0:0:
256,192,356385,1,0,0:0:0:0:
256,192,356535,1,8,0:0:0:0:
256,192,356610,1,0,0:0:0:0:
256,192,356685,1,8,0:0:0:0:
256,192,356835,1,0,0:0:0:0:
256,192,356985,1,8,0:0:0:0:
256,192,357060,1,8,0:0:0:0:
256,192,357135,1,0,0:0:0:0:
256,192,357210,1,8,0:0:0:0:
256,192,357285,1,0,0:0:0:0:
256,192,357360,1,0,0:0:0:0:
256,192,357435,1,8,0:0:0:0:
256,192,357585,1,8,0:0:0:0:
256,192,357735,1,8,0:0:0:0:
256,192,357810,1,8,0:0:0:0:
256,192,357885,1,0,0:0:0:0:
256,192,358035,1,8,0:0:0:0:
256,192,358185,1,0,0:0:0:0:
256,192,358260,1,0,0:0:0:0:
256,192,358335,1,8,0:0:0:0:
256,192,358485,1,8,0:0:0:0:
256,192,358560,1,0,0:0:0:0:
256,192,358635,1,8,0:0:0:0:
256,192,358785,1,8,0:0:0:0:
256,192,358935,1,0,0:0:0:0:
256,192,359010,1,0,0:0:0:0:
256,192,359085,1,8,0:0:0:0:
256,192,359235,1,0,0:0:0:0:
256,192,359385,1,8,0:0:0:0:
256,192,359460,1,0,0:0:0:0:
256,192,359535,1,8,0:0:0:0:
256,192,359610,1,8,0:0:0:0:
256,192,359685,1,0,0:0:0:0:
256,192,359760,1,0,0:0:0:0:
256,192,359835,1,8,0:0:0:0:
256,192,359985,1,8,0:0:0:0:
256,192,360135,1,0,0:0:0:0:
256,192,360210,1,0,0:0:0:0:
256,192,360285,1,8,0:0:0:0:
256,192,360435,1,0,0:0:0:0:
256,192,360585,1,8,0:0:0:0:
256,192,360735,1,0,0:0:0:0:
256,192,360810,1,0,0:0:0:0:
256,192,360885,1,8,0:0:0:0:
256,192,360960,1,8,0:0:0:0:
256,192,361035,1,0,0:0:0:0:
256,192,361185,1,0,0:0:0:0:
256,192,361335,1,0,0:0:0:0:
256,192,361410,1,0,0:0:0:0:
256,192,361485,1,8,0:0:0:0:
256,192,361635,1,0,0:0:0:0:
256,192,361710,1,0,0:0:0:0:
256,192,361785,1,8,0:0:0:0:
256,192,361860,1,0,0:0:0:0:
256,192,361935,1,8,0:0:0:0:
256,192,362085,1,0,0:0:0:0:
256,192,362160,1,0,0:0:0:0:
256,192,362235,1,8,0:0:0:0:
256,192,362310,1,8,0:0:0:0:
256,192,362385,1,0,0:0:0:0:
256,192,362535,1,8,0:0:0:0:
256,192,362610,1,0,0:0:0:0:
256,192,362685,1,8,0:0:0:0:
256,192,362835,1,0,0:0:0:0:
256,192,362985,1,8,0:0:0:0:
256,192,363060,1,8,0:0:0:0:
256,192,363135,1,0,0:0:0:0:
256,192,363285,1,8,0:0:0:0:
256,192,363360,1,0,0:0:0:0:
256,192,363435,1,8,0:0:0:0:
256,192,363585,1,4,0:0:0:0:
256,192,363810,1,4,0:0:0:0:
256,192,364035,1,4,0:0:0:0:
256,192,364185,1,4,0:0:0:0:
256,192,364485,1,0,0:0:0:0:
256,192,364635,1,8,0:0:0:0:
256,192,364785,1,12,0:0:0:0:
256,192,364935,1,8,0:0:0:0:
256,192,365010,1,8,0:0:0:0:
256,192,365085,1,0,0:0:0:0:
256,192,365235,1,8,0:0:0:0:
256,192,365385,1,0,0:0:0:0:
256,192,365460,1,0,0:0:0:0:
256,192,365535,1,8,0:0:0:0:
256,192,365685,1,8,0:0:0:0:
256,192,365760,1,0,0:0:0:0:
256,192,365835,1,8,0:0:0:0:
256,192,365985,1,0,0:0:0:0:
256,192,366135,1,8,0:0:0:0:
256,192,366210,1,0,0:0:0:0:
256,192,366285,1,8,0:0:0:0:
256,192,366360,1,8,0:0:0:0:
256,192,366435,1,0,0:0:0:0:
256,192,366585,1,8,0:0:0:0:
256,192,366660,1,8,0:0:0:0:
256,192,366735,1,0,0:0:0:0:
256,192,366810,1,8,0:0:0:0:
256,192,366885,1,0,0:0:0:0:
256,192,366960,1,0,0:0:0:0:
256,192,367035,1,8,0:0:0:0:
256,192,367185,1,4,0:0:0:0:
256,192,367335,1,8,0:0:0:0:
256,192,367410,1,8,0:0:0:0:
256,192,367485,1,0,0:0:0:0:
256,192,367635,1,8,0:0:0:0:
256,192,367785,1,0,0:0:0:0:
256,192,367860,1,0,0:0:0:0:
256,192,367935,1,8,0:0:0:0:
256,192,368085,1,0,0:0:0:0:
256,192,368235,1,8,0:0:0:0:
256,192,368310,1,0,0:0:0:0:
256,192,368385,1,8,0:0:0:0:
256,192,368460,1,8,0:0:0:0:
256,192,368535,1,0,0:0:0:0:
256,192,368685,1,8,0:0:0:0:
256,192,368835,1,0,0:0:0:0:
256,192,368910,1,0,0:0:0:0:
256,192,368985,1,8,0:0:0:0:
256,192,369135,1,0,0:0:0:0:
256,192,369285,1,8,0:0:0:0:
256,192,369360,1,8,0:0:0:0:
256,192,369435,1,0,0:0:0:0:
256,192,369585,1,4,0:0:0:0:
256,192,369735,1,8,0:0:0:0:
256,192,369810,1,0,0:0:0:0:
256,192,369885,1,8,0:0:0:0:
256,192,370035,1,0,0:0:0:0:
256,192,370185,1,8,0:0:0:0:
256,192,370260,1,8,0:0:0:0:
256,192,370335,1,0,0:0:0:0:
256,192,370485,1,8,0:0:0:0:
256,192,370635,1,0,0:0:0:0:
256,192,370710,1,8,0:0:0:0:
256,192,370785,1,4,0:0:0:0:
256,192,370935,1,8,0:0:0:0:
256,192,371010,1,8,0:0:0:0:
256,192,371085,1,0,0:0:0:0:
256,192,371235,1,8,0:0:0:0:
256,192,371385,1,8,0:0:0:0:
256,192,371460,1,0,0:0:0:0:
256,192,371535,1,8,0:0:0:0:
256,192,371610,1,8,0:0:0:0:
256,192,371685,1,0,0:0:0:0:
256,192,371835,1,0,0:0:0:0:
256,192,371910,1,8,0:0:0:0:
256,192,371985,1,0,0:0:0:0:
256,192,372060,1,0,0:0:0:0:
256,192,372135,1,8,0:0:0:0:
256,192,372210,1,8,0:0:0:0:
256,192,372285,1,0,0:0:0:0:
256,192,372360,1,8,0:0:0:0:
256,192,372435,1,0,0:0:0:0:
256,192,372510,1,0,0:0:0:0:
256,192,372585,1,8,0:0:0:0:
256,192,372660,1,8,0:0:0:0:
256,192,372735,1,0,0:0:0:0:
256,192,372810,1,8,0:0:0:0:
256,192,372885,1,0,0:0:0:0:
256,192,372960,1,8,0:0:0:0:
256,192,373035,1,0,0:0:0:0:
256,192,373110,1,0,0:0:0:0:
256,192,373185,1,8,0:0:0:0:
256,192,373635,1,0,0:0:0:0:
256,192,373785,1,8,0:0:0:0:
256,192,374085,1,8,0:0:0:0:
256,192,374235,1,8,0:0:0:0:
256,192,374385,1,4,0:0:0:0:
256,192,374535,1,8,0:0:0:0:
256,192,374685,1,0,0:0:0:0:
256,192,374760,1,0,0:0:0:0:
256,192,374835,1,8,0:0:0:0:
256,192,374985,1,0,0:0:0:0:
256,192,375135,1,8,0:0:0:0:
256,192,375285,1,0,0:0:0:0:
256,192,375360,1,0,0:0:0:0:
256,192,375435,1,8,0:0:0:0:
256,192,375585,1,0,0:0:0:0:
256,192,375735,1,8,0:0:0:0:
256,192,375810,1,8,0:0:0:0:
256,192,375885,1,0,0:0:0:0:
256,192,375960,1,0,0:0:0:0:
256,192,376035,1,8,0:0:0:0:
256,192,376185,1,0,0:0:0:0:
256,192,376335,1,8,0:0:0:0:
256,192,376410,1,8,0:0:0:0:
256,192,376485,1,0,0:0:0:0:
256,192,376560,1,0,0:0:0:0:
256,192,376635,1,8,0:0:0:0:
256,192,376785,1,0,0:0:0:0:
256,192,376860,1,0,0:0:0:0:
256,192,376935,1,8,0:0:0:0:
256,192,377085,1,0,0:0:0:0:
256,192,377160,1,8,0:0:0:0:
256,192,377235,1,8,0:0:0:0:
256,192,377385,1,0,0:0:0:0:
256,192,377460,1,0,0:0:0:0:
256,192,377535,1,8,0:0:0:0:
256,192,377685,1,0,0:0:0:0:
256,192,377760,1,8,0:0:0:0:
256,192,377835,1,8,0:0:0:0:
256,192,377985,1,0,0:0:0:0:
256,192,378135,1,8,0:0:0:0:
256,192,378210,1,8,0:0:0:0:
256,192,378285,1,0,0:0:0:0:
256,192,378435,1,8,0:0:0:0:
256,192,378510,1,8,0:0:0:0:
256,192,378585,1,0,0:0:0:0:
256,192,378735,1,8,0:0:0:0:
256,192,378885,1,0,0:0:0:0:
256,192,379035,1,8,0:0:0:0:
256,192,379185,1,0,0:0:0:0:
256,192,379335,1,8,0:0:0:0:
256,192,379485,1,0,0:0:0:0:
256,192,379560,1,0,0:0:0:0:
256,192,379635,1,8,0:0:0:0:
256,192,379785,1,0,0:0:0:0:
256,192,379935,1,8,0:0:0:0:
256,192,380085,1,8,0:0:0:0:
256,192,380160,1,8,0:0:0:0:
256,192,380235,1,0,0:0:0:0:
256,192,380385,1,0,0:0:0:0:
256,192,380535,1,8,0:0:0:0:
256,192,380610,1,8,0:0:0:0:
256,192,380685,1,0,0:0:0:0:
256,192,380760,1,0,0:0:0:0:
256,192,380835,1,8,0:0:0:0:
256,192,380985,1,0,0:0:0:0:
256,192,381135,1,8,0:0:0:0:
256,192,381285,1,0,0:0:0:0:
256,192,381360,1,0,0:0:0:0:
256,192,381435,1,8,0:0:0:0:
256,192,381585,1,0,0:0:0:0:
256,192,381660,1,0,0:0:0:0:
256,192,381735,1,8,0:0:0:0:
256,192,381885,1,0,0:0:0:0:
256,192,381960,1,8,0:0:0:0:
256,192,382035,1,8,0:0:0:0:
256,192,382185,1,0,0:0:0:0:
256,192,382260,1,0,0:0:0:0:
256,192,382335,1,8,0:0:0:0:
256,192,382485,1,0,0:0:0:0:
256,192,382560,1,8,0:0:0:0:
256,192,382635,1,8,0:0:0:0:
256,192,382785,1,0,0:0:0:0:
256,192,382935,1,8,0:0:0:0:
256,192,383235,1,8,0:0:0:0:
256,192,383535,1,8,0:0:0:0:
256,192,383835,1,8,0:0:0:0:
256,192,383985,1,0,0:0:0:0:
256,192,384135,1,8,0:0:0:0:
256,192,384285,1,0,0:0:0:0:
256,192,384360,1,0,0:0:0:0:
256,192,384435,1,8,0:0:0:0:
256,192,384585,1,0,0:0:0:0:
256,192,384735,1,8,0:0:0:0:
256,192,384810,1,8,0:0:0:0:
256,192,384885,1,0,0:0:0:0:
256,192,384960,1,0,0:0:0:0:
256,192,385035,1,8,0:0:0:0:
256,192,385185,1,0,0:0:0:0:
256,192,385335,1,8,0:0:0:0:
256,192,385410,1,8,0:0:0:0:
256,192,385485,1,0,0:0:0:0:
256,192,385635,1,8,0:0:0:0:
256,192,385710,1,0,0:0:0:0:
256,192,385785,1,8,0:0:0:0:
256,192,385860,1,8,0:0:0:0:
256,192,385935,1,0,0:0:0:0:
256,192,386085,1,8,0:0:0:0:
256,192,386235,1,0,0:0:0:0:
256,192,386310,1,8,0:0:0:0:
256,192,386385,1,0,0:0:0:0:
256,192,386535,1,8,0:0:0:0:
256,192,386685,1,0,0:0:0:0:
256,192,386760,1,0,0:0:0:0:
256,192,386835,1,8,0:0:0:0:
256,192,386985,1,0,0:0:0:0:
256,192,387135,1,8,0:0:0:0:
256,192,387210,1,8,0:0:0:0:
256,192,387285,1,0,0:0:0:0:
256,192,387360,1,0,0:0:0:0:
256,192,387435,1,8,0:0:0:0:
256,192,387585,1,0,0:0:0:0:
256,192,387735,1,0,0:0:0:0:
256,192,387810,1,8,0:0:0:0:
256,192,387885,1,0,0:0:0:0:
256,192,387960,1,0,0:0:0:0:
256,192,388035,1,8,0:0:0:0:
256,192,388185,1,0,0:0:0:0:
256,192,388335,1,8,0:0:0:0:
256,192,388410,1,8,0:0:0:0:
256,192,388485,1,0,0:0:0:0:
256,192,388635,1,0,0:0:0:0:
256,192,388710,1,8,0:0:0:0:
256,192,388785,1,0,0:0:0:0:
256,192,388935,1,8,0:0:0:0:
256,192,389085,1,0,0:0:0:0:
256,192,389235,1,8,0:0:0:0:
256,192,389385,1,0,0:0:0:0:
256,192,389535,1,8,0:0:0:0:
256,192,389685,1,0,0:0:0:0:
256,192,389835,1,8,0:0:0:0:
256,192,389910,1,8,0:0:0:0:
256,192,389985,1,0,0:0:0:0:
256,192,390135,1,0,0:0:0:0:
256,192,390285,1,0,0:0:0:0:
256,192,390435,1,0,0:0:0:0:
256,192,390585,1,0,0:0:0:0:
256,192,390735,1,0,0:0:0:0:
256,192,390885,1,0,0:0:0:0:
256,192,391035,1,0,0:0:0:0:
256,192,391110,1,0,0:0:0:0:
256,192,391185,1,8,0:0:0:0:
256,192,391260,1,0,0:0:0:0:
256,192,391335,1,8,0:0:0:0:
256,192,391410,1,8,0:0:0:0:
256,192,391485,1,0,0:0:0:0:
256,192,391560,1,8,0:0:0:0:
256,192,391635,1,8,0:0:0:0:
256,192,391710,1,0,0:0:0:0:
256,192,391785,1,8,0:0:0:0:
256,192,391860,1,8,0:0:0:0:
256,192,391935,1,0,0:0:0:0:
256,192,392010,1,8,0:0:0:0:
256,192,392085,1,0,0:0:0:0:
256,192,392160,1,8,0:0:0:0:
256,192,392235,1,0,0:0:0:0:
256,192,392310,1,0,0:0:0:0:
256,192,392385,1,8,0:0:0:0:
256,192,393285,1,8,0:0:0:0:
256,192,393585,1,4,0:0:0:0:
