osu file format v14

[General]
AudioFilename: audio.mp3
AudioLeadIn: 0
PreviewTime: 109185
Countdown: 0
SampleSet: Soft
StackLeniency: 0.7
Mode: 3
LetterboxInBreaks: 0
SpecialStyle: 0
WidescreenStoryboard: 1

[Editor]
Bookmarks: 1185,11985,40785,52785,62085,90885,109185,148785,167985,196785,235185,297135,316785,335985,355185,373185,388785,392385
DistanceSpacing: 1
BeatDivisor: 4
GridSize: 32
TimelineZoom: 2.1

[Metadata]
Title:Valley of Voices
TitleUnicode:Valley of Voices
Artist:Kara & Kurokotei
ArtistUnicode:Kara & 黒皇帝
Creator:ComboCatt
Version:Hopeless
Source:
Tags:Handstream Mini Jacks Kurokotei Tech Kara
BeatmapID:4233204
BeatmapSetID:2031036

[Difficulty]
HPDrainRate:9
CircleSize:4
OverallDifficulty:8.5
ApproachRate:5
SliderMultiplier:1.4
SliderTickRate:1

[Events]
//Background and Video events
0,0,"maxresdefault.jpg",0,0
//Break Periods
//Storyboard Layer 0 (Background)
//Storyboard Layer 1 (Fail)
//Storyboard Layer 2 (Pass)
//Storyboard Layer 3 (Foreground)
//Storyboard Layer 4 (Overlay)
//Storyboard Sound Samples

[TimingPoints]
1185,300,4,2,0,100,1,0
11760,-105.263157894737,4,2,0,100,0,0
39660,-100,4,2,0,100,0,0

[HitObjects]
448,192,2535,5,0,0:0:0:0:
192,192,3510,1,0,0:0:0:0:
320,192,4560,1,0,0:0:0:0:
448,192,4935,1,0,0:0:0:0:
320,192,5010,1,0,0:0:0:0:
192,192,5085,1,0,0:0:0:0:
320,192,5160,1,0,0:0:0:0:
64,192,5235,1,0,0:0:0:0:
192,192,5310,1,0,0:0:0:0:
448,192,5535,1,0,0:0:0:0:
192,192,6510,1,0,0:0:0:0:
448,192,7635,1,0,0:0:0:0:
448,192,7935,1,0,0:0:0:0:
320,192,8010,1,0,0:0:0:0:
448,192,8085,1,0,0:0:0:0:
192,192,8160,1,0,0:0:0:0:
320,192,8235,1,0,0:0:0:0:
64,192,8310,1,0,0:0:0:0:
192,192,8610,1,0,0:0:0:0:
64,192,9585,128,0,11685:0:0:0:0:
192,192,9585,128,0,11685:0:0:0:0:
448,192,9585,1,0,0:0:0:0:
448,192,11985,1,0,0:0:0:0:
192,192,13185,1,0,0:0:0:0:
64,192,14235,1,0,0:0:0:0:
448,192,14385,1,0,0:0:0:0:
320,192,15435,1,0,0:0:0:0:
64,192,15585,1,0,0:0:0:0:
320,192,16185,1,0,0:0:0:0:
320,192,16635,1,0,0:0:0:0:
64,192,16785,1,0,0:0:0:0:
320,192,17985,1,0,0:0:0:0:
320,192,19035,1,0,0:0:0:0:
64,192,19185,1,0,0:0:0:0:
192,192,20235,1,0,0:0:0:0:
320,192,20385,1,0,0:0:0:0:
448,192,20985,1,0,0:0:0:0:
192,192,21435,1,0,0:0:0:0:
64,192,21585,1,0,0:0:0:0:
320,192,22785,1,0,0:0:0:0:
192,192,23835,1,0,0:0:0:0:
448,192,23985,1,0,0:0:0:0:
448,192,25035,1,0,0:0:0:0:
192,192,25185,1,0,0:0:0:0:
320,192,25785,1,0,0:0:0:0:
320,192,26235,1,0,0:0:0:0:
192,192,26385,1,0,0:0:0:0:
192,192,27585,1,0,0:0:0:0:
64,192,28635,1,0,0:0:0:0:
320,192,28785,1,0,0:0:0:0:
320,192,29835,1,0,0:0:0:0:
64,192,29985,1,0,0:0:0:0:
320,192,30585,1,0,0:0:0:0:
192,192,31185,1,0,0:0:0:0:
320,192,31185,1,0,0:0:0:0:
64,192,31335,1,0,0:0:0:0:
448,192,31785,1,0,0:0:0:0:
192,192,32235,1,0,0:0:0:0:
64,192,32385,1,0,0:0:0:0:
320,192,32385,1,0,0:0:0:0:
320,192,32985,1,0,0:0:0:0:
64,192,33435,1,0,0:0:0:0:
192,192,33585,1,0,0:0:0:0:
320,192,33585,1,0,0:0:0:0:
448,192,34185,1,0,0:0:0:0:
192,192,34635,1,0,0:0:0:0:
64,192,34785,1,0,0:0:0:0:
320,192,34785,1,0,0:0:0:0:
448,192,35385,1,0,0:0:0:0:
192,192,35835,1,0,0:0:0:0:
320,192,35985,1,0,0:0:0:0:
448,192,35985,1,0,0:0:0:0:
192,192,36585,1,0,0:0:0:0:
192,192,37185,1,0,0:0:0:0:
64,192,37185,1,0,0:0:0:0:
320,192,37785,1,0,0:0:0:0:
320,192,38235,1,0,0:0:0:0:
192,192,38385,1,0,0:0:0:0:
64,192,38385,1,0,0:0:0:0:
320,192,38985,1,0,0:0:0:0:
192,192,39435,1,0,0:0:0:0:
64,192,39585,1,0,0:0:0:0:
448,192,39585,1,0,0:0:0:0:
320,192,40185,1,0,0:0:0:0:
448,192,40635,1,0,0:0:0:0:
64,192,40785,128,0,40860:0:0:0:0:
192,192,40785,128,0,40860:0:0:0:0:
320,192,41085,128,0,41160:0:0:0:0:
448,192,41085,128,0,41160:0:0:0:0:
192,192,41385,128,0,41460:0:0:0:0:
320,192,41385,128,0,41460:0:0:0:0:
64,192,41685,128,0,41760:0:0:0:0:
448,192,41685,128,0,41760:0:0:0:0:
192,192,41985,128,0,42060:0:0:0:0:
320,192,41985,128,0,42060:0:0:0:0:
448,192,41985,1,0,0:0:0:0:
64,192,42285,128,0,42360:0:0:0:0:
192,192,42285,128,0,42360:0:0:0:0:
448,192,42585,128,0,42660:0:0:0:0:
320,192,42585,128,0,42660:0:0:0:0:
64,192,42885,128,0,42960:0:0:0:0:
320,192,42885,128,0,42960:0:0:0:0:
192,192,43035,1,0,0:0:0:0:
192,192,43185,128,0,43260:0:0:0:0:
448,192,43185,128,0,43260:0:0:0:0:
320,192,43185,1,0,0:0:0:0:
320,192,43485,128,0,43560:0:0:0:0:
448,192,43485,128,0,43560:0:0:0:0:
64,192,43785,128,0,43860:0:0:0:0:
192,192,43785,128,0,43860:0:0:0:0:
320,192,44085,128,0,44160:0:0:0:0:
448,192,44085,128,0,44160:0:0:0:0:
192,192,44235,1,0,0:0:0:0:
64,192,44385,128,0,44460:0:0:0:0:
320,192,44385,128,0,44460:0:0:0:0:
448,192,44385,1,0,0:0:0:0:
192,192,44685,128,0,44760:0:0:0:0:
448,192,44685,128,0,44760:0:0:0:0:
320,192,44985,128,0,45060:0:0:0:0:
192,192,44985,128,0,45060:0:0:0:0:
448,192,44985,1,0,0:0:0:0:
64,192,45285,128,0,45360:0:0:0:0:
192,192,45285,128,0,45360:0:0:0:0:
320,192,45435,1,0,0:0:0:0:
320,192,45585,128,0,45660:0:0:0:0:
448,192,45585,128,0,45660:0:0:0:0:
192,192,45585,1,0,0:0:0:0:
64,192,45885,128,0,45960:0:0:0:0:
192,192,45885,128,0,45960:0:0:0:0:
320,192,46185,128,0,46260:0:0:0:0:
448,192,46185,128,0,46260:0:0:0:0:
64,192,46485,128,0,46560:0:0:0:0:
320,192,46485,128,0,46560:0:0:0:0:
64,192,46785,128,0,46860:0:0:0:0:
448,192,46785,128,0,46860:0:0:0:0:
192,192,46785,1,0,0:0:0:0:
320,192,47085,128,0,47160:0:0:0:0:
192,192,47085,128,0,47160:0:0:0:0:
64,192,47385,128,0,47460:0:0:0:0:
192,192,47385,128,0,47460:0:0:0:0:
320,192,47685,128,0,47760:0:0:0:0:
448,192,47685,128,0,47760:0:0:0:0:
64,192,47985,128,0,48060:0:0:0:0:
192,192,47985,128,0,48060:0:0:0:0:
320,192,47985,1,0,0:0:0:0:
448,192,49035,1,0,0:0:0:0:
192,192,49185,1,0,0:0:0:0:
320,192,49785,1,0,0:0:0:0:
192,192,50235,1,0,0:0:0:0:
64,192,50385,128,0,50460:0:0:0:0:
320,192,50385,128,0,50460:0:0:0:0:
320,192,50685,128,0,50760:0:0:0:0:
448,192,50685,128,0,50760:0:0:0:0:
320,192,50985,128,0,51060:0:0:0:0:
448,192,50985,128,0,51060:0:0:0:0:
64,192,51285,128,0,51360:0:0:0:0:
192,192,51285,128,0,51360:0:0:0:0:
192,192,51585,128,0,51660:0:0:0:0:
320,192,51585,128,0,51660:0:0:0:0:
448,192,51735,128,0,51810:0:0:0:0:
64,192,51735,128,0,51810:0:0:0:0:
320,192,51885,128,0,51960:0:0:0:0:
192,192,51885,128,0,51960:0:0:0:0:
64,192,52035,128,0,52110:0:0:0:0:
448,192,52035,128,0,52110:0:0:0:0:
320,192,52185,1,0,0:0:0:0:
448,192,52185,1,0,0:0:0:0:
192,192,52260,1,0,0:0:0:0:
64,192,52260,1,0,0:0:0:0:
320,192,52335,1,0,0:0:0:0:
448,192,52335,1,0,0:0:0:0:
192,192,52410,1,0,0:0:0:0:
64,192,52410,1,0,0:0:0:0:
448,192,52485,1,0,0:0:0:0:
320,192,52485,1,0,0:0:0:0:
448,192,52785,128,0,52860:0:0:0:0:
192,192,52785,128,0,52860:0:0:0:0:
64,192,52785,128,0,52860:0:0:0:0:
320,192,52935,1,0,0:0:0:0:
64,192,53085,128,0,53160:0:0:0:0:
192,192,53085,128,0,53160:0:0:0:0:
320,192,53235,1,0,0:0:0:0:
448,192,53235,1,0,0:0:0:0:
192,192,53385,128,0,53460:0:0:0:0:
448,192,53385,128,0,53460:0:0:0:0:
64,192,53535,1,0,0:0:0:0:
320,192,53535,1,0,0:0:0:0:
320,192,53685,128,0,53760:0:0:0:0:
448,192,53685,128,0,53760:0:0:0:0:
192,192,53835,1,0,0:0:0:0:
64,192,53835,1,0,0:0:0:0:
64,192,53985,128,0,54060:0:0:0:0:
320,192,53985,128,0,54060:0:0:0:0:
192,192,54135,1,0,0:0:0:0:
448,192,54135,1,0,0:0:0:0:
64,192,54285,128,0,54360:0:0:0:0:
448,192,54285,128,0,54360:0:0:0:0:
320,192,54435,1,0,0:0:0:0:
192,192,54435,1,0,0:0:0:0:
192,192,54585,128,0,54660:0:0:0:0:
64,192,54585,128,0,54660:0:0:0:0:
320,192,54735,1,0,0:0:0:0:
448,192,54735,1,0,0:0:0:0:
192,192,54885,128,0,54960:0:0:0:0:
448,192,54885,128,0,54960:0:0:0:0:
320,192,55035,128,0,55110:0:0:0:0:
64,192,55035,128,0,55110:0:0:0:0:
448,192,55035,128,0,55110:0:0:0:0:
64,192,55185,128,0,55260:0:0:0:0:
192,192,55185,128,0,55260:0:0:0:0:
448,192,55335,1,0,0:0:0:0:
320,192,55335,1,0,0:0:0:0:
320,192,55485,128,0,55560:0:0:0:0:
192,192,55485,128,0,55560:0:0:0:0:
64,192,55635,1,0,0:0:0:0:
448,192,55635,1,0,0:0:0:0:
320,192,55785,128,0,55860:0:0:0:0:
448,192,55785,128,0,55860:0:0:0:0:
192,192,55935,1,0,0:0:0:0:
64,192,55935,1,0,0:0:0:0:
64,192,56085,128,0,56160:0:0:0:0:
320,192,56085,128,0,56160:0:0:0:0:
192,192,56235,1,0,0:0:0:0:
320,192,56235,1,0,0:0:0:0:
448,192,56385,128,0,56460:0:0:0:0:
320,192,56385,128,0,56460:0:0:0:0:
192,192,56535,1,0,0:0:0:0:
64,192,56535,1,0,0:0:0:0:
320,192,56685,1,0,0:0:0:0:
448,192,56685,1,0,0:0:0:0:
320,192,56835,1,0,0:0:0:0:
448,192,56835,1,0,0:0:0:0:
192,192,56885,1,0,0:0:0:0:
64,192,56885,1,0,0:0:0:0:
320,192,56935,1,0,0:0:0:0:
448,192,56935,1,0,0:0:0:0:
192,192,56985,1,0,0:0:0:0:
64,192,56985,1,0,0:0:0:0:
64,192,57135,1,0,0:0:0:0:
448,192,57135,1,0,0:0:0:0:
320,192,57285,1,0,0:0:0:0:
448,192,57285,1,0,0:0:0:0:
192,192,57285,1,0,0:0:0:0:
192,192,57435,1,0,0:0:0:0:
64,192,57435,1,0,0:0:0:0:
320,192,57585,128,0,57660:0:0:0:0:
448,192,57585,1,0,0:0:0:0:
192,192,57735,1,0,0:0:0:0:
64,192,57735,1,0,0:0:0:0:
64,192,57885,128,0,57960:0:0:0:0:
320,192,57885,128,0,57960:0:0:0:0:
192,192,58035,1,0,0:0:0:0:
448,192,58035,1,0,0:0:0:0:
448,192,58185,128,0,58260:0:0:0:0:
320,192,58185,128,0,58260:0:0:0:0:
192,192,58335,1,0,0:0:0:0:
64,192,58335,1,0,0:0:0:0:
320,192,58485,128,0,58560:0:0:0:0:
64,192,58485,128,0,58560:0:0:0:0:
192,192,58635,1,0,0:0:0:0:
448,192,58635,1,0,0:0:0:0:
448,192,58785,128,0,58860:0:0:0:0:
320,192,58785,128,0,58860:0:0:0:0:
64,192,58935,1,0,0:0:0:0:
192,192,58935,1,0,0:0:0:0:
320,192,59085,128,0,59160:0:0:0:0:
64,192,59085,128,0,59160:0:0:0:0:
448,192,59235,1,0,0:0:0:0:
192,192,59235,1,0,0:0:0:0:
192,192,59385,128,0,59460:0:0:0:0:
64,192,59385,128,0,59460:0:0:0:0:
320,192,59535,1,0,0:0:0:0:
448,192,59535,1,0,0:0:0:0:
448,192,59685,128,0,59760:0:0:0:0:
192,192,59685,128,0,59760:0:0:0:0:
320,192,59835,128,0,59910:0:0:0:0:
448,192,59835,128,0,59910:0:0:0:0:
64,192,59835,128,0,59910:0:0:0:0:
320,192,59985,128,0,60060:0:0:0:0:
64,192,59985,128,0,60060:0:0:0:0:
192,192,60135,1,0,0:0:0:0:
448,192,60135,1,0,0:0:0:0:
320,192,60285,128,0,60360:0:0:0:0:
448,192,60285,128,0,60360:0:0:0:0:
192,192,60435,1,0,0:0:0:0:
64,192,60435,1,0,0:0:0:0:
64,192,60585,128,0,60660:0:0:0:0:
192,192,60585,128,0,60660:0:0:0:0:
320,192,60735,1,0,0:0:0:0:
448,192,60735,1,0,0:0:0:0:
448,192,60885,128,0,60960:0:0:0:0:
192,192,60885,128,0,60960:0:0:0:0:
320,192,61035,1,0,0:0:0:0:
64,192,61035,1,0,0:0:0:0:
64,192,61185,128,0,61260:0:0:0:0:
448,192,61185,128,0,61260:0:0:0:0:
192,192,61335,1,0,0:0:0:0:
320,192,61335,1,0,0:0:0:0:
320,192,61485,128,0,61560:0:0:0:0:
448,192,61485,128,0,61560:0:0:0:0:
192,192,61635,1,0,0:0:0:0:
64,192,61635,1,0,0:0:0:0:
64,192,61785,128,0,61860:0:0:0:0:
320,192,61785,128,0,61860:0:0:0:0:
192,192,61935,1,0,0:0:0:0:
448,192,61935,1,0,0:0:0:0:
64,192,62085,1,0,0:0:0:0:
192,192,62085,1,0,0:0:0:0:
448,192,62085,1,0,0:0:0:0:
64,192,62385,1,0,0:0:0:0:
192,192,62385,128,0,62460:0:0:0:0:
320,192,62535,1,0,0:0:0:0:
448,192,62685,1,0,0:0:0:0:
192,192,62685,128,0,62760:0:0:0:0:
64,192,62835,1,0,0:0:0:0:
448,192,62985,1,0,0:0:0:0:
320,192,62985,128,0,63060:0:0:0:0:
192,192,63135,1,0,0:0:0:0:
64,192,63285,128,0,63360:0:0:0:0:
320,192,63285,1,0,0:0:0:0:
448,192,63360,1,0,0:0:0:0:
64,192,63435,1,0,0:0:0:0:
192,192,63510,1,0,0:0:0:0:
448,192,63585,128,0,63660:0:0:0:0:
320,192,63585,1,0,0:0:0:0:
64,192,63585,1,0,0:0:0:0:
192,192,63735,1,0,0:0:0:0:
64,192,63885,1,0,0:0:0:0:
320,192,63885,128,0,63960:0:0:0:0:
192,192,64035,1,0,0:0:0:0:
64,192,64185,128,0,64260:0:0:0:0:
320,192,64185,128,0,64260:0:0:0:0:
448,192,64335,1,0,0:0:0:0:
192,192,64485,1,0,0:0:0:0:
64,192,64485,128,0,64560:0:0:0:0:
320,192,64635,1,0,0:0:0:0:
448,192,64785,128,0,64860:0:0:0:0:
192,192,64785,128,0,64860:0:0:0:0:
320,192,64935,1,0,0:0:0:0:
64,192,65085,128,0,65160:0:0:0:0:
192,192,65085,128,0,65160:0:0:0:0:
448,192,65235,1,0,0:0:0:0:
192,192,65385,128,0,65460:0:0:0:0:
64,192,65385,128,0,65460:0:0:0:0:
320,192,65535,1,0,0:0:0:0:
192,192,65685,128,0,65760:0:0:0:0:
448,192,65685,1,0,0:0:0:0:
320,192,65760,1,0,0:0:0:0:
448,192,65835,1,0,0:0:0:0:
192,192,65910,1,0,0:0:0:0:
64,192,65985,1,0,0:0:0:0:
320,192,65985,128,0,66060:0:0:0:0:
448,192,66135,1,0,0:0:0:0:
192,192,66285,1,0,0:0:0:0:
64,192,66285,1,0,0:0:0:0:
448,192,66435,1,0,0:0:0:0:
320,192,66585,1,0,0:0:0:0:
64,192,66585,1,0,0:0:0:0:
192,192,66735,1,0,0:0:0:0:
320,192,66885,1,0,0:0:0:0:
448,192,66885,1,0,0:0:0:0:
64,192,66885,1,0,0:0:0:0:
192,192,67185,1,0,0:0:0:0:
64,192,67185,1,0,0:0:0:0:
448,192,67185,1,0,0:0:0:0:
320,192,67335,1,0,0:0:0:0:
64,192,67485,1,0,0:0:0:0:
192,192,67485,1,0,0:0:0:0:
320,192,67635,1,0,0:0:0:0:
448,192,67785,1,0,0:0:0:0:
192,192,67785,1,0,0:0:0:0:
320,192,67935,1,0,0:0:0:0:
64,192,68085,1,0,0:0:0:0:
448,192,68085,1,0,0:0:0:0:
192,192,68160,1,0,0:0:0:0:
64,192,68235,1,0,0:0:0:0:
192,192,68310,1,0,0:0:0:0:
320,192,68385,1,0,0:0:0:0:
448,192,68385,1,0,0:0:0:0:
192,192,68535,1,0,0:0:0:0:
64,192,68685,1,0,0:0:0:0:
448,192,68685,1,0,0:0:0:0:
192,192,68835,1,0,0:0:0:0:
320,192,68985,1,0,0:0:0:0:
448,192,68985,1,0,0:0:0:0:
192,192,69135,1,0,0:0:0:0:
64,192,69285,1,0,0:0:0:0:
320,192,69285,1,0,0:0:0:0:
64,192,69435,1,0,0:0:0:0:
192,192,69435,1,0,0:0:0:0:
192,192,69510,1,0,0:0:0:0:
320,192,69510,1,0,0:0:0:0:
64,192,69585,1,0,0:0:0:0:
448,192,69585,1,0,0:0:0:0:
192,192,69735,1,0,0:0:0:0:
320,192,69885,1,0,0:0:0:0:
448,192,69885,1,0,0:0:0:0:
320,192,70035,1,0,0:0:0:0:
192,192,70185,1,0,0:0:0:0:
64,192,70185,1,0,0:0:0:0:
320,192,70335,1,0,0:0:0:0:
192,192,70485,1,0,0:0:0:0:
448,192,70485,1,0,0:0:0:0:
64,192,70635,1,0,0:0:0:0:
192,192,70635,1,0,0:0:0:0:
320,192,70685,1,0,0:0:0:0:
448,192,70685,1,0,0:0:0:0:
192,192,70735,1,0,0:0:0:0:
64,192,70735,1,0,0:0:0:0:
320,192,70785,1,0,0:0:0:0:
448,192,70785,1,0,0:0:0:0:
64,192,71010,1,0,0:0:0:0:
192,192,71010,1,0,0:0:0:0:
192,192,71235,1,0,0:0:0:0:
320,192,71235,1,0,0:0:0:0:
448,192,71460,1,0,0:0:0:0:
320,192,71460,1,0,0:0:0:0:
192,192,71535,1,0,0:0:0:0:
64,192,71535,1,0,0:0:0:0:
192,192,71685,1,0,0:0:0:0:
320,192,71685,1,0,0:0:0:0:
448,192,71685,1,0,0:0:0:0:
64,192,71985,1,0,0:0:0:0:
192,192,71985,1,0,0:0:0:0:
448,192,72135,1,0,0:0:0:0:
320,192,72285,1,0,0:0:0:0:
192,192,72285,1,0,0:0:0:0:
64,192,72435,1,0,0:0:0:0:
192,192,72585,1,0,0:0:0:0:
448,192,72585,1,0,0:0:0:0:
320,192,72735,1,0,0:0:0:0:
192,192,72885,1,0,0:0:0:0:
64,192,72885,1,0,0:0:0:0:
320,192,72960,1,0,0:0:0:0:
192,192,73035,1,0,0:0:0:0:
448,192,73110,1,0,0:0:0:0:
64,192,73185,1,0,0:0:0:0:
320,192,73185,1,0,0:0:0:0:
192,192,73335,1,0,0:0:0:0:
320,192,73485,1,0,0:0:0:0:
448,192,73485,1,0,0:0:0:0:
64,192,73635,1,0,0:0:0:0:
192,192,73785,1,0,0:0:0:0:
320,192,73785,1,0,0:0:0:0:
448,192,73935,1,0,0:0:0:0:
64,192,74085,1,0,0:0:0:0:
320,192,74085,1,0,0:0:0:0:
320,192,74235,1,0,0:0:0:0:
448,192,74235,1,0,0:0:0:0:
192,192,74310,1,0,0:0:0:0:
64,192,74310,1,0,0:0:0:0:
320,192,74385,1,0,0:0:0:0:
448,192,74385,1,0,0:0:0:0:
192,192,74535,1,0,0:0:0:0:
64,192,74685,1,0,0:0:0:0:
320,192,74685,1,0,0:0:0:0:
192,192,74835,1,0,0:0:0:0:
448,192,74985,1,0,0:0:0:0:
320,192,74985,1,0,0:0:0:0:
64,192,75135,1,0,0:0:0:0:
192,192,75285,1,0,0:0:0:0:
448,192,75285,1,0,0:0:0:0:
320,192,75360,1,0,0:0:0:0:
448,192,75435,1,0,0:0:0:0:
64,192,75510,1,0,0:0:0:0:
320,192,75585,1,0,0:0:0:0:
192,192,75585,1,0,0:0:0:0:
64,192,75735,1,0,0:0:0:0:
320,192,75885,1,0,0:0:0:0:
448,192,75885,1,0,0:0:0:0:
448,192,76035,1,0,0:0:0:0:
64,192,76035,1,0,0:0:0:0:
320,192,76085,1,0,0:0:0:0:
192,192,76085,1,0,0:0:0:0:
64,192,76135,1,0,0:0:0:0:
320,192,76185,1,0,0:0:0:0:
448,192,76185,1,0,0:0:0:0:
192,192,76335,1,0,0:0:0:0:
64,192,76335,1,0,0:0:0:0:
448,192,76485,1,0,0:0:0:0:
320,192,76485,1,0,0:0:0:0:
64,192,76485,128,0,76785:0:0:0:0:
192,192,76785,1,0,0:0:0:0:
320,192,76785,1,0,0:0:0:0:
448,192,76935,1,0,0:0:0:0:
320,192,77085,1,0,0:0:0:0:
192,192,77085,1,0,0:0:0:0:
64,192,77085,1,0,0:0:0:0:
448,192,77235,1,0,0:0:0:0:
64,192,77385,1,0,0:0:0:0:
320,192,77385,1,0,0:0:0:0:
448,192,77385,1,0,0:0:0:0:
192,192,77535,1,0,0:0:0:0:
64,192,77685,1,0,0:0:0:0:
192,192,77685,1,0,0:0:0:0:
448,192,77685,1,0,0:0:0:0:
320,192,77760,1,0,0:0:0:0:
448,192,77835,1,0,0:0:0:0:
192,192,77910,1,0,0:0:0:0:
64,192,77985,1,0,0:0:0:0:
320,192,77985,1,0,0:0:0:0:
448,192,78135,1,0,0:0:0:0:
320,192,78285,1,0,0:0:0:0:
64,192,78285,1,0,0:0:0:0:
192,192,78435,1,0,0:0:0:0:
320,192,78585,1,0,0:0:0:0:
448,192,78585,1,0,0:0:0:0:
192,192,78735,1,0,0:0:0:0:
64,192,78885,1,0,0:0:0:0:
320,192,78885,1,0,0:0:0:0:
448,192,79035,1,0,0:0:0:0:
192,192,79035,1,0,0:0:0:0:
320,192,79185,1,0,0:0:0:0:
192,192,79185,1,0,0:0:0:0:
64,192,79335,1,0,0:0:0:0:
192,192,79485,1,0,0:0:0:0:
448,192,79485,1,0,0:0:0:0:
320,192,79635,1,0,0:0:0:0:
64,192,79785,1,0,0:0:0:0:
448,192,79785,1,0,0:0:0:0:
192,192,79935,1,0,0:0:0:0:
320,192,80085,1,0,0:0:0:0:
448,192,80085,1,0,0:0:0:0:
64,192,80160,1,0,0:0:0:0:
192,192,80235,1,0,0:0:0:0:
448,192,80385,1,0,0:0:0:0:
64,192,80385,1,0,0:0:0:0:
320,192,80535,1,0,0:0:0:0:
192,192,80685,1,0,0:0:0:0:
448,192,80685,1,0,0:0:0:0:
320,192,80760,1,0,0:0:0:0:
64,192,80835,1,0,0:0:0:0:
448,192,80910,1,0,0:0:0:0:
192,192,80985,1,0,0:0:0:0:
320,192,80985,1,0,0:0:0:0:
64,192,81060,1,0,0:0:0:0:
448,192,81135,1,0,0:0:0:0:
192,192,81210,1,0,0:0:0:0:
448,192,81285,1,0,0:0:0:0:
64,192,81285,1,0,0:0:0:0:
192,192,81435,1,0,0:0:0:0:
320,192,81585,1,0,0:0:0:0:
448,192,81585,1,0,0:0:0:0:
192,192,81735,1,0,0:0:0:0:
448,192,81885,1,0,0:0:0:0:
64,192,81885,1,0,0:0:0:0:
192,192,82035,1,0,0:0:0:0:
320,192,82185,1,0,0:0:0:0:
448,192,82185,1,0,0:0:0:0:
192,192,82335,1,0,0:0:0:0:
64,192,82485,1,0,0:0:0:0:
320,192,82485,1,0,0:0:0:0:
192,192,82560,1,0,0:0:0:0:
448,192,82635,1,0,0:0:0:0:
320,192,82710,1,0,0:0:0:0:
64,192,82785,1,0,0:0:0:0:
192,192,82785,1,0,0:0:0:0:
320,192,82935,1,0,0:0:0:0:
64,192,83085,1,0,0:0:0:0:
448,192,83085,1,0,0:0:0:0:
192,192,83235,1,0,0:0:0:0:
320,192,83385,1,0,0:0:0:0:
448,192,83385,1,0,0:0:0:0:
192,192,83460,1,0,0:0:0:0:
448,192,83535,1,0,0:0:0:0:
64,192,83535,1,0,0:0:0:0:
64,192,83685,1,0,0:0:0:0:
192,192,83685,1,0,0:0:0:0:
320,192,83835,1,0,0:0:0:0:
448,192,83835,1,0,0:0:0:0:
64,192,83985,1,0,0:0:0:0:
448,192,83985,1,0,0:0:0:0:
192,192,84135,1,0,0:0:0:0:
320,192,84285,1,0,0:0:0:0:
448,192,84285,1,0,0:0:0:0:
192,192,84435,1,0,0:0:0:0:
64,192,84585,1,0,0:0:0:0:
448,192,84585,1,0,0:0:0:0:
320,192,84735,1,0,0:0:0:0:
192,192,84885,1,0,0:0:0:0:
448,192,84885,1,0,0:0:0:0:
64,192,84960,1,0,0:0:0:0:
320,192,85035,1,0,0:0:0:0:
448,192,85035,1,0,0:0:0:0:
192,192,85185,1,0,0:0:0:0:
64,192,85185,1,0,0:0:0:0:
320,192,85335,1,0,0:0:0:0:
448,192,85485,1,0,0:0:0:0:
192,192,85485,1,0,0:0:0:0:
320,192,85635,1,0,0:0:0:0:
448,192,85635,1,0,0:0:0:0:
192,192,85685,1,0,0:0:0:0:
64,192,85685,1,0,0:0:0:0:
320,192,85735,1,0,0:0:0:0:
448,192,85735,1,0,0:0:0:0:
192,192,85785,1,0,0:0:0:0:
64,192,85785,1,0,0:0:0:0:
320,192,85935,1,0,0:0:0:0:
192,192,86085,1,0,0:0:0:0:
448,192,86085,1,0,0:0:0:0:
64,192,86085,128,0,86235:0:0:0:0:
448,192,86385,1,0,0:0:0:0:
320,192,86385,1,0,0:0:0:0:
192,192,86535,1,0,0:0:0:0:
64,192,86685,1,0,0:0:0:0:
448,192,86685,1,0,0:0:0:0:
320,192,86835,1,0,0:0:0:0:
64,192,86985,1,0,0:0:0:0:
192,192,86985,1,0,0:0:0:0:
448,192,87135,1,0,0:0:0:0:
320,192,87285,1,0,0:0:0:0:
64,192,87285,1,0,0:0:0:0:
192,192,87360,1,0,0:0:0:0:
448,192,87435,1,0,0:0:0:0:
320,192,87435,1,0,0:0:0:0:
64,192,87585,128,0,87735:0:0:0:0:
448,192,87585,1,0,0:0:0:0:
192,192,87585,1,0,0:0:0:0:
320,192,87735,1,0,0:0:0:0:
320,192,87885,1,0,0:0:0:0:
448,192,87885,1,0,0:0:0:0:
192,192,88035,1,0,0:0:0:0:
448,192,88185,1,0,0:0:0:0:
64,192,88185,1,0,0:0:0:0:
320,192,88335,1,0,0:0:0:0:
64,192,88485,1,0,0:0:0:0:
192,192,88485,1,0,0:0:0:0:
320,192,88635,1,0,0:0:0:0:
448,192,88785,1,0,0:0:0:0:
64,192,88785,1,0,0:0:0:0:
192,192,88935,1,0,0:0:0:0:
448,192,89085,1,0,0:0:0:0:
320,192,89085,1,0,0:0:0:0:
192,192,89235,1,0,0:0:0:0:
64,192,89385,1,0,0:0:0:0:
448,192,89385,1,0,0:0:0:0:
192,192,89535,1,0,0:0:0:0:
448,192,89685,1,0,0:0:0:0:
320,192,89685,1,0,0:0:0:0:
64,192,89760,1,0,0:0:0:0:
192,192,89835,1,0,0:0:0:0:
64,192,89910,1,0,0:0:0:0:
448,192,89985,1,0,0:0:0:0:
320,192,89985,1,0,0:0:0:0:
192,192,90210,1,0,0:0:0:0:
448,192,90210,1,0,0:0:0:0:
320,192,90435,1,0,0:0:0:0:
448,192,90435,1,0,0:0:0:0:
192,192,90660,1,0,0:0:0:0:
320,192,90660,1,0,0:0:0:0:
64,192,90735,1,0,0:0:0:0:
448,192,90735,1,0,0:0:0:0:
192,192,90885,1,0,0:0:0:0:
64,192,90885,1,0,0:0:0:0:
320,192,90885,1,0,0:0:0:0:
192,192,91185,1,0,0:0:0:0:
448,192,91185,1,0,0:0:0:0:
320,192,91185,1,0,0:0:0:0:
64,192,91185,128,0,91260:0:0:0:0:
192,192,91485,1,0,0:0:0:0:
320,192,91635,128,0,91710:0:0:0:0:
448,192,91785,1,0,0:0:0:0:
64,192,92085,128,0,92160:0:0:0:0:
192,192,92235,1,0,0:0:0:0:
320,192,92385,1,0,0:0:0:0:
64,192,92535,128,0,92610:0:0:0:0:
448,192,92685,1,0,0:0:0:0:
192,192,92985,128,0,93060:0:0:0:0:
64,192,93135,1,0,0:0:0:0:
448,192,93285,128,0,93360:0:0:0:0:
320,192,93435,1,0,0:0:0:0:
64,192,93585,128,0,93660:0:0:0:0:
192,192,93585,1,0,0:0:0:0:
320,192,93735,1,0,0:0:0:0:
192,192,93885,1,0,0:0:0:0:
448,192,94035,128,0,94110:0:0:0:0:
192,192,94185,1,0,0:0:0:0:
448,192,94485,128,0,94560:0:0:0:0:
320,192,94560,1,0,0:0:0:0:
192,192,94635,1,0,0:0:0:0:
64,192,94785,1,0,0:0:0:0:
192,192,94785,1,0,0:0:0:0:
448,192,94935,128,0,95010:0:0:0:0:
320,192,95085,1,0,0:0:0:0:
192,192,95235,1,0,0:0:0:0:
448,192,95385,128,0,95460:0:0:0:0:
320,192,95535,1,0,0:0:0:0:
192,192,95685,128,0,95760:0:0:0:0:
320,192,95835,1,0,0:0:0:0:
448,192,95985,128,0,96060:0:0:0:0:
192,192,96285,1,0,0:0:0:0:
64,192,96435,128,0,96510:0:0:0:0:
320,192,96585,1,0,0:0:0:0:
320,192,96885,128,0,96960:0:0:0:0:
64,192,96960,1,0,0:0:0:0:
192,192,97035,1,0,0:0:0:0:
448,192,97185,1,0,0:0:0:0:
192,192,97335,128,0,97410:0:0:0:0:
320,192,97485,1,0,0:0:0:0:
64,192,97635,1,0,0:0:0:0:
448,192,97785,128,0,97860:0:0:0:0:
320,192,97935,1,0,0:0:0:0:
320,192,98085,128,0,98160:0:0:0:0:
192,192,98235,1,0,0:0:0:0:
64,192,98385,128,0,98460:0:0:0:0:
448,192,98535,1,0,0:0:0:0:
320,192,98685,1,0,0:0:0:0:
448,192,98835,128,0,98910:0:0:0:0:
64,192,98985,1,0,0:0:0:0:
320,192,99135,1,0,0:0:0:0:
192,192,99285,128,0,99360:0:0:0:0:
320,192,99360,1,0,0:0:0:0:
64,192,99435,1,0,0:0:0:0:
448,192,99585,1,0,0:0:0:0:
320,192,99585,1,0,0:0:0:0:
192,192,99735,1,0,0:0:0:0:
64,192,99885,1,0,0:0:0:0:
192,192,99960,1,0,0:0:0:0:
320,192,100035,1,0,0:0:0:0:
64,192,100110,1,0,0:0:0:0:
192,192,100185,128,0,100260:0:0:0:0:
320,192,100260,1,0,0:0:0:0:
448,192,100335,1,0,0:0:0:0:
192,192,100485,1,0,0:0:0:0:
64,192,100485,1,0,0:0:0:0:
64,192,100785,1,0,0:0:0:0:
320,192,100785,1,0,0:0:0:0:
448,192,100785,1,0,0:0:0:0:
320,192,100935,1,0,0:0:0:0:
448,192,101085,1,0,0:0:0:0:
64,192,101085,1,0,0:0:0:0:
192,192,101085,1,0,0:0:0:0:
64,192,101235,1,0,0:0:0:0:
192,192,101385,1,0,0:0:0:0:
448,192,101385,1,0,0:0:0:0:
320,192,101385,1,0,0:0:0:0:
448,192,101535,1,0,0:0:0:0:
320,192,101685,1,0,0:0:0:0:
192,192,101685,1,0,0:0:0:0:
64,192,101685,1,0,0:0:0:0:
448,192,101760,1,0,0:0:0:0:
64,192,101835,1,0,0:0:0:0:
192,192,101910,1,0,0:0:0:0:
320,192,101985,1,0,0:0:0:0:
448,192,101985,1,0,0:0:0:0:
64,192,101985,1,0,0:0:0:0:
64,192,102135,1,0,0:0:0:0:
192,192,102285,1,0,0:0:0:0:
320,192,102285,1,0,0:0:0:0:
448,192,102285,1,0,0:0:0:0:
192,192,102435,1,0,0:0:0:0:
64,192,102585,1,0,0:0:0:0:
320,192,102585,1,0,0:0:0:0:
448,192,102585,1,0,0:0:0:0:
192,192,102660,1,0,0:0:0:0:
64,192,102735,1,0,0:0:0:0:
320,192,102810,1,0,0:0:0:0:
192,192,102810,1,0,0:0:0:0:
448,192,102810,1,0,0:0:0:0:
448,192,103035,1,0,0:0:0:0:
192,192,103035,1,0,0:0:0:0:
320,192,103035,1,0,0:0:0:0:
320,192,103185,1,0,0:0:0:0:
192,192,103185,1,0,0:0:0:0:
64,192,103185,1,0,0:0:0:0:
192,192,103335,1,0,0:0:0:0:
64,192,103485,1,0,0:0:0:0:
320,192,103485,1,0,0:0:0:0:
448,192,103485,1,0,0:0:0:0:
448,192,103635,1,0,0:0:0:0:
448,192,103785,1,0,0:0:0:0:
320,192,103785,1,0,0:0:0:0:
192,192,103785,1,0,0:0:0:0:
192,192,103935,1,0,0:0:0:0:
64,192,104085,1,0,0:0:0:0:
448,192,104085,1,0,0:0:0:0:
192,192,104160,1,0,0:0:0:0:
320,192,104160,1,0,0:0:0:0:
64,192,104235,1,0,0:0:0:0:
448,192,104235,1,0,0:0:0:0:
320,192,104385,1,0,0:0:0:0:
192,192,104385,1,0,0:0:0:0:
64,192,104385,1,0,0:0:0:0:
64,192,104535,1,0,0:0:0:0:
192,192,104610,1,0,0:0:0:0:
320,192,104610,1,0,0:0:0:0:
448,192,104610,1,0,0:0:0:0:
64,192,104835,1,0,0:0:0:0:
192,192,104835,1,0,0:0:0:0:
320,192,104835,1,0,0:0:0:0:
64,192,104985,1,0,0:0:0:0:
448,192,104985,1,0,0:0:0:0:
320,192,104985,1,0,0:0:0:0:
64,192,105135,1,0,0:0:0:0:
192,192,105135,1,0,0:0:0:0:
320,192,105210,1,0,0:0:0:0:
448,192,105210,1,0,0:0:0:0:
192,192,105285,1,0,0:0:0:0:
64,192,105285,1,0,0:0:0:0:
448,192,105585,1,0,0:0:0:0:
320,192,105585,1,0,0:0:0:0:
64,192,105735,1,0,0:0:0:0:
320,192,105735,1,0,0:0:0:0:
64,192,105885,1,0,0:0:0:0:
192,192,105885,1,0,0:0:0:0:
192,192,106035,1,0,0:0:0:0:
448,192,106035,1,0,0:0:0:0:
320,192,106185,1,0,0:0:0:0:
448,192,106185,1,0,0:0:0:0:
320,192,106335,1,0,0:0:0:0:
192,192,106335,1,0,0:0:0:0:
64,192,106485,1,0,0:0:0:0:
448,192,106485,1,0,0:0:0:0:
320,192,106635,1,0,0:0:0:0:
64,192,106635,1,0,0:0:0:0:
64,192,106785,1,0,0:0:0:0:
448,192,106785,1,0,0:0:0:0:
320,192,106785,1,0,0:0:0:0:
192,192,106785,1,0,0:0:0:0:
192,192,106935,1,0,0:0:0:0:
64,192,106935,1,0,0:0:0:0:
192,192,107085,1,0,0:0:0:0:
448,192,107085,1,0,0:0:0:0:
320,192,107235,1,0,0:0:0:0:
64,192,107235,1,0,0:0:0:0:
192,192,107385,1,0,0:0:0:0:
448,192,107385,1,0,0:0:0:0:
192,192,107535,1,0,0:0:0:0:
64,192,107535,1,0,0:0:0:0:
448,192,107685,1,0,0:0:0:0:
320,192,107685,1,0,0:0:0:0:
192,192,107760,1,0,0:0:0:0:
64,192,107760,1,0,0:0:0:0:
448,192,107835,128,0,107910:0:0:0:0:
320,192,107910,1,0,0:0:0:0:
192,192,107985,1,0,0:0:0:0:
64,192,107985,1,0,0:0:0:0:
320,192,108060,1,0,0:0:0:0:
448,192,108060,1,0,0:0:0:0:
192,192,108135,1,0,0:0:0:0:
64,192,108135,1,0,0:0:0:0:
320,192,108210,1,0,0:0:0:0:
448,192,108210,1,0,0:0:0:0:
192,192,108285,1,0,0:0:0:0:
64,192,108285,1,0,0:0:0:0:
320,192,108360,1,0,0:0:0:0:
448,192,108360,1,0,0:0:0:0:
64,192,108435,1,0,0:0:0:0:
192,192,108435,1,0,0:0:0:0:
320,192,108510,1,0,0:0:0:0:
192,192,108585,1,0,0:0:0:0:
64,192,108585,1,0,0:0:0:0:
320,192,108660,1,0,0:0:0:0:
448,192,108660,1,0,0:0:0:0:
192,192,108735,1,0,0:0:0:0:
64,192,108810,1,0,0:0:0:0:
320,192,108810,1,0,0:0:0:0:
192,192,108885,1,0,0:0:0:0:
320,192,108960,1,0,0:0:0:0:
448,192,108960,1,0,0:0:0:0:
192,192,109035,1,0,0:0:0:0:
64,192,109035,1,0,0:0:0:0:
320,192,109110,1,0,0:0:0:0:
448,192,109110,1,0,0:0:0:0:
192,192,109185,1,0,0:0:0:0:
64,192,109185,1,0,0:0:0:0:
448,192,109260,1,0,0:0:0:0:
448,192,109335,1,0,0:0:0:0:
192,192,109410,1,0,0:0:0:0:
192,192,109485,1,0,0:0:0:0:
448,192,109560,1,0,0:0:0:0:
448,192,109635,1,0,0:0:0:0:
64,192,109710,1,0,0:0:0:0:
64,192,109785,1,0,0:0:0:0:
320,192,109860,1,0,0:0:0:0:
448,192,109935,1,0,0:0:0:0:
448,192,110010,1,0,0:0:0:0:
64,192,110085,1,0,0:0:0:0:
192,192,110085,1,0,0:0:0:0:
192,192,110235,1,0,0:0:0:0:
320,192,110235,1,0,0:0:0:0:
448,192,110385,1,0,0:0:0:0:
64,192,110385,1,0,0:0:0:0:
320,192,110385,1,0,0:0:0:0:
192,192,110460,1,0,0:0:0:0:
64,192,110535,1,0,0:0:0:0:
320,192,110610,1,0,0:0:0:0:
192,192,110685,1,0,0:0:0:0:
64,192,110685,1,0,0:0:0:0:
448,192,110760,1,0,0:0:0:0:
320,192,110835,1,0,0:0:0:0:
192,192,110910,1,0,0:0:0:0:
448,192,110985,1,0,0:0:0:0:
64,192,110985,1,0,0:0:0:0:
320,192,110985,1,0,0:0:0:0:
192,192,111060,1,0,0:0:0:0:
448,192,111135,1,0,0:0:0:0:
320,192,111135,1,0,0:0:0:0:
64,192,111210,1,0,0:0:0:0:
448,192,111285,1,0,0:0:0:0:
192,192,111285,1,0,0:0:0:0:
320,192,111360,1,0,0:0:0:0:
64,192,111435,1,0,0:0:0:0:
192,192,111435,1,0,0:0:0:0:
448,192,111510,1,0,0:0:0:0:
64,192,111585,1,0,0:0:0:0:
192,192,111585,1,0,0:0:0:0:
320,192,111585,1,0,0:0:0:0:
448,192,111660,1,0,0:0:0:0:
320,192,111735,1,0,0:0:0:0:
64,192,111735,1,0,0:0:0:0:
192,192,111810,1,0,0:0:0:0:
448,192,111885,1,0,0:0:0:0:
448,192,111960,1,0,0:0:0:0:
64,192,112035,1,0,0:0:0:0:
64,192,112110,1,0,0:0:0:0:
448,192,112185,1,0,0:0:0:0:
320,192,112185,1,0,0:0:0:0:
192,192,112185,1,0,0:0:0:0:
320,192,112260,1,0,0:0:0:0:
192,192,112335,1,0,0:0:0:0:
192,192,112410,1,0,0:0:0:0:
448,192,112485,1,0,0:0:0:0:
448,192,112560,1,0,0:0:0:0:
64,192,112635,1,0,0:0:0:0:
64,192,112710,1,0,0:0:0:0:
448,192,112785,1,0,0:0:0:0:
320,192,112785,1,0,0:0:0:0:
192,192,112860,1,0,0:0:0:0:
448,192,112935,1,0,0:0:0:0:
64,192,112935,1,0,0:0:0:0:
320,192,113010,1,0,0:0:0:0:
64,192,113085,1,0,0:0:0:0:
192,192,113085,1,0,0:0:0:0:
320,192,113160,1,0,0:0:0:0:
64,192,113235,1,0,0:0:0:0:
192,192,113235,1,0,0:0:0:0:
448,192,113310,1,0,0:0:0:0:
320,192,113385,1,0,0:0:0:0:
64,192,113385,1,0,0:0:0:0:
192,192,113385,1,0,0:0:0:0:
448,192,113460,1,0,0:0:0:0:
64,192,113535,1,0,0:0:0:0:
192,192,113535,1,0,0:0:0:0:
320,192,113610,1,0,0:0:0:0:
448,192,113685,1,0,0:0:0:0:
64,192,113685,1,0,0:0:0:0:
192,192,113685,1,0,0:0:0:0:
320,192,113760,1,0,0:0:0:0:
448,192,113835,1,0,0:0:0:0:
64,192,113835,1,0,0:0:0:0:
64,192,113910,1,0,0:0:0:0:
448,192,113985,1,0,0:0:0:0:
320,192,113985,1,0,0:0:0:0:
448,192,114060,1,0,0:0:0:0:
192,192,114135,1,0,0:0:0:0:
192,192,114210,1,0,0:0:0:0:
448,192,114285,1,0,0:0:0:0:
64,192,114285,1,0,0:0:0:0:
320,192,114322,1,0,0:0:0:0:
192,192,114360,1,0,0:0:0:0:
448,192,114397,1,0,0:0:0:0:
320,192,114435,1,0,0:0:0:0:
64,192,114585,1,0,0:0:0:0:
320,192,114585,1,0,0:0:0:0:
192,192,114585,1,0,0:0:0:0:
320,192,114885,1,0,0:0:0:0:
448,192,114885,1,0,0:0:0:0:
192,192,115035,1,0,0:0:0:0:
64,192,115185,1,0,0:0:0:0:
320,192,115185,1,0,0:0:0:0:
448,192,115185,1,0,0:0:0:0:
192,192,115260,1,0,0:0:0:0:
320,192,115335,1,0,0:0:0:0:
448,192,115335,1,0,0:0:0:0:
192,192,115410,1,0,0:0:0:0:
64,192,115485,1,0,0:0:0:0:
448,192,115485,1,0,0:0:0:0:
320,192,115560,1,0,0:0:0:0:
64,192,115635,1,0,0:0:0:0:
192,192,115635,1,0,0:0:0:0:
320,192,115710,1,0,0:0:0:0:
448,192,115785,1,0,0:0:0:0:
64,192,115785,1,0,0:0:0:0:
192,192,115860,1,0,0:0:0:0:
64,192,115935,1,0,0:0:0:0:
448,192,115935,1,0,0:0:0:0:
320,192,115935,1,0,0:0:0:0:
192,192,116010,1,0,0:0:0:0:
448,192,116085,1,0,0:0:0:0:
320,192,116160,1,0,0:0:0:0:
64,192,116235,1,0,0:0:0:0:
192,192,116235,1,0,0:0:0:0:
320,192,116310,1,0,0:0:0:0:
64,192,116385,1,0,0:0:0:0:
448,192,116385,1,0,0:0:0:0:
192,192,116460,1,0,0:0:0:0:
320,192,116535,1,0,0:0:0:0:
320,192,116610,1,0,0:0:0:0:
64,192,116685,1,0,0:0:0:0:
64,192,116760,1,0,0:0:0:0:
320,192,116835,1,0,0:0:0:0:
320,192,116910,1,0,0:0:0:0:
64,192,116985,1,0,0:0:0:0:
64,192,117060,1,0,0:0:0:0:
320,192,117135,1,0,0:0:0:0:
320,192,117210,1,0,0:0:0:0:
64,192,117285,1,0,0:0:0:0:
64,192,117360,1,0,0:0:0:0:
320,192,117435,1,0,0:0:0:0:
320,192,117510,1,0,0:0:0:0:
192,192,117585,1,0,0:0:0:0:
448,192,117585,1,0,0:0:0:0:
64,192,117585,1,0,0:0:0:0:
192,192,117660,1,0,0:0:0:0:
320,192,117735,1,0,0:0:0:0:
448,192,117735,1,0,0:0:0:0:
64,192,117810,1,0,0:0:0:0:
320,192,117885,1,0,0:0:0:0:
192,192,117885,1,0,0:0:0:0:
448,192,117885,1,0,0:0:0:0:
64,192,117960,1,0,0:0:0:0:
320,192,118035,1,0,0:0:0:0:
448,192,118035,1,0,0:0:0:0:
192,192,118110,1,0,0:0:0:0:
448,192,118185,1,0,0:0:0:0:
320,192,118185,1,0,0:0:0:0:
64,192,118185,1,0,0:0:0:0:
192,192,118260,1,0,0:0:0:0:
320,192,118335,1,0,0:0:0:0:
64,192,118335,1,0,0:0:0:0:
448,192,118410,1,0,0:0:0:0:
320,192,118485,1,0,0:0:0:0:
192,192,118485,1,0,0:0:0:0:
64,192,118485,1,0,0:0:0:0:
448,192,118560,1,0,0:0:0:0:
320,192,118635,1,0,0:0:0:0:
192,192,118635,1,0,0:0:0:0:
64,192,118710,1,0,0:0:0:0:
192,192,118785,1,0,0:0:0:0:
320,192,118785,1,0,0:0:0:0:
448,192,118785,1,0,0:0:0:0:
64,192,118860,1,0,0:0:0:0:
320,192,118935,1,0,0:0:0:0:
448,192,119010,1,0,0:0:0:0:
192,192,119085,1,0,0:0:0:0:
64,192,119085,1,0,0:0:0:0:
320,192,119085,1,0,0:0:0:0:
64,192,119160,1,0,0:0:0:0:
320,192,119235,1,0,0:0:0:0:
448,192,119235,1,0,0:0:0:0:
448,192,119310,1,0,0:0:0:0:
192,192,119385,1,0,0:0:0:0:
64,192,119385,1,0,0:0:0:0:
320,192,119385,1,0,0:0:0:0:
192,192,119535,1,0,0:0:0:0:
192,192,119685,1,0,0:0:0:0:
64,192,119685,1,0,0:0:0:0:
320,192,119685,1,0,0:0:0:0:
320,192,119835,1,0,0:0:0:0:
448,192,119835,1,0,0:0:0:0:
192,192,119885,1,0,0:0:0:0:
64,192,119885,1,0,0:0:0:0:
320,192,119935,1,0,0:0:0:0:
448,192,119935,1,0,0:0:0:0:
192,192,119985,1,0,0:0:0:0:
64,192,119985,1,0,0:0:0:0:
448,192,120135,1,0,0:0:0:0:
64,192,120135,1,0,0:0:0:0:
320,192,120210,1,0,0:0:0:0:
192,192,120285,1,0,0:0:0:0:
64,192,120285,1,0,0:0:0:0:
320,192,120360,1,0,0:0:0:0:
64,192,120435,1,0,0:0:0:0:
192,192,120435,1,0,0:0:0:0:
448,192,120510,1,0,0:0:0:0:
64,192,120585,1,0,0:0:0:0:
192,192,120585,1,0,0:0:0:0:
320,192,120660,1,0,0:0:0:0:
448,192,120735,1,0,0:0:0:0:
64,192,120735,1,0,0:0:0:0:
64,192,120810,1,0,0:0:0:0:
192,192,120885,1,0,0:0:0:0:
448,192,120885,1,0,0:0:0:0:
320,192,120960,1,0,0:0:0:0:
64,192,121035,1,0,0:0:0:0:
192,192,121035,1,0,0:0:0:0:
320,192,121110,1,0,0:0:0:0:
64,192,121185,1,0,0:0:0:0:
448,192,121185,1,0,0:0:0:0:
192,192,121185,1,0,0:0:0:0:
192,192,121335,1,0,0:0:0:0:
192,192,121410,1,0,0:0:0:0:
320,192,121485,1,0,0:0:0:0:
320,192,121560,1,0,0:0:0:0:
64,192,121635,1,0,0:0:0:0:
64,192,121710,1,0,0:0:0:0:
448,192,121785,1,0,0:0:0:0:
448,192,121860,1,0,0:0:0:0:
192,192,121935,1,0,0:0:0:0:
192,192,122010,1,0,0:0:0:0:
320,192,122085,1,0,0:0:0:0:
448,192,122085,1,0,0:0:0:0:
320,192,122160,1,0,0:0:0:0:
448,192,122235,1,0,0:0:0:0:
192,192,122235,1,0,0:0:0:0:
64,192,122235,1,0,0:0:0:0:
192,192,122310,1,0,0:0:0:0:
64,192,122385,1,0,0:0:0:0:
320,192,122385,1,0,0:0:0:0:
448,192,122385,1,0,0:0:0:0:
192,192,122460,1,0,0:0:0:0:
64,192,122535,1,0,0:0:0:0:
448,192,122535,1,0,0:0:0:0:
320,192,122610,1,0,0:0:0:0:
64,192,122685,1,0,0:0:0:0:
192,192,122685,1,0,0:0:0:0:
448,192,122685,1,0,0:0:0:0:
320,192,122760,1,0,0:0:0:0:
64,192,122835,1,0,0:0:0:0:
192,192,122835,1,0,0:0:0:0:
320,192,122910,1,0,0:0:0:0:
192,192,122985,1,0,0:0:0:0:
448,192,122985,1,0,0:0:0:0:
64,192,122985,1,0,0:0:0:0:
320,192,123135,1,0,0:0:0:0:
192,192,123135,1,0,0:0:0:0:
320,192,123285,1,0,0:0:0:0:
448,192,123285,1,0,0:0:0:0:
192,192,123435,1,0,0:0:0:0:
64,192,123585,1,0,0:0:0:0:
320,192,123585,1,0,0:0:0:0:
448,192,123585,1,0,0:0:0:0:
64,192,123810,1,0,0:0:0:0:
64,192,123885,1,0,0:0:0:0:
192,192,123885,1,0,0:0:0:0:
320,192,124185,1,0,0:0:0:0:
448,192,124185,1,0,0:0:0:0:
192,192,124185,1,0,0:0:0:0:
64,192,124485,1,0,0:0:0:0:
192,192,124485,1,0,0:0:0:0:
448,192,124485,1,0,0:0:0:0:
320,192,124635,1,0,0:0:0:0:
192,192,124785,1,0,0:0:0:0:
64,192,124785,1,0,0:0:0:0:
320,192,124785,1,0,0:0:0:0:
448,192,124860,1,0,0:0:0:0:
192,192,124935,1,0,0:0:0:0:
64,192,124935,1,0,0:0:0:0:
448,192,125010,1,0,0:0:0:0:
64,192,125085,1,0,0:0:0:0:
192,192,125085,1,0,0:0:0:0:
320,192,125085,1,0,0:0:0:0:
448,192,125160,1,0,0:0:0:0:
192,192,125235,1,0,0:0:0:0:
320,192,125235,1,0,0:0:0:0:
64,192,125310,1,0,0:0:0:0:
192,192,125385,1,0,0:0:0:0:
448,192,125385,1,0,0:0:0:0:
320,192,125385,1,0,0:0:0:0:
64,192,125460,1,0,0:0:0:0:
448,192,125535,1,0,0:0:0:0:
320,192,125535,1,0,0:0:0:0:
192,192,125610,1,0,0:0:0:0:
448,192,125685,1,0,0:0:0:0:
64,192,125685,1,0,0:0:0:0:
320,192,125685,1,0,0:0:0:0:
192,192,125760,1,0,0:0:0:0:
320,192,125835,1,0,0:0:0:0:
192,192,125910,1,0,0:0:0:0:
64,192,125985,1,0,0:0:0:0:
448,192,125985,1,0,0:0:0:0:
320,192,125985,1,0,0:0:0:0:
192,192,126060,1,0,0:0:0:0:
448,192,126135,1,0,0:0:0:0:
320,192,126135,1,0,0:0:0:0:
448,192,126210,1,0,0:0:0:0:
192,192,126285,1,0,0:0:0:0:
192,192,126360,1,0,0:0:0:0:
448,192,126435,1,0,0:0:0:0:
448,192,126510,1,0,0:0:0:0:
320,192,126585,1,0,0:0:0:0:
192,192,126585,1,0,0:0:0:0:
64,192,126585,1,0,0:0:0:0:
64,192,126660,1,0,0:0:0:0:
192,192,126735,1,0,0:0:0:0:
192,192,126810,1,0,0:0:0:0:
448,192,126885,1,0,0:0:0:0:
448,192,126960,1,0,0:0:0:0:
64,192,127035,1,0,0:0:0:0:
64,192,127110,1,0,0:0:0:0:
448,192,127185,1,0,0:0:0:0:
320,192,127185,1,0,0:0:0:0:
192,192,127185,1,0,0:0:0:0:
320,192,127260,1,0,0:0:0:0:
64,192,127335,1,0,0:0:0:0:
192,192,127335,1,0,0:0:0:0:
320,192,127410,1,0,0:0:0:0:
64,192,127485,1,0,0:0:0:0:
448,192,127485,1,0,0:0:0:0:
192,192,127485,1,0,0:0:0:0:
320,192,127560,1,0,0:0:0:0:
64,192,127635,1,0,0:0:0:0:
448,192,127710,1,0,0:0:0:0:
192,192,127785,1,0,0:0:0:0:
64,192,127785,1,0,0:0:0:0:
320,192,127785,1,0,0:0:0:0:
448,192,127860,1,0,0:0:0:0:
320,192,127935,1,0,0:0:0:0:
64,192,127935,1,0,0:0:0:0:
192,192,128010,1,0,0:0:0:0:
320,192,128085,1,0,0:0:0:0:
64,192,128085,1,0,0:0:0:0:
448,192,128085,1,0,0:0:0:0:
192,192,128160,1,0,0:0:0:0:
320,192,128235,1,0,0:0:0:0:
448,192,128235,1,0,0:0:0:0:
192,192,128310,1,0,0:0:0:0:
64,192,128385,1,0,0:0:0:0:
320,192,128385,1,0,0:0:0:0:
448,192,128385,1,0,0:0:0:0:
320,192,128610,1,0,0:0:0:0:
448,192,128610,1,0,0:0:0:0:
64,192,128610,1,0,0:0:0:0:
192,192,128835,1,0,0:0:0:0:
64,192,128835,1,0,0:0:0:0:
320,192,128835,1,0,0:0:0:0:
448,192,128835,1,0,0:0:0:0:
448,192,128985,1,0,0:0:0:0:
320,192,128985,1,0,0:0:0:0:
64,192,128985,1,0,0:0:0:0:
192,192,129285,1,0,0:0:0:0:
64,192,129285,1,0,0:0:0:0:
320,192,129435,1,0,0:0:0:0:
448,192,129435,1,0,0:0:0:0:
192,192,129485,1,0,0:0:0:0:
64,192,129485,1,0,0:0:0:0:
320,192,129535,1,0,0:0:0:0:
448,192,129535,1,0,0:0:0:0:
192,192,129585,1,0,0:0:0:0:
64,192,129585,1,0,0:0:0:0:
64,192,129735,1,0,0:0:0:0:
192,192,129885,1,0,0:0:0:0:
320,192,129885,1,0,0:0:0:0:
448,192,129885,1,0,0:0:0:0:
192,192,130035,1,0,0:0:0:0:
320,192,130185,1,0,0:0:0:0:
448,192,130185,1,0,0:0:0:0:
448,192,130335,1,0,0:0:0:0:
320,192,130485,1,0,0:0:0:0:
192,192,130485,1,0,0:0:0:0:
64,192,130485,1,0,0:0:0:0:
64,192,130635,1,0,0:0:0:0:
448,192,130785,1,0,0:0:0:0:
320,192,130785,1,0,0:0:0:0:
192,192,130785,1,0,0:0:0:0:
64,192,130935,1,0,0:0:0:0:
64,192,131010,1,0,0:0:0:0:
448,192,131085,1,0,0:0:0:0:
320,192,131085,1,0,0:0:0:0:
192,192,131085,1,0,0:0:0:0:
448,192,131160,1,0,0:0:0:0:
192,192,131235,1,0,0:0:0:0:
64,192,131235,1,0,0:0:0:0:
320,192,131235,1,0,0:0:0:0:
64,192,131310,1,0,0:0:0:0:
448,192,131385,1,0,0:0:0:0:
448,192,131460,1,0,0:0:0:0:
64,192,131535,1,0,0:0:0:0:
320,192,131535,1,0,0:0:0:0:
192,192,131535,1,0,0:0:0:0:
448,192,131610,1,0,0:0:0:0:
64,192,131685,1,0,0:0:0:0:
320,192,131685,1,0,0:0:0:0:
192,192,131760,1,0,0:0:0:0:
192,192,131835,1,0,0:0:0:0:
320,192,131910,1,0,0:0:0:0:
192,192,131985,1,0,0:0:0:0:
448,192,131985,1,0,0:0:0:0:
192,192,132135,1,0,0:0:0:0:
64,192,132135,1,0,0:0:0:0:
448,192,132210,1,0,0:0:0:0:
64,192,132285,1,0,0:0:0:0:
192,192,132285,1,0,0:0:0:0:
320,192,132360,1,0,0:0:0:0:
64,192,132435,1,0,0:0:0:0:
192,192,132435,1,0,0:0:0:0:
448,192,132510,1,0,0:0:0:0:
64,192,132585,1,0,0:0:0:0:
192,192,132585,1,0,0:0:0:0:
320,192,132585,1,0,0:0:0:0:
448,192,132660,1,0,0:0:0:0:
192,192,132735,1,0,0:0:0:0:
320,192,132735,1,0,0:0:0:0:
64,192,132810,1,0,0:0:0:0:
448,192,132885,1,0,0:0:0:0:
320,192,132885,1,0,0:0:0:0:
64,192,132960,1,0,0:0:0:0:
320,192,133035,1,0,0:0:0:0:
448,192,133035,1,0,0:0:0:0:
192,192,133110,1,0,0:0:0:0:
64,192,133185,1,0,0:0:0:0:
448,192,133185,1,0,0:0:0:0:
320,192,133185,1,0,0:0:0:0:
192,192,133335,1,0,0:0:0:0:
192,192,133410,1,0,0:0:0:0:
320,192,133485,1,0,0:0:0:0:
320,192,133560,1,0,0:0:0:0:
64,192,133635,1,0,0:0:0:0:
448,192,133785,1,0,0:0:0:0:
192,192,133785,1,0,0:0:0:0:
320,192,134085,1,0,0:0:0:0:
192,192,134085,1,0,0:0:0:0:
64,192,134385,1,0,0:0:0:0:
448,192,134385,1,0,0:0:0:0:
320,192,134385,1,0,0:0:0:0:
192,192,134460,1,0,0:0:0:0:
320,192,134535,1,0,0:0:0:0:
320,192,134685,1,0,0:0:0:0:
448,192,134685,1,0,0:0:0:0:
64,192,134685,1,0,0:0:0:0:
192,192,134760,1,0,0:0:0:0:
448,192,134835,1,0,0:0:0:0:
320,192,134835,1,0,0:0:0:0:
64,192,134910,1,0,0:0:0:0:
448,192,134985,1,0,0:0:0:0:
320,192,134985,1,0,0:0:0:0:
192,192,134985,1,0,0:0:0:0:
64,192,135060,1,0,0:0:0:0:
192,192,135135,1,0,0:0:0:0:
448,192,135135,1,0,0:0:0:0:
320,192,135210,1,0,0:0:0:0:
192,192,135285,1,0,0:0:0:0:
64,192,135285,1,0,0:0:0:0:
448,192,135285,1,0,0:0:0:0:
320,192,135360,1,0,0:0:0:0:
192,192,135435,1,0,0:0:0:0:
64,192,135435,1,0,0:0:0:0:
448,192,135510,1,0,0:0:0:0:
320,192,135585,1,0,0:0:0:0:
192,192,135585,1,0,0:0:0:0:
64,192,135585,1,0,0:0:0:0:
448,192,135660,1,0,0:0:0:0:
320,192,135735,1,0,0:0:0:0:
64,192,135735,1,0,0:0:0:0:
192,192,135810,1,0,0:0:0:0:
320,192,135885,1,0,0:0:0:0:
64,192,135960,1,0,0:0:0:0:
448,192,136035,1,0,0:0:0:0:
320,192,136110,1,0,0:0:0:0:
64,192,136185,1,0,0:0:0:0:
192,192,136185,1,0,0:0:0:0:
448,192,136185,1,0,0:0:0:0:
320,192,136260,1,0,0:0:0:0:
192,192,136335,1,0,0:0:0:0:
64,192,136335,1,0,0:0:0:0:
448,192,136410,1,0,0:0:0:0:
320,192,136485,1,0,0:0:0:0:
192,192,136485,1,0,0:0:0:0:
320,192,136635,1,0,0:0:0:0:
192,192,136785,1,0,0:0:0:0:
64,192,136785,1,0,0:0:0:0:
448,192,136785,1,0,0:0:0:0:
320,192,136860,1,0,0:0:0:0:
64,192,136935,1,0,0:0:0:0:
192,192,136935,1,0,0:0:0:0:
320,192,137010,1,0,0:0:0:0:
192,192,137085,1,0,0:0:0:0:
448,192,137085,1,0,0:0:0:0:
64,192,137085,1,0,0:0:0:0:
320,192,137160,1,0,0:0:0:0:
192,192,137235,1,0,0:0:0:0:
448,192,137235,1,0,0:0:0:0:
64,192,137310,1,0,0:0:0:0:
192,192,137385,1,0,0:0:0:0:
448,192,137385,1,0,0:0:0:0:
320,192,137385,1,0,0:0:0:0:
64,192,137460,1,0,0:0:0:0:
320,192,137535,1,0,0:0:0:0:
192,192,137535,1,0,0:0:0:0:
448,192,137610,1,0,0:0:0:0:
320,192,137685,1,0,0:0:0:0:
64,192,137685,1,0,0:0:0:0:
192,192,137685,1,0,0:0:0:0:
448,192,137760,1,0,0:0:0:0:
192,192,137835,1,0,0:0:0:0:
64,192,137910,1,0,0:0:0:0:
448,192,137910,1,0,0:0:0:0:
320,192,137985,1,0,0:0:0:0:
192,192,137985,1,0,0:0:0:0:
192,192,138135,1,0,0:0:0:0:
320,192,138135,1,0,0:0:0:0:
192,192,138285,1,0,0:0:0:0:
64,192,138285,1,0,0:0:0:0:
320,192,138435,1,0,0:0:0:0:
448,192,138435,1,0,0:0:0:0:
192,192,138585,1,0,0:0:0:0:
64,192,138585,1,0,0:0:0:0:
448,192,138585,1,0,0:0:0:0:
320,192,138735,1,0,0:0:0:0:
192,192,138735,1,0,0:0:0:0:
64,192,138885,1,0,0:0:0:0:
320,192,138885,1,0,0:0:0:0:
448,192,138885,1,0,0:0:0:0:
192,192,139185,1,0,0:0:0:0:
64,192,139185,1,0,0:0:0:0:
320,192,139185,1,0,0:0:0:0:
448,192,139260,1,0,0:0:0:0:
64,192,139335,1,0,0:0:0:0:
192,192,139335,1,0,0:0:0:0:
448,192,139410,1,0,0:0:0:0:
192,192,139485,1,0,0:0:0:0:
64,192,139485,1,0,0:0:0:0:
320,192,139485,1,0,0:0:0:0:
448,192,139560,1,0,0:0:0:0:
192,192,139635,1,0,0:0:0:0:
320,192,139635,1,0,0:0:0:0:
64,192,139710,1,0,0:0:0:0:
448,192,139785,1,0,0:0:0:0:
192,192,139785,1,0,0:0:0:0:
320,192,139785,1,0,0:0:0:0:
64,192,139860,1,0,0:0:0:0:
448,192,139935,1,0,0:0:0:0:
320,192,139935,1,0,0:0:0:0:
192,192,140010,1,0,0:0:0:0:
64,192,140085,1,0,0:0:0:0:
320,192,140085,1,0,0:0:0:0:
448,192,140085,1,0,0:0:0:0:
192,192,140160,1,0,0:0:0:0:
448,192,140235,1,0,0:0:0:0:
64,192,140235,1,0,0:0:0:0:
320,192,140310,1,0,0:0:0:0:
64,192,140385,1,0,0:0:0:0:
448,192,140385,1,0,0:0:0:0:
192,192,140385,1,0,0:0:0:0:
448,192,140460,1,0,0:0:0:0:
320,192,140535,1,0,0:0:0:0:
320,192,140610,1,0,0:0:0:0:
64,192,140685,1,0,0:0:0:0:
192,192,140685,1,0,0:0:0:0:
448,192,140685,1,0,0:0:0:0:
64,192,140760,1,0,0:0:0:0:
320,192,140835,1,0,0:0:0:0:
320,192,140910,1,0,0:0:0:0:
64,192,140985,1,0,0:0:0:0:
64,192,141060,1,0,0:0:0:0:
448,192,141135,1,0,0:0:0:0:
320,192,141135,1,0,0:0:0:0:
192,192,141135,1,0,0:0:0:0:
448,192,141210,1,0,0:0:0:0:
64,192,141285,1,0,0:0:0:0:
192,192,141285,1,0,0:0:0:0:
64,192,141360,1,0,0:0:0:0:
448,192,141360,1,0,0:0:0:0:
448,192,141435,1,0,0:0:0:0:
320,192,141510,1,0,0:0:0:0:
448,192,141585,1,0,0:0:0:0:
192,192,141585,1,0,0:0:0:0:
64,192,141585,1,0,0:0:0:0:
320,192,141645,1,0,0:0:0:0:
64,192,141735,1,0,0:0:0:0:
448,192,141735,1,0,0:0:0:0:
320,192,141810,1,0,0:0:0:0:
64,192,141885,1,0,0:0:0:0:
192,192,141885,1,0,0:0:0:0:
448,192,141885,1,0,0:0:0:0:
320,192,141960,1,0,0:0:0:0:
192,192,142035,1,0,0:0:0:0:
64,192,142035,1,0,0:0:0:0:
448,192,142110,1,0,0:0:0:0:
320,192,142185,1,0,0:0:0:0:
192,192,142185,1,0,0:0:0:0:
64,192,142185,1,0,0:0:0:0:
448,192,142260,1,0,0:0:0:0:
320,192,142335,1,0,0:0:0:0:
64,192,142335,1,0,0:0:0:0:
192,192,142410,1,0,0:0:0:0:
64,192,142485,1,0,0:0:0:0:
320,192,142485,1,0,0:0:0:0:
448,192,142485,1,0,0:0:0:0:
192,192,142560,1,0,0:0:0:0:
320,192,142635,1,0,0:0:0:0:
448,192,142635,1,0,0:0:0:0:
64,192,142710,1,0,0:0:0:0:
192,192,142785,1,0,0:0:0:0:
448,192,142785,1,0,0:0:0:0:
320,192,142785,1,0,0:0:0:0:
64,192,142860,1,0,0:0:0:0:
192,192,142935,1,0,0:0:0:0:
448,192,142935,1,0,0:0:0:0:
320,192,143010,1,0,0:0:0:0:
192,192,143085,1,0,0:0:0:0:
64,192,143085,1,0,0:0:0:0:
448,192,143085,1,0,0:0:0:0:
320,192,143160,1,0,0:0:0:0:
192,192,143235,1,0,0:0:0:0:
64,192,143235,1,0,0:0:0:0:
320,192,143310,1,0,0:0:0:0:
192,192,143385,1,0,0:0:0:0:
64,192,143385,1,0,0:0:0:0:
448,192,143385,1,0,0:0:0:0:
320,192,143460,1,0,0:0:0:0:
192,192,143535,1,0,0:0:0:0:
448,192,143535,1,0,0:0:0:0:
64,192,143610,1,0,0:0:0:0:
320,192,143685,1,0,0:0:0:0:
448,192,143685,1,0,0:0:0:0:
192,192,143685,1,0,0:0:0:0:
64,192,143760,1,0,0:0:0:0:
448,192,143835,1,0,0:0:0:0:
192,192,143835,1,0,0:0:0:0:
64,192,143910,1,0,0:0:0:0:
320,192,143985,1,0,0:0:0:0:
448,192,143985,1,0,0:0:0:0:
192,192,143985,1,0,0:0:0:0:
64,192,144060,1,0,0:0:0:0:
320,192,144135,1,0,0:0:0:0:
448,192,144135,1,0,0:0:0:0:
192,192,144210,1,0,0:0:0:0:
320,192,144285,1,0,0:0:0:0:
448,192,144285,1,0,0:0:0:0:
192,192,144360,1,0,0:0:0:0:
320,192,144435,1,0,0:0:0:0:
448,192,144435,1,0,0:0:0:0:
64,192,144435,1,0,0:0:0:0:
192,192,144510,1,0,0:0:0:0:
320,192,144585,1,0,0:0:0:0:
448,192,144585,1,0,0:0:0:0:
64,192,144585,1,0,0:0:0:0:
192,192,144660,1,0,0:0:0:0:
320,192,144735,1,0,0:0:0:0:
448,192,144735,1,0,0:0:0:0:
192,192,144810,1,0,0:0:0:0:
448,192,144885,1,0,0:0:0:0:
64,192,144885,1,0,0:0:0:0:
320,192,144885,1,0,0:0:0:0:
192,192,144960,1,0,0:0:0:0:
448,192,145035,1,0,0:0:0:0:
64,192,145035,1,0,0:0:0:0:
320,192,145110,1,0,0:0:0:0:
64,192,145185,1,0,0:0:0:0:
192,192,145185,1,0,0:0:0:0:
448,192,145185,1,0,0:0:0:0:
448,192,145335,1,0,0:0:0:0:
192,192,145335,1,0,0:0:0:0:
64,192,145335,1,0,0:0:0:0:
320,192,145410,1,0,0:0:0:0:
192,192,145485,1,0,0:0:0:0:
448,192,145485,1,0,0:0:0:0:
64,192,145485,1,0,0:0:0:0:
320,192,145560,1,0,0:0:0:0:
192,192,145635,1,0,0:0:0:0:
64,192,145635,1,0,0:0:0:0:
448,192,145635,1,0,0:0:0:0:
320,192,145710,1,0,0:0:0:0:
64,192,145785,1,0,0:0:0:0:
192,192,145785,1,0,0:0:0:0:
448,192,145860,1,0,0:0:0:0:
64,192,145935,1,0,0:0:0:0:
192,192,145935,1,0,0:0:0:0:
320,192,145935,1,0,0:0:0:0:
448,192,146010,1,0,0:0:0:0:
64,192,146085,1,0,0:0:0:0:
192,192,146085,1,0,0:0:0:0:
320,192,146160,1,0,0:0:0:0:
192,192,146235,1,0,0:0:0:0:
64,192,146235,1,0,0:0:0:0:
448,192,146235,1,0,0:0:0:0:
320,192,146310,1,0,0:0:0:0:
192,192,146385,1,0,0:0:0:0:
64,192,146385,1,0,0:0:0:0:
448,192,146460,1,0,0:0:0:0:
320,192,146460,1,0,0:0:0:0:
192,192,146535,1,0,0:0:0:0:
64,192,146535,1,0,0:0:0:0:
320,192,146610,1,0,0:0:0:0:
448,192,146610,1,0,0:0:0:0:
192,192,146685,1,0,0:0:0:0:
64,192,146685,1,0,0:0:0:0:
320,192,146760,1,0,0:0:0:0:
448,192,146760,1,0,0:0:0:0:
192,192,146835,1,0,0:0:0:0:
64,192,146835,1,0,0:0:0:0:
320,192,146910,1,0,0:0:0:0:
448,192,146910,1,0,0:0:0:0:
192,192,146985,1,0,0:0:0:0:
64,192,146985,1,0,0:0:0:0:
320,192,147060,1,0,0:0:0:0:
448,192,147060,1,0,0:0:0:0:
192,192,147135,1,0,0:0:0:0:
64,192,147135,1,0,0:0:0:0:
320,192,147210,1,0,0:0:0:0:
448,192,147210,1,0,0:0:0:0:
192,192,147285,1,0,0:0:0:0:
64,192,147285,1,0,0:0:0:0:
320,192,147360,1,0,0:0:0:0:
448,192,147360,1,0,0:0:0:0:
192,192,147435,1,0,0:0:0:0:
64,192,147435,1,0,0:0:0:0:
320,192,147510,1,0,0:0:0:0:
448,192,147510,1,0,0:0:0:0:
192,192,147585,1,0,0:0:0:0:
64,192,147585,1,0,0:0:0:0:
320,192,147735,1,0,0:0:0:0:
448,192,147735,1,0,0:0:0:0:
64,192,147885,1,0,0:0:0:0:
320,192,147885,1,0,0:0:0:0:
192,192,148035,1,0,0:0:0:0:
64,192,148035,1,0,0:0:0:0:
448,192,148185,1,0,0:0:0:0:
192,192,148185,1,0,0:0:0:0:
320,192,148185,1,0,0:0:0:0:
192,192,148335,1,0,0:0:0:0:
448,192,148335,1,0,0:0:0:0:
64,192,148485,1,0,0:0:0:0:
448,192,148485,1,0,0:0:0:0:
320,192,148485,1,0,0:0:0:0:
192,192,148785,1,0,0:0:0:0:
64,192,148785,1,0,0:0:0:0:
320,192,148785,1,0,0:0:0:0:
448,192,148860,1,0,0:0:0:0:
320,192,148935,1,0,0:0:0:0:
192,192,148935,1,0,0:0:0:0:
64,192,149010,1,0,0:0:0:0:
448,192,149085,1,0,0:0:0:0:
192,192,149085,1,0,0:0:0:0:
320,192,149085,1,0,0:0:0:0:
64,192,149160,1,0,0:0:0:0:
320,192,149235,1,0,0:0:0:0:
448,192,149235,1,0,0:0:0:0:
192,192,149310,1,0,0:0:0:0:
320,192,149385,1,0,0:0:0:0:
64,192,149385,1,0,0:0:0:0:
448,192,149385,1,0,0:0:0:0:
192,192,149460,1,0,0:0:0:0:
448,192,149535,1,0,0:0:0:0:
64,192,149535,1,0,0:0:0:0:
320,192,149610,1,0,0:0:0:0:
448,192,149685,1,0,0:0:0:0:
192,192,149685,1,0,0:0:0:0:
64,192,149685,1,0,0:0:0:0:
320,192,149760,1,0,0:0:0:0:
64,192,149835,1,0,0:0:0:0:
448,192,149835,1,0,0:0:0:0:
192,192,149910,1,0,0:0:0:0:
64,192,149985,1,0,0:0:0:0:
448,192,149985,1,0,0:0:0:0:
320,192,149985,1,0,0:0:0:0:
192,192,150060,1,0,0:0:0:0:
448,192,150135,1,0,0:0:0:0:
320,192,150135,1,0,0:0:0:0:
64,192,150210,1,0,0:0:0:0:
320,192,150285,1,0,0:0:0:0:
448,192,150285,1,0,0:0:0:0:
192,192,150285,1,0,0:0:0:0:
64,192,150360,1,0,0:0:0:0:
320,192,150435,1,0,0:0:0:0:
192,192,150435,1,0,0:0:0:0:
448,192,150510,1,0,0:0:0:0:
320,192,150585,1,0,0:0:0:0:
192,192,150585,1,0,0:0:0:0:
64,192,150585,1,0,0:0:0:0:
448,192,150660,1,0,0:0:0:0:
192,192,150735,1,0,0:0:0:0:
64,192,150735,1,0,0:0:0:0:
320,192,150810,1,0,0:0:0:0:
192,192,150885,1,0,0:0:0:0:
64,192,150885,1,0,0:0:0:0:
448,192,150885,1,0,0:0:0:0:
320,192,150960,1,0,0:0:0:0:
64,192,151035,1,0,0:0:0:0:
448,192,151035,1,0,0:0:0:0:
192,192,151110,1,0,0:0:0:0:
64,192,151185,1,0,0:0:0:0:
320,192,151185,1,0,0:0:0:0:
448,192,151185,1,0,0:0:0:0:
192,192,151260,1,0,0:0:0:0:
64,192,151335,1,0,0:0:0:0:
448,192,151335,1,0,0:0:0:0:
320,192,151410,1,0,0:0:0:0:
192,192,151485,1,0,0:0:0:0:
448,192,151485,1,0,0:0:0:0:
64,192,151485,1,0,0:0:0:0:
320,192,151560,1,0,0:0:0:0:
64,192,151635,1,0,0:0:0:0:
192,192,151635,1,0,0:0:0:0:
448,192,151710,1,0,0:0:0:0:
192,192,151785,1,0,0:0:0:0:
64,192,151785,1,0,0:0:0:0:
320,192,151785,1,0,0:0:0:0:
448,192,151860,1,0,0:0:0:0:
320,192,151935,1,0,0:0:0:0:
192,192,151935,1,0,0:0:0:0:
64,192,152010,1,0,0:0:0:0:
320,192,152085,1,0,0:0:0:0:
192,192,152085,1,0,0:0:0:0:
448,192,152085,1,0,0:0:0:0:
64,192,152160,1,0,0:0:0:0:
448,192,152235,1,0,0:0:0:0:
320,192,152235,1,0,0:0:0:0:
192,192,152310,1,0,0:0:0:0:
64,192,152385,1,0,0:0:0:0:
448,192,152385,1,0,0:0:0:0:
320,192,152385,1,0,0:0:0:0:
192,192,152460,1,0,0:0:0:0:
64,192,152535,1,0,0:0:0:0:
448,192,152535,1,0,0:0:0:0:
320,192,152610,1,0,0:0:0:0:
448,192,152685,1,0,0:0:0:0:
192,192,152685,1,0,0:0:0:0:
64,192,152685,1,0,0:0:0:0:
320,192,152760,1,0,0:0:0:0:
64,192,152835,1,0,0:0:0:0:
448,192,152835,1,0,0:0:0:0:
192,192,152910,1,0,0:0:0:0:
448,192,152985,1,0,0:0:0:0:
64,192,152985,1,0,0:0:0:0:
320,192,152985,1,0,0:0:0:0:
320,192,153135,1,0,0:0:0:0:
192,192,153135,1,0,0:0:0:0:
64,192,153285,1,0,0:0:0:0:
192,192,153285,1,0,0:0:0:0:
448,192,153285,1,0,0:0:0:0:
320,192,153360,1,0,0:0:0:0:
448,192,153435,1,0,0:0:0:0:
192,192,153435,1,0,0:0:0:0:
64,192,153510,1,0,0:0:0:0:
320,192,153585,1,0,0:0:0:0:
448,192,153585,1,0,0:0:0:0:
192,192,153585,1,0,0:0:0:0:
64,192,153660,1,0,0:0:0:0:
320,192,153735,1,0,0:0:0:0:
448,192,153735,1,0,0:0:0:0:
64,192,153810,1,0,0:0:0:0:
320,192,153885,1,0,0:0:0:0:
448,192,153885,1,0,0:0:0:0:
192,192,153885,1,0,0:0:0:0:
64,192,153960,1,0,0:0:0:0:
448,192,154035,1,0,0:0:0:0:
192,192,154035,1,0,0:0:0:0:
64,192,154110,1,0,0:0:0:0:
448,192,154185,1,0,0:0:0:0:
320,192,154185,1,0,0:0:0:0:
192,192,154260,1,0,0:0:0:0:
448,192,154335,1,0,0:0:0:0:
64,192,154335,1,0,0:0:0:0:
320,192,154410,1,0,0:0:0:0:
192,192,154485,1,0,0:0:0:0:
448,192,154485,1,0,0:0:0:0:
64,192,154485,1,0,0:0:0:0:
320,192,154560,1,0,0:0:0:0:
64,192,154635,1,0,0:0:0:0:
448,192,154635,1,0,0:0:0:0:
192,192,154710,1,0,0:0:0:0:
320,192,154785,1,0,0:0:0:0:
448,192,154785,1,0,0:0:0:0:
64,192,154785,1,0,0:0:0:0:
192,192,154860,1,0,0:0:0:0:
64,192,154935,1,0,0:0:0:0:
320,192,154935,1,0,0:0:0:0:
448,192,155010,1,0,0:0:0:0:
64,192,155085,1,0,0:0:0:0:
320,192,155085,1,0,0:0:0:0:
192,192,155085,1,0,0:0:0:0:
448,192,155160,1,0,0:0:0:0:
192,192,155235,1,0,0:0:0:0:
64,192,155235,1,0,0:0:0:0:
448,192,155310,1,0,0:0:0:0:
320,192,155385,1,0,0:0:0:0:
192,192,155385,1,0,0:0:0:0:
64,192,155385,1,0,0:0:0:0:
448,192,155460,1,0,0:0:0:0:
320,192,155535,1,0,0:0:0:0:
64,192,155535,1,0,0:0:0:0:
192,192,155610,1,0,0:0:0:0:
64,192,155685,1,0,0:0:0:0:
320,192,155685,1,0,0:0:0:0:
448,192,155685,1,0,0:0:0:0:
192,192,155760,1,0,0:0:0:0:
320,192,155835,1,0,0:0:0:0:
448,192,155835,1,0,0:0:0:0:
64,192,155910,1,0,0:0:0:0:
448,192,155985,1,0,0:0:0:0:
320,192,155985,1,0,0:0:0:0:
192,192,155985,1,0,0:0:0:0:
64,192,156060,1,0,0:0:0:0:
448,192,156135,1,0,0:0:0:0:
320,192,156135,1,0,0:0:0:0:
192,192,156210,1,0,0:0:0:0:
64,192,156285,1,0,0:0:0:0:
320,192,156285,1,0,0:0:0:0:
448,192,156285,1,0,0:0:0:0:
192,192,156360,1,0,0:0:0:0:
448,192,156435,1,0,0:0:0:0:
64,192,156435,1,0,0:0:0:0:
320,192,156510,1,0,0:0:0:0:
192,192,156585,1,0,0:0:0:0:
64,192,156585,1,0,0:0:0:0:
448,192,156660,1,0,0:0:0:0:
64,192,156735,1,0,0:0:0:0:
192,192,156735,1,0,0:0:0:0:
320,192,156810,1,0,0:0:0:0:
192,192,156885,1,0,0:0:0:0:
64,192,156885,1,0,0:0:0:0:
448,192,156960,1,0,0:0:0:0:
192,192,157035,1,0,0:0:0:0:
320,192,157110,1,0,0:0:0:0:
64,192,157185,1,0,0:0:0:0:
192,192,157185,1,0,0:0:0:0:
448,192,157185,1,0,0:0:0:0:
320,192,157260,1,0,0:0:0:0:
64,192,157335,1,0,0:0:0:0:
448,192,157335,1,0,0:0:0:0:
192,192,157410,1,0,0:0:0:0:
320,192,157485,1,0,0:0:0:0:
448,192,157485,1,0,0:0:0:0:
192,192,157560,1,0,0:0:0:0:
64,192,157635,1,0,0:0:0:0:
448,192,157635,1,0,0:0:0:0:
320,192,157710,1,0,0:0:0:0:
64,192,157785,1,0,0:0:0:0:
192,192,157785,1,0,0:0:0:0:
320,192,157860,1,0,0:0:0:0:
448,192,157935,1,0,0:0:0:0:
64,192,157935,1,0,0:0:0:0:
192,192,158010,1,0,0:0:0:0:
64,192,158085,1,0,0:0:0:0:
448,192,158085,1,0,0:0:0:0:
320,192,158085,1,0,0:0:0:0:
64,192,158385,1,0,0:0:0:0:
320,192,158385,1,0,0:0:0:0:
448,192,158385,1,0,0:0:0:0:
192,192,158460,1,0,0:0:0:0:
64,192,158535,1,0,0:0:0:0:
192,192,158610,1,0,0:0:0:0:
320,192,158685,1,0,0:0:0:0:
448,192,158685,1,0,0:0:0:0:
64,192,158685,1,0,0:0:0:0:
192,192,158760,1,0,0:0:0:0:
320,192,158835,1,0,0:0:0:0:
448,192,158910,1,0,0:0:0:0:
64,192,158985,1,0,0:0:0:0:
320,192,158985,1,0,0:0:0:0:
192,192,158985,1,0,0:0:0:0:
448,192,159060,1,0,0:0:0:0:
64,192,159135,1,0,0:0:0:0:
192,192,159210,1,0,0:0:0:0:
320,192,159285,1,0,0:0:0:0:
448,192,159285,1,0,0:0:0:0:
64,192,159285,1,0,0:0:0:0:
192,192,159360,1,0,0:0:0:0:
320,192,159435,1,0,0:0:0:0:
448,192,159510,1,0,0:0:0:0:
192,192,159585,1,0,0:0:0:0:
64,192,159585,1,0,0:0:0:0:
320,192,159585,1,0,0:0:0:0:
448,192,159660,1,0,0:0:0:0:
64,192,159735,1,0,0:0:0:0:
192,192,159810,1,0,0:0:0:0:
320,192,159885,1,0,0:0:0:0:
448,192,159885,1,0,0:0:0:0:
64,192,159885,1,0,0:0:0:0:
192,192,159960,1,0,0:0:0:0:
320,192,160035,1,0,0:0:0:0:
448,192,160110,1,0,0:0:0:0:
192,192,160185,1,0,0:0:0:0:
64,192,160185,1,0,0:0:0:0:
320,192,160185,1,0,0:0:0:0:
448,192,160260,1,0,0:0:0:0:
320,192,160335,1,0,0:0:0:0:
192,192,160410,1,0,0:0:0:0:
320,192,160485,1,0,0:0:0:0:
64,192,160485,1,0,0:0:0:0:
448,192,160485,1,0,0:0:0:0:
192,192,160560,1,0,0:0:0:0:
64,192,160635,1,0,0:0:0:0:
448,192,160635,1,0,0:0:0:0:
320,192,160710,1,0,0:0:0:0:
192,192,160785,1,0,0:0:0:0:
64,192,160785,1,0,0:0:0:0:
448,192,160785,1,0,0:0:0:0:
320,192,160860,1,0,0:0:0:0:
192,192,160935,1,0,0:0:0:0:
64,192,161010,1,0,0:0:0:0:
320,192,161085,1,0,0:0:0:0:
448,192,161085,1,0,0:0:0:0:
192,192,161085,1,0,0:0:0:0:
64,192,161160,1,0,0:0:0:0:
320,192,161235,1,0,0:0:0:0:
448,192,161310,1,0,0:0:0:0:
320,192,161385,1,0,0:0:0:0:
192,192,161385,1,0,0:0:0:0:
64,192,161385,1,0,0:0:0:0:
448,192,161460,1,0,0:0:0:0:
320,192,161535,1,0,0:0:0:0:
64,192,161610,1,0,0:0:0:0:
448,192,161685,1,0,0:0:0:0:
320,192,161685,1,0,0:0:0:0:
192,192,161685,1,0,0:0:0:0:
64,192,161760,1,0,0:0:0:0:
192,192,161835,1,0,0:0:0:0:
320,192,161910,1,0,0:0:0:0:
192,192,161985,1,0,0:0:0:0:
448,192,161985,1,0,0:0:0:0:
64,192,161985,1,0,0:0:0:0:
320,192,162060,1,0,0:0:0:0:
64,192,162135,1,0,0:0:0:0:
192,192,162135,1,0,0:0:0:0:
320,192,162210,1,0,0:0:0:0:
448,192,162285,1,0,0:0:0:0:
192,192,162285,1,0,0:0:0:0:
64,192,162285,1,0,0:0:0:0:
320,192,162360,1,0,0:0:0:0:
192,192,162435,1,0,0:0:0:0:
448,192,162510,1,0,0:0:0:0:
64,192,162585,1,0,0:0:0:0:
192,192,162585,1,0,0:0:0:0:
320,192,162585,1,0,0:0:0:0:
448,192,162660,1,0,0:0:0:0:
320,192,162735,1,0,0:0:0:0:
64,192,162810,1,0,0:0:0:0:
192,192,162885,1,0,0:0:0:0:
448,192,162885,1,0,0:0:0:0:
320,192,162885,1,0,0:0:0:0:
64,192,162960,1,0,0:0:0:0:
448,192,163035,1,0,0:0:0:0:
320,192,163110,1,0,0:0:0:0:
192,192,163185,1,0,0:0:0:0:
64,192,163185,1,0,0:0:0:0:
448,192,163185,1,0,0:0:0:0:
320,192,163260,1,0,0:0:0:0:
192,192,163335,1,0,0:0:0:0:
64,192,163410,1,0,0:0:0:0:
320,192,163485,1,0,0:0:0:0:
448,192,163485,1,0,0:0:0:0:
192,192,163485,1,0,0:0:0:0:
64,192,163560,1,0,0:0:0:0:
448,192,163635,1,0,0:0:0:0:
320,192,163710,1,0,0:0:0:0:
192,192,163785,1,0,0:0:0:0:
64,192,163785,1,0,0:0:0:0:
448,192,163785,1,0,0:0:0:0:
320,192,163860,1,0,0:0:0:0:
192,192,163935,1,0,0:0:0:0:
448,192,164010,1,0,0:0:0:0:
320,192,164085,1,0,0:0:0:0:
192,192,164085,1,0,0:0:0:0:
64,192,164085,1,0,0:0:0:0:
448,192,164160,1,0,0:0:0:0:
320,192,164235,1,0,0:0:0:0:
64,192,164310,1,0,0:0:0:0:
192,192,164385,1,0,0:0:0:0:
448,192,164385,1,0,0:0:0:0:
320,192,164385,1,0,0:0:0:0:
64,192,164460,1,0,0:0:0:0:
448,192,164535,1,0,0:0:0:0:
320,192,164610,1,0,0:0:0:0:
192,192,164685,1,0,0:0:0:0:
64,192,164685,1,0,0:0:0:0:
448,192,164685,1,0,0:0:0:0:
320,192,164760,1,0,0:0:0:0:
64,192,164835,1,0,0:0:0:0:
448,192,164835,1,0,0:0:0:0:
320,192,164910,1,0,0:0:0:0:
192,192,164985,1,0,0:0:0:0:
448,192,164985,1,0,0:0:0:0:
64,192,164985,1,0,0:0:0:0:
320,192,165060,1,0,0:0:0:0:
64,192,165135,1,0,0:0:0:0:
192,192,165135,1,0,0:0:0:0:
448,192,165210,1,0,0:0:0:0:
64,192,165285,1,0,0:0:0:0:
192,192,165285,1,0,0:0:0:0:
320,192,165360,1,0,0:0:0:0:
448,192,165435,1,0,0:0:0:0:
192,192,165435,1,0,0:0:0:0:
320,192,165510,1,0,0:0:0:0:
192,192,165585,1,0,0:0:0:0:
64,192,165585,1,0,0:0:0:0:
448,192,165585,1,0,0:0:0:0:
192,192,165735,1,0,0:0:0:0:
320,192,165735,1,0,0:0:0:0:
64,192,165885,1,0,0:0:0:0:
320,192,165885,1,0,0:0:0:0:
448,192,165885,1,0,0:0:0:0:
64,192,166035,1,0,0:0:0:0:
448,192,166035,1,0,0:0:0:0:
320,192,166185,1,0,0:0:0:0:
448,192,166185,1,0,0:0:0:0:
192,192,166260,1,0,0:0:0:0:
64,192,166260,1,0,0:0:0:0:
320,192,166335,1,0,0:0:0:0:
448,192,166335,1,0,0:0:0:0:
192,192,166410,1,0,0:0:0:0:
64,192,166410,1,0,0:0:0:0:
320,192,166485,1,0,0:0:0:0:
448,192,166485,1,0,0:0:0:0:
192,192,166560,1,0,0:0:0:0:
64,192,166560,1,0,0:0:0:0:
320,192,166635,1,0,0:0:0:0:
448,192,166635,1,0,0:0:0:0:
192,192,166710,1,0,0:0:0:0:
64,192,166710,1,0,0:0:0:0:
320,192,166785,1,0,0:0:0:0:
448,192,166785,1,0,0:0:0:0:
192,192,166935,1,0,0:0:0:0:
320,192,166935,1,0,0:0:0:0:
448,192,166935,1,0,0:0:0:0:
64,192,167085,1,0,0:0:0:0:
320,192,167085,1,0,0:0:0:0:
64,192,167235,1,0,0:0:0:0:
448,192,167235,1,0,0:0:0:0:
64,192,167385,1,0,0:0:0:0:
192,192,167385,1,0,0:0:0:0:
448,192,167385,1,0,0:0:0:0:
320,192,167385,1,0,0:0:0:0:
64,192,167685,1,0,0:0:0:0:
192,192,167685,1,0,0:0:0:0:
320,192,167685,1,0,0:0:0:0:
192,192,167985,128,0,168060:0:0:0:0:
64,192,167985,128,0,168060:0:0:0:0:
320,192,167985,128,0,168060:0:0:0:0:
64,192,168285,1,0,0:0:0:0:
192,192,168285,1,0,0:0:0:0:
448,192,168285,1,0,0:0:0:0:
64,192,168485,1,0,0:0:0:0:
192,192,168485,1,0,0:0:0:0:
320,192,168485,1,0,0:0:0:0:
64,192,168735,1,0,0:0:0:0:
192,192,168735,1,0,0:0:0:0:
448,192,168735,1,0,0:0:0:0:
64,192,168935,1,0,0:0:0:0:
192,192,168935,1,0,0:0:0:0:
320,192,168935,1,0,0:0:0:0:
192,192,169085,1,0,0:0:0:0:
320,192,169085,1,0,0:0:0:0:
448,192,169085,1,0,0:0:0:0:
64,192,169185,1,0,0:0:0:0:
192,192,169185,1,0,0:0:0:0:
448,192,169185,1,0,0:0:0:0:
320,192,169235,1,0,0:0:0:0:
192,192,169285,1,0,0:0:0:0:
448,192,169335,1,0,0:0:0:0:
64,192,169485,1,0,0:0:0:0:
192,192,169485,1,0,0:0:0:0:
320,192,169485,1,0,0:0:0:0:
192,192,169685,1,0,0:0:0:0:
320,192,169685,1,0,0:0:0:0:
448,192,169685,1,0,0:0:0:0:
448,192,169935,1,0,0:0:0:0:
320,192,169935,1,0,0:0:0:0:
64,192,169935,1,0,0:0:0:0:
192,192,170035,1,0,0:0:0:0:
320,192,170085,1,0,0:0:0:0:
448,192,170085,1,0,0:0:0:0:
192,192,170135,1,0,0:0:0:0:
320,192,170185,1,0,0:0:0:0:
64,192,170385,128,0,170435:0:0:0:0:
192,192,170385,128,0,170435:0:0:0:0:
448,192,170385,128,0,170435:0:0:0:0:
64,192,170685,1,0,0:0:0:0:
192,192,170685,1,0,0:0:0:0:
320,192,170685,1,0,0:0:0:0:
320,192,170885,1,0,0:0:0:0:
448,192,170885,1,0,0:0:0:0:
64,192,170885,1,0,0:0:0:0:
64,192,171135,1,0,0:0:0:0:
320,192,171135,1,0,0:0:0:0:
192,192,171135,1,0,0:0:0:0:
64,192,171385,1,0,0:0:0:0:
448,192,171385,1,0,0:0:0:0:
320,192,171385,1,0,0:0:0:0:
192,192,171485,1,0,0:0:0:0:
64,192,171485,1,0,0:0:0:0:
320,192,171485,1,0,0:0:0:0:
192,192,171585,1,0,0:0:0:0:
448,192,171585,1,0,0:0:0:0:
64,192,171585,1,0,0:0:0:0:
320,192,171635,1,0,0:0:0:0:
64,192,171685,1,0,0:0:0:0:
448,192,171735,1,0,0:0:0:0:
320,192,171785,1,0,0:0:0:0:
192,192,171885,1,0,0:0:0:0:
64,192,171885,1,0,0:0:0:0:
448,192,171885,1,0,0:0:0:0:
448,192,172085,1,0,0:0:0:0:
320,192,172085,1,0,0:0:0:0:
192,192,172085,1,0,0:0:0:0:
64,192,172335,1,0,0:0:0:0:
192,192,172335,1,0,0:0:0:0:
320,192,172335,1,0,0:0:0:0:
448,192,172335,1,0,0:0:0:0:
192,192,172485,1,0,0:0:0:0:
64,192,172485,1,0,0:0:0:0:
448,192,172785,1,0,0:0:0:0:
64,192,172785,1,0,0:0:0:0:
192,192,172785,1,0,0:0:0:0:
64,192,173085,1,0,0:0:0:0:
192,192,173085,1,0,0:0:0:0:
448,192,173085,1,0,0:0:0:0:
192,192,173310,1,0,0:0:0:0:
64,192,173310,1,0,0:0:0:0:
448,192,173310,1,0,0:0:0:0:
192,192,173535,1,0,0:0:0:0:
448,192,173535,1,0,0:0:0:0:
320,192,173535,1,0,0:0:0:0:
192,192,173760,1,0,0:0:0:0:
64,192,173760,1,0,0:0:0:0:
448,192,173760,1,0,0:0:0:0:
192,192,173910,1,0,0:0:0:0:
64,192,173910,1,0,0:0:0:0:
320,192,173910,1,0,0:0:0:0:
64,192,173985,1,0,0:0:0:0:
192,192,173985,1,0,0:0:0:0:
448,192,173985,1,0,0:0:0:0:
320,192,174035,1,0,0:0:0:0:
64,192,174085,1,0,0:0:0:0:
192,192,174135,1,0,0:0:0:0:
320,192,174185,1,0,0:0:0:0:
192,192,174285,1,0,0:0:0:0:
64,192,174285,1,0,0:0:0:0:
448,192,174285,1,0,0:0:0:0:
64,192,174510,1,0,0:0:0:0:
192,192,174510,1,0,0:0:0:0:
448,192,174510,1,0,0:0:0:0:
64,192,174735,1,0,0:0:0:0:
192,192,174735,1,0,0:0:0:0:
320,192,174735,1,0,0:0:0:0:
448,192,174885,1,0,0:0:0:0:
320,192,174935,1,0,0:0:0:0:
192,192,174985,1,0,0:0:0:0:
64,192,175035,1,0,0:0:0:0:
320,192,175085,1,0,0:0:0:0:
448,192,175135,1,0,0:0:0:0:
192,192,175185,1,0,0:0:0:0:
64,192,175185,1,0,0:0:0:0:
320,192,175185,1,0,0:0:0:0:
448,192,175235,1,0,0:0:0:0:
320,192,175285,1,0,0:0:0:0:
192,192,175335,1,0,0:0:0:0:
448,192,175385,1,0,0:0:0:0:
192,192,175485,1,0,0:0:0:0:
448,192,175485,1,0,0:0:0:0:
320,192,175485,1,0,0:0:0:0:
192,192,175710,1,0,0:0:0:0:
64,192,175710,1,0,0:0:0:0:
448,192,175710,1,0,0:0:0:0:
192,192,175935,1,0,0:0:0:0:
64,192,175935,1,0,0:0:0:0:
448,192,175935,1,0,0:0:0:0:
192,192,176160,1,0,0:0:0:0:
320,192,176160,1,0,0:0:0:0:
448,192,176160,1,0,0:0:0:0:
192,192,176310,1,0,0:0:0:0:
64,192,176310,1,0,0:0:0:0:
320,192,176310,1,0,0:0:0:0:
64,192,176385,1,0,0:0:0:0:
448,192,176385,1,0,0:0:0:0:
320,192,176435,1,0,0:0:0:0:
192,192,176485,1,0,0:0:0:0:
448,192,176535,1,0,0:0:0:0:
320,192,176585,1,0,0:0:0:0:
192,192,176685,1,0,0:0:0:0:
64,192,176685,1,0,0:0:0:0:
320,192,176685,1,0,0:0:0:0:
192,192,176910,1,0,0:0:0:0:
320,192,176910,1,0,0:0:0:0:
448,192,176910,1,0,0:0:0:0:
192,192,177135,1,0,0:0:0:0:
64,192,177135,1,0,0:0:0:0:
320,192,177135,1,0,0:0:0:0:
192,192,177585,1,0,0:0:0:0:
192,192,177885,1,0,0:0:0:0:
448,192,177885,1,0,0:0:0:0:
320,192,177885,1,0,0:0:0:0:
192,192,178035,1,0,0:0:0:0:
320,192,178185,1,0,0:0:0:0:
448,192,178185,1,0,0:0:0:0:
64,192,178185,1,0,0:0:0:0:
192,192,178335,1,0,0:0:0:0:
320,192,178485,1,0,0:0:0:0:
64,192,178485,1,0,0:0:0:0:
192,192,178485,1,0,0:0:0:0:
448,192,178635,1,0,0:0:0:0:
320,192,178785,1,0,0:0:0:0:
448,192,178785,1,0,0:0:0:0:
192,192,178785,1,0,0:0:0:0:
192,192,178935,1,0,0:0:0:0:
64,192,179085,1,0,0:0:0:0:
192,192,179085,1,0,0:0:0:0:
320,192,179085,1,0,0:0:0:0:
448,192,179235,1,0,0:0:0:0:
448,192,179385,1,0,0:0:0:0:
320,192,179385,1,0,0:0:0:0:
192,192,179385,1,0,0:0:0:0:
192,192,179535,1,0,0:0:0:0:
64,192,179685,1,0,0:0:0:0:
192,192,179685,1,0,0:0:0:0:
448,192,179685,1,0,0:0:0:0:
192,192,179985,1,0,0:0:0:0:
320,192,179985,1,0,0:0:0:0:
448,192,179985,1,0,0:0:0:0:
320,192,180135,1,0,0:0:0:0:
192,192,180285,1,0,0:0:0:0:
64,192,180285,1,0,0:0:0:0:
320,192,180285,1,0,0:0:0:0:
192,192,180435,1,0,0:0:0:0:
64,192,180510,1,0,0:0:0:0:
320,192,180510,1,0,0:0:0:0:
448,192,180510,1,0,0:0:0:0:
192,192,180585,1,0,0:0:0:0:
64,192,180735,1,0,0:0:0:0:
192,192,180735,1,0,0:0:0:0:
320,192,180735,1,0,0:0:0:0:
320,192,180885,1,0,0:0:0:0:
448,192,180960,1,0,0:0:0:0:
192,192,180960,1,0,0:0:0:0:
64,192,180960,1,0,0:0:0:0:
320,192,181035,1,0,0:0:0:0:
64,192,181110,1,0,0:0:0:0:
320,192,181185,1,0,0:0:0:0:
192,192,181185,1,0,0:0:0:0:
448,192,181185,1,0,0:0:0:0:
64,192,181260,1,0,0:0:0:0:
320,192,181335,1,0,0:0:0:0:
192,192,181410,1,0,0:0:0:0:
320,192,181485,1,0,0:0:0:0:
448,192,181485,1,0,0:0:0:0:
64,192,181485,1,0,0:0:0:0:
320,192,181635,1,0,0:0:0:0:
192,192,181710,1,0,0:0:0:0:
64,192,181710,1,0,0:0:0:0:
448,192,181710,1,0,0:0:0:0:
320,192,181785,1,0,0:0:0:0:
192,192,181860,1,0,0:0:0:0:
64,192,181935,1,0,0:0:0:0:
320,192,181935,1,0,0:0:0:0:
448,192,181935,1,0,0:0:0:0:
64,192,182085,1,0,0:0:0:0:
192,192,182085,1,0,0:0:0:0:
448,192,182385,1,0,0:0:0:0:
192,192,182385,1,0,0:0:0:0:
64,192,182385,1,0,0:0:0:0:
320,192,182460,1,0,0:0:0:0:
64,192,182535,1,0,0:0:0:0:
192,192,182535,1,0,0:0:0:0:
448,192,182610,1,0,0:0:0:0:
192,192,182685,1,0,0:0:0:0:
320,192,182685,1,0,0:0:0:0:
64,192,182685,1,0,0:0:0:0:
448,192,182835,1,0,0:0:0:0:
192,192,182910,1,0,0:0:0:0:
64,192,182910,1,0,0:0:0:0:
320,192,182910,1,0,0:0:0:0:
448,192,182985,128,0,183060:0:0:0:0:
192,192,183135,1,0,0:0:0:0:
320,192,183135,1,0,0:0:0:0:
64,192,183285,128,0,183360:0:0:0:0:
448,192,183360,1,0,0:0:0:0:
320,192,183360,1,0,0:0:0:0:
448,192,183510,1,0,0:0:0:0:
320,192,183510,1,0,0:0:0:0:
192,192,183585,1,0,0:0:0:0:
64,192,183585,1,0,0:0:0:0:
320,192,183735,128,0,183810:0:0:0:0:
192,192,183735,1,0,0:0:0:0:
192,192,183885,1,0,0:0:0:0:
64,192,183885,1,0,0:0:0:0:
448,192,183885,1,0,0:0:0:0:
320,192,184035,1,0,0:0:0:0:
448,192,184110,1,0,0:0:0:0:
192,192,184110,1,0,0:0:0:0:
64,192,184110,1,0,0:0:0:0:
320,192,184185,128,0,184335:0:0:0:0:
192,192,184335,1,0,0:0:0:0:
64,192,184335,1,0,0:0:0:0:
448,192,184335,1,0,0:0:0:0:
192,192,184485,128,0,184710:0:0:0:0:
64,192,184485,128,0,184710:0:0:0:0:
64,192,184785,1,0,0:0:0:0:
192,192,184785,1,0,0:0:0:0:
320,192,184785,1,0,0:0:0:0:
448,192,184935,1,0,0:0:0:0:
64,192,185085,1,0,0:0:0:0:
192,192,185085,1,0,0:0:0:0:
448,192,185085,1,0,0:0:0:0:
192,192,185235,1,0,0:0:0:0:
64,192,185310,1,0,0:0:0:0:
448,192,185310,1,0,0:0:0:0:
320,192,185310,1,0,0:0:0:0:
192,192,185385,128,0,185460:0:0:0:0:
448,192,185535,1,0,0:0:0:0:
64,192,185535,1,0,0:0:0:0:
192,192,185535,1,0,0:0:0:0:
320,192,185610,1,0,0:0:0:0:
448,192,185685,1,0,0:0:0:0:
320,192,185760,1,0,0:0:0:0:
192,192,185760,1,0,0:0:0:0:
64,192,185760,1,0,0:0:0:0:
448,192,185835,1,0,0:0:0:0:
64,192,185910,1,0,0:0:0:0:
192,192,185910,1,0,0:0:0:0:
320,192,185985,1,0,0:0:0:0:
448,192,185985,128,0,186285:0:0:0:0:
192,192,186285,1,0,0:0:0:0:
64,192,186285,1,0,0:0:0:0:
64,192,186435,1,0,0:0:0:0:
192,192,186435,1,0,0:0:0:0:
448,192,186510,1,0,0:0:0:0:
320,192,186510,1,0,0:0:0:0:
192,192,186585,1,0,0:0:0:0:
64,192,186585,1,0,0:0:0:0:
320,192,186660,1,0,0:0:0:0:
448,192,186660,1,0,0:0:0:0:
192,192,186735,1,0,0:0:0:0:
64,192,186735,1,0,0:0:0:0:
320,192,186810,1,0,0:0:0:0:
448,192,186810,1,0,0:0:0:0:
192,192,186885,1,0,0:0:0:0:
64,192,186885,1,0,0:0:0:0:
64,192,187185,1,0,0:0:0:0:
192,192,187185,1,0,0:0:0:0:
320,192,187185,1,0,0:0:0:0:
64,192,187485,1,0,0:0:0:0:
320,192,187485,1,0,0:0:0:0:
448,192,187485,1,0,0:0:0:0:
64,192,187785,1,0,0:0:0:0:
320,192,187785,1,0,0:0:0:0:
448,192,187785,1,0,0:0:0:0:
64,192,188085,1,0,0:0:0:0:
192,192,188085,1,0,0:0:0:0:
320,192,188085,1,0,0:0:0:0:
192,192,188385,1,0,0:0:0:0:
320,192,188385,1,0,0:0:0:0:
448,192,188385,1,0,0:0:0:0:
64,192,188685,1,0,0:0:0:0:
192,192,188685,1,0,0:0:0:0:
448,192,188685,1,0,0:0:0:0:
320,192,188985,1,0,0:0:0:0:
192,192,188985,1,0,0:0:0:0:
448,192,188985,1,0,0:0:0:0:
320,192,189210,1,0,0:0:0:0:
192,192,189210,1,0,0:0:0:0:
64,192,189210,1,0,0:0:0:0:
192,192,189435,1,0,0:0:0:0:
320,192,189435,1,0,0:0:0:0:
448,192,189435,1,0,0:0:0:0:
320,192,189585,1,0,0:0:0:0:
192,192,189585,1,0,0:0:0:0:
64,192,189585,1,0,0:0:0:0:
192,192,189885,1,0,0:0:0:0:
320,192,189885,1,0,0:0:0:0:
448,192,189885,1,0,0:0:0:0:
192,192,190185,1,0,0:0:0:0:
64,192,190185,1,0,0:0:0:0:
320,192,190185,1,0,0:0:0:0:
192,192,190485,1,0,0:0:0:0:
320,192,190485,1,0,0:0:0:0:
448,192,190485,1,0,0:0:0:0:
64,192,190785,1,0,0:0:0:0:
320,192,190785,1,0,0:0:0:0:
448,192,190785,1,0,0:0:0:0:
64,192,191085,1,0,0:0:0:0:
192,192,191085,1,0,0:0:0:0:
320,192,191085,1,0,0:0:0:0:
192,192,191385,1,0,0:0:0:0:
320,192,191385,1,0,0:0:0:0:
448,192,191385,1,0,0:0:0:0:
320,192,191535,1,0,0:0:0:0:
64,192,191535,1,0,0:0:0:0:
448,192,191535,1,0,0:0:0:0:
64,192,191685,1,0,0:0:0:0:
192,192,191685,1,0,0:0:0:0:
320,192,191685,1,0,0:0:0:0:
64,192,191985,1,0,0:0:0:0:
192,192,191985,1,0,0:0:0:0:
448,192,191985,1,0,0:0:0:0:
192,192,192210,1,0,0:0:0:0:
64,192,192210,1,0,0:0:0:0:
320,192,192210,1,0,0:0:0:0:
192,192,192435,1,0,0:0:0:0:
320,192,192435,1,0,0:0:0:0:
448,192,192435,1,0,0:0:0:0:
64,192,192585,1,0,0:0:0:0:
192,192,192585,1,0,0:0:0:0:
320,192,192585,1,0,0:0:0:0:
192,192,192810,1,0,0:0:0:0:
64,192,192810,1,0,0:0:0:0:
448,192,192810,1,0,0:0:0:0:
192,192,193035,1,0,0:0:0:0:
320,192,193035,1,0,0:0:0:0:
448,192,193035,1,0,0:0:0:0:
64,192,193185,1,0,0:0:0:0:
192,192,193185,1,0,0:0:0:0:
448,192,193185,1,0,0:0:0:0:
320,192,193410,1,0,0:0:0:0:
448,192,193410,1,0,0:0:0:0:
64,192,193410,1,0,0:0:0:0:
64,192,193635,1,0,0:0:0:0:
448,192,193635,1,0,0:0:0:0:
320,192,193635,1,0,0:0:0:0:
64,192,193785,1,0,0:0:0:0:
192,192,193785,1,0,0:0:0:0:
320,192,193785,1,0,0:0:0:0:
192,192,194010,1,0,0:0:0:0:
320,192,194010,1,0,0:0:0:0:
448,192,194010,1,0,0:0:0:0:
64,192,194235,1,0,0:0:0:0:
192,192,194235,1,0,0:0:0:0:
320,192,194235,1,0,0:0:0:0:
320,192,194385,1,0,0:0:0:0:
448,192,194385,1,0,0:0:0:0:
192,192,194460,1,0,0:0:0:0:
64,192,194460,1,0,0:0:0:0:
320,192,194535,1,0,0:0:0:0:
448,192,194535,1,0,0:0:0:0:
192,192,194610,1,0,0:0:0:0:
64,192,194610,1,0,0:0:0:0:
320,192,194685,1,0,0:0:0:0:
448,192,194685,1,0,0:0:0:0:
192,192,194760,1,0,0:0:0:0:
64,192,194760,1,0,0:0:0:0:
320,192,194835,1,0,0:0:0:0:
448,192,194835,1,0,0:0:0:0:
192,192,194910,1,0,0:0:0:0:
64,192,194910,1,0,0:0:0:0:
448,192,194985,1,0,0:0:0:0:
320,192,194985,1,0,0:0:0:0:
192,192,195060,1,0,0:0:0:0:
64,192,195060,1,0,0:0:0:0:
320,192,195135,1,0,0:0:0:0:
448,192,195135,1,0,0:0:0:0:
192,192,195210,1,0,0:0:0:0:
64,192,195210,1,0,0:0:0:0:
320,192,195285,1,0,0:0:0:0:
448,192,195285,1,0,0:0:0:0:
192,192,195360,1,0,0:0:0:0:
64,192,195360,1,0,0:0:0:0:
320,192,195435,1,0,0:0:0:0:
448,192,195435,1,0,0:0:0:0:
192,192,195510,1,0,0:0:0:0:
64,192,195510,1,0,0:0:0:0:
320,192,195585,128,0,196485:0:0:0:0:
448,192,195585,128,0,196485:0:0:0:0:
64,192,196785,128,0,197985:0:0:0:0:
192,192,196785,128,0,197985:0:0:0:0:
448,192,196785,128,0,197985:0:0:0:0:
320,192,198035,1,0,0:0:0:0:
448,192,198085,1,0,0:0:0:0:
64,192,198135,1,0,0:0:0:0:
448,192,198210,1,0,0:0:0:0:
320,192,198285,1,0,0:0:0:0:
64,192,198285,1,0,0:0:0:0:
192,192,198335,1,0,0:0:0:0:
448,192,198385,1,0,0:0:0:0:
320,192,198435,1,0,0:0:0:0:
64,192,198510,1,0,0:0:0:0:
448,192,198585,1,0,0:0:0:0:
320,192,198585,1,0,0:0:0:0:
64,192,198635,1,0,0:0:0:0:
192,192,198685,1,0,0:0:0:0:
320,192,198735,1,0,0:0:0:0:
448,192,198810,1,0,0:0:0:0:
64,192,198835,1,0,0:0:0:0:
192,192,198885,1,0,0:0:0:0:
320,192,198885,1,0,0:0:0:0:
448,192,198960,1,0,0:0:0:0:
64,192,198985,1,0,0:0:0:0:
192,192,199035,1,0,0:0:0:0:
448,192,199085,1,0,0:0:0:0:
320,192,199135,1,0,0:0:0:0:
64,192,199185,128,0,200385:0:0:0:0:
192,192,199185,128,0,200385:0:0:0:0:
448,192,199185,128,0,200385:0:0:0:0:
320,192,200435,1,0,0:0:0:0:
192,192,200485,1,0,0:0:0:0:
64,192,200535,1,0,0:0:0:0:
320,192,200585,1,0,0:0:0:0:
448,192,200635,1,0,0:0:0:0:
192,192,200685,1,0,0:0:0:0:
320,192,200685,1,0,0:0:0:0:
64,192,200735,1,0,0:0:0:0:
448,192,200785,1,0,0:0:0:0:
320,192,200835,1,0,0:0:0:0:
64,192,200885,1,0,0:0:0:0:
192,192,200935,1,0,0:0:0:0:
448,192,200985,1,0,0:0:0:0:
320,192,200985,1,0,0:0:0:0:
64,192,201035,1,0,0:0:0:0:
192,192,201085,1,0,0:0:0:0:
320,192,201135,1,0,0:0:0:0:
448,192,201185,1,0,0:0:0:0:
192,192,201235,1,0,0:0:0:0:
64,192,201285,1,0,0:0:0:0:
320,192,201285,1,0,0:0:0:0:
448,192,201285,1,0,0:0:0:0:
192,192,201360,1,0,0:0:0:0:
448,192,201435,1,0,0:0:0:0:
320,192,201435,1,0,0:0:0:0:
64,192,201485,1,0,0:0:0:0:
192,192,201485,1,0,0:0:0:0:
64,192,201585,128,0,202785:0:0:0:0:
320,192,201585,128,0,202785:0:0:0:0:
448,192,201585,128,0,202785:0:0:0:0:
192,192,202835,1,0,0:0:0:0:
64,192,202860,1,0,0:0:0:0:
448,192,202935,1,0,0:0:0:0:
320,192,202972,1,0,0:0:0:0:
192,192,203010,1,0,0:0:0:0:
64,192,203047,1,0,0:0:0:0:
320,192,203085,1,0,0:0:0:0:
448,192,203085,1,0,0:0:0:0:
192,192,203122,1,0,0:0:0:0:
64,192,203160,1,0,0:0:0:0:
320,192,203197,1,0,0:0:0:0:
448,192,203235,1,0,0:0:0:0:
64,192,203272,1,0,0:0:0:0:
320,192,203310,1,0,0:0:0:0:
192,192,203385,1,0,0:0:0:0:
64,192,203385,1,0,0:0:0:0:
448,192,203427,1,0,0:0:0:0:
320,192,203460,1,0,0:0:0:0:
192,192,203535,1,0,0:0:0:0:
64,192,203610,1,0,0:0:0:0:
448,192,203685,1,0,0:0:0:0:
192,192,203685,1,0,0:0:0:0:
320,192,203727,1,0,0:0:0:0:
64,192,203760,1,0,0:0:0:0:
192,192,203835,1,0,0:0:0:0:
320,192,203885,1,0,0:0:0:0:
448,192,203935,1,0,0:0:0:0:
320,192,203985,128,0,204785:0:0:0:0:
192,192,203985,128,0,204785:0:0:0:0:
64,192,203985,128,0,205185:0:0:0:0:
192,192,204885,1,0,0:0:0:0:
320,192,204885,1,0,0:0:0:0:
448,192,205035,1,0,0:0:0:0:
192,192,205035,1,0,0:0:0:0:
448,192,205185,1,0,0:0:0:0:
320,192,205185,1,0,0:0:0:0:
192,192,205297,1,0,0:0:0:0:
64,192,205335,1,0,0:0:0:0:
448,192,205385,1,0,0:0:0:0:
320,192,205435,1,0,0:0:0:0:
64,192,205485,1,0,0:0:0:0:
192,192,205485,1,0,0:0:0:0:
448,192,205485,1,0,0:0:0:0:
320,192,205560,1,0,0:0:0:0:
64,192,205635,1,0,0:0:0:0:
192,192,205635,1,0,0:0:0:0:
448,192,205635,1,0,0:0:0:0:
320,192,205710,1,0,0:0:0:0:
192,192,205785,1,0,0:0:0:0:
64,192,205785,1,0,0:0:0:0:
192,192,205935,1,0,0:0:0:0:
320,192,205935,1,0,0:0:0:0:
448,192,205935,1,0,0:0:0:0:
64,192,205972,1,0,0:0:0:0:
192,192,206010,1,0,0:0:0:0:
320,192,206047,1,0,0:0:0:0:
64,192,206085,1,0,0:0:0:0:
448,192,206085,1,0,0:0:0:0:
320,192,206135,1,0,0:0:0:0:
192,192,206235,1,0,0:0:0:0:
64,192,206285,1,0,0:0:0:0:
320,192,206335,1,0,0:0:0:0:
448,192,206385,128,0,207585:0:0:0:0:
192,192,206385,128,0,207585:0:0:0:0:
64,192,206385,128,0,207585:0:0:0:0:
320,192,207585,1,0,0:0:0:0:
192,192,207735,1,0,0:0:0:0:
64,192,207735,1,0,0:0:0:0:
64,192,207810,1,0,0:0:0:0:
192,192,207810,1,0,0:0:0:0:
320,192,207885,1,0,0:0:0:0:
448,192,207960,1,0,0:0:0:0:
320,192,208035,1,0,0:0:0:0:
64,192,208110,1,0,0:0:0:0:
448,192,208185,1,0,0:0:0:0:
320,192,208260,1,0,0:0:0:0:
64,192,208335,1,0,0:0:0:0:
320,192,208372,1,0,0:0:0:0:
192,192,208410,1,0,0:0:0:0:
64,192,208447,1,0,0:0:0:0:
448,192,208485,1,0,0:0:0:0:
320,192,208485,1,0,0:0:0:0:
192,192,208522,1,0,0:0:0:0:
64,192,208560,1,0,0:0:0:0:
448,192,208597,1,0,0:0:0:0:
320,192,208635,1,0,0:0:0:0:
64,192,208672,1,0,0:0:0:0:
192,192,208710,1,0,0:0:0:0:
320,192,208747,1,0,0:0:0:0:
64,192,208785,128,0,209985:0:0:0:0:
192,192,208785,128,0,209985:0:0:0:0:
448,192,208785,128,0,209985:0:0:0:0:
320,192,209985,1,0,0:0:0:0:
320,192,210135,1,0,0:0:0:0:
448,192,210172,1,0,0:0:0:0:
192,192,210210,1,0,0:0:0:0:
320,192,210247,1,0,0:0:0:0:
64,192,210285,1,0,0:0:0:0:
448,192,210285,1,0,0:0:0:0:
192,192,210322,1,0,0:0:0:0:
320,192,210360,1,0,0:0:0:0:
448,192,210397,1,0,0:0:0:0:
64,192,210435,1,0,0:0:0:0:
192,192,210472,1,0,0:0:0:0:
448,192,210510,1,0,0:0:0:0:
320,192,210547,1,0,0:0:0:0:
64,192,210885,1,0,0:0:0:0:
320,192,210885,1,0,0:0:0:0:
448,192,210885,1,0,0:0:0:0:
64,192,211185,128,0,212385:0:0:0:0:
192,192,211185,128,0,212385:0:0:0:0:
320,192,211185,128,0,212385:0:0:0:0:
448,192,212385,1,0,0:0:0:0:
64,192,212460,1,0,0:0:0:0:
192,192,212497,1,0,0:0:0:0:
320,192,212535,1,0,0:0:0:0:
448,192,212572,1,0,0:0:0:0:
64,192,212610,1,0,0:0:0:0:
192,192,212647,1,0,0:0:0:0:
320,192,212685,1,0,0:0:0:0:
448,192,212685,1,0,0:0:0:0:
64,192,212760,1,0,0:0:0:0:
320,192,212835,1,0,0:0:0:0:
192,192,212910,1,0,0:0:0:0:
64,192,212985,1,0,0:0:0:0:
320,192,212985,1,0,0:0:0:0:
192,192,213022,1,0,0:0:0:0:
448,192,213060,1,0,0:0:0:0:
320,192,213097,1,0,0:0:0:0:
192,192,213135,1,0,0:0:0:0:
64,192,213172,1,0,0:0:0:0:
448,192,213210,1,0,0:0:0:0:
320,192,213247,1,0,0:0:0:0:
64,192,213285,1,0,0:0:0:0:
192,192,213285,1,0,0:0:0:0:
448,192,213585,128,0,214785:0:0:0:0:
64,192,213585,128,0,214785:0:0:0:0:
192,192,214485,1,0,0:0:0:0:
320,192,214485,1,0,0:0:0:0:
320,192,214635,1,0,0:0:0:0:
192,192,214635,1,0,0:0:0:0:
192,192,214785,1,0,0:0:0:0:
320,192,214785,1,0,0:0:0:0:
64,192,214860,1,0,0:0:0:0:
448,192,214897,1,0,0:0:0:0:
320,192,214935,1,0,0:0:0:0:
192,192,214972,1,0,0:0:0:0:
64,192,215010,1,0,0:0:0:0:
320,192,215085,1,0,0:0:0:0:
192,192,215085,1,0,0:0:0:0:
448,192,215085,1,0,0:0:0:0:
64,192,215160,1,0,0:0:0:0:
448,192,215235,1,0,0:0:0:0:
320,192,215235,1,0,0:0:0:0:
64,192,215310,1,0,0:0:0:0:
192,192,215310,1,0,0:0:0:0:
320,192,215535,1,0,0:0:0:0:
448,192,215535,1,0,0:0:0:0:
64,192,215685,1,0,0:0:0:0:
448,192,215685,1,0,0:0:0:0:
320,192,215685,1,0,0:0:0:0:
64,192,215985,128,0,217185:0:0:0:0:
192,192,215985,1,0,0:0:0:0:
448,192,215985,1,0,0:0:0:0:
448,192,216585,1,0,0:0:0:0:
320,192,216585,1,0,0:0:0:0:
192,192,216735,1,0,0:0:0:0:
448,192,216885,1,0,0:0:0:0:
192,192,216885,1,0,0:0:0:0:
320,192,217035,1,0,0:0:0:0:
448,192,217185,1,0,0:0:0:0:
192,192,217185,1,0,0:0:0:0:
320,192,217222,1,0,0:0:0:0:
64,192,217260,1,0,0:0:0:0:
192,192,217297,1,0,0:0:0:0:
320,192,217335,1,0,0:0:0:0:
448,192,217372,1,0,0:0:0:0:
320,192,217447,1,0,0:0:0:0:
192,192,217485,1,0,0:0:0:0:
448,192,217485,1,0,0:0:0:0:
64,192,217485,1,0,0:0:0:0:
192,192,217635,1,0,0:0:0:0:
192,192,217785,1,0,0:0:0:0:
448,192,217785,1,0,0:0:0:0:
320,192,217785,1,0,0:0:0:0:
64,192,217935,1,0,0:0:0:0:
192,192,217935,1,0,0:0:0:0:
448,192,218085,1,0,0:0:0:0:
320,192,218085,1,0,0:0:0:0:
192,192,218122,1,0,0:0:0:0:
64,192,218160,1,0,0:0:0:0:
448,192,218197,1,0,0:0:0:0:
320,192,218235,1,0,0:0:0:0:
192,192,218272,1,0,0:0:0:0:
64,192,218310,1,0,0:0:0:0:
320,192,218347,1,0,0:0:0:0:
448,192,218385,128,0,219585:0:0:0:0:
64,192,218385,128,0,219585:0:0:0:0:
192,192,218385,1,0,0:0:0:0:
320,192,218985,1,0,0:0:0:0:
192,192,218985,1,0,0:0:0:0:
192,192,219435,1,0,0:0:0:0:
320,192,219435,1,0,0:0:0:0:
64,192,219735,1,0,0:0:0:0:
320,192,219735,1,0,0:0:0:0:
448,192,219735,1,0,0:0:0:0:
64,192,220035,1,0,0:0:0:0:
192,192,220035,1,0,0:0:0:0:
320,192,220035,1,0,0:0:0:0:
192,192,220185,1,0,0:0:0:0:
320,192,220185,1,0,0:0:0:0:
64,192,220485,1,0,0:0:0:0:
448,192,220485,1,0,0:0:0:0:
320,192,220485,1,0,0:0:0:0:
192,192,220560,1,0,0:0:0:0:
320,192,220635,1,0,0:0:0:0:
448,192,220710,1,0,0:0:0:0:
320,192,220785,128,0,221985:0:0:0:0:
192,192,220785,128,0,221985:0:0:0:0:
64,192,220785,128,0,221985:0:0:0:0:
448,192,221385,1,0,0:0:0:0:
448,192,221835,1,0,0:0:0:0:
448,192,222022,1,0,0:0:0:0:
64,192,222060,1,0,0:0:0:0:
192,192,222097,1,0,0:0:0:0:
320,192,222135,1,0,0:0:0:0:
448,192,222172,1,0,0:0:0:0:
64,192,222210,1,0,0:0:0:0:
192,192,222247,1,0,0:0:0:0:
320,192,222285,1,0,0:0:0:0:
448,192,222285,1,0,0:0:0:0:
64,192,222435,1,0,0:0:0:0:
192,192,222435,1,0,0:0:0:0:
448,192,222510,1,0,0:0:0:0:
320,192,222510,1,0,0:0:0:0:
192,192,222585,1,0,0:0:0:0:
64,192,222585,1,0,0:0:0:0:
320,192,222735,1,0,0:0:0:0:
192,192,222735,1,0,0:0:0:0:
64,192,222735,1,0,0:0:0:0:
320,192,222885,1,0,0:0:0:0:
448,192,222960,1,0,0:0:0:0:
192,192,223035,1,0,0:0:0:0:
320,192,223185,128,0,224385:0:0:0:0:
448,192,223185,128,0,224385:0:0:0:0:
192,192,223635,1,0,0:0:0:0:
64,192,223785,1,0,0:0:0:0:
192,192,223785,1,0,0:0:0:0:
64,192,224235,1,0,0:0:0:0:
192,192,224385,1,0,0:0:0:0:
64,192,224385,1,0,0:0:0:0:
64,192,224535,1,0,0:0:0:0:
448,192,224535,1,0,0:0:0:0:
320,192,224572,1,0,0:0:0:0:
192,192,224610,1,0,0:0:0:0:
64,192,224647,1,0,0:0:0:0:
192,192,224685,1,0,0:0:0:0:
320,192,224685,1,0,0:0:0:0:
448,192,224685,1,0,0:0:0:0:
64,192,224985,1,0,0:0:0:0:
448,192,224985,1,0,0:0:0:0:
320,192,224985,1,0,0:0:0:0:
448,192,225135,1,0,0:0:0:0:
64,192,225135,1,0,0:0:0:0:
192,192,225172,1,0,0:0:0:0:
320,192,225210,1,0,0:0:0:0:
448,192,225285,1,0,0:0:0:0:
192,192,225285,1,0,0:0:0:0:
64,192,225285,1,0,0:0:0:0:
320,192,225360,1,0,0:0:0:0:
192,192,225435,1,0,0:0:0:0:
64,192,225435,1,0,0:0:0:0:
320,192,225510,1,0,0:0:0:0:
192,192,225585,128,0,226785:0:0:0:0:
64,192,225585,128,0,226785:0:0:0:0:
320,192,226185,1,0,0:0:0:0:
448,192,226185,1,0,0:0:0:0:
320,192,226635,1,0,0:0:0:0:
320,192,226785,1,0,0:0:0:0:
448,192,226785,1,0,0:0:0:0:
192,192,226860,1,0,0:0:0:0:
320,192,226897,1,0,0:0:0:0:
64,192,226935,1,0,0:0:0:0:
192,192,226972,1,0,0:0:0:0:
320,192,227010,1,0,0:0:0:0:
448,192,227047,1,0,0:0:0:0:
192,192,227085,1,0,0:0:0:0:
64,192,227085,1,0,0:0:0:0:
320,192,227122,1,0,0:0:0:0:
448,192,227160,1,0,0:0:0:0:
64,192,227197,1,0,0:0:0:0:
192,192,227235,1,0,0:0:0:0:
320,192,227272,1,0,0:0:0:0:
448,192,227310,1,0,0:0:0:0:
64,192,227347,1,0,0:0:0:0:
192,192,227385,1,0,0:0:0:0:
320,192,227385,1,0,0:0:0:0:
64,192,227535,1,0,0:0:0:0:
192,192,227535,1,0,0:0:0:0:
320,192,227535,1,0,0:0:0:0:
192,192,227760,1,0,0:0:0:0:
320,192,227760,1,0,0:0:0:0:
448,192,227760,1,0,0:0:0:0:
64,192,227985,128,0,229185:0:0:0:0:
192,192,227985,128,0,229185:0:0:0:0:
320,192,228585,1,0,0:0:0:0:
448,192,228585,1,0,0:0:0:0:
320,192,229035,1,0,0:0:0:0:
448,192,229035,1,0,0:0:0:0:
192,192,229335,1,0,0:0:0:0:
320,192,229335,1,0,0:0:0:0:
448,192,229372,1,0,0:0:0:0:
64,192,229410,1,0,0:0:0:0:
192,192,229447,1,0,0:0:0:0:
448,192,229485,1,0,0:0:0:0:
64,192,229522,1,0,0:0:0:0:
320,192,229560,1,0,0:0:0:0:
192,192,229597,1,0,0:0:0:0:
64,192,229635,1,0,0:0:0:0:
448,192,229635,1,0,0:0:0:0:
64,192,229785,1,0,0:0:0:0:
192,192,229785,1,0,0:0:0:0:
320,192,229785,1,0,0:0:0:0:
64,192,230085,1,0,0:0:0:0:
320,192,230085,1,0,0:0:0:0:
448,192,230085,1,0,0:0:0:0:
64,192,230385,128,0,231585:0:0:0:0:
192,192,230385,128,0,231585:0:0:0:0:
320,192,230985,1,0,0:0:0:0:
448,192,230985,1,0,0:0:0:0:
320,192,231435,1,0,0:0:0:0:
320,192,231735,1,0,0:0:0:0:
448,192,231735,1,0,0:0:0:0:
64,192,231810,1,0,0:0:0:0:
320,192,231885,1,0,0:0:0:0:
448,192,231885,1,0,0:0:0:0:
192,192,231885,1,0,0:0:0:0:
64,192,231960,1,0,0:0:0:0:
448,192,232035,1,0,0:0:0:0:
320,192,232035,1,0,0:0:0:0:
192,192,232085,1,0,0:0:0:0:
64,192,232135,1,0,0:0:0:0:
320,192,232185,1,0,0:0:0:0:
448,192,232185,1,0,0:0:0:0:
192,192,232235,1,0,0:0:0:0:
448,192,232285,1,0,0:0:0:0:
64,192,232335,1,0,0:0:0:0:
320,192,232335,1,0,0:0:0:0:
192,192,232385,1,0,0:0:0:0:
64,192,232435,1,0,0:0:0:0:
192,192,232485,1,0,0:0:0:0:
448,192,232485,1,0,0:0:0:0:
320,192,232535,1,0,0:0:0:0:
64,192,232585,1,0,0:0:0:0:
448,192,232635,1,0,0:0:0:0:
192,192,232635,1,0,0:0:0:0:
64,192,232685,1,0,0:0:0:0:
320,192,232735,1,0,0:0:0:0:
192,192,232785,128,0,233985:0:0:0:0:
448,192,232785,128,0,233985:0:0:0:0:
64,192,232785,1,0,0:0:0:0:
64,192,233235,1,0,0:0:0:0:
320,192,233235,1,0,0:0:0:0:
64,192,233385,1,0,0:0:0:0:
64,192,233835,1,0,0:0:0:0:
320,192,233835,1,0,0:0:0:0:
64,192,233985,1,0,0:0:0:0:
320,192,234135,1,0,0:0:0:0:
448,192,234135,1,0,0:0:0:0:
64,192,234185,1,0,0:0:0:0:
192,192,234235,1,0,0:0:0:0:
64,192,234285,1,0,0:0:0:0:
448,192,234285,1,0,0:0:0:0:
320,192,234285,1,0,0:0:0:0:
192,192,234335,1,0,0:0:0:0:
448,192,234385,1,0,0:0:0:0:
64,192,234435,1,0,0:0:0:0:
320,192,234435,1,0,0:0:0:0:
192,192,234485,1,0,0:0:0:0:
448,192,234535,1,0,0:0:0:0:
192,192,234585,1,0,0:0:0:0:
64,192,234585,1,0,0:0:0:0:
320,192,234635,1,0,0:0:0:0:
448,192,234685,1,0,0:0:0:0:
64,192,234735,1,0,0:0:0:0:
192,192,234735,1,0,0:0:0:0:
320,192,234785,1,0,0:0:0:0:
448,192,234785,1,0,0:0:0:0:
192,192,234885,1,0,0:0:0:0:
320,192,234885,1,0,0:0:0:0:
64,192,234885,1,0,0:0:0:0:
64,192,235185,1,0,0:0:0:0:
192,192,235185,1,0,0:0:0:0:
448,192,235185,1,0,0:0:0:0:
320,192,235185,128,0,239985:0:0:0:0:
64,192,239985,128,0,244785:0:0:0:0:
448,192,241185,128,0,242385:0:0:0:0:
192,192,242535,128,0,243585:0:0:0:0:
320,192,243585,128,0,244785:0:0:0:0:
192,192,244785,128,0,249585:0:0:0:0:
448,192,244785,128,0,245835:0:0:0:0:
64,192,245985,128,0,247185:0:0:0:0:
448,192,247185,128,0,248235:0:0:0:0:
64,192,248235,128,0,249585:0:0:0:0:
448,192,249585,128,0,253185:0:0:0:0:
320,192,249585,128,0,250785:0:0:0:0:
64,192,250785,128,0,251685:0:0:0:0:
192,192,251685,1,0,0:0:0:0:
64,192,251835,1,0,0:0:0:0:
320,192,251985,1,0,0:0:0:0:
64,192,252135,1,0,0:0:0:0:
192,192,252210,1,0,0:0:0:0:
64,192,252360,1,0,0:0:0:0:
320,192,252435,1,0,0:0:0:0:
64,192,252510,1,0,0:0:0:0:
192,192,252585,1,0,0:0:0:0:
320,192,252660,1,0,0:0:0:0:
64,192,252735,1,0,0:0:0:0:
192,192,252885,1,0,0:0:0:0:
320,192,252885,1,0,0:0:0:0:
64,192,252960,1,0,0:0:0:0:
192,192,253035,1,0,0:0:0:0:
320,192,253110,1,0,0:0:0:0:
64,192,253185,1,0,0:0:0:0:
192,192,253410,1,0,0:0:0:0:
320,192,253560,1,0,0:0:0:0:
64,192,254385,128,0,259185:0:0:0:0:
320,192,254385,1,0,0:0:0:0:
192,192,254985,1,0,0:0:0:0:
320,192,254985,1,0,0:0:0:0:
448,192,255435,1,0,0:0:0:0:
448,192,255735,1,0,0:0:0:0:
320,192,255735,1,0,0:0:0:0:
192,192,255885,1,0,0:0:0:0:
448,192,256035,1,0,0:0:0:0:
192,192,256185,1,0,0:0:0:0:
448,192,256185,1,0,0:0:0:0:
320,192,256635,1,0,0:0:0:0:
448,192,256635,1,0,0:0:0:0:
192,192,256785,1,0,0:0:0:0:
448,192,256935,1,0,0:0:0:0:
320,192,257010,1,0,0:0:0:0:
320,192,257160,1,0,0:0:0:0:
192,192,257235,1,0,0:0:0:0:
320,192,257385,1,0,0:0:0:0:
448,192,257385,1,0,0:0:0:0:
192,192,257685,1,0,0:0:0:0:
320,192,257835,1,0,0:0:0:0:
192,192,257985,1,0,0:0:0:0:
448,192,258135,1,0,0:0:0:0:
320,192,258285,1,0,0:0:0:0:
192,192,258435,1,0,0:0:0:0:
448,192,258585,1,0,0:0:0:0:
192,192,258735,1,0,0:0:0:0:
448,192,259035,1,0,0:0:0:0:
320,192,259185,128,0,263985:0:0:0:0:
192,192,259185,1,0,0:0:0:0:
64,192,259785,1,0,0:0:0:0:
192,192,260085,1,0,0:0:0:0:
64,192,260235,1,0,0:0:0:0:
448,192,260535,1,0,0:0:0:0:
192,192,260685,1,0,0:0:0:0:
64,192,260835,1,0,0:0:0:0:
448,192,260985,1,0,0:0:0:0:
192,192,260985,1,0,0:0:0:0:
64,192,261135,1,0,0:0:0:0:
448,192,261435,1,0,0:0:0:0:
64,192,261435,1,0,0:0:0:0:
192,192,261585,1,0,0:0:0:0:
448,192,261735,1,0,0:0:0:0:
64,192,261885,1,0,0:0:0:0:
448,192,262035,1,0,0:0:0:0:
192,192,262185,1,0,0:0:0:0:
64,192,262335,1,0,0:0:0:0:
448,192,262485,1,0,0:0:0:0:
192,192,262635,1,0,0:0:0:0:
64,192,262785,1,0,0:0:0:0:
448,192,262785,1,0,0:0:0:0:
192,192,262935,1,0,0:0:0:0:
64,192,263085,1,0,0:0:0:0:
448,192,263235,1,0,0:0:0:0:
192,192,263385,1,0,0:0:0:0:
64,192,263535,1,0,0:0:0:0:
192,192,263835,1,0,0:0:0:0:
64,192,263985,128,0,268785:0:0:0:0:
448,192,263985,1,0,0:0:0:0:
192,192,264585,1,0,0:0:0:0:
448,192,265035,1,0,0:0:0:0:
192,192,265335,1,0,0:0:0:0:
320,192,265485,1,0,0:0:0:0:
448,192,265635,1,0,0:0:0:0:
192,192,265785,1,0,0:0:0:0:
320,192,265935,1,0,0:0:0:0:
448,192,266235,1,0,0:0:0:0:
192,192,266385,1,0,0:0:0:0:
448,192,266535,1,0,0:0:0:0:
192,192,266610,1,0,0:0:0:0:
320,192,266685,1,0,0:0:0:0:
448,192,266760,1,0,0:0:0:0:
192,192,266835,1,0,0:0:0:0:
448,192,266910,1,0,0:0:0:0:
320,192,266985,1,0,0:0:0:0:
192,192,266985,1,0,0:0:0:0:
448,192,267285,1,0,0:0:0:0:
320,192,267435,1,0,0:0:0:0:
192,192,267585,1,0,0:0:0:0:
320,192,267735,1,0,0:0:0:0:
192,192,267885,1,0,0:0:0:0:
448,192,268110,1,0,0:0:0:0:
320,192,268185,1,0,0:0:0:0:
192,192,268335,1,0,0:0:0:0:
448,192,268785,128,0,273585:0:0:0:0:
320,192,268785,1,0,0:0:0:0:
64,192,269385,1,0,0:0:0:0:
320,192,269835,1,0,0:0:0:0:
192,192,269985,1,0,0:0:0:0:
64,192,270135,1,0,0:0:0:0:
320,192,270285,1,0,0:0:0:0:
192,192,270435,1,0,0:0:0:0:
64,192,270585,1,0,0:0:0:0:
320,192,270735,1,0,0:0:0:0:
192,192,271035,1,0,0:0:0:0:
64,192,271185,1,0,0:0:0:0:
192,192,271560,1,0,0:0:0:0:
64,192,271635,1,0,0:0:0:0:
192,192,271710,1,0,0:0:0:0:
320,192,271785,1,0,0:0:0:0:
64,192,271860,1,0,0:0:0:0:
192,192,271935,1,0,0:0:0:0:
320,192,272085,1,0,0:0:0:0:
64,192,272235,1,0,0:0:0:0:
320,192,272385,1,0,0:0:0:0:
64,192,272535,1,0,0:0:0:0:
320,192,272685,1,0,0:0:0:0:
192,192,272835,1,0,0:0:0:0:
64,192,272985,1,0,0:0:0:0:
320,192,273135,1,0,0:0:0:0:
64,192,273735,1,0,0:0:0:0:
320,192,273885,1,0,0:0:0:0:
192,192,273960,1,0,0:0:0:0:
64,192,274035,1,0,0:0:0:0:
320,192,274110,1,0,0:0:0:0:
448,192,274185,1,0,0:0:0:0:
320,192,274260,1,0,0:0:0:0:
192,192,274335,1,0,0:0:0:0:
320,192,274410,1,0,0:0:0:0:
192,192,274485,1,0,0:0:0:0:
64,192,274785,1,0,0:0:0:0:
192,192,274785,1,0,0:0:0:0:
448,192,274935,128,0,275685:0:0:0:0:
64,192,275385,1,0,0:0:0:0:
320,192,275985,1,0,0:0:0:0:
448,192,275985,1,0,0:0:0:0:
64,192,275985,128,0,276885:0:0:0:0:
192,192,276285,1,0,0:0:0:0:
448,192,276435,1,0,0:0:0:0:
192,192,276585,1,0,0:0:0:0:
320,192,276735,1,0,0:0:0:0:
192,192,276885,1,0,0:0:0:0:
64,192,277185,1,0,0:0:0:0:
320,192,277185,1,0,0:0:0:0:
192,192,277335,1,0,0:0:0:0:
320,192,277635,1,0,0:0:0:0:
448,192,277785,1,0,0:0:0:0:
64,192,277785,1,0,0:0:0:0:
192,192,278085,1,0,0:0:0:0:
64,192,278385,1,0,0:0:0:0:
192,192,278385,1,0,0:0:0:0:
448,192,278610,1,0,0:0:0:0:
64,192,278685,1,0,0:0:0:0:
448,192,278760,1,0,0:0:0:0:
64,192,278835,1,0,0:0:0:0:
192,192,278910,1,0,0:0:0:0:
320,192,278985,1,0,0:0:0:0:
64,192,279435,1,0,0:0:0:0:
320,192,279585,1,0,0:0:0:0:
448,192,279585,1,0,0:0:0:0:
320,192,280185,1,0,0:0:0:0:
192,192,280635,1,0,0:0:0:0:
64,192,280785,1,0,0:0:0:0:
320,192,280785,1,0,0:0:0:0:
448,192,280785,1,0,0:0:0:0:
192,192,281085,1,0,0:0:0:0:
320,192,281235,1,0,0:0:0:0:
64,192,281310,1,0,0:0:0:0:
448,192,281385,1,0,0:0:0:0:
192,192,281685,1,0,0:0:0:0:
64,192,281985,1,0,0:0:0:0:
320,192,281985,1,0,0:0:0:0:
192,192,282135,1,0,0:0:0:0:
448,192,282435,1,0,0:0:0:0:
64,192,282585,1,0,0:0:0:0:
320,192,282735,1,0,0:0:0:0:
192,192,282885,1,0,0:0:0:0:
320,192,283185,1,0,0:0:0:0:
448,192,283185,1,0,0:0:0:0:
192,192,283260,1,0,0:0:0:0:
64,192,283335,1,0,0:0:0:0:
320,192,283410,1,0,0:0:0:0:
64,192,283485,1,0,0:0:0:0:
448,192,283560,1,0,0:0:0:0:
192,192,283785,1,0,0:0:0:0:
448,192,284085,1,0,0:0:0:0:
64,192,284385,1,0,0:0:0:0:
192,192,284385,1,0,0:0:0:0:
320,192,284385,1,0,0:0:0:0:
448,192,284985,1,0,0:0:0:0:
320,192,285585,1,0,0:0:0:0:
448,192,285585,1,0,0:0:0:0:
64,192,285585,1,0,0:0:0:0:
192,192,285660,1,0,0:0:0:0:
192,192,286185,1,0,0:0:0:0:
64,192,286785,1,0,0:0:0:0:
320,192,286785,1,0,0:0:0:0:
448,192,286785,1,0,0:0:0:0:
320,192,287385,1,0,0:0:0:0:
448,192,287985,1,0,0:0:0:0:
64,192,287985,1,0,0:0:0:0:
192,192,287985,1,0,0:0:0:0:
320,192,288060,1,0,0:0:0:0:
64,192,288135,1,0,0:0:0:0:
448,192,288285,1,0,0:0:0:0:
320,192,288435,1,0,0:0:0:0:
64,192,288510,1,0,0:0:0:0:
192,192,288585,1,0,0:0:0:0:
448,192,288735,1,0,0:0:0:0:
320,192,288885,1,0,0:0:0:0:
192,192,289185,1,0,0:0:0:0:
448,192,289185,1,0,0:0:0:0:
64,192,289785,1,0,0:0:0:0:
64,192,290385,1,0,0:0:0:0:
320,192,290385,1,0,0:0:0:0:
192,192,290985,1,0,0:0:0:0:
64,192,291435,1,0,0:0:0:0:
320,192,291585,1,0,0:0:0:0:
64,192,292185,1,0,0:0:0:0:
64,192,292785,128,0,292803:0:0:0:0:
320,192,297135,1,0,0:0:0:0:
448,192,297135,1,0,0:0:0:0:
192,192,297185,1,0,0:0:0:0:
64,192,297185,1,0,0:0:0:0:
320,192,297235,1,0,0:0:0:0:
448,192,297235,1,0,0:0:0:0:
192,192,297285,1,0,0:0:0:0:
64,192,297285,1,0,0:0:0:0:
320,192,297585,1,0,0:0:0:0:
448,192,297585,1,0,0:0:0:0:
192,192,297585,1,0,0:0:0:0:
320,192,297735,1,0,0:0:0:0:
448,192,297735,1,0,0:0:0:0:
64,192,297735,1,0,0:0:0:0:
64,192,297885,1,0,0:0:0:0:
320,192,297885,1,0,0:0:0:0:
448,192,297885,1,0,0:0:0:0:
64,192,298035,1,0,0:0:0:0:
448,192,298035,1,0,0:0:0:0:
320,192,298035,1,0,0:0:0:0:
64,192,298185,1,0,0:0:0:0:
192,192,298185,1,0,0:0:0:0:
448,192,298185,1,0,0:0:0:0:
320,192,298335,1,0,0:0:0:0:
192,192,298335,1,0,0:0:0:0:
64,192,298335,1,0,0:0:0:0:
448,192,298335,1,0,0:0:0:0:
64,192,298485,128,0,298860:0:0:0:0:
192,192,298485,128,0,298860:0:0:0:0:
448,192,298485,128,0,298785:0:0:0:0:
64,192,298935,128,0,299310:0:0:0:0:
192,192,298935,128,0,299310:0:0:0:0:
320,192,298935,128,0,299310:0:0:0:0:
192,192,299385,128,0,299610:0:0:0:0:
320,192,299385,128,0,299610:0:0:0:0:
448,192,299385,128,0,299610:0:0:0:0:
320,192,299685,1,0,0:0:0:0:
448,192,299685,1,0,0:0:0:0:
192,192,299760,1,0,0:0:0:0:
64,192,299760,1,0,0:0:0:0:
320,192,299835,1,0,0:0:0:0:
448,192,299835,1,0,0:0:0:0:
192,192,299910,1,0,0:0:0:0:
64,192,299910,1,0,0:0:0:0:
64,192,299985,1,0,0:0:0:0:
192,192,299985,1,0,0:0:0:0:
64,192,300135,128,0,300360:0:0:0:0:
192,192,300135,128,0,300360:0:0:0:0:
320,192,300435,128,0,300510:0:0:0:0:
448,192,300435,128,0,300510:0:0:0:0:
192,192,300435,128,0,300510:0:0:0:0:
64,192,300585,1,0,0:0:0:0:
192,192,300585,1,0,0:0:0:0:
320,192,300585,1,0,0:0:0:0:
192,192,300735,128,0,300960:0:0:0:0:
320,192,300735,128,0,300960:0:0:0:0:
448,192,300735,128,0,300960:0:0:0:0:
64,192,301035,128,0,301260:0:0:0:0:
192,192,301035,128,0,301260:0:0:0:0:
448,192,301035,1,0,0:0:0:0:
320,192,301035,128,0,301260:0:0:0:0:
320,192,301335,128,0,301635:0:0:0:0:
448,192,301335,128,0,301635:0:0:0:0:
192,192,301485,1,0,0:0:0:0:
64,192,301485,1,0,0:0:0:0:
64,192,301785,128,0,302085:0:0:0:0:
192,192,301785,128,0,302085:0:0:0:0:
448,192,301785,1,0,0:0:0:0:
320,192,301935,1,0,0:0:0:0:
448,192,301935,1,0,0:0:0:0:
320,192,302085,128,0,302235:0:0:0:0:
448,192,302085,128,0,302235:0:0:0:0:
64,192,302385,1,0,0:0:0:0:
192,192,302385,1,0,0:0:0:0:
320,192,302385,1,0,0:0:0:0:
448,192,302385,1,0,0:0:0:0:
64,192,302535,1,0,0:0:0:0:
192,192,302535,1,0,0:0:0:0:
320,192,302535,1,0,0:0:0:0:
64,192,302685,1,0,0:0:0:0:
192,192,302685,1,0,0:0:0:0:
448,192,302685,1,0,0:0:0:0:
192,192,302835,1,0,0:0:0:0:
320,192,302835,1,0,0:0:0:0:
448,192,302835,1,0,0:0:0:0:
64,192,302985,1,0,0:0:0:0:
192,192,302985,1,0,0:0:0:0:
448,192,302985,1,0,0:0:0:0:
320,192,303135,1,0,0:0:0:0:
448,192,303135,1,0,0:0:0:0:
448,192,303285,128,0,303660:0:0:0:0:
64,192,303285,128,0,303660:0:0:0:0:
192,192,303285,128,0,303660:0:0:0:0:
320,192,303735,128,0,304110:0:0:0:0:
448,192,303735,128,0,304110:0:0:0:0:
64,192,303735,128,0,304110:0:0:0:0:
64,192,304185,1,0,0:0:0:0:
320,192,304185,1,0,0:0:0:0:
448,192,304185,1,0,0:0:0:0:
64,192,304485,1,0,0:0:0:0:
192,192,304485,1,0,0:0:0:0:
320,192,304560,1,0,0:0:0:0:
448,192,304560,1,0,0:0:0:0:
192,192,304635,1,0,0:0:0:0:
64,192,304635,1,0,0:0:0:0:
320,192,304710,1,0,0:0:0:0:
448,192,304710,1,0,0:0:0:0:
64,192,304785,1,0,0:0:0:0:
192,192,304785,1,0,0:0:0:0:
320,192,304935,1,0,0:0:0:0:
192,192,305085,1,0,0:0:0:0:
192,192,305235,1,0,0:0:0:0:
64,192,305235,1,0,0:0:0:0:
448,192,305235,1,0,0:0:0:0:
64,192,305385,1,0,0:0:0:0:
192,192,305385,1,0,0:0:0:0:
320,192,305385,1,0,0:0:0:0:
448,192,305385,1,0,0:0:0:0:
64,192,305835,1,0,0:0:0:0:
192,192,305835,1,0,0:0:0:0:
448,192,305835,1,0,0:0:0:0:
192,192,306135,1,0,0:0:0:0:
64,192,306135,1,0,0:0:0:0:
448,192,306135,1,0,0:0:0:0:
320,192,306285,1,0,0:0:0:0:
192,192,306285,1,0,0:0:0:0:
64,192,306285,1,0,0:0:0:0:
64,192,306435,1,0,0:0:0:0:
192,192,306585,1,0,0:0:0:0:
448,192,306585,1,0,0:0:0:0:
320,192,306585,1,0,0:0:0:0:
64,192,306735,1,0,0:0:0:0:
192,192,306735,1,0,0:0:0:0:
448,192,306735,1,0,0:0:0:0:
64,192,307185,1,0,0:0:0:0:
192,192,307185,1,0,0:0:0:0:
448,192,307185,1,0,0:0:0:0:
64,192,307335,1,0,0:0:0:0:
192,192,307335,1,0,0:0:0:0:
320,192,307335,1,0,0:0:0:0:
64,192,307485,1,0,0:0:0:0:
192,192,307485,1,0,0:0:0:0:
448,192,307485,1,0,0:0:0:0:
192,192,307635,1,0,0:0:0:0:
320,192,307635,1,0,0:0:0:0:
448,192,307635,1,0,0:0:0:0:
64,192,307785,1,0,0:0:0:0:
192,192,307785,1,0,0:0:0:0:
448,192,307785,1,0,0:0:0:0:
448,192,308085,128,0,308460:0:0:0:0:
192,192,308085,128,0,308460:0:0:0:0:
64,192,308085,128,0,308460:0:0:0:0:
192,192,308535,128,0,308910:0:0:0:0:
320,192,308535,128,0,308910:0:0:0:0:
448,192,308535,128,0,308910:0:0:0:0:
64,192,308985,1,0,0:0:0:0:
320,192,308985,1,0,0:0:0:0:
192,192,308985,1,0,0:0:0:0:
320,192,309135,1,0,0:0:0:0:
448,192,309135,1,0,0:0:0:0:
192,192,309135,1,0,0:0:0:0:
64,192,309210,1,0,0:0:0:0:
320,192,309285,1,0,0:0:0:0:
448,192,309285,1,0,0:0:0:0:
192,192,309360,1,0,0:0:0:0:
64,192,309360,1,0,0:0:0:0:
320,192,309435,1,0,0:0:0:0:
448,192,309435,1,0,0:0:0:0:
192,192,309510,1,0,0:0:0:0:
64,192,309510,1,0,0:0:0:0:
448,192,309585,128,0,309960:0:0:0:0:
320,192,309585,128,0,309960:0:0:0:0:
192,192,309585,128,0,309960:0:0:0:0:
192,192,310035,128,0,310335:0:0:0:0:
64,192,310035,128,0,310335:0:0:0:0:
448,192,310185,1,0,0:0:0:0:
320,192,310185,1,0,0:0:0:0:
320,192,310335,128,0,310485:0:0:0:0:
448,192,310335,128,0,310485:0:0:0:0:
320,192,310635,128,0,310935:0:0:0:0:
448,192,310635,128,0,310935:0:0:0:0:
192,192,310935,1,0,0:0:0:0:
64,192,310935,1,0,0:0:0:0:
320,192,311085,128,0,311385:0:0:0:0:
448,192,311085,128,0,311385:0:0:0:0:
192,192,311085,128,0,311385:0:0:0:0:
64,192,311385,1,0,0:0:0:0:
64,192,311535,1,0,0:0:0:0:
192,192,311535,1,0,0:0:0:0:
320,192,311985,1,0,0:0:0:0:
448,192,311985,1,0,0:0:0:0:
192,192,311985,1,0,0:0:0:0:
320,192,312135,1,0,0:0:0:0:
64,192,312135,1,0,0:0:0:0:
192,192,312135,1,0,0:0:0:0:
320,192,312285,1,0,0:0:0:0:
448,192,312285,1,0,0:0:0:0:
64,192,312285,1,0,0:0:0:0:
448,192,312435,1,0,0:0:0:0:
192,192,312435,1,0,0:0:0:0:
64,192,312435,1,0,0:0:0:0:
320,192,312585,1,0,0:0:0:0:
448,192,312585,1,0,0:0:0:0:
64,192,312585,1,0,0:0:0:0:
448,192,312735,1,0,0:0:0:0:
192,192,312735,1,0,0:0:0:0:
64,192,312735,1,0,0:0:0:0:
320,192,312735,1,0,0:0:0:0:
448,192,312885,1,0,0:0:0:0:
192,192,312885,128,0,313185:0:0:0:0:
64,192,312885,128,0,313185:0:0:0:0:
64,192,313335,1,0,0:0:0:0:
192,192,313335,1,0,0:0:0:0:
192,192,313785,1,0,0:0:0:0:
320,192,313785,1,0,0:0:0:0:
448,192,313785,1,0,0:0:0:0:
192,192,314085,1,0,0:0:0:0:
64,192,314085,1,0,0:0:0:0:
320,192,314160,1,0,0:0:0:0:
448,192,314160,1,0,0:0:0:0:
192,192,314235,1,0,0:0:0:0:
64,192,314235,1,0,0:0:0:0:
320,192,314310,1,0,0:0:0:0:
448,192,314310,1,0,0:0:0:0:
192,192,314385,1,0,0:0:0:0:
320,192,314385,1,0,0:0:0:0:
64,192,314385,1,0,0:0:0:0:
448,192,314385,128,0,315585:0:0:0:0:
192,192,314835,1,0,0:0:0:0:
64,192,314835,1,0,0:0:0:0:
320,192,314985,1,0,0:0:0:0:
192,192,314985,1,0,0:0:0:0:
64,192,314985,1,0,0:0:0:0:
192,192,315435,1,0,0:0:0:0:
64,192,315435,1,0,0:0:0:0:
320,192,315735,1,0,0:0:0:0:
64,192,315885,1,0,0:0:0:0:
192,192,315885,1,0,0:0:0:0:
320,192,316035,1,0,0:0:0:0:
448,192,316185,1,0,0:0:0:0:
64,192,316335,1,0,0:0:0:0:
320,192,316335,1,0,0:0:0:0:
192,192,316485,1,0,0:0:0:0:
192,192,316785,1,0,0:0:0:0:
64,192,316785,1,0,0:0:0:0:
448,192,316785,1,0,0:0:0:0:
320,192,316935,1,0,0:0:0:0:
64,192,317085,1,0,0:0:0:0:
192,192,317235,1,0,0:0:0:0:
448,192,317235,1,0,0:0:0:0:
320,192,317235,1,0,0:0:0:0:
64,192,317385,1,0,0:0:0:0:
192,192,317385,1,0,0:0:0:0:
448,192,317535,1,0,0:0:0:0:
320,192,317685,1,0,0:0:0:0:
192,192,317685,1,0,0:0:0:0:
64,192,317685,1,0,0:0:0:0:
320,192,317835,1,0,0:0:0:0:
64,192,317985,1,0,0:0:0:0:
320,192,318135,1,0,0:0:0:0:
64,192,318285,1,0,0:0:0:0:
192,192,318285,1,0,0:0:0:0:
448,192,318285,1,0,0:0:0:0:
192,192,318585,1,0,0:0:0:0:
64,192,318585,1,0,0:0:0:0:
320,192,318735,1,0,0:0:0:0:
448,192,318735,1,0,0:0:0:0:
64,192,318735,1,0,0:0:0:0:
64,192,318885,1,0,0:0:0:0:
448,192,318885,1,0,0:0:0:0:
192,192,319185,1,0,0:0:0:0:
64,192,319185,1,0,0:0:0:0:
320,192,319185,1,0,0:0:0:0:
448,192,319485,1,0,0:0:0:0:
320,192,319635,1,0,0:0:0:0:
64,192,319635,1,0,0:0:0:0:
192,192,319635,1,0,0:0:0:0:
192,192,319785,1,0,0:0:0:0:
448,192,319785,1,0,0:0:0:0:
64,192,320085,1,0,0:0:0:0:
192,192,320085,1,0,0:0:0:0:
448,192,320085,1,0,0:0:0:0:
320,192,320235,1,0,0:0:0:0:
64,192,320385,1,0,0:0:0:0:
192,192,320535,1,0,0:0:0:0:
320,192,320535,1,0,0:0:0:0:
448,192,320535,1,0,0:0:0:0:
64,192,320685,1,0,0:0:0:0:
192,192,320685,1,0,0:0:0:0:
192,192,320985,1,0,0:0:0:0:
448,192,320985,1,0,0:0:0:0:
64,192,321135,1,0,0:0:0:0:
320,192,321135,1,0,0:0:0:0:
448,192,321285,1,0,0:0:0:0:
64,192,321285,1,0,0:0:0:0:
192,192,321285,1,0,0:0:0:0:
320,192,321585,1,0,0:0:0:0:
448,192,321585,1,0,0:0:0:0:
192,192,321585,1,0,0:0:0:0:
64,192,322035,1,0,0:0:0:0:
192,192,322035,1,0,0:0:0:0:
448,192,322035,1,0,0:0:0:0:
192,192,322185,1,0,0:0:0:0:
64,192,322185,1,0,0:0:0:0:
192,192,322485,1,0,0:0:0:0:
320,192,322485,1,0,0:0:0:0:
448,192,322635,1,0,0:0:0:0:
64,192,322785,1,0,0:0:0:0:
64,192,323085,1,0,0:0:0:0:
192,192,323085,1,0,0:0:0:0:
448,192,323085,1,0,0:0:0:0:
64,192,323385,1,0,0:0:0:0:
448,192,323385,1,0,0:0:0:0:
192,192,323535,1,0,0:0:0:0:
320,192,323535,1,0,0:0:0:0:
64,192,323685,1,0,0:0:0:0:
448,192,323685,1,0,0:0:0:0:
320,192,323685,1,0,0:0:0:0:
64,192,323985,1,0,0:0:0:0:
192,192,323985,1,0,0:0:0:0:
448,192,323985,1,0,0:0:0:0:
320,192,324135,1,0,0:0:0:0:
64,192,324285,1,0,0:0:0:0:
192,192,324435,1,0,0:0:0:0:
448,192,324435,1,0,0:0:0:0:
320,192,324435,1,0,0:0:0:0:
64,192,324585,1,0,0:0:0:0:
320,192,324585,1,0,0:0:0:0:
64,192,324885,1,0,0:0:0:0:
320,192,324885,1,0,0:0:0:0:
448,192,324885,1,0,0:0:0:0:
64,192,325335,1,0,0:0:0:0:
320,192,325335,1,0,0:0:0:0:
448,192,325335,1,0,0:0:0:0:
64,192,325485,1,0,0:0:0:0:
192,192,325485,1,0,0:0:0:0:
320,192,325485,1,0,0:0:0:0:
64,192,325785,1,0,0:0:0:0:
448,192,325785,1,0,0:0:0:0:
192,192,325935,1,0,0:0:0:0:
320,192,325935,1,0,0:0:0:0:
320,192,326085,1,0,0:0:0:0:
192,192,326085,1,0,0:0:0:0:
448,192,326085,1,0,0:0:0:0:
64,192,326385,1,0,0:0:0:0:
192,192,326385,1,0,0:0:0:0:
448,192,326385,1,0,0:0:0:0:
320,192,326535,1,0,0:0:0:0:
64,192,326685,1,0,0:0:0:0:
320,192,326835,1,0,0:0:0:0:
64,192,326985,1,0,0:0:0:0:
448,192,326985,1,0,0:0:0:0:
192,192,327135,1,0,0:0:0:0:
320,192,327135,1,0,0:0:0:0:
448,192,327285,1,0,0:0:0:0:
192,192,327285,1,0,0:0:0:0:
64,192,327285,1,0,0:0:0:0:
64,192,327585,1,0,0:0:0:0:
192,192,327585,1,0,0:0:0:0:
448,192,327585,1,0,0:0:0:0:
192,192,327735,1,0,0:0:0:0:
64,192,328035,1,0,0:0:0:0:
448,192,328035,1,0,0:0:0:0:
192,192,328185,1,0,0:0:0:0:
448,192,328185,1,0,0:0:0:0:
64,192,328185,1,0,0:0:0:0:
320,192,328185,1,0,0:0:0:0:
192,192,328335,1,0,0:0:0:0:
320,192,328335,1,0,0:0:0:0:
64,192,328485,1,0,0:0:0:0:
448,192,328485,1,0,0:0:0:0:
320,192,328785,1,0,0:0:0:0:
448,192,328785,1,0,0:0:0:0:
192,192,328785,1,0,0:0:0:0:
192,192,328935,1,0,0:0:0:0:
448,192,329085,1,0,0:0:0:0:
320,192,329235,1,0,0:0:0:0:
64,192,329385,1,0,0:0:0:0:
448,192,329385,1,0,0:0:0:0:
192,192,329385,1,0,0:0:0:0:
320,192,329385,1,0,0:0:0:0:
64,192,329535,1,0,0:0:0:0:
448,192,329535,1,0,0:0:0:0:
192,192,329685,1,0,0:0:0:0:
320,192,329685,1,0,0:0:0:0:
64,192,329985,1,0,0:0:0:0:
320,192,329985,1,0,0:0:0:0:
448,192,329985,1,0,0:0:0:0:
192,192,330285,1,0,0:0:0:0:
448,192,330285,1,0,0:0:0:0:
320,192,330285,1,0,0:0:0:0:
64,192,330585,1,0,0:0:0:0:
448,192,330585,1,0,0:0:0:0:
192,192,330735,1,0,0:0:0:0:
320,192,330735,1,0,0:0:0:0:
448,192,330885,1,0,0:0:0:0:
64,192,330885,1,0,0:0:0:0:
192,192,331035,1,0,0:0:0:0:
320,192,331035,1,0,0:0:0:0:
320,192,331185,1,0,0:0:0:0:
448,192,331185,1,0,0:0:0:0:
64,192,331185,1,0,0:0:0:0:
192,192,331335,1,0,0:0:0:0:
320,192,331335,1,0,0:0:0:0:
64,192,331485,1,0,0:0:0:0:
192,192,331485,1,0,0:0:0:0:
448,192,331485,1,0,0:0:0:0:
64,192,331635,1,0,0:0:0:0:
448,192,331635,1,0,0:0:0:0:
192,192,331785,1,0,0:0:0:0:
320,192,331785,1,0,0:0:0:0:
448,192,331785,1,0,0:0:0:0:
64,192,331935,1,0,0:0:0:0:
448,192,331935,1,0,0:0:0:0:
192,192,332085,1,0,0:0:0:0:
320,192,332085,1,0,0:0:0:0:
64,192,332085,1,0,0:0:0:0:
320,192,332235,1,0,0:0:0:0:
448,192,332235,1,0,0:0:0:0:
64,192,332385,1,0,0:0:0:0:
192,192,332385,1,0,0:0:0:0:
320,192,332385,1,0,0:0:0:0:
448,192,332385,1,0,0:0:0:0:
64,192,332535,1,0,0:0:0:0:
192,192,332535,1,0,0:0:0:0:
64,192,332685,1,0,0:0:0:0:
320,192,332685,1,0,0:0:0:0:
448,192,332685,1,0,0:0:0:0:
192,192,332835,1,0,0:0:0:0:
320,192,332835,1,0,0:0:0:0:
64,192,332985,1,0,0:0:0:0:
320,192,332985,1,0,0:0:0:0:
448,192,332985,1,0,0:0:0:0:
448,192,333135,1,0,0:0:0:0:
192,192,333135,1,0,0:0:0:0:
64,192,333285,1,0,0:0:0:0:
192,192,333285,1,0,0:0:0:0:
448,192,333285,1,0,0:0:0:0:
64,192,333435,1,0,0:0:0:0:
192,192,333435,1,0,0:0:0:0:
448,192,333585,1,0,0:0:0:0:
64,192,333585,1,0,0:0:0:0:
320,192,333585,1,0,0:0:0:0:
192,192,333735,1,0,0:0:0:0:
320,192,333735,1,0,0:0:0:0:
64,192,333885,1,0,0:0:0:0:
192,192,333885,1,0,0:0:0:0:
320,192,333885,1,0,0:0:0:0:
448,192,334035,1,0,0:0:0:0:
320,192,334035,1,0,0:0:0:0:
64,192,334185,1,0,0:0:0:0:
192,192,334185,1,0,0:0:0:0:
320,192,334260,1,0,0:0:0:0:
448,192,334260,1,0,0:0:0:0:
64,192,334335,1,0,0:0:0:0:
192,192,334335,1,0,0:0:0:0:
320,192,334410,1,0,0:0:0:0:
448,192,334410,1,0,0:0:0:0:
192,192,334485,1,0,0:0:0:0:
64,192,334485,1,0,0:0:0:0:
320,192,334560,1,0,0:0:0:0:
448,192,334560,1,0,0:0:0:0:
192,192,334635,1,0,0:0:0:0:
64,192,334635,1,0,0:0:0:0:
320,192,334710,1,0,0:0:0:0:
448,192,334710,1,0,0:0:0:0:
192,192,334785,1,0,0:0:0:0:
64,192,334785,1,0,0:0:0:0:
320,192,335085,1,0,0:0:0:0:
448,192,335085,1,0,0:0:0:0:
64,192,335235,1,0,0:0:0:0:
192,192,335385,1,0,0:0:0:0:
192,192,335685,1,0,0:0:0:0:
320,192,335685,1,0,0:0:0:0:
448,192,335985,1,0,0:0:0:0:
192,192,335985,1,0,0:0:0:0:
320,192,335985,1,0,0:0:0:0:
64,192,336060,1,0,0:0:0:0:
448,192,336135,1,0,0:0:0:0:
320,192,336210,1,0,0:0:0:0:
64,192,336285,1,0,0:0:0:0:
192,192,336285,1,0,0:0:0:0:
448,192,336285,1,0,0:0:0:0:
320,192,336360,1,0,0:0:0:0:
192,192,336435,1,0,0:0:0:0:
64,192,336510,1,0,0:0:0:0:
320,192,336585,1,0,0:0:0:0:
448,192,336585,1,0,0:0:0:0:
192,192,336585,1,0,0:0:0:0:
64,192,336660,1,0,0:0:0:0:
448,192,336735,1,0,0:0:0:0:
320,192,336810,1,0,0:0:0:0:
64,192,336885,1,0,0:0:0:0:
192,192,336885,1,0,0:0:0:0:
448,192,336885,1,0,0:0:0:0:
320,192,336960,1,0,0:0:0:0:
64,192,337035,1,0,0:0:0:0:
448,192,337110,1,0,0:0:0:0:
320,192,337185,1,0,0:0:0:0:
192,192,337185,1,0,0:0:0:0:
64,192,337185,1,0,0:0:0:0:
448,192,337260,1,0,0:0:0:0:
64,192,337335,1,0,0:0:0:0:
192,192,337410,1,0,0:0:0:0:
448,192,337485,1,0,0:0:0:0:
64,192,337485,1,0,0:0:0:0:
320,192,337485,1,0,0:0:0:0:
192,192,337560,1,0,0:0:0:0:
320,192,337635,1,0,0:0:0:0:
448,192,337710,1,0,0:0:0:0:
64,192,337785,1,0,0:0:0:0:
320,192,337785,1,0,0:0:0:0:
192,192,337785,1,0,0:0:0:0:
448,192,337860,1,0,0:0:0:0:
192,192,337935,1,0,0:0:0:0:
320,192,337935,1,0,0:0:0:0:
64,192,338010,1,0,0:0:0:0:
320,192,338085,1,0,0:0:0:0:
192,192,338085,1,0,0:0:0:0:
448,192,338085,1,0,0:0:0:0:
64,192,338160,1,0,0:0:0:0:
192,192,338235,1,0,0:0:0:0:
448,192,338310,1,0,0:0:0:0:
64,192,338385,1,0,0:0:0:0:
192,192,338385,1,0,0:0:0:0:
320,192,338385,1,0,0:0:0:0:
448,192,338460,1,0,0:0:0:0:
192,192,338535,1,0,0:0:0:0:
320,192,338610,1,0,0:0:0:0:
448,192,338685,1,0,0:0:0:0:
192,192,338685,1,0,0:0:0:0:
64,192,338685,1,0,0:0:0:0:
320,192,338760,1,0,0:0:0:0:
64,192,338835,1,0,0:0:0:0:
192,192,338910,1,0,0:0:0:0:
64,192,338985,1,0,0:0:0:0:
448,192,338985,1,0,0:0:0:0:
320,192,338985,1,0,0:0:0:0:
192,192,339060,1,0,0:0:0:0:
320,192,339135,1,0,0:0:0:0:
448,192,339210,1,0,0:0:0:0:
320,192,339285,1,0,0:0:0:0:
64,192,339285,1,0,0:0:0:0:
192,192,339285,1,0,0:0:0:0:
448,192,339360,1,0,0:0:0:0:
192,192,339435,1,0,0:0:0:0:
320,192,339510,1,0,0:0:0:0:
192,192,339585,1,0,0:0:0:0:
64,192,339585,1,0,0:0:0:0:
448,192,339585,1,0,0:0:0:0:
320,192,339660,1,0,0:0:0:0:
448,192,339735,1,0,0:0:0:0:
64,192,339735,1,0,0:0:0:0:
192,192,339810,1,0,0:0:0:0:
64,192,339885,1,0,0:0:0:0:
320,192,339885,1,0,0:0:0:0:
448,192,339885,1,0,0:0:0:0:
192,192,339960,1,0,0:0:0:0:
448,192,340035,1,0,0:0:0:0:
64,192,340035,1,0,0:0:0:0:
320,192,340110,1,0,0:0:0:0:
64,192,340185,1,0,0:0:0:0:
448,192,340185,1,0,0:0:0:0:
192,192,340185,1,0,0:0:0:0:
320,192,340260,1,0,0:0:0:0:
448,192,340335,1,0,0:0:0:0:
64,192,340335,1,0,0:0:0:0:
192,192,340410,1,0,0:0:0:0:
448,192,340485,1,0,0:0:0:0:
320,192,340485,1,0,0:0:0:0:
64,192,340485,1,0,0:0:0:0:
192,192,340560,1,0,0:0:0:0:
320,192,340635,1,0,0:0:0:0:
192,192,340710,1,0,0:0:0:0:
448,192,340785,1,0,0:0:0:0:
320,192,340785,1,0,0:0:0:0:
64,192,340785,1,0,0:0:0:0:
192,192,340860,1,0,0:0:0:0:
448,192,340935,1,0,0:0:0:0:
320,192,341010,1,0,0:0:0:0:
192,192,341085,1,0,0:0:0:0:
64,192,341085,1,0,0:0:0:0:
448,192,341085,1,0,0:0:0:0:
320,192,341160,1,0,0:0:0:0:
192,192,341235,1,0,0:0:0:0:
448,192,341310,1,0,0:0:0:0:
320,192,341385,1,0,0:0:0:0:
64,192,341385,1,0,0:0:0:0:
192,192,341385,1,0,0:0:0:0:
448,192,341460,1,0,0:0:0:0:
64,192,341535,1,0,0:0:0:0:
320,192,341610,1,0,0:0:0:0:
64,192,341685,1,0,0:0:0:0:
192,192,341685,1,0,0:0:0:0:
448,192,341685,1,0,0:0:0:0:
320,192,341760,1,0,0:0:0:0:
448,192,341835,1,0,0:0:0:0:
192,192,341835,1,0,0:0:0:0:
64,192,341910,1,0,0:0:0:0:
192,192,341985,1,0,0:0:0:0:
320,192,341985,1,0,0:0:0:0:
448,192,341985,1,0,0:0:0:0:
64,192,342060,1,0,0:0:0:0:
192,192,342135,1,0,0:0:0:0:
320,192,342210,1,0,0:0:0:0:
448,192,342285,1,0,0:0:0:0:
192,192,342285,1,0,0:0:0:0:
64,192,342285,1,0,0:0:0:0:
320,192,342360,1,0,0:0:0:0:
448,192,342435,1,0,0:0:0:0:
192,192,342510,1,0,0:0:0:0:
448,192,342585,1,0,0:0:0:0:
320,192,342585,1,0,0:0:0:0:
64,192,342585,1,0,0:0:0:0:
192,192,342660,1,0,0:0:0:0:
448,192,342735,1,0,0:0:0:0:
320,192,342810,1,0,0:0:0:0:
64,192,342885,1,0,0:0:0:0:
192,192,342885,1,0,0:0:0:0:
448,192,342885,1,0,0:0:0:0:
320,192,342960,1,0,0:0:0:0:
64,192,343035,1,0,0:0:0:0:
192,192,343110,1,0,0:0:0:0:
448,192,343185,1,0,0:0:0:0:
320,192,343185,1,0,0:0:0:0:
64,192,343185,1,0,0:0:0:0:
192,192,343260,1,0,0:0:0:0:
448,192,343335,1,0,0:0:0:0:
320,192,343410,1,0,0:0:0:0:
192,192,343485,1,0,0:0:0:0:
64,192,343485,1,0,0:0:0:0:
448,192,343485,1,0,0:0:0:0:
320,192,343560,1,0,0:0:0:0:
192,192,343635,1,0,0:0:0:0:
64,192,343635,1,0,0:0:0:0:
320,192,343785,1,0,0:0:0:0:
448,192,343785,1,0,0:0:0:0:
192,192,343785,1,0,0:0:0:0:
64,192,343860,1,0,0:0:0:0:
192,192,343935,1,0,0:0:0:0:
448,192,344010,1,0,0:0:0:0:
64,192,344085,1,0,0:0:0:0:
320,192,344085,1,0,0:0:0:0:
192,192,344085,1,0,0:0:0:0:
448,192,344160,1,0,0:0:0:0:
64,192,344235,1,0,0:0:0:0:
192,192,344310,1,0,0:0:0:0:
64,192,344385,1,0,0:0:0:0:
320,192,344385,1,0,0:0:0:0:
448,192,344385,1,0,0:0:0:0:
192,192,344460,1,0,0:0:0:0:
320,192,344535,1,0,0:0:0:0:
448,192,344610,1,0,0:0:0:0:
192,192,344685,1,0,0:0:0:0:
64,192,344685,1,0,0:0:0:0:
320,192,344685,1,0,0:0:0:0:
448,192,344760,1,0,0:0:0:0:
192,192,344835,1,0,0:0:0:0:
320,192,344835,1,0,0:0:0:0:
64,192,344910,1,0,0:0:0:0:
448,192,344985,1,0,0:0:0:0:
320,192,344985,1,0,0:0:0:0:
192,192,344985,1,0,0:0:0:0:
64,192,345060,1,0,0:0:0:0:
448,192,345135,1,0,0:0:0:0:
320,192,345135,1,0,0:0:0:0:
192,192,345210,1,0,0:0:0:0:
64,192,345285,1,0,0:0:0:0:
448,192,345285,1,0,0:0:0:0:
320,192,345285,1,0,0:0:0:0:
192,192,345360,1,0,0:0:0:0:
64,192,345435,1,0,0:0:0:0:
448,192,345435,1,0,0:0:0:0:
320,192,345510,1,0,0:0:0:0:
64,192,345585,1,0,0:0:0:0:
448,192,345585,1,0,0:0:0:0:
192,192,345585,1,0,0:0:0:0:
320,192,345660,1,0,0:0:0:0:
192,192,345735,1,0,0:0:0:0:
64,192,345810,1,0,0:0:0:0:
320,192,345885,1,0,0:0:0:0:
448,192,345885,1,0,0:0:0:0:
192,192,345885,1,0,0:0:0:0:
64,192,345960,1,0,0:0:0:0:
448,192,346035,1,0,0:0:0:0:
320,192,346110,1,0,0:0:0:0:
192,192,346185,1,0,0:0:0:0:
64,192,346185,1,0,0:0:0:0:
448,192,346185,1,0,0:0:0:0:
320,192,346260,1,0,0:0:0:0:
64,192,346335,1,0,0:0:0:0:
192,192,346410,1,0,0:0:0:0:
64,192,346485,1,0,0:0:0:0:
320,192,346485,1,0,0:0:0:0:
448,192,346485,1,0,0:0:0:0:
192,192,346560,1,0,0:0:0:0:
320,192,346635,1,0,0:0:0:0:
448,192,346710,1,0,0:0:0:0:
320,192,346785,1,0,0:0:0:0:
192,192,346785,1,0,0:0:0:0:
64,192,346785,1,0,0:0:0:0:
448,192,346860,1,0,0:0:0:0:
64,192,346935,1,0,0:0:0:0:
192,192,347010,1,0,0:0:0:0:
320,192,347085,1,0,0:0:0:0:
448,192,347085,1,0,0:0:0:0:
64,192,347085,1,0,0:0:0:0:
192,192,347160,1,0,0:0:0:0:
320,192,347235,1,0,0:0:0:0:
448,192,347310,1,0,0:0:0:0:
64,192,347385,1,0,0:0:0:0:
192,192,347385,1,0,0:0:0:0:
320,192,347385,1,0,0:0:0:0:
448,192,347460,1,0,0:0:0:0:
64,192,347535,1,0,0:0:0:0:
320,192,347610,1,0,0:0:0:0:
192,192,347685,1,0,0:0:0:0:
64,192,347685,1,0,0:0:0:0:
448,192,347685,1,0,0:0:0:0:
320,192,347760,1,0,0:0:0:0:
64,192,347835,1,0,0:0:0:0:
448,192,347910,1,0,0:0:0:0:
320,192,347985,1,0,0:0:0:0:
64,192,347985,1,0,0:0:0:0:
192,192,347985,1,0,0:0:0:0:
448,192,348060,1,0,0:0:0:0:
320,192,348135,1,0,0:0:0:0:
192,192,348210,1,0,0:0:0:0:
320,192,348285,1,0,0:0:0:0:
448,192,348285,1,0,0:0:0:0:
64,192,348285,1,0,0:0:0:0:
192,192,348360,1,0,0:0:0:0:
448,192,348435,1,0,0:0:0:0:
320,192,348510,1,0,0:0:0:0:
64,192,348585,1,0,0:0:0:0:
192,192,348585,1,0,0:0:0:0:
448,192,348585,1,0,0:0:0:0:
320,192,348660,1,0,0:0:0:0:
192,192,348735,1,0,0:0:0:0:
320,192,348810,1,0,0:0:0:0:
192,192,348885,1,0,0:0:0:0:
64,192,348885,1,0,0:0:0:0:
448,192,348885,1,0,0:0:0:0:
320,192,348960,1,0,0:0:0:0:
64,192,349035,1,0,0:0:0:0:
448,192,349110,1,0,0:0:0:0:
192,192,349185,1,0,0:0:0:0:
64,192,349185,1,0,0:0:0:0:
320,192,349185,1,0,0:0:0:0:
448,192,349260,1,0,0:0:0:0:
192,192,349335,1,0,0:0:0:0:
320,192,349410,1,0,0:0:0:0:
448,192,349485,1,0,0:0:0:0:
64,192,349485,1,0,0:0:0:0:
192,192,349485,1,0,0:0:0:0:
320,192,349560,1,0,0:0:0:0:
64,192,349635,1,0,0:0:0:0:
192,192,349710,1,0,0:0:0:0:
64,192,349785,1,0,0:0:0:0:
448,192,349785,1,0,0:0:0:0:
320,192,349785,1,0,0:0:0:0:
192,192,349860,1,0,0:0:0:0:
64,192,349935,1,0,0:0:0:0:
448,192,350010,1,0,0:0:0:0:
64,192,350085,1,0,0:0:0:0:
320,192,350085,1,0,0:0:0:0:
192,192,350085,1,0,0:0:0:0:
448,192,350160,1,0,0:0:0:0:
320,192,350235,1,0,0:0:0:0:
192,192,350310,1,0,0:0:0:0:
448,192,350385,1,0,0:0:0:0:
320,192,350385,1,0,0:0:0:0:
64,192,350385,1,0,0:0:0:0:
192,192,350460,1,0,0:0:0:0:
448,192,350535,1,0,0:0:0:0:
320,192,350610,1,0,0:0:0:0:
64,192,350685,1,0,0:0:0:0:
192,192,350685,1,0,0:0:0:0:
448,192,350685,1,0,0:0:0:0:
320,192,350760,1,0,0:0:0:0:
64,192,350835,1,0,0:0:0:0:
192,192,350910,1,0,0:0:0:0:
448,192,350985,1,0,0:0:0:0:
320,192,350985,1,0,0:0:0:0:
64,192,350985,1,0,0:0:0:0:
192,192,351060,1,0,0:0:0:0:
64,192,351135,1,0,0:0:0:0:
320,192,351210,1,0,0:0:0:0:
192,192,351285,1,0,0:0:0:0:
64,192,351285,1,0,0:0:0:0:
448,192,351285,1,0,0:0:0:0:
320,192,351360,1,0,0:0:0:0:
448,192,351435,1,0,0:0:0:0:
192,192,351510,1,0,0:0:0:0:
320,192,351585,1,0,0:0:0:0:
448,192,351585,1,0,0:0:0:0:
64,192,351585,1,0,0:0:0:0:
192,192,351660,1,0,0:0:0:0:
64,192,351735,1,0,0:0:0:0:
320,192,351810,1,0,0:0:0:0:
192,192,351885,1,0,0:0:0:0:
64,192,351885,1,0,0:0:0:0:
448,192,351885,1,0,0:0:0:0:
320,192,351960,1,0,0:0:0:0:
448,192,352035,1,0,0:0:0:0:
192,192,352110,1,0,0:0:0:0:
64,192,352185,1,0,0:0:0:0:
320,192,352185,1,0,0:0:0:0:
448,192,352185,1,0,0:0:0:0:
192,192,352260,1,0,0:0:0:0:
64,192,352335,1,0,0:0:0:0:
320,192,352410,1,0,0:0:0:0:
448,192,352485,1,0,0:0:0:0:
192,192,352485,1,0,0:0:0:0:
64,192,352485,1,0,0:0:0:0:
320,192,352560,1,0,0:0:0:0:
64,192,352635,1,0,0:0:0:0:
448,192,352635,1,0,0:0:0:0:
192,192,352710,1,0,0:0:0:0:
320,192,352785,1,0,0:0:0:0:
448,192,352785,1,0,0:0:0:0:
64,192,352785,1,0,0:0:0:0:
192,192,352860,1,0,0:0:0:0:
448,192,352935,1,0,0:0:0:0:
320,192,353010,1,0,0:0:0:0:
64,192,353085,1,0,0:0:0:0:
192,192,353085,1,0,0:0:0:0:
448,192,353085,1,0,0:0:0:0:
320,192,353160,1,0,0:0:0:0:
64,192,353235,1,0,0:0:0:0:
192,192,353310,1,0,0:0:0:0:
448,192,353385,1,0,0:0:0:0:
320,192,353385,1,0,0:0:0:0:
64,192,353385,1,0,0:0:0:0:
192,192,353460,1,0,0:0:0:0:
448,192,353535,1,0,0:0:0:0:
320,192,353610,1,0,0:0:0:0:
64,192,353685,1,0,0:0:0:0:
192,192,353685,1,0,0:0:0:0:
448,192,353685,1,0,0:0:0:0:
320,192,353760,1,0,0:0:0:0:
64,192,353835,1,0,0:0:0:0:
192,192,353910,1,0,0:0:0:0:
448,192,353985,1,0,0:0:0:0:
320,192,353985,1,0,0:0:0:0:
64,192,353985,1,0,0:0:0:0:
192,192,354135,1,0,0:0:0:0:
64,192,354285,1,0,0:0:0:0:
448,192,354285,1,0,0:0:0:0:
320,192,354435,1,0,0:0:0:0:
192,192,354435,1,0,0:0:0:0:
64,192,354435,1,0,0:0:0:0:
64,192,354585,1,0,0:0:0:0:
448,192,354585,1,0,0:0:0:0:
320,192,354585,1,0,0:0:0:0:
64,192,354885,1,0,0:0:0:0:
320,192,354885,1,0,0:0:0:0:
192,192,355185,1,0,0:0:0:0:
320,192,355185,1,0,0:0:0:0:
448,192,355185,1,0,0:0:0:0:
64,192,355260,1,0,0:0:0:0:
448,192,355335,1,0,0:0:0:0:
320,192,355335,1,0,0:0:0:0:
192,192,355410,1,0,0:0:0:0:
64,192,355485,1,0,0:0:0:0:
320,192,355485,1,0,0:0:0:0:
448,192,355485,1,0,0:0:0:0:
192,192,355560,1,0,0:0:0:0:
64,192,355635,1,0,0:0:0:0:
448,192,355635,1,0,0:0:0:0:
320,192,355710,1,0,0:0:0:0:
192,192,355785,1,0,0:0:0:0:
64,192,355785,1,0,0:0:0:0:
448,192,355785,1,0,0:0:0:0:
320,192,355860,1,0,0:0:0:0:
64,192,355935,1,0,0:0:0:0:
448,192,355935,1,0,0:0:0:0:
192,192,356010,1,0,0:0:0:0:
448,192,356085,1,0,0:0:0:0:
320,192,356085,1,0,0:0:0:0:
64,192,356085,1,0,0:0:0:0:
192,192,356160,1,0,0:0:0:0:
448,192,356235,1,0,0:0:0:0:
320,192,356235,1,0,0:0:0:0:
192,192,356310,1,0,0:0:0:0:
64,192,356385,1,0,0:0:0:0:
448,192,356385,1,0,0:0:0:0:
320,192,356385,1,0,0:0:0:0:
192,192,356460,1,0,0:0:0:0:
64,192,356535,1,0,0:0:0:0:
448,192,356535,1,0,0:0:0:0:
320,192,356610,1,0,0:0:0:0:
192,192,356685,1,0,0:0:0:0:
64,192,356685,1,0,0:0:0:0:
320,192,356760,1,0,0:0:0:0:
448,192,356835,1,0,0:0:0:0:
64,192,356835,1,0,0:0:0:0:
192,192,356910,1,0,0:0:0:0:
64,192,356985,1,0,0:0:0:0:
320,192,356985,1,0,0:0:0:0:
448,192,356985,1,0,0:0:0:0:
192,192,357060,1,0,0:0:0:0:
448,192,357135,1,0,0:0:0:0:
64,192,357135,1,0,0:0:0:0:
320,192,357210,1,0,0:0:0:0:
448,192,357285,1,0,0:0:0:0:
192,192,357285,1,0,0:0:0:0:
64,192,357285,1,0,0:0:0:0:
448,192,357435,1,0,0:0:0:0:
192,192,357435,1,0,0:0:0:0:
64,192,357510,1,0,0:0:0:0:
320,192,357585,1,0,0:0:0:0:
192,192,357585,1,0,0:0:0:0:
448,192,357585,1,0,0:0:0:0:
64,192,357660,1,0,0:0:0:0:
192,192,357735,1,0,0:0:0:0:
320,192,357735,1,0,0:0:0:0:
64,192,357810,1,0,0:0:0:0:
192,192,357885,1,0,0:0:0:0:
320,192,357885,1,0,0:0:0:0:
448,192,357885,1,0,0:0:0:0:
64,192,357960,1,0,0:0:0:0:
448,192,358035,1,0,0:0:0:0:
320,192,358035,1,0,0:0:0:0:
192,192,358110,1,0,0:0:0:0:
64,192,358185,1,0,0:0:0:0:
448,192,358185,1,0,0:0:0:0:
320,192,358260,1,0,0:0:0:0:
64,192,358335,1,0,0:0:0:0:
192,192,358335,1,0,0:0:0:0:
320,192,358410,1,0,0:0:0:0:
448,192,358485,1,0,0:0:0:0:
64,192,358485,1,0,0:0:0:0:
192,192,358485,1,0,0:0:0:0:
320,192,358560,1,0,0:0:0:0:
64,192,358635,1,0,0:0:0:0:
192,192,358635,1,0,0:0:0:0:
320,192,358710,1,0,0:0:0:0:
64,192,358785,1,0,0:0:0:0:
192,192,358785,1,0,0:0:0:0:
448,192,358785,1,0,0:0:0:0:
320,192,358860,1,0,0:0:0:0:
64,192,358935,1,0,0:0:0:0:
448,192,358935,1,0,0:0:0:0:
192,192,359010,1,0,0:0:0:0:
448,192,359085,1,0,0:0:0:0:
64,192,359085,1,0,0:0:0:0:
320,192,359085,1,0,0:0:0:0:
192,192,359160,1,0,0:0:0:0:
64,192,359235,1,0,0:0:0:0:
320,192,359235,1,0,0:0:0:0:
448,192,359310,1,0,0:0:0:0:
320,192,359385,1,0,0:0:0:0:
64,192,359385,1,0,0:0:0:0:
192,192,359385,1,0,0:0:0:0:
448,192,359460,1,0,0:0:0:0:
64,192,359535,1,0,0:0:0:0:
192,192,359535,1,0,0:0:0:0:
320,192,359610,1,0,0:0:0:0:
192,192,359685,1,0,0:0:0:0:
64,192,359685,1,0,0:0:0:0:
448,192,359685,1,0,0:0:0:0:
320,192,359760,1,0,0:0:0:0:
192,192,359835,1,0,0:0:0:0:
448,192,359835,1,0,0:0:0:0:
64,192,359910,1,0,0:0:0:0:
448,192,359985,1,0,0:0:0:0:
320,192,359985,1,0,0:0:0:0:
192,192,359985,1,0,0:0:0:0:
64,192,360060,1,0,0:0:0:0:
320,192,360135,1,0,0:0:0:0:
192,192,360135,1,0,0:0:0:0:
448,192,360210,1,0,0:0:0:0:
192,192,360285,1,0,0:0:0:0:
64,192,360285,1,0,0:0:0:0:
320,192,360285,1,0,0:0:0:0:
448,192,360360,1,0,0:0:0:0:
192,192,360435,1,0,0:0:0:0:
64,192,360435,1,0,0:0:0:0:
320,192,360510,1,0,0:0:0:0:
64,192,360585,1,0,0:0:0:0:
448,192,360585,1,0,0:0:0:0:
192,192,360585,1,0,0:0:0:0:
320,192,360660,1,0,0:0:0:0:
448,192,360735,1,0,0:0:0:0:
64,192,360735,1,0,0:0:0:0:
192,192,360810,1,0,0:0:0:0:
320,192,360885,1,0,0:0:0:0:
448,192,360885,1,0,0:0:0:0:
64,192,360885,1,0,0:0:0:0:
192,192,360960,1,0,0:0:0:0:
448,192,361035,1,0,0:0:0:0:
320,192,361035,1,0,0:0:0:0:
64,192,361110,1,0,0:0:0:0:
192,192,361185,1,0,0:0:0:0:
448,192,361185,1,0,0:0:0:0:
320,192,361185,1,0,0:0:0:0:
64,192,361260,1,0,0:0:0:0:
448,192,361335,1,0,0:0:0:0:
192,192,361335,1,0,0:0:0:0:
320,192,361410,1,0,0:0:0:0:
64,192,361485,1,0,0:0:0:0:
192,192,361485,1,0,0:0:0:0:
448,192,361485,1,0,0:0:0:0:
320,192,361560,1,0,0:0:0:0:
64,192,361635,1,0,0:0:0:0:
192,192,361635,1,0,0:0:0:0:
448,192,361710,1,0,0:0:0:0:
64,192,361785,1,0,0:0:0:0:
192,192,361785,1,0,0:0:0:0:
320,192,361785,1,0,0:0:0:0:
448,192,361860,1,0,0:0:0:0:
64,192,361935,1,0,0:0:0:0:
320,192,361935,1,0,0:0:0:0:
192,192,362010,1,0,0:0:0:0:
320,192,362085,1,0,0:0:0:0:
448,192,362085,1,0,0:0:0:0:
64,192,362085,1,0,0:0:0:0:
192,192,362160,1,0,0:0:0:0:
448,192,362235,1,0,0:0:0:0:
320,192,362235,1,0,0:0:0:0:
64,192,362310,1,0,0:0:0:0:
192,192,362385,1,0,0:0:0:0:
448,192,362385,1,0,0:0:0:0:
320,192,362385,1,0,0:0:0:0:
64,192,362460,1,0,0:0:0:0:
448,192,362535,1,0,0:0:0:0:
320,192,362535,1,0,0:0:0:0:
192,192,362610,1,0,0:0:0:0:
64,192,362685,1,0,0:0:0:0:
320,192,362685,1,0,0:0:0:0:
448,192,362685,1,0,0:0:0:0:
192,192,362760,1,0,0:0:0:0:
64,192,362835,1,0,0:0:0:0:
448,192,362835,1,0,0:0:0:0:
320,192,362910,1,0,0:0:0:0:
192,192,362985,1,0,0:0:0:0:
64,192,362985,1,0,0:0:0:0:
448,192,362985,1,0,0:0:0:0:
320,192,363060,1,0,0:0:0:0:
192,192,363135,1,0,0:0:0:0:
64,192,363135,1,0,0:0:0:0:
448,192,363210,1,0,0:0:0:0:
64,192,363285,1,0,0:0:0:0:
192,192,363285,1,0,0:0:0:0:
320,192,363360,1,0,0:0:0:0:
448,192,363435,1,0,0:0:0:0:
64,192,363435,1,0,0:0:0:0:
192,192,363510,1,0,0:0:0:0:
448,192,363585,1,0,0:0:0:0:
320,192,363585,1,0,0:0:0:0:
64,192,363585,1,0,0:0:0:0:
192,192,363660,1,0,0:0:0:0:
320,192,363735,1,0,0:0:0:0:
64,192,363810,1,0,0:0:0:0:
192,192,363810,1,0,0:0:0:0:
448,192,363810,1,0,0:0:0:0:
320,192,363885,1,0,0:0:0:0:
64,192,363960,1,0,0:0:0:0:
192,192,364035,1,0,0:0:0:0:
320,192,364035,1,0,0:0:0:0:
448,192,364110,1,0,0:0:0:0:
192,192,364185,1,0,0:0:0:0:
64,192,364185,1,0,0:0:0:0:
320,192,364185,1,0,0:0:0:0:
448,192,364260,1,0,0:0:0:0:
192,192,364335,1,0,0:0:0:0:
64,192,364335,1,0,0:0:0:0:
448,192,364410,1,0,0:0:0:0:
320,192,364485,1,0,0:0:0:0:
192,192,364485,1,0,0:0:0:0:
64,192,364485,1,0,0:0:0:0:
448,192,364560,1,0,0:0:0:0:
64,192,364635,1,0,0:0:0:0:
320,192,364635,1,0,0:0:0:0:
192,192,364710,1,0,0:0:0:0:
64,192,364785,1,0,0:0:0:0:
320,192,364785,1,0,0:0:0:0:
448,192,364785,1,0,0:0:0:0:
192,192,364860,1,0,0:0:0:0:
320,192,364935,1,0,0:0:0:0:
448,192,364935,1,0,0:0:0:0:
64,192,365010,1,0,0:0:0:0:
192,192,365085,1,0,0:0:0:0:
448,192,365085,1,0,0:0:0:0:
320,192,365085,1,0,0:0:0:0:
64,192,365160,1,0,0:0:0:0:
192,192,365235,1,0,0:0:0:0:
320,192,365235,1,0,0:0:0:0:
448,192,365310,1,0,0:0:0:0:
192,192,365385,1,0,0:0:0:0:
64,192,365385,1,0,0:0:0:0:
320,192,365460,1,0,0:0:0:0:
448,192,365535,1,0,0:0:0:0:
64,192,365535,1,0,0:0:0:0:
192,192,365610,1,0,0:0:0:0:
320,192,365685,1,0,0:0:0:0:
448,192,365685,1,0,0:0:0:0:
64,192,365760,1,0,0:0:0:0:
448,192,365835,1,0,0:0:0:0:
192,192,365835,1,0,0:0:0:0:
320,192,365910,1,0,0:0:0:0:
64,192,365985,1,0,0:0:0:0:
192,192,365985,1,0,0:0:0:0:
448,192,365985,1,0,0:0:0:0:
320,192,366060,1,0,0:0:0:0:
192,192,366135,1,0,0:0:0:0:
64,192,366135,1,0,0:0:0:0:
448,192,366210,1,0,0:0:0:0:
64,192,366285,1,0,0:0:0:0:
192,192,366285,1,0,0:0:0:0:
320,192,366285,1,0,0:0:0:0:
448,192,366360,1,0,0:0:0:0:
64,192,366435,1,0,0:0:0:0:
320,192,366435,1,0,0:0:0:0:
192,192,366510,1,0,0:0:0:0:
320,192,366585,1,0,0:0:0:0:
448,192,366585,1,0,0:0:0:0:
64,192,366585,1,0,0:0:0:0:
192,192,366660,1,0,0:0:0:0:
320,192,366735,1,0,0:0:0:0:
448,192,366735,1,0,0:0:0:0:
64,192,366810,1,0,0:0:0:0:
192,192,366885,1,0,0:0:0:0:
320,192,366885,1,0,0:0:0:0:
448,192,366885,1,0,0:0:0:0:
64,192,366960,1,0,0:0:0:0:
192,192,367035,1,0,0:0:0:0:
448,192,367035,1,0,0:0:0:0:
320,192,367110,1,0,0:0:0:0:
192,192,367185,1,0,0:0:0:0:
64,192,367185,1,0,0:0:0:0:
448,192,367185,1,0,0:0:0:0:
320,192,367260,1,0,0:0:0:0:
448,192,367335,1,0,0:0:0:0:
192,192,367335,1,0,0:0:0:0:
64,192,367410,1,0,0:0:0:0:
448,192,367485,1,0,0:0:0:0:
320,192,367485,1,0,0:0:0:0:
192,192,367485,1,0,0:0:0:0:
64,192,367560,1,0,0:0:0:0:
320,192,367635,1,0,0:0:0:0:
448,192,367635,1,0,0:0:0:0:
192,192,367710,1,0,0:0:0:0:
320,192,367785,1,0,0:0:0:0:
448,192,367785,1,0,0:0:0:0:
64,192,367785,1,0,0:0:0:0:
192,192,367860,1,0,0:0:0:0:
448,192,367935,1,0,0:0:0:0:
64,192,367935,1,0,0:0:0:0:
320,192,368010,1,0,0:0:0:0:
448,192,368085,1,0,0:0:0:0:
64,192,368085,1,0,0:0:0:0:
192,192,368085,1,0,0:0:0:0:
320,192,368160,1,0,0:0:0:0:
64,192,368235,1,0,0:0:0:0:
192,192,368235,1,0,0:0:0:0:
448,192,368310,1,0,0:0:0:0:
192,192,368385,1,0,0:0:0:0:
64,192,368385,1,0,0:0:0:0:
320,192,368385,1,0,0:0:0:0:
448,192,368460,1,0,0:0:0:0:
192,192,368535,1,0,0:0:0:0:
320,192,368535,1,0,0:0:0:0:
64,192,368610,1,0,0:0:0:0:
192,192,368685,1,0,0:0:0:0:
448,192,368685,1,0,0:0:0:0:
320,192,368685,1,0,0:0:0:0:
64,192,368760,1,0,0:0:0:0:
448,192,368835,1,0,0:0:0:0:
192,192,368835,1,0,0:0:0:0:
320,192,368910,1,0,0:0:0:0:
192,192,368985,1,0,0:0:0:0:
448,192,368985,1,0,0:0:0:0:
64,192,368985,1,0,0:0:0:0:
320,192,369060,1,0,0:0:0:0:
448,192,369135,1,0,0:0:0:0:
64,192,369135,1,0,0:0:0:0:
192,192,369210,1,0,0:0:0:0:
64,192,369285,1,0,0:0:0:0:
448,192,369285,1,0,0:0:0:0:
320,192,369360,1,0,0:0:0:0:
192,192,369360,1,0,0:0:0:0:
448,192,369435,1,0,0:0:0:0:
64,192,369435,1,0,0:0:0:0:
192,192,369510,1,0,0:0:0:0:
320,192,369510,1,0,0:0:0:0:
448,192,369585,1,0,0:0:0:0:
64,192,369585,1,0,0:0:0:0:
192,192,369660,1,0,0:0:0:0:
448,192,369735,1,0,0:0:0:0:
320,192,369735,1,0,0:0:0:0:
64,192,369810,1,0,0:0:0:0:
192,192,369885,1,0,0:0:0:0:
448,192,369885,1,0,0:0:0:0:
320,192,369885,1,0,0:0:0:0:
64,192,369960,1,0,0:0:0:0:
320,192,370035,1,0,0:0:0:0:
448,192,370035,1,0,0:0:0:0:
192,192,370110,1,0,0:0:0:0:
64,192,370185,1,0,0:0:0:0:
320,192,370185,1,0,0:0:0:0:
448,192,370185,1,0,0:0:0:0:
192,192,370260,1,0,0:0:0:0:
320,192,370335,1,0,0:0:0:0:
448,192,370335,1,0,0:0:0:0:
64,192,370410,1,0,0:0:0:0:
320,192,370485,1,0,0:0:0:0:
448,192,370485,1,0,0:0:0:0:
192,192,370560,1,0,0:0:0:0:
320,192,370635,1,0,0:0:0:0:
448,192,370635,1,0,0:0:0:0:
64,192,370710,1,0,0:0:0:0:
192,192,370710,1,0,0:0:0:0:
320,192,370785,1,0,0:0:0:0:
448,192,370785,1,0,0:0:0:0:
64,192,370860,1,0,0:0:0:0:
192,192,370935,1,0,0:0:0:0:
320,192,370935,1,0,0:0:0:0:
64,192,371010,1,0,0:0:0:0:
320,192,371085,1,0,0:0:0:0:
448,192,371085,1,0,0:0:0:0:
192,192,371085,1,0,0:0:0:0:
64,192,371160,1,0,0:0:0:0:
320,192,371235,1,0,0:0:0:0:
448,192,371235,1,0,0:0:0:0:
192,192,371310,1,0,0:0:0:0:
448,192,371385,1,0,0:0:0:0:
320,192,371385,1,0,0:0:0:0:
64,192,371385,1,0,0:0:0:0:
192,192,371460,1,0,0:0:0:0:
448,192,371535,1,0,0:0:0:0:
320,192,371610,1,0,0:0:0:0:
64,192,371685,1,0,0:0:0:0:
192,192,371685,1,0,0:0:0:0:
448,192,371685,1,0,0:0:0:0:
320,192,371760,1,0,0:0:0:0:
192,192,371835,1,0,0:0:0:0:
64,192,371835,1,0,0:0:0:0:
448,192,371910,1,0,0:0:0:0:
192,192,371985,1,0,0:0:0:0:
64,192,371985,1,0,0:0:0:0:
320,192,372060,1,0,0:0:0:0:
448,192,372060,1,0,0:0:0:0:
192,192,372135,1,0,0:0:0:0:
64,192,372135,1,0,0:0:0:0:
320,192,372210,1,0,0:0:0:0:
448,192,372210,1,0,0:0:0:0:
192,192,372285,1,0,0:0:0:0:
64,192,372285,1,0,0:0:0:0:
320,192,372360,1,0,0:0:0:0:
448,192,372360,1,0,0:0:0:0:
192,192,372435,1,0,0:0:0:0:
64,192,372435,1,0,0:0:0:0:
320,192,372510,1,0,0:0:0:0:
448,192,372510,1,0,0:0:0:0:
192,192,372585,1,0,0:0:0:0:
64,192,372585,1,0,0:0:0:0:
320,192,372660,1,0,0:0:0:0:
448,192,372660,1,0,0:0:0:0:
192,192,372735,1,0,0:0:0:0:
64,192,372735,1,0,0:0:0:0:
320,192,372810,1,0,0:0:0:0:
448,192,372810,1,0,0:0:0:0:
192,192,372885,1,0,0:0:0:0:
64,192,372885,1,0,0:0:0:0:
448,192,372960,1,0,0:0:0:0:
320,192,372960,1,0,0:0:0:0:
192,192,373035,1,0,0:0:0:0:
64,192,373035,1,0,0:0:0:0:
320,192,373110,1,0,0:0:0:0:
448,192,373110,1,0,0:0:0:0:
192,192,373185,1,0,0:0:0:0:
64,192,373185,1,0,0:0:0:0:
192,192,373635,1,0,0:0:0:0:
448,192,373635,1,0,0:0:0:0:
320,192,373785,1,0,0:0:0:0:
64,192,373785,1,0,0:0:0:0:
192,192,373785,1,0,0:0:0:0:
64,192,374235,1,0,0:0:0:0:
320,192,374235,1,0,0:0:0:0:
64,192,374385,1,0,0:0:0:0:
448,192,374385,1,0,0:0:0:0:
192,192,374385,1,0,0:0:0:0:
320,192,374535,1,0,0:0:0:0:
192,192,374685,1,0,0:0:0:0:
64,192,374685,1,0,0:0:0:0:
320,192,374835,1,0,0:0:0:0:
64,192,374985,1,0,0:0:0:0:
448,192,374985,1,0,0:0:0:0:
192,192,375135,1,0,0:0:0:0:
320,192,375285,1,0,0:0:0:0:
448,192,375285,1,0,0:0:0:0:
192,192,375435,1,0,0:0:0:0:
64,192,375585,1,0,0:0:0:0:
448,192,375585,1,0,0:0:0:0:
320,192,375735,1,0,0:0:0:0:
192,192,375885,1,0,0:0:0:0:
64,192,375885,1,0,0:0:0:0:
320,192,376035,1,0,0:0:0:0:
192,192,376185,1,0,0:0:0:0:
448,192,376185,1,0,0:0:0:0:
64,192,376335,1,0,0:0:0:0:
192,192,376485,1,0,0:0:0:0:
448,192,376485,1,0,0:0:0:0:
320,192,376635,1,0,0:0:0:0:
64,192,376785,1,0,0:0:0:0:
192,192,376785,1,0,0:0:0:0:
448,192,376935,1,0,0:0:0:0:
320,192,377085,1,0,0:0:0:0:
64,192,377085,1,0,0:0:0:0:
192,192,377235,1,0,0:0:0:0:
448,192,377385,1,0,0:0:0:0:
320,192,377385,1,0,0:0:0:0:
192,192,377535,1,0,0:0:0:0:
64,192,377685,1,0,0:0:0:0:
448,192,377685,1,0,0:0:0:0:
320,192,377835,1,0,0:0:0:0:
192,192,377985,1,0,0:0:0:0:
64,192,377985,1,0,0:0:0:0:
448,192,378135,1,0,0:0:0:0:
320,192,378285,1,0,0:0:0:0:
64,192,378285,1,0,0:0:0:0:
192,192,378435,1,0,0:0:0:0:
320,192,378585,1,0,0:0:0:0:
448,192,378585,1,0,0:0:0:0:
64,192,378735,1,0,0:0:0:0:
192,192,378885,1,0,0:0:0:0:
448,192,378885,1,0,0:0:0:0:
320,192,379035,1,0,0:0:0:0:
192,192,379185,1,0,0:0:0:0:
64,192,379185,1,0,0:0:0:0:
448,192,379335,1,0,0:0:0:0:
192,192,379485,1,0,0:0:0:0:
64,192,379485,1,0,0:0:0:0:
320,192,379635,1,0,0:0:0:0:
448,192,379785,1,0,0:0:0:0:
64,192,379785,1,0,0:0:0:0:
192,192,379935,1,0,0:0:0:0:
320,192,380085,1,0,0:0:0:0:
448,192,380085,1,0,0:0:0:0:
64,192,380235,1,0,0:0:0:0:
448,192,380385,1,0,0:0:0:0:
192,192,380385,1,0,0:0:0:0:
64,192,380535,1,0,0:0:0:0:
320,192,380685,1,0,0:0:0:0:
448,192,380685,1,0,0:0:0:0:
192,192,380835,1,0,0:0:0:0:
64,192,380985,1,0,0:0:0:0:
448,192,380985,1,0,0:0:0:0:
320,192,381135,1,0,0:0:0:0:
64,192,381285,1,0,0:0:0:0:
448,192,381285,1,0,0:0:0:0:
320,192,381435,1,0,0:0:0:0:
192,192,381585,1,0,0:0:0:0:
64,192,381585,1,0,0:0:0:0:
448,192,381735,1,0,0:0:0:0:
320,192,381885,1,0,0:0:0:0:
64,192,381885,1,0,0:0:0:0:
192,192,382035,1,0,0:0:0:0:
320,192,382185,1,0,0:0:0:0:
448,192,382185,1,0,0:0:0:0:
64,192,382335,1,0,0:0:0:0:
192,192,382485,1,0,0:0:0:0:
448,192,382485,1,0,0:0:0:0:
320,192,382635,1,0,0:0:0:0:
64,192,382785,1,0,0:0:0:0:
448,192,382785,1,0,0:0:0:0:
192,192,382935,1,0,0:0:0:0:
64,192,383085,1,0,0:0:0:0:
448,192,383085,1,0,0:0:0:0:
192,192,383235,1,0,0:0:0:0:
448,192,383385,1,0,0:0:0:0:
64,192,383535,1,0,0:0:0:0:
192,192,383685,1,0,0:0:0:0:
448,192,383835,1,0,0:0:0:0:
320,192,383985,1,0,0:0:0:0:
64,192,384135,1,0,0:0:0:0:
448,192,384285,1,0,0:0:0:0:
192,192,384285,1,0,0:0:0:0:
320,192,384435,1,0,0:0:0:0:
64,192,384585,1,0,0:0:0:0:
192,192,384585,1,0,0:0:0:0:
448,192,384735,1,0,0:0:0:0:
64,192,384885,1,0,0:0:0:0:
192,192,384885,1,0,0:0:0:0:
448,192,385035,1,0,0:0:0:0:
192,192,385185,1,0,0:0:0:0:
64,192,385185,1,0,0:0:0:0:
320,192,385335,1,0,0:0:0:0:
448,192,385485,1,0,0:0:0:0:
192,192,385485,1,0,0:0:0:0:
320,192,385635,1,0,0:0:0:0:
64,192,385785,1,0,0:0:0:0:
192,192,385785,1,0,0:0:0:0:
448,192,385935,1,0,0:0:0:0:
64,192,386085,1,0,0:0:0:0:
320,192,386085,1,0,0:0:0:0:
192,192,386235,1,0,0:0:0:0:
64,192,386385,1,0,0:0:0:0:
448,192,386385,1,0,0:0:0:0:
320,192,386535,1,0,0:0:0:0:
64,192,386685,1,0,0:0:0:0:
192,192,386685,1,0,0:0:0:0:
448,192,386835,1,0,0:0:0:0:
320,192,386985,1,0,0:0:0:0:
64,192,386985,1,0,0:0:0:0:
192,192,387135,1,0,0:0:0:0:
320,192,387285,1,0,0:0:0:0:
448,192,387285,1,0,0:0:0:0:
64,192,387435,1,0,0:0:0:0:
192,192,387585,1,0,0:0:0:0:
448,192,387585,1,0,0:0:0:0:
320,192,387735,1,0,0:0:0:0:
64,192,387885,1,0,0:0:0:0:
448,192,387885,1,0,0:0:0:0:
192,192,388035,1,0,0:0:0:0:
320,192,388185,1,0,0:0:0:0:
448,192,388185,1,0,0:0:0:0:
192,192,388335,1,0,0:0:0:0:
64,192,388485,1,0,0:0:0:0:
448,192,388485,1,0,0:0:0:0:
320,192,388635,1,0,0:0:0:0:
192,192,388785,1,0,0:0:0:0:
448,192,388785,1,0,0:0:0:0:
64,192,388935,1,0,0:0:0:0:
320,192,388935,1,0,0:0:0:0:
320,192,389085,1,0,0:0:0:0:
448,192,389085,1,0,0:0:0:0:
192,192,389235,1,0,0:0:0:0:
64,192,389235,1,0,0:0:0:0:
320,192,389385,1,0,0:0:0:0:
448,192,389385,1,0,0:0:0:0:
64,192,389535,1,0,0:0:0:0:
320,192,389535,1,0,0:0:0:0:
192,192,389685,1,0,0:0:0:0:
448,192,389685,1,0,0:0:0:0:
64,192,389835,1,0,0:0:0:0:
192,192,389835,1,0,0:0:0:0:
320,192,389910,1,0,0:0:0:0:
448,192,389910,1,0,0:0:0:0:
192,192,389985,1,0,0:0:0:0:
64,192,389985,1,0,0:0:0:0:
192,192,390135,1,0,0:0:0:0:
64,192,390135,1,0,0:0:0:0:
192,192,390285,1,0,0:0:0:0:
448,192,390285,1,0,0:0:0:0:
192,192,390435,1,0,0:0:0:0:
64,192,390435,1,0,0:0:0:0:
320,192,390585,1,0,0:0:0:0:
448,192,390585,1,0,0:0:0:0:
64,192,390735,1,0,0:0:0:0:
320,192,390735,1,0,0:0:0:0:
64,192,390885,1,0,0:0:0:0:
448,192,390885,1,0,0:0:0:0:
320,192,391035,1,0,0:0:0:0:
448,192,391035,1,0,0:0:0:0:
192,192,391110,1,0,0:0:0:0:
64,192,391110,1,0,0:0:0:0:
320,192,391185,1,0,0:0:0:0:
448,192,391185,1,0,0:0:0:0:
192,192,391260,1,0,0:0:0:0:
64,192,391260,1,0,0:0:0:0:
320,192,391335,1,0,0:0:0:0:
448,192,391335,1,0,0:0:0:0:
192,192,391410,1,0,0:0:0:0:
64,192,391410,1,0,0:0:0:0:
320,192,391485,1,0,0:0:0:0:
448,192,391485,1,0,0:0:0:0:
192,192,391560,1,0,0:0:0:0:
64,192,391560,1,0,0:0:0:0:
320,192,391635,1,0,0:0:0:0:
448,192,391635,1,0,0:0:0:0:
192,192,391710,1,0,0:0:0:0:
64,192,391710,1,0,0:0:0:0:
320,192,391785,1,0,0:0:0:0:
448,192,391785,1,0,0:0:0:0:
192,192,391860,1,0,0:0:0:0:
64,192,391860,1,0,0:0:0:0:
448,192,391935,1,0,0:0:0:0:
320,192,391935,1,0,0:0:0:0:
64,192,392010,1,0,0:0:0:0:
192,192,392010,1,0,0:0:0:0:
320,192,392085,1,0,0:0:0:0:
448,192,392085,1,0,0:0:0:0:
192,192,392160,1,0,0:0:0:0:
64,192,392160,1,0,0:0:0:0:
320,192,392235,1,0,0:0:0:0:
448,192,392235,1,0,0:0:0:0:
192,192,392310,1,0,0:0:0:0:
64,192,392310,1,0,0:0:0:0:
320,192,392385,1,0,0:0:0:0:
448,192,392385,1,0,0:0:0:0:
192,192,393285,1,0,0:0:0:0:
320,192,393585,1,0,0:0:0:0:
448,192,393585,1,0,0:0:0:0:
192,192,393735,1,0,0:0:0:0:
64,192,393885,1,0,0:0:0:0:
448,192,394035,1,0,0:0:0:0:
