osu file format v14

[General]
AudioFilename: Song_Day to Story.mp3
AudioLeadIn: 0
PreviewTime: 57380
Countdown: 0
SampleSet: Soft
StackLeniency: 0.5
Mode: 0
LetterboxInBreaks: 0
WidescreenStoryboard: 0

[Editor]
DistanceSpacing: 0.9
BeatDivisor: 4
GridSize: 32
TimelineZoom: 1.4

[Metadata]
Title:Day to Story (TV Size)
TitleUnicode:Day to Story (TV Size)
Artist:Kaori Sadohara
ArtistUnicode:佐土原かおり
Creator:Karia
Version:Date Story
Source:デート・ア・ライブ Ⅱ
Tags:ending date a live 2 Mugiwarasekai Irohas Neoskylove
BeatmapID:936808
BeatmapSetID:434845

[Difficulty]
HPDrainRate:7
CircleSize:4.3
OverallDifficulty:9
ApproachRate:9.3
SliderMultiplier:1.88
SliderTickRate:1

[Events]
//Background and Video events
Video,0,"VIDEO.avi"
0,0,"DateBG.jpg",0,0
//Break Periods
//Storyboard Layer 0 (Background)
//Storyboard Layer 1 (Fail)
//Storyboard Layer 2 (Pass)
//Storyboard Layer 3 (Foreground)
//Storyboard Sound Samples

[TimingPoints]
1547,428.571428571429,4,2,1,30,1,0
1547,-200,4,2,1,30,0,0
4868,-200,4,2,1,5,0,0
4975,-200,4,2,1,30,0,0
14881,333.333333333333,4,2,1,70,1,1
14881,-71.4285714285714,4,2,1,70,0,1
14964,-100,4,2,1,5,0,0
15214,-100,4,2,1,70,0,0
16297,-100,4,2,1,5,0,0
16380,-100,4,2,1,70,0,0
19464,-100,4,2,1,5,0,0
19547,-100,4,2,1,70,0,0
19797,-100,4,2,1,5,0,0
19880,-100,4,2,1,70,0,0
20214,-71.4285714285714,4,2,1,70,0,1
20297,-100,4,2,1,5,0,0
20547,-100,4,2,1,70,0,0
21630,-100,4,2,1,5,0,0
21714,-100,4,2,1,70,0,0
25047,-83.3333333333333,4,2,1,70,0,0
25464,-100,4,2,1,5,0,0
25547,-100,4,2,2,60,0,0
35797,-100,4,2,2,5,0,0
35880,-100,4,2,2,60,0,0
36547,-100,4,2,2,65,0,0
46880,-133.333333333333,4,2,2,65,0,0
52214,-100,4,2,2,65,0,0
54880,-100,4,2,2,70,0,0
56047,-71.4285714285714,4,2,2,70,0,0
56297,-100,4,2,2,5,0,0
56380,-100,4,2,2,70,0,0
56464,-100,4,2,2,5,0,0
56547,-100,4,2,2,70,0,0
57547,-66.6666666666667,4,2,2,75,0,1
57797,-90.9090909090909,4,2,2,5,0,1
57880,-90.9090909090909,4,2,2,75,0,1
62880,-74.0740740740741,4,2,2,75,0,1
63130,-90.9090909090909,4,2,2,5,0,1
63214,-90.9090909090909,4,2,2,75,0,1
65797,-90.9090909090909,4,2,2,5,0,1
65880,-90.9090909090909,4,2,2,75,0,1
66130,-90.9090909090909,4,2,2,5,0,1
66214,-90.9090909090909,4,2,2,75,0,1
66464,-90.9090909090909,4,2,2,5,0,1
66547,-90.9090909090909,4,2,2,75,0,1
67880,-90.9090909090909,4,2,2,75,0,0
68214,-66.6666666666667,4,2,2,75,0,1
68464,-90.9090909090909,4,2,2,5,0,1
68547,-90.9090909090909,4,2,2,75,0,1
73547,-74.0740740740741,4,2,2,75,0,1
73797,-90.9090909090909,4,2,2,5,0,1
73880,-90.9090909090909,4,2,2,75,0,1
75464,-90.9090909090909,4,2,2,5,0,1
75547,-90.9090909090909,4,2,2,75,0,1
75797,-90.9090909090909,4,2,2,5,0,1
75880,-90.9090909090909,4,2,2,75,0,1
78797,-90.9090909090909,4,2,2,75,0,0
78880,-90.9090909090909,4,2,2,75,0,1
84208,333.333333333333,4,2,2,70,1,0
84208,-142.857142857143,4,2,2,70,0,0
88124,-100,4,2,2,60,0,0
88541,-100,4,2,2,50,0,0
88874,-100,4,2,2,40,0,0
89208,-100,4,2,2,30,0,0
89541,-100,4,2,2,20,0,0
89874,-100,4,2,2,10,0,0
90208,-100,4,2,2,5,0,0

[Colours]
Combo1 : 206,255,206
Combo2 : 0,0,255
Combo3 : 0,128,255
Combo4 : 255,0,0
Combo5 : 255,98,21
Combo6 : 0,128,64
Combo7 : 0,128,128
Combo8 : 187,255,255

[HitObjects]
46,237,1547,102,0,P|87:215|141:239,1,94,2|0,0:0|0:0,0:0:0:0:
194,282,2404,1,2,0:0:0:0:
270,246,2832,1,0,0:0:0:0:
333,301,3261,2,0,P|352:261|332:195,1,94,2|0,0:0|0:0,0:0:0:0:
307,136,4118,2,0,L|317:317,1,164.5,2|0,0:0|0:0,0:0:0:0:
325,319,4975,6,0,P|285:300|228:316,1,94
165,352,5832,1,2,0:0:0:0:
165,352,6261,1,0,0:0:0:0:
88,315,6689,2,0,P|70:277|88:223,1,94
164,203,7547,2,0,P|182:165|164:111,1,94,2|0,0:0|0:0,0:0:0:0:
45,49,8404,102,0,L|139:38,1,94,2|0,0:0|0:0,0:0:0:0:
193,102,9261,1,2,0:0:0:0:
252,41,9689,2,0,L|353:51,1,94
401,114,10547,2,0,L|394:162,1,47
360,186,10975,2,0,L|372:297,1,94,2|0,0:0|0:0,0:0:0:0:
240,191,11832,5,0,0:0:0:0:
370,279,12261,1,0,0:0:0:0:
209,281,12689,1,2,0:0:0:0:
336,187,13118,1,0,0:0:0:0:
292,341,13547,1,2,0:0:0:0:
119,325,14881,38,0,B|157:318|177:287|177:287|214:309|214:309|260:289|312:321,1,197.39999397583,4|0,0:0|0:0,0:0:0:0:
362,361,15214,1,8,0:0:0:0:
226,227,15381,86,0,B|203:186|203:186|221:133,1,94,2|0,0:0|0:0,0:0:0:0:
414,75,15714,1,2,0:0:0:0:
371,279,15880,1,8,0:0:0:0:
288,108,16047,1,8,0:0:0:0:
288,108,16130,1,8,0:0:0:0:
288,108,16214,6,0,L|299:176,1,47,2|0,0:0|0:0,0:0:0:0:
311,233,16380,1,2,0:0:0:0:
348,28,16547,1,8,0:0:0:0:
512,171,16714,2,0,B|468:188|468:188|405:153,1,94,2|0,0:0|0:0,0:0:0:0:
271,28,17047,1,2,0:0:0:0:
311,233,17214,1,8,0:0:0:0:
97,166,17380,1,8,0:0:0:0:
97,166,17464,1,8,0:0:0:0:
97,166,17547,101,2,0:0:0:0:
212,85,17714,2,0,L|203:190,1,94,2|8,0:0|0:0,0:0:0:0:
15,87,18047,2,0,B|54:61|54:61|123:73,1,94,2|0,0:0|0:0,0:0:0:0:
276,177,18380,1,2,0:0:0:0:
91,271,18547,1,8,0:0:0:0:
201,63,18714,1,8,0:0:0:0:
201,63,18797,1,8,0:0:0:0:
201,63,18880,21,4,0:0:0:0:
256,321,19047,1,0,0:0:0:0:
16,211,19214,1,8,0:0:0:0:
265,116,19380,6,0,L|253:184,1,47,4|0,0:0|0:0,0:0:0:0:
240,240,19547,1,0,0:0:0:0:
132,95,19714,2,0,L|144:157,1,47,4|0,0:0|0:0,0:0:0:0:
171,274,19880,1,8,0:0:0:0:
450,199,20047,101,8,0:0:0:0:
450,199,20130,1,8,0:0:0:0:
450,199,20214,2,0,B|392:190|368:151|368:151|348:194|284:212,1,197.39999397583,4|0,0:0|0:0,0:0:0:0:
209,195,20547,1,8,0:0:0:0:
418,267,20714,86,0,B|374:248|374:248|334:272,1,94,2|0,0:0|0:0,0:0:0:0:
487,132,21047,1,2,0:0:0:0:
381,333,21214,1,8,0:0:0:0:
234,161,21380,1,8,0:0:0:0:
234,161,21464,1,8,0:0:0:0:
234,161,21547,6,0,L|244:224,1,47,2|0,0:0|0:0,0:0:0:0:
260,286,21714,1,2,0:0:0:0:
308,77,21880,1,8,0:0:0:0:
119,182,22047,2,0,B|95:142|95:142|114:83,1,94,2|0,0:0|0:0,0:0:0:0:
312,179,22380,1,2,0:0:0:0:
114,267,22547,1,8,0:0:0:0:
337,303,22714,1,8,0:0:0:0:
337,303,22797,1,8,0:0:0:0:
337,303,22880,101,4,0:0:0:0:
210,235,23047,2,0,L|200:351,1,94,2|8,0:0|0:0,0:0:0:0:
153,127,23380,2,0,B|193:102|193:102|258:120,1,94,2|0,0:0|0:0,0:0:0:0:
337,303,23714,1,2,0:0:0:0:
483,84,23880,1,8,0:0:0:0:
478,131,23964,1,8,0:0:0:0:
473,179,24047,1,8,0:0:0:0:
468,226,24130,1,8,0:0:0:0:
463,274,24214,5,4,0:0:0:0:
386,155,24380,1,0,0:0:0:0:
463,274,24547,1,0,0:0:0:0:
497,12,24714,1,8,0:0:0:0:
463,274,25047,6,0,B|399:251|396:156|396:156|370:250|269:251,1,281.999991394043,4|0,0:0|0:0,0:0:0:0:
288,250,25547,1,4,0:0:0:0:
36,325,25880,22,0,P|76:304|139:327,1,94,8|0,0:0|0:0,0:0:0:0:
232,185,26214,2,0,P|205:232|220:291,1,94
154,81,26547,1,8,0:0:0:0:
344,135,26714,1,0,3:0:0:0:
344,135,26797,1,0,3:0:0:0:
344,135,26880,6,0,B|370:96|370:96|217:113,1,188,2|8,0:0|0:0,0:0:0:0:
48,228,27380,2,0,B|94:141|-1:126|52:24,1,188,2|2,0:0|0:0,0:0:0:0:
232,185,27880,1,8,0:0:0:0:
113,88,28047,1,0,3:0:0:0:
113,88,28130,1,0,3:0:0:0:
113,88,28214,102,0,B|154:64|154:64|217:82,1,94,2|0,0:0|0:0,0:0:0:0:
317,274,28547,2,0,P|276:295|222:275,1,94,8|0,0:0|0:0,0:0:0:0:
48,228,28880,2,0,P|89:207|143:227,1,94,2|2,0:0|0:0,0:0:0:0:
250,366,29214,1,8,0:0:0:0:
391,194,29380,1,0,3:0:0:0:
391,194,29464,1,0,3:0:0:0:
391,194,29547,6,0,B|437:285|356:286|402:386,1,188,2|8,0:0|0:0,0:0:0:0:
309,171,30047,2,0,P|380:109|471:176,1,188,2|2,0:0|0:0,0:0:0:0:
243,69,30547,1,8,0:0:0:0:
175,255,30714,1,0,3:0:0:0:
175,255,30797,1,0,3:0:0:0:
175,255,30880,102,0,B|159:184|159:184|178:143|178:143|162:65,1,188,2|8,0:0|0:0,0:0:0:0:
253,229,31380,2,0,P|297:242|339:225,1,94,0|2,0:0|0:0,0:0:0:0:
447,91,31714,1,2,0:0:0:0:
387,299,31880,1,8,0:0:0:0:
217,152,32047,1,0,3:0:0:0:
217,152,32130,1,0,3:0:0:0:
217,152,32214,6,0,P|288:93|383:158,1,188,2|8,0:0|0:0,0:0:0:0:
232,242,32714,2,0,B|144:189|137:270|41:217,1,188,2|2,0:0|0:0,0:0:0:0:
203,320,33214,1,8,0:0:0:0:
101,155,33380,1,0,3:0:0:0:
101,155,33464,1,0,3:0:0:0:
101,155,33547,102,0,B|87:109|87:109|110:54,1,94,2|0,0:0|0:0,0:0:0:0:
311,94,33880,2,0,B|321:139|321:139|300:182,1,94,8|0,0:0|0:0,0:0:0:0:
105,283,34214,1,2,0:0:0:0:
210,95,34380,1,2,0:0:0:0:
281,320,34547,1,8,0:0:0:0:
326,313,34630,1,8,0:0:0:0:
371,307,34713,1,8,0:0:0:0:
417,303,34797,1,8,0:0:0:0:
464,299,34880,5,12,0:0:0:0:
256,206,35047,1,2,0:0:0:0:
464,299,35214,1,2,0:0:0:0:
347,84,35380,70,0,L|362:197,1,94,8|0,0:0|0:0,0:0:0:0:
507,20,35714,2,0,L|497:80,1,47,12|0,0:0|0:0,0:0:0:0:
484,176,35880,1,2,0:0:0:0:
482,166,35964,1,2,0:0:0:0:
480,157,36047,1,2,0:0:0:0:
478,148,36130,1,2,0:0:0:0:
476,139,36214,1,4,0:0:0:0:
476,139,36547,22,0,P|439:123|383:142,1,94,8|0,0:0|0:0,0:0:0:0:
225,227,36880,2,0,P|262:243|318:224,1,94,2|2,0:0|0:0,0:0:0:0:
136,125,37214,1,8,0:0:0:0:
216,321,37380,1,0,0:0:0:0:
136,125,37547,6,0,B|119:186|119:186|142:244|142:244|116:328,1,188,2|8,0:0|0:0,0:0:0:0:
0,151,38047,2,0,L|12:258,1,94,2|0,0:0|0:0,0:0:0:0:
64,57,38380,1,2,0:0:0:0:
198,182,38547,1,8,0:0:0:0:
338,28,38714,1,0,3:0:0:0:
338,28,38797,1,0,3:0:0:0:
338,28,38880,102,0,L|330:131,1,94,2|0,0:0|0:0,0:0:0:0:
144,40,39214,2,0,P|185:16|243:38,1,94,8|0,0:0|0:0,0:0:0:0:
361,191,39547,2,0,P|315:200|275:177,1,94,2|2,0:0|0:0,0:0:0:0:
473,108,39880,1,8,0:0:0:0:
275,177,40047,1,0,0:0:0:0:
504,228,40214,5,2,0:0:0:0:
303,108,40380,1,0,0:0:0:0:
504,228,40547,1,8,0:0:0:0:
283,335,40714,2,0,B|257:295|257:295|278:230,1,94,2|0,0:0|0:0,0:0:0:0:
425,110,41047,1,2,0:0:0:0:
374,333,41214,1,8,0:0:0:0:
146,224,41380,1,0,3:0:0:0:
146,224,41464,1,0,3:0:0:0:
146,224,41547,102,0,P|130:269|166:322,1,94,4|0,0:0|0:0,0:0:0:0:
307,176,41880,2,0,L|213:166,1,94,8|0,0:0|0:0,0:0:0:0:
39,59,42214,1,2,0:0:0:0:
54,187,42380,1,2,0:0:0:0:
127,13,42547,1,8,0:0:0:0:
146,224,42714,1,0,0:0:0:0:
354,142,42880,6,0,P|285:86|191:144,1,188,2|8,0:0|0:0,0:0:0:0:
293,354,43380,2,0,B|275:164,1,188,2|2,0:0|0:0,0:0:0:0:
398,360,43880,1,8,0:0:0:0:
482,161,44047,2,0,L|473:223,1,47,0|0,3:0|3:0,0:0:0:0:
395,287,44214,102,0,L|505:276,1,94,4|0,0:0|0:0,0:0:0:0:
287,151,44547,2,0,L|380:141,1,94,8|0,0:0|0:0,0:0:0:0:
211,287,44880,2,0,L|304:277,1,94,0|2,0:0|0:0,0:0:0:0:
106,112,45214,2,0,L|199:102,1,94,8|0,0:0|0:0,0:0:0:0:
48,329,45547,53,12,0:0:0:0:
23,160,45714,1,2,0:0:0:0:
138,332,45880,5,8,0:0:0:0:
106,112,46047,1,2,0:0:0:0:
228,335,46214,5,8,0:0:0:0:
189,64,46380,1,4,0:3:0:0:
318,338,46547,5,8,0:0:0:0:
323,296,46630,1,2,0:0:0:0:
328,253,46714,1,2,0:0:0:0:
333,211,46797,1,2,0:0:0:0:
369,174,46880,38,0,P|310:135|245:161,1,141.000005378723,4|2,0:0|0:0,0:0:0:0:
369,174,47547,2,0,P|428:135|492:161,1,141.000005378723,4|2,0:0|0:0,0:0:0:0:
512,231,48047,2,0,L|501:321,1,70.5000026893617,8|0,0:0|0:0,0:0:0:0:
461,366,48380,1,2,0:0:0:0:
461,366,48547,1,2,0:0:0:0:
461,366,48880,2,0,L|480:197,1,141.000005378723,12|2,0:0|0:0,0:0:0:0:
395,52,49547,6,0,P|333:11|272:50,1,141.000005378723,4|2,0:0|0:0,0:0:0:0:
279,37,50047,1,2,0:0:0:0:
219,87,50214,2,0,B|51:69,1,141.000005378723,12|8,0:0|0:0,0:0:0:0:
50,145,50714,2,0,B|190:160,1,141.000005378723,4|8,0:0|0:0,0:0:0:0:
218,233,51214,1,2,0:0:0:0:
218,233,51547,2,0,B|232:266|232:266|215:311,1,70.5000026893617,12|2,0:0|0:0,0:0:0:0:
190,160,51880,2,0,B|176:127|176:127|193:82,1,70.5000026893617,12|0,0:0|0:0,0:0:0:0:
363,163,52214,6,0,L|263:171,1,94,6|0,0:0|0:0,0:0:0:0:
124,240,52547,1,2,0:0:0:0:
269,170,52714,1,0,0:0:0:0:
124,240,52880,2,0,L|217:232,1,94,2|0,0:0|0:0,0:0:0:0:
305,76,53214,1,8,0:0:0:0:
364,264,53380,1,0,0:0:0:0:
473,66,53547,6,0,P|495:115|467:175,1,94,2|0,0:0|0:0,0:0:0:0:
280,274,53880,1,2,0:0:0:0:
245,42,54047,1,0,0:0:0:0:
41,209,54214,1,8,0:0:0:0:
83,212,54297,1,2,0:0:0:0:
125,214,54380,1,2,0:0:0:0:
167,216,54464,1,2,0:0:0:0:
209,218,54547,1,4,0:0:0:0:
19,92,54714,1,0,0:0:0:0:
144,365,54880,5,4,0:0:0:0:
302,131,55047,1,2,0:0:0:0:
0,207,55214,1,8,0:0:0:0:
364,298,55380,1,2,0:0:0:0:
348,305,55714,5,2,0:0:0:0:
283,41,55880,1,8,0:0:0:0:
81,240,56047,2,0,B|152:228|152:228|193:259|193:259|285:244,1,197.39999397583,4|0,0:0|0:0,0:0:0:0:
263,173,56380,2,0,L|207:182,1,47,2|0,0:0|0:0,0:0:0:0:
132,306,56547,1,8,0:0:0:0:
391,94,57547,102,0,B|425:88|450:56|450:56|400:130|419:209,1,211.500008068085,4|0,0:0|0:0,0:0:0:0:
462,251,57880,1,8,0:0:0:0:
306,81,58047,86,0,B|238:69|238:69|182:106|182:106|100:88,1,206.800006311035,2|2,0:0|0:0,0:0:0:0:
207,274,58547,1,8,0:0:0:0:
0,212,58714,1,0,3:0:0:0:
0,212,58797,1,0,3:0:0:0:
0,212,58880,6,0,L|106:196,1,103.400003155518,2|2,0:0|0:0,0:0:0:0:
222,352,59214,1,8,0:0:0:0:
328,142,59380,2,0,B|374:238|284:260|341:360,1,206.800006311035,2|2,0:0|0:0,0:0:0:0:
234,192,59880,1,8,0:0:0:0:
467,268,60047,1,0,3:0:0:0:
467,268,60130,1,0,3:0:0:0:
467,268,60214,102,0,P|490:218|469:151,1,103.400003155518,2|0,0:0|0:0,0:0:0:0:
249,266,60547,1,8,0:0:0:0:
418,207,60714,2,0,L|292:186,1,103.400003155518,2|0,0:0|0:0,0:0:0:0:
129,363,61047,2,0,L|246:346,1,103.400003155518,2|8,0:0|0:0,0:0:0:0:
21,212,61380,1,0,3:0:0:0:
21,212,61464,1,0,3:0:0:0:
21,212,61547,5,4,0:0:0:0:
231,348,61714,1,2,0:0:0:0:
76,121,61880,1,8,0:0:0:0:
129,363,62047,2,0,B|155:317|155:317|129:247,1,103.400003155518,6|0,0:0|0:0,0:0:0:0:
21,212,62380,1,2,0:0:0:0:
249,266,62547,1,8,0:0:0:0:
166,20,62714,1,8,0:0:0:0:
166,20,62797,1,8,0:0:0:0:
166,20,62880,6,0,B|126:61|126:61|177:116|153:204,1,190.350000726128,4|2,0:0|0:0,0:0:0:0:
125,259,63214,1,8,0:0:0:0:
283,100,63380,86,0,P|362:43|447:119,1,206.800006311035,2|2,0:0|0:0,0:0:0:0:
330,312,63880,1,8,0:0:0:0:
363,128,64047,1,0,3:0:0:0:
368,133,64130,1,0,3:0:0:0:
373,138,64214,6,0,L|389:258,1,103.400003155518,2|2,0:0|0:0,0:0:0:0:
236,371,64547,1,8,0:0:0:0:
432,325,64714,2,0,L|312:309,1,103.400003155518,2|0,0:0|0:0,0:0:0:0:
214,123,65047,1,2,0:0:0:0:
143,349,65214,1,8,0:0:0:0:
0,235,65380,1,0,3:0:0:0:
0,235,65464,1,0,3:0:0:0:
0,235,65547,102,0,B|163:214,1,155.100004733277,4|0,0:0|0:0,0:0:0:0:
227,258,65880,1,8,0:0:0:0:
330,89,66047,2,0,L|320:163,1,51.7000015777588,2|0,0:0|0:0,0:0:0:0:
307,223,66214,1,0,0:0:0:0:
100,82,66380,2,0,L|112:147,1,51.7000015777588,2|0,0:0|0:0,0:0:0:0:
146,294,66547,1,8,0:0:0:0:
399,181,66714,6,0,B|336:169|311:130|311:130|279:173|190:178,1,206.800006311035,4|2,0:0|0:0,0:0:0:0:
22,85,67214,1,8,0:0:0:0:
66,327,67380,1,2,0:0:0:0:
311,132,67547,5,8,0:0:0:0:
278,68,67630,1,8,0:0:0:0:
206,55,67714,1,8,0:0:0:0:
142,90,67797,1,8,0:0:0:0:
121,159,67880,5,2,0:0:0:0:
81,185,67964,1,2,0:0:0:0:
34,182,68047,1,2,0:0:0:0:
2,148,68130,1,2,0:0:0:0:
67,97,68214,102,0,B|115:205|20:205|73:318,1,211.500008068085,4|0,0:0|0:0,0:0:0:0:
119,359,68547,1,8,0:0:0:0:
330,272,68714,86,0,P|261:211|159:266,1,206.800006311035,2|2,0:0|0:0,0:0:0:0:
381,147,69214,1,8,0:0:0:0:
207,21,69380,1,0,3:0:0:0:
207,21,69464,1,0,3:0:0:0:
207,21,69547,6,0,L|218:137,1,103.400003155518,2|2,0:0|0:0,0:0:0:0:
418,48,69880,1,8,0:0:0:0:
330,272,70047,2,0,B|316:200|316:200|341:155|341:155|328:60,1,206.800006311035,2|2,0:0|0:0,0:0:0:0:
422,220,70547,1,8,0:0:0:0:
229,101,70714,1,0,3:0:0:0:
229,101,70797,1,0,3:0:0:0:
229,101,70880,102,0,B|182:80|182:80|127:103,1,103.400003155518,2|0,0:0|0:0,0:0:0:0:
0,279,71214,1,8,0:0:0:0:
46,66,71380,2,0,L|62:193,1,103.400003155518,2|0,0:0|0:0,0:0:0:0:
159,365,71714,2,0,L|171:262,1,103.400003155518,2|8,0:0|0:0,0:0:0:0:
382,144,72047,1,0,3:0:0:0:
382,144,72130,1,0,3:0:0:0:
382,144,72214,5,4,0:0:0:0:
425,366,72380,1,2,0:0:0:0:
233,215,72547,1,8,0:0:0:0:
478,135,72714,2,0,B|497:185|497:185|468:260,1,103.400003155518,2|0,0:3|0:0,0:0:0:0:
275,320,73047,1,2,0:0:0:0:
243,82,73214,1,8,0:0:0:0:
19,214,73380,1,8,0:0:0:0:
19,214,73464,1,8,0:0:0:0:
19,214,73547,6,0,B|53:200|73:179|73:179|113:205|113:205|149:180|215:199,1,190.350000726128,4|0,0:0|0:0,0:0:0:0:
255,233,73880,1,8,0:0:0:0:
335,18,74047,86,0,B|347:89|347:89|318:143|318:143|338:235,1,206.800006311035,2|2,0:0|0:0,0:0:0:0:
489,366,74547,1,8,0:0:0:0:
448,358,74630,1,8,0:0:0:0:
407,351,74714,1,8,0:0:0:0:
366,345,74797,1,8,0:0:0:0:
325,341,74880,5,4,0:0:0:0:
486,258,75047,1,2,0:0:0:0:
286,162,75214,1,8,0:0:0:0:
486,33,75380,2,0,L|469:97,1,51.7000015777588,2|0,0:0|0:0,0:0:0:0:
418,248,75547,1,0,0:0:0:0:
271,69,75714,2,0,L|280:126,1,51.7000015777588,2|0,0:0|0:0,0:0:0:0:
296,205,75880,1,8,0:0:0:0:
9,160,76047,102,0,B|81:152|81:152|121:186|121:186|205:176,1,206.800006311035,4|2,0:0|0:0,0:0:0:0:
0,42,76547,5,8,0:0:0:0:
34,312,76714,1,0,0:0:0:0:
101,75,76880,101,2,0:0:0:0:
126,277,77047,1,2,0:0:0:0:
202,108,77214,5,8,0:0:0:0:
218,242,77380,1,0,0:0:0:0:
333,63,77547,5,4,0:0:0:0:
306,304,77714,1,2,0:0:0:0:
77,185,77880,1,8,0:0:0:0:
383,147,78047,1,2,0:0:0:0:
77,185,78214,1,8,0:0:0:0:
393,240,78380,5,8,0:0:0:0:
434,221,78464,1,8,0:0:0:0:
464,184,78547,1,8,0:0:0:0:
471,140,78630,1,8,0:0:0:0:
456,97,78714,1,8,0:0:0:0:
422,65,78797,1,8,0:0:0:0:
378,54,78880,101,12,0:0:0:0:
338,330,79047,1,2,0:0:0:0:
276,58,79214,5,8,0:0:0:0:
254,314,79380,1,2,0:0:0:0:
161,72,79547,101,8,0:0:0:0:
171,308,79714,1,2,0:0:0:0:
55,55,79880,5,8,0:0:0:0:
88,312,80047,1,2,0:0:0:0:
312,144,80214,101,8,0:0:0:0:
37,201,80381,1,2,0:0:0:0:
303,338,80547,5,8,0:0:0:0:
365,42,80713,1,2,0:0:0:0:
129,168,80880,101,8,0:0:0:0:
384,257,81047,1,2,0:0:0:0:
234,70,81214,5,8,0:0:0:0:
184,299,81380,1,2,0:0:0:0:
445,199,81547,102,0,P|400:172|330:197,1,103.400003155518,8|2,0:0|0:0,0:0:0:0:
95,289,81880,1,8,0:0:0:0:
351,179,82046,1,2,0:0:0:0:
136,73,82214,6,0,P|114:120|148:187,1,103.400003155518,8|0,0:0|0:0,0:0:0:0:
384,257,82547,1,8,0:0:0:0:
128,167,82713,1,2,0:0:0:0:
392,74,82880,101,8,0:0:0:0:
310,340,83047,1,2,0:0:0:0:
247,93,83214,5,8,0:0:0:0:
310,340,83380,1,2,0:0:0:0:
85,211,83547,101,8,0:0:0:0:
128,167,83630,1,8,0:0:0:0:
190,161,83714,1,8,0:0:0:0:
241,195,83797,1,8,0:0:0:0:
262,253,83880,5,2,0:0:0:0:
269,219,83964,1,2,0:0:0:0:
291,193,84047,1,2,0:0:0:0:
324,184,84130,1,2,0:0:0:0:
394,203,84208,38,0,B|456:221|476:301|476:301|519:224|401:135|477:34,1,394.79998795166,4|0,0:0|0:0,0:0:0:0:
379,307,85541,6,0,B|317:309|272:249|272:249|229:301|229:301|157:278|157:278|70:300,1,328.999989959717,4|2,0:0|0:0,0:0:0:0:
357,211,86541,5,8,0:0:0:0:
99,293,86708,1,2,0:0:0:0:
262,30,86874,5,8,0:0:0:0:
230,301,87041,1,8,0:0:0:0:
129,150,87374,5,8,0:0:0:0:
129,150,87458,1,8,0:0:0:0:
129,150,87541,1,4,0:0:0:0:
383,234,87708,1,8,0:0:0:0:
57,230,87874,5,8,0:0:0:0:
455,154,88041,1,4,0:0:0:0:
256,192,88124,12,0,90208,0:0:0:0:
