osu file format v14

[General]
AudioFilename: audio.mp3
AudioLeadIn: 0
PreviewTime: 57891
Countdown: 0
SampleSet: Soft
StackLeniency: 0.3
Mode: 0
LetterboxInBreaks: 0
WidescreenStoryboard: 0

[Editor]
DistanceSpacing: 1.9
BeatDivisor: 4
GridSize: 8
TimelineZoom: 1.3

[Metadata]
Title:Zero Tokei (Short ver.)
TitleUnicode:ゼロトケイ(Short ver.)
Artist:Kaori Oda
ArtistUnicode:織田かおり
Creator:ShogunMoon
Version:Shining
Source:ノルン+ノネット
Tags:NORN9 Norun+Nonetto ゼロトケイ zerotokei 日山尚 Hiyama Nao 安瀬聖 Anze Hijiri visual novel ed ending
BeatmapID:1382420
BeatmapSetID:651934

[Difficulty]
HPDrainRate:6
CircleSize:3.7
OverallDifficulty:6
ApproachRate:7
SliderMultiplier:1.8
SliderTickRate:1

[Events]
//Background and Video events
0,0,"bg1.jpg",0,0
//Break Periods
//Storyboard Layer 0 (Background)
//Storyboard Layer 1 (Fail)
//Storyboard Layer 2 (Pass)
//Storyboard Layer 3 (Foreground)
//Storyboard Sound Samples

[TimingPoints]
1463,714.285714285714,4,2,1,30,1,0
7177,-100,4,2,1,40,0,0
12891,-100,4,2,1,45,0,0
35748,-100,4,2,1,50,0,0
55748,-100,4,2,1,55,0,0
58605,-90.9090909090909,4,2,1,60,0,1
69320,-76.9230769230769,4,2,1,60,0,1
70034,-100,4,2,1,60,0,1
81462,-100,4,2,1,60,0,0
82929,779.220779220779,4,2,1,30,1,0
83708,1000,4,2,1,25,1,0
84769,857.142857142857,4,2,1,20,1,0
86593,1000,4,2,1,25,1,0
89843,-100,4,2,1,10,0,0

[Colours]
Combo1 : 156,171,199
Combo2 : 250,235,133
Combo3 : 255,108,108

[HitObjects]
88,81,1463,6,0,L|36:78,2,45,4|0|0,0:1|0:0|0:0,0:0:0:0:
163,119,1998,1,0,0:0:0:0:
242,150,2177,2,0,L|286:147,1,45
372,139,2534,1,0,0:0:0:0:
317,300,2891,5,0,0:0:0:0:
152,346,3248,1,0,0:0:0:0:
317,300,3605,1,0,0:0:0:0:
152,346,3962,1,2,0:0:0:0:
46,210,4320,6,0,L|40:149,2,45,4|0|0,0:1|0:0|0:0,0:0:0:0:
99,276,4855,1,0,0:0:0:0:
177,242,5034,1,0,0:0:0:0:
246,291,5212,2,0,L|239:352,2,45
331,282,5748,2,0,P|373:267|409:222,1,90
361,68,6462,2,0,L|368:8,2,45
279,95,6998,1,0,0:0:0:0:
196,119,7177,6,0,L|200:173,2,45,4|0|0,0:1|0:0|0:0,0:0:0:0:
127,68,7712,1,0,0:0:0:0:
59,121,7891,2,0,P|33:124|6:118,1,45
45,41,8248,1,0,0:0:0:0:
127,68,8427,1,0,0:0:0:0:
128,153,8605,2,0,L|120:261,1,90
179,305,9141,1,0,0:0:0:0:
258,271,9320,2,0,P|284:265|321:267,1,45
374,311,9677,2,0,P|395:316|418:317,1,45,2|0,0:0|0:0,0:0:0:0:
496,281,10034,6,0,B|517:181|468:200|494:87,1,180,4|0,0:1|0:0,0:0:0:0:
458,23,10927,1,0,0:0:0:0:
377,52,11105,1,0,0:0:0:0:
295,26,11284,1,0,0:0:0:0:
214,54,11462,2,0,P|179:130|200:225,1,180,2|0,0:0|0:0,0:0:0:0:
365,259,12534,1,0,0:0:0:0:
227,360,12891,6,0,P|178:368|137:358,1,90,2|0,0:1|0:0,0:0:0:0:
1,257,13605,1,0,0:0:0:0:
2,171,13784,1,0,0:0:0:0:
54,103,13962,2,0,L|58:53,1,45,2|0,0:1|0:0,0:0:0:0:
138,28,14320,2,0,L|143:78,1,45
220,108,14677,1,2,0:3:0:0:
322,244,15034,2,0,L|328:354,1,90
410,353,15570,1,0,0:0:0:0:
488,293,15748,6,0,L|478:187,1,90,2|0,0:1|0:0,0:0:0:0:
375,67,16462,1,0,0:0:0:0:
293,40,16641,1,0,0:0:0:0:
210,64,16820,2,0,P|190:71|161:74,1,45
118,145,17178,2,0,P|145:148|174:159,1,45,8|2,0:1|0:1,0:0:0:0:
246,187,17534,1,2,0:3:0:0:
246,187,17712,1,0,0:0:0:0:
331,194,17891,2,0,L|431:186,1,90,2|0,0:0|0:0,0:0:0:0:
340,368,18605,6,0,L|230:358,1,90,2|0,0:1|0:0,0:0:0:0:
92,293,19320,2,0,L|181:284,1,90,0|2,0:0|0:1,0:0:0:0:
263,261,19855,1,0,0:0:0:0:
310,189,20034,2,0,P|313:142|299:92,1,90,0|2,0:0|0:3,0:0:0:0:
139,49,20748,2,0,L|73:46,1,45
20,90,21105,1,0,0:0:0:0:
20,90,21284,1,0,0:0:0:0:
55,182,21462,6,0,L|156:176,1,90,2|0,0:1|0:0,0:0:0:0:
228,197,21998,1,0,0:0:0:0:
310,220,22177,2,0,L|367:224,1,45
426,270,22534,2,0,L|489:266,1,45,2|0,0:1|0:0,0:0:0:0:
503,187,22891,1,8,0:1:0:0:
386,61,23248,1,2,0:3:0:0:
503,187,23605,1,2,0:0:0:0:
386,61,23962,1,0,0:0:0:0:
255,172,24320,6,0,B|261:274,1,90,2|0,0:1|0:0,0:0:0:0:
225,339,24855,1,0,0:0:0:0:
143,366,25034,1,0,0:0:0:0:
62,339,25212,2,0,L|-2:343,1,45,0|2,0:0|0:1,0:0:0:0:
19,259,25570,1,0,0:0:0:0:
19,259,25748,2,0,L|79:264,1,45
128,206,26105,1,2,0:3:0:0:
257,94,26462,2,0,P|306:81|360:89,1,90
424,115,26998,1,0,0:0:0:0:
501,176,27176,6,0,L|495:289,1,90,2|0,0:1|0:0,0:0:0:0:
354,362,27892,1,0,0:0:0:0:
269,369,28069,1,0,0:0:0:0:
184,355,28248,2,0,L|139:356,1,45
80,293,28606,2,0,L|35:290,1,45,8|0,0:1|0:0,0:0:0:0:
8,215,28962,1,2,0:3:0:0:
8,215,29140,1,0,0:0:0:0:
54,143,29319,2,0,P|97:128|156:140,1,90,2|0,0:0|0:0,0:0:0:0:
317,225,30034,6,0,L|309:338,1,90,2|0,0:1|0:0,0:0:0:0:
477,350,30748,1,0,0:0:0:0:
502,268,30927,2,0,L|497:214,1,45,0|2,0:0|0:1,0:0:0:0:
454,149,31284,1,0,0:0:0:0:
403,80,31462,2,0,P|364:72|314:89,1,90,0|2,0:0|0:3,0:0:0:0:
244,132,31998,1,0,0:0:0:0:
169,174,32176,2,0,L|103:171,1,45
72,240,32533,1,0,0:0:0:0:
72,240,32712,1,0,0:0:0:0:
117,327,32891,6,0,L|218:321,1,90,2|0,0:1|0:0,0:0:0:0:
291,334,33426,1,0,0:0:0:0:
375,346,33605,2,0,L|433:341,1,45
433,257,33962,2,0,P|430:233|435:194,1,45,2|0,0:1|0:0,0:0:0:0:
477,140,34319,1,8,0:1:0:0:
477,140,34677,1,2,0:3:0:0:
327,57,35034,2,0,L|263:52,1,45,2|0,0:0|0:0,0:0:0:0:
197,64,35391,1,0,0:0:0:0:
161,142,35570,1,0,0:0:0:0:
230,219,35748,6,0,B|243:259|243:259|238:332,1,90,2|2,0:1|0:1,0:0:0:0:
183,371,36284,1,0,0:0:0:0:
118,315,36462,2,0,P|79:294|24:297,1,90,8|2,0:0|0:1,0:0:0:0:
138,157,37177,2,0,P|181:159|221:135,1,90,2|2,0:1|0:1,0:0:0:0:
273,68,37712,1,0,0:0:0:0:
354,95,37891,2,0,L|360:152,1,45,8|0,0:0|0:0,0:0:0:0:
437,173,38248,2,0,L|432:227,1,45,2|0,0:3|0:0,0:0:0:0:
364,289,38605,6,0,L|266:279,1,90,2|2,0:1|0:1,0:0:0:0:
231,205,39141,1,0,0:0:0:0:
187,131,39320,2,0,P|132:122|90:139,1,90,2|2,0:0|0:1,0:0:0:0:
105,303,40034,2,0,P|160:312|202:295,1,90,2|2,0:1|0:1,0:0:0:0:
274,279,40570,1,0,0:0:0:0:
323,209,40748,2,0,L|388:202,1,45,8|0,0:0|0:0,0:0:0:0:
405,127,41105,2,0,L|467:131,1,45,2|0,0:3|0:0,0:0:0:0:
497,217,41462,6,0,P|511:264|498:319,1,90,2|2,0:1|0:1,0:0:0:0:
333,304,42177,2,0,L|265:310,1,45,8|0,0:0|0:0,0:0:0:0:
208,338,42534,2,0,L|140:332,1,45
85,297,42891,2,0,P|72:255|91:200,1,90,2|2,0:1|0:1,0:0:0:0:
215,102,43605,2,0,L|223:200,1,90,8|2,0:0|0:3,0:0:0:0:
358,296,44320,6,0,P|408:303|468:276,1,90,2|2,0:1|0:1,0:0:0:0:
482,214,44855,1,0,0:0:0:0:
434,142,45034,2,0,L|437:80,1,45,8|0,0:0|0:0,0:0:0:0:
382,30,45391,2,0,P|356:26|327:30,1,45,2|0,0:1|0:0,0:0:0:0:
269,79,45748,2,0,P|221:93|167:77,1,90,0|2,0:0|0:3,0:0:0:0:
115,31,46284,1,0,0:0:0:0:
38,69,46462,2,0,P|36:100|44:128,1,45,8|0,0:0|0:0,0:0:0:0:
115,152,46820,2,0,L|118:208,1,45
182,278,47177,6,0,L|177:379,2,90,4|0|8,0:0|0:0|0:0,0:0:0:0:
337,207,48248,1,0,0:0:0:0:
285,138,48427,2,0,P|281:107|310:48,1,90
387,36,48962,2,0,L|451:45,1,45
497,97,49320,1,2,0:0:0:0:
421,248,49677,2,0,L|361:254,1,45
290,310,50034,6,0,L|192:301,2,90,2|0|8,0:0|0:0|0:0,0:0:0:0:
285,138,51105,1,0,0:0:0:0:
221,80,51284,2,0,P|180:59|124:65,1,90
65,105,51820,2,0,L|70:156,1,45
32,227,52177,1,2,0:0:0:0:
32,227,52534,1,0,0:0:0:0:
160,340,52891,6,0,L|272:329,1,90
313,273,53427,2,0,L|412:281,1,90
472,230,53962,2,0,P|477:184|457:135,1,90
335,28,54677,1,0,0:0:0:0:
251,42,54855,1,0,0:0:0:0:
166,58,55034,2,0,L|109:50,1,45,8|0,0:0|0:0,0:0:0:0:
36,58,55391,2,0,L|32:126,1,45
22,193,55748,6,0,L|27:293,1,90,8|8,0:0|0:0,0:0:0:0:
187,340,56462,2,0,L|192:234,1,90,8|8,0:0|0:0,0:0:0:0:
344,173,57177,2,0,L|340:107,1,45,8|8,0:0|0:0,0:0:0:0:
313,46,57534,1,8,0:0:0:0:
192,167,57891,1,0,0:0:0:0:
59,46,58248,1,0,0:0:0:0:
22,240,58605,6,0,P|68:247|135:223,1,99.0000030212403,4|0,0:1|0:0,0:0:0:0:
192,167,59141,1,0,0:0:0:0:
268,231,59320,2,0,L|262:335,1,99.0000030212403,8|2,0:0|0:1,0:0:0:0:
353,292,59855,1,2,0:1:0:0:
445,255,60034,2,0,L|439:149,1,99.0000030212403,0|2,0:0|0:1,0:0:0:0:
264,64,60748,2,0,P|218:80|155:68,1,99.0000030212403,8|0,0:0|0:0,0:0:0:0:
73,46,61284,1,0,0:0:0:0:
36,153,61462,6,0,P|82:137|145:149,1,99.0000030212403,2|0,0:0|0:0,0:0:0:0:
191,221,61998,1,0,0:0:0:0:
271,162,62177,2,0,L|262:42,1,99.0000030212403,8|0,0:0|0:0,0:0:0:0:
361,48,62712,2,0,L|353:171,1,99.0000030212403,2|2,0:1|0:1,0:0:0:0:
404,232,63248,2,0,P|448:210|517:222,1,99.0000030212403,2|8,0:1|0:0,0:0:0:0:
468,307,63784,1,0,0:0:0:0:
384,358,63962,2,0,L|310:351,1,49.5000015106202
243,284,64320,6,0,L|131:293,1,99.0000030212403,2|0,0:1|0:0,0:0:0:0:
69,227,64855,1,0,0:0:0:0:
103,134,65034,2,0,L|220:145,1,99.0000030212403,8|0,0:0|0:0,0:0:0:0:
296,170,65570,1,2,0:1:0:0:
389,202,65748,2,0,L|457:196,1,49.5000015106202,0|2,0:0|0:1,0:0:0:0:
488,113,66105,1,2,0:1:0:0:
305,36,66462,2,0,L|181:28,1,99.0000030212403,8|2,0:0|0:1,0:0:0:0:
10,61,67177,6,0,P|-5:108|11:178,1,99.0000030212403,4|0,0:0|0:0,0:0:0:0:
69,227,67712,1,0,0:0:0:0:
159,268,67891,2,0,L|166:393,1,99.0000030212403,8|2,0:0|0:1,0:0:0:0:
263,372,68427,1,0,0:0:0:0:
361,365,68605,5,8,0:0:0:0:
361,365,68784,1,8,0:0:0:0:
436,301,68962,1,8,0:0:0:0:
436,301,69141,1,8,0:0:0:0:
476,203,69320,2,0,L|469:122,1,58.4999973220826,4|0,0:0|0:0,0:0:0:0:
380,70,69677,2,0,L|372:146,1,58.4999973220826,8|0,0:0|0:0,0:0:0:0:
287,186,70034,6,0,L|177:180,1,90,4|0,0:0|0:0,0:0:0:0:
113,214,70570,1,0,0:0:0:0:
31,175,70748,2,0,P|21:133|40:85,1,90,8|0,0:0|0:0,0:0:0:0:
116,49,71284,1,2,0:1:0:0:
191,98,71462,2,0,L|253:93,1,45,0|2,0:0|0:1,0:0:0:0:
326,84,71820,1,2,0:1:0:0:
451,213,72177,1,8,0:0:0:0:
368,247,72355,2,0,L|303:240,1,45
236,216,72712,1,0,0:0:0:0:
149,273,72891,6,0,B|138:318|138:318|148:374,1,90,2|0,0:1|0:0,0:0:0:0:
225,320,73427,1,0,0:0:0:0:
236,216,73605,2,0,P|206:180|155:165,1,90,8|0,0:0|0:0,0:0:0:0:
76,154,74142,2,0,L|82:50,1,90,2|0,0:1|0:0,0:0:0:0:
164,30,74677,1,2,0:1:0:0:
164,30,74855,1,0,0:0:0:0:
255,79,75034,2,0,L|260:156,2,67.5
351,40,75748,6,0,P|392:36|447:55,1,90,2|0,0:0|0:0,0:0:0:0:
492,123,76284,1,0,0:0:0:0:
439,196,76462,2,0,L|444:295,1,90,8|2,0:0|0:1,0:0:0:0:
381,351,76998,1,0,0:0:0:0:
312,292,77177,2,0,P|266:277|211:285,1,90,0|2,0:0|0:1,0:0:0:0:
142,315,77712,1,0,0:0:0:0:
53,333,77891,2,0,L|-4:327,1,45,8|0,0:0|0:0,0:0:0:0:
42,244,78248,2,0,L|104:239,1,45,2|0,0:1|0:0,0:0:0:0:
183,201,78605,6,0,P|188:150|181:96,1,90,4|0,0:0|0:0,0:0:0:0:
122,46,79141,1,0,0:0:0:0:
36,59,79320,1,8,0:0:0:0:
36,59,79498,1,8,0:0:0:0:
5,147,79677,1,8,0:0:0:0:
5,147,79855,1,0,0:0:0:0:
42,244,80034,2,0,B|138:273|124:220|239:255,1,180,0|8,0:0|0:0,0:0:0:0:
384,321,81105,1,2,0:1:0:0:
457,157,81462,6,0,P|460:134|469:109,2,45,4|0|0,0:1|0:0|0:0,0:0:0:0:
377,198,81998,1,0,0:0:0:0:
296,156,82177,2,0,L|235:153,1,45
160,150,82534,1,0,0:0:0:0:
71,309,82929,5,0,0:0:0:0:
239,334,83318,1,0,0:0:0:0:
106,345,83708,1,0,0:0:0:0:
268,293,84208,1,0,0:0:0:0:
232,72,84769,1,0,0:0:0:0:
256,192,84876,12,0,86483,0:0:0:0:
256,192,86593,12,0,89843,0:0:0:0:
