osu file format v14

[General]
AudioFilename: audio.mp3
AudioLeadIn: 0
PreviewTime: 57891
Countdown: 0
SampleSet: Soft
StackLeniency: 0.7
Mode: 0
LetterboxInBreaks: 0
WidescreenStoryboard: 0

[Editor]
DistanceSpacing: 1.5
BeatDivisor: 4
GridSize: 16
TimelineZoom: 1.3

[Metadata]
Title:Zero Tokei (Short ver.)
TitleUnicode:ゼロトケイ(Short ver.)
Artist:Kaori Oda
ArtistUnicode:織田かおり
Creator:ShogunMoon
Version:Normal
Source:ノルン+ノネット
Tags:NORN9 Norun+Nonetto ゼロトケイ zerotokei 日山尚 Hiyama Nao 安瀬聖 Anze Hijiri visual novel ed ending
BeatmapID:1382421
BeatmapSetID:651934

[Difficulty]
HPDrainRate:4
CircleSize:3
OverallDifficulty:4
ApproachRate:5
SliderMultiplier:1.2
SliderTickRate:1

[Events]
//Background and Video events
0,0,"bg1.jpg",0,0
//Break Periods
//Storyboard Layer 0 (Background)
//Storyboard Layer 1 (Fail)
//Storyboard Layer 2 (Pass)
//Storyboard Layer 3 (Foreground)
//Storyboard Sound Samples

[TimingPoints]
1463,714.285714285714,4,2,1,30,1,0
7177,-100,4,2,1,40,0,0
12891,-100,4,2,1,45,0,0
35748,-100,4,2,1,50,0,0
55748,-100,4,2,1,55,0,0
58605,-100,4,2,1,60,0,1
81462,-100,4,2,1,40,0,0
82929,779.220779220779,4,2,1,30,1,0
83708,1000,4,2,1,25,1,0
84769,857.142857142857,4,2,1,20,1,0
86593,1000,4,2,1,25,1,0
89843,-100,4,2,1,10,0,0

[Colours]
Combo1 : 156,171,199
Combo2 : 250,235,133
Combo3 : 255,108,108

[HitObjects]
50,117,1463,6,0,L|121:112,1,60,4|0,0:1|0:0,0:0:0:0:
177,53,2177,2,0,L|253:57,1,60
317,96,2891,2,0,L|398:91,2,60
262,167,3962,1,2,0:0:0:0:
212,242,4320,6,0,P|210:278|217:318,1,60,4|0,0:1|0:0,0:0:0:0:
280,361,5034,2,0,L|350:355,1,60
413,303,5748,2,0,P|414:275|424:235,1,60
480,176,6462,1,0,0:0:0:0:
468,86,6820,1,2,0:0:0:0:
394,36,7177,6,0,P|352:28|300:50,2,90,4|0|0,0:1|0:0|0:0,0:0:0:0:
357,118,8605,2,0,L|350:193,1,60
334,266,9320,1,0,0:0:0:0:
260,318,9677,1,2,0:0:0:0:
193,257,10034,6,0,P|135:232|68:252,1,120,4|0,0:1|0:0,0:0:0:0:
11,299,11105,1,0,0:0:0:0:
70,367,11462,2,0,L|146:362,1,60,2|0,0:0|0:0,0:0:0:0:
215,333,12177,2,0,L|290:338,1,60
358,304,12891,6,0,P|372:251|352:170,1,120,2|0,0:1|0:0,0:0:0:0:
290,131,13962,1,2,0:1:0:0:
290,131,14141,2,0,L|185:124,1,90,0|2,0:0|0:3,0:0:0:0:
110,121,15034,2,0,L|116:181,1,60
47,238,15748,6,0,P|28:295|52:356,1,120,2|0,0:1|0:0,0:0:0:0:
87,369,16641,1,0,0:0:0:0:
87,369,16820,1,2,0:1:0:0:
164,319,17177,2,0,L|248:314,1,60,8|2,0:1|0:3,0:0:0:0:
293,258,17891,2,0,L|352:261,1,60,2|0,0:0|0:0,0:0:0:0:
428,212,18605,6,0,P|434:153|411:91,1,120,2|0,0:1|0:0,0:0:0:0:
330,62,19677,1,2,0:1:0:0:
330,62,19855,2,0,L|239:68,1,90,0|2,0:0|0:3,0:0:0:0:
166,120,20748,2,0,L|86:115,1,60
37,175,21462,6,0,P|18:225|53:298,1,120,2|0,0:1|0:0,0:0:0:0:
71,316,22355,1,0,0:0:0:0:
71,316,22534,1,2,0:1:0:0:
155,283,22891,2,0,P|188:279|229:286,1,60,8|2,0:1|0:3,0:0:0:0:
300,255,23605,2,0,L|293:182,1,60,2|0,0:0|0:0,0:0:0:0:
218,146,24320,6,0,L|229:21,1,120,2|0,0:1|0:0,0:0:0:0:
318,32,25391,1,2,0:1:0:0:
318,32,25570,2,0,P|365:28|426:42,1,90,0|2,0:0|0:3,0:0:0:0:
477,90,26462,2,0,L|471:168,1,60
409,214,27177,6,0,B|389:276|433:271|399:344,1,120,2|0,0:1|0:0,0:0:0:0:
379,369,28070,1,0,0:0:0:0:
379,369,28248,1,2,0:1:0:0:
302,320,28605,2,0,P|270:317|230:323,1,60,8|2,0:1|0:3,0:0:0:0:
164,365,29320,2,0,P|132:368|92:362,1,60,2|0,0:0|0:0,0:0:0:0:
45,297,30034,6,0,P|30:247|51:176,1,120,2|0,0:1|0:0,0:0:0:0:
123,137,31105,1,2,0:1:0:0:
206,102,31462,2,0,L|201:35,1,60,0|2,0:0|0:3,0:0:0:0:
290,27,32177,2,0,L|296:97,1,60
334,167,32891,6,0,B|399:191|394:143|474:181,1,120,2|0,0:1|0:0,0:0:0:0:
493,188,33784,1,0,0:0:0:0:
493,188,33962,1,2,0:1:0:0:
465,273,34320,2,0,L|458:348,1,60,8|2,0:1|0:3,0:0:0:0:
372,356,35034,2,0,P|342:362|302:355,1,60,2|0,0:0|0:0,0:0:0:0:
234,313,35748,6,0,L|227:239,1,60,2|2,0:1|0:1,0:0:0:0:
186,173,36462,1,8,0:0:0:0:
95,170,36820,1,0,0:0:0:0:
24,114,37177,2,0,L|17:32,2,60,2|2|8,0:1|0:1|0:0,0:0:0:0:
95,170,38248,1,2,0:3:0:0:
164,227,38605,6,0,L|157:310,1,60,2|2,0:1|0:1,0:0:0:0:
236,333,39320,2,0,P|271:334|320:326,1,60,8|0,0:0|0:0,0:0:0:0:
379,297,40034,2,0,P|419:292|461:294,2,60,2|2|8,0:1|0:1|0:0,0:0:0:0:
295,331,41105,1,2,0:3:0:0:
266,245,41462,6,0,L|272:168,2,60,2|2|8,0:1|0:1|0:0,0:0:0:0:
199,306,42534,1,0,0:0:0:0:
116,343,42891,2,0,P|78:345|36:334,1,60,0|2,0:0|0:1,0:0:0:0:
11,263,43605,1,8,0:0:0:0:
9,173,43962,6,0,P|26:115|76:71,1,120,2|0,0:3|0:0,0:0:0:0:
153,45,45034,2,0,L|287:40,1,120,8|0,0:0|0:0,0:0:0:0:
362,39,46105,1,2,0:3:0:0:
443,76,46462,1,8,0:0:0:0:
461,164,46820,1,0,0:0:0:0:
390,219,47177,6,0,P|375:276|379:351,1,120,4|8,0:0|0:0,0:0:0:0:
290,347,48248,1,0,0:0:0:0:
290,347,48427,2,0,P|232:334|185:336,1,90
113,354,49320,1,2,0:0:0:0:
45,294,49677,1,0,0:0:0:0:
57,205,50034,6,0,L|71:79,1,120,2|8,0:0|0:0,0:0:0:0:
151,46,51105,1,0,0:0:0:0:
151,46,51284,2,0,P|193:56|257:40,1,90
326,28,52177,1,2,0:0:0:0:
391,89,52534,1,0,0:0:0:0:
357,172,52891,6,0,P|338:238|367:297,1,120,2|8,0:1|0:0,0:0:0:0:
388,367,53962,2,0,L|247:362,1,120,0|2,0:0|0:1,0:0:0:0:
201,302,55034,2,0,L|198:242,1,60,8|0,0:0|0:0,0:0:0:0:
138,174,55748,5,8,0:0:0:0:
48,181,56105,1,8,0:0:0:0:
17,96,56462,1,8,0:0:0:0:
91,44,56820,1,8,0:0:0:0:
169,88,57177,2,0,L|247:79,1,60,8|8,0:0|0:0,0:0:0:0:
317,66,57891,1,0,0:0:0:0:
378,285,58605,6,0,P|317:303|253:283,1,120,4|8,0:1|0:0,0:0:0:0:
192,234,59677,1,0,0:0:0:0:
105,258,60034,2,0,L|31:255,1,60
5,175,60748,2,0,L|85:172,1,60,8|0,0:0|0:0,0:0:0:0:
146,134,61462,6,0,P|146:99|166:63,1,60,2|0,0:0|0:0,0:0:0:0:
237,38,62177,2,0,L|300:33,1,60,8|0,0:0|0:0,0:0:0:0:
341,36,62712,1,2,0:1:0:0:
379,59,62891,2,0,P|386:89|392:135,1,60
323,178,63605,2,0,P|316:208|310:254,1,60,8|0,0:0|0:0,0:0:0:0:
288,324,64320,6,0,L|214:319,1,60
157,264,65034,2,0,L|74:269,1,60,8|0,0:0|0:0,0:0:0:0:
54,252,65570,1,2,0:1:0:0:
27,216,65748,2,0,P|22:187|27:152,1,60,0|2,0:0|0:1,0:0:0:0:
89,94,66462,2,0,L|94:28,1,60,8|0,0:0|0:0,0:0:0:0:
183,38,67177,6,0,L|266:34,1,60,4|8,0:0|0:0,0:0:0:0:
283,53,67712,1,8,0:0:0:0:
325,67,67891,2,0,L|408:63,1,60,8|0,0:0|0:0,0:0:0:0:
469,95,68605,2,0,L|468:172,1,60,8|8,0:0|0:0,0:0:0:0:
440,190,69141,1,0,0:0:0:0:
411,225,69320,2,0,L|420:307,1,60,12|0,0:0|0:0,0:0:0:0:
353,347,70034,6,0,P|299:359|214:329,1,120,4|8,0:0|0:0,0:0:0:0:
169,284,71105,1,0,0:0:0:0:
97,229,71462,2,0,P|96:193|102:159,1,60
172,116,72177,2,0,L|248:120,1,60,8|0,0:0|0:0,0:0:0:0:
308,166,72891,6,0,L|383:162,1,60,2|0,0:0|0:0,0:0:0:0:
433,100,73605,2,0,P|433:72|418:39,1,60,8|2,0:0|0:1,0:0:0:0:
377,30,74141,2,0,L|304:26,1,60,2|0,0:1|0:0,0:0:0:0:
272,24,74677,1,2,0:1:0:0:
189,59,75034,2,0,L|193:128,1,60,8|0,0:0|0:0,0:0:0:0:
130,183,75748,6,0,L|121:317,1,120,2|8,0:0|0:0,0:0:0:0:
190,361,76820,1,0,0:0:0:0:
266,313,77177,2,0,P|302:307|347:313,1,60
369,316,77712,1,0,0:0:0:0:
413,324,77891,2,0,P|444:328|482:320,1,60,8|0,0:0|0:0,0:0:0:0:
505,241,78605,6,0,L|501:165,1,60,4|0,0:0|0:0,0:0:0:0:
491,91,79320,1,8,0:0:0:0:
408,54,79677,2,0,P|374:47|337:50,1,60,8|0,0:0|0:0,0:0:0:0:
262,74,80391,1,0,0:0:0:0:
215,150,80748,1,8,0:0:0:0:
272,219,81105,1,0,0:0:0:0:
294,306,81462,6,0,L|290:373,1,60,4|0,0:1|0:0,0:0:0:0:
200,368,82177,2,0,P|170:360|131:363,1,60
50,359,82929,5,0,0:0:0:0:
16,275,83318,2,0,L|22:201,1,60
82,148,84208,1,0,0:0:0:0:
256,192,84769,12,0,89843,0:0:0:0:
