osu file format v14

[General]
AudioFilename: audio.mp3
AudioLeadIn: 0
PreviewTime: 57891
Countdown: 0
SampleSet: Soft
StackLeniency: 0.7
Mode: 0
LetterboxInBreaks: 0
WidescreenStoryboard: 0

[Editor]
DistanceSpacing: 1.9
BeatDivisor: 4
GridSize: 32
TimelineZoom: 1.3

[Metadata]
Title:Zero Tokei (Short ver.)
TitleUnicode:ゼロトケイ(Short ver.)
Artist:Kaori Oda
ArtistUnicode:織田かおり
Creator:ShogunMoon
Version:Easy
Source:ノルン+ノネット
Tags:NORN9 Norun+Nonetto ゼロトケイ zerotokei 日山尚 Hiyama Nao 安瀬聖 Anze Hijiri visual novel ed ending
BeatmapID:1382419
BeatmapSetID:651934

[Difficulty]
HPDrainRate:2
CircleSize:2
OverallDifficulty:2
ApproachRate:3
SliderMultiplier:1
SliderTickRate:1

[Events]
//Background and Video events
0,0,"bg1.jpg",0,0
//Break Periods
//Storyboard Layer 0 (Background)
//Storyboard Layer 1 (Fail)
//Storyboard Layer 2 (Pass)
//Storyboard Layer 3 (Foreground)
//Storyboard Sound Samples
Sample,81462,0,"normal-hitfinish.wav",70

[TimingPoints]
1463,714.285714285714,4,2,1,30,1,0
7177,-100,4,2,1,40,0,0
12891,-100,4,2,1,45,0,0
35748,-100,4,2,1,50,0,0
55748,-100,4,2,1,55,0,0
58605,-100,4,2,1,60,0,1
81462,-100,4,2,1,40,0,0
82929,779.220779220779,4,2,1,30,1,0
83708,1000,4,2,1,25,1,0
84769,857.142857142857,4,2,1,20,1,0
86593,1000,4,2,1,25,1,0
89843,-100,4,2,1,10,0,0

[Colours]
Combo1 : 156,171,199
Combo2 : 250,235,133
Combo3 : 255,108,108

[HitObjects]
41,54,1463,6,0,P|8:127|37:192,1,150,4|0,0:1|0:0,0:0:0:0:
100,254,2891,2,0,L|219:248,1,100
266,181,3962,1,2,0:0:0:0:
334,114,4320,6,0,L|493:122,1,150,4|0,0:1|0:0,0:0:0:0:
509,213,5748,2,0,L|399:220,1,100
321,256,6820,1,2,0:0:0:0:
246,196,7177,6,0,B|222:118|278:127|246:39,1,150,4|0,0:1|0:0,0:0:0:0:
156,31,8605,2,0,L|43:27,1,100
14,113,9677,1,2,0:0:0:0:
2,207,10034,6,0,P|-4:263|4:323,1,100,4|0,0:1|0:0,0:0:0:0:
86,346,11105,1,0,0:0:0:0:
173,308,11462,2,0,L|276:304,1,100,2|0,0:0|0:0,0:0:0:0:
356,259,12534,1,0,0:0:0:0:
281,200,12891,6,0,P|281:114|342:66,1,150,2|2,0:1|0:1,0:0:0:0:
419,76,14320,2,0,L|430:190,1,100
439,269,15391,1,0,0:0:0:0:
380,343,15748,6,0,P|310:353|248:304,1,150,2|2,0:1|0:1,0:0:0:0:
190,232,17177,2,0,L|74:222,1,100,8|2,0:1|0:0,0:0:0:0:
50,137,18248,1,0,0:0:0:0:
137,99,18605,6,0,L|255:89,1,100,2|0,0:1|0:0,0:0:0:0:
288,170,19677,1,2,0:1:0:0:
342,247,20034,2,0,P|391:259|455:240,1,100
491,170,21105,1,0,0:0:0:0:
435,93,21462,6,0,P|390:80|333:92,1,100,2|0,0:1|0:0,0:0:0:0:
288,170,22534,1,2,0:1:0:0:
256,259,22891,2,0,L|149:267,1,100,8|2,0:1|0:0,0:0:0:0:
91,196,23962,1,0,0:0:0:0:
66,104,24320,6,0,B|141:85|138:139|220:120,1,150,2|2,0:1|0:1,0:0:0:0:
306,126,25748,2,0,L|300:243,1,100
367,293,26820,1,0,0:0:0:0:
287,343,27177,6,0,P|228:355|147:298,1,150,2|2,0:1|0:1,0:0:0:0:
105,228,28605,2,0,L|97:113,1,100,8|2,0:1|0:0,0:0:0:0:
147,46,29677,1,0,0:0:0:0:
238,73,30034,6,0,P|285:82|352:65,1,100,2|0,0:1|0:0,0:0:0:0:
424,38,31105,1,2,0:1:0:0:
485,110,31462,2,0,L|479:227,1,100
406,270,32534,1,0,0:0:0:0:
322,315,32891,6,0,B|249:342|254:288|168:322,1,150,2|2,0:1|0:1,0:0:0:0:
101,258,34320,2,0,P|90:213|98:158,1,100,8|2,0:1|0:0,0:0:0:0:
170,100,35391,1,0,0:0:0:0:
249,152,35748,6,0,L|361:145,1,100,2|8,0:1|0:0,0:0:0:0:
429,197,36820,1,0,0:0:0:0:
391,284,37177,2,0,L|278:277,1,100,2|8,0:1|0:0,0:0:0:0:
202,311,38248,1,2,0:3:0:0:
115,349,38605,6,0,P|61:341|23:289,1,100,2|8,0:1|0:0,0:0:0:0:
6,217,39677,1,0,0:0:0:0:
38,127,40034,2,0,L|46:56,1,50
138,77,40748,2,0,L|147:141,1,50,8|2,0:0|0:3,0:0:0:0:
228,171,41462,6,0,P|277:189|333:172,1,100,2|8,0:1|0:0,0:0:0:0:
389,111,42534,1,0,0:0:0:0:
454,180,42891,2,0,P|467:236|454:287,1,100,0|8,0:0|0:0,0:0:0:0:
392,344,43962,6,0,L|284:350,1,100,2|0,0:3|0:0,0:0:0:0:
213,296,45034,2,0,L|210:243,1,50,8|0,0:0|0:0,0:0:0:0:
133,189,45748,2,0,L|136:133,1,50,0|2,0:0|0:3,0:0:0:0:
215,87,46462,2,0,L|211:17,1,50,8|0,0:0|0:0,0:0:0:0:
117,26,47177,6,0,P|67:34|25:72,1,100,4|8,0:0|0:0,0:0:0:0:
46,158,48248,1,0,0:0:0:0:
108,229,48605,2,0,L|98:339,1,100,0|8,0:0|0:0,0:0:0:0:
188,360,49677,1,0,0:0:0:0:
269,311,50034,6,0,P|322:298|372:313,1,100,2|8,0:0|0:0,0:0:0:0:
450,351,51105,1,0,0:0:0:0:
491,265,51462,2,0,L|482:158,1,100,0|2,0:0|0:0,0:0:0:0:
409,103,52534,1,0,0:0:0:0:
327,151,52891,6,0,L|317:263,1,100,0|8,0:0|0:0,0:0:0:0:
263,328,53962,2,0,P|214:342|150:328,1,100
92,274,55034,2,0,L|82:225,1,50,8|0,0:0|0:0,0:0:0:0:
99,131,55748,6,0,P|128:134|160:129,1,50,8|8,0:0|0:0,0:0:0:0:
227,78,56462,1,8,0:0:0:0:
308,28,56820,2,0,L|426:35,1,100,8|0,0:0|0:0,0:0:0:0:
502,42,57891,1,8,0:0:0:0:
417,212,58605,6,0,L|423:329,1,100,4|8,0:1|0:0,0:0:0:0:
342,363,59677,1,0,0:0:0:0:
254,327,60034,2,0,P|206:314|142:330,1,100,0|8,0:0|0:0,0:0:0:0:
70,360,61105,1,0,0:0:0:0:
11,285,61462,6,0,L|7:168,1,100,2|8,0:0|0:0,0:0:0:0:
50,99,62534,1,0,0:0:0:0:
127,44,62891,2,0,P|177:33|231:41,1,100,0|8,0:0|0:0,0:0:0:0:
304,90,63962,1,0,0:0:0:0:
347,174,64320,6,0,L|353:296,2,100,0|8|0,0:0|0:0|0:0,0:0:0:0:
304,90,66105,1,0,0:0:0:0:
227,146,66462,2,0,L|165:141,1,50,8|0,0:0|0:0,0:0:0:0:
100,198,67177,6,0,L|-9:207,2,100,0|8|8,0:0|0:0|0:0,0:0:0:0:
181,246,68962,1,8,0:0:0:0:
268,284,69320,2,0,L|273:343,1,50,12|0,0:0|0:0,0:0:0:0:
364,356,70034,6,0,L|372:251,1,100,12|8,0:0|0:0,0:0:0:0:
348,164,71105,1,0,0:0:0:0:
291,87,71462,2,0,P|247:64|187:68,1,100,0|8,0:0|0:0,0:0:0:0:
117,115,72534,1,0,0:0:0:0:
173,191,72891,6,0,P|216:213|266:211,1,100,0|8,0:0|0:0,0:0:0:0:
348,164,73962,1,0,0:0:0:0:
438,133,74320,2,0,L|433:26,1,100,0|8,0:0|0:0,0:0:0:0:
338,23,75391,1,0,0:0:0:0:
253,66,75748,6,0,P|202:73|144:65,1,100,2|8,0:0|0:0,0:0:0:0:
64,34,76820,1,0,0:0:0:0:
5,109,77177,2,0,L|10:172,1,50
81,220,77891,2,0,L|76:287,1,50,8|0,0:0|0:0,0:0:0:0:
134,345,78605,6,0,P|183:356|233:345,1,100,4|8,0:0|0:0,0:0:0:0:
293,274,79677,1,8,0:0:0:0:
229,203,80034,2,0,P|221:151|237:96,1,100,0|8,0:0|0:0,0:0:0:0:
311,52,81105,1,0,0:0:0:0:
256,192,81284,12,0,84208,0:0:0:0:
256,192,84769,12,0,89843,0:0:0:0:
