osu file format v14

[General]
AudioFilename: audio.mp3
AudioLeadIn: 0
PreviewTime: 45505
Countdown: 0
SampleSet: Soft
StackLeniency: 0.7
Mode: 0
LetterboxInBreaks: 0
WidescreenStoryboard: 0

[Editor]
DistanceSpacing: 1
BeatDivisor: 4
GridSize: 32
TimelineZoom: 1.6

[Metadata]
Title:Make it Real (Short Ver.)
TitleUnicode:Make it Real (Short Ver.)
Artist:Kaori Oda
ArtistUnicode:織田かおり
Creator:ShogunMoon
Version:Normal
Source:
Tags:Make it 津波幸平 Tsunami Kohei Sound Jewel Designers hikan akitoshi joker-
BeatmapID:1394203
BeatmapSetID:654788

[Difficulty]
HPDrainRate:4
CircleSize:3.3
OverallDifficulty:4
ApproachRate:5
SliderMultiplier:0.999999999999999
SliderTickRate:1

[Events]
//Background and Video events
0,0,"bgg.jpg",0,0
//Break Periods
//Storyboard Layer 0 (Background)
//Storyboard Layer 1 (Fail)
//Storyboard Layer 2 (Pass)
//Storyboard Layer 3 (Foreground)
//Storyboard Sound Samples

[TimingPoints]
843,337.078651685393,4,2,1,60,1,0
14326,-100,4,2,1,50,0,0
24944,-100,4,2,1,60,0,0
35899,-100,4,2,1,40,0,0
41292,-100,4,2,1,60,0,0
46011,-100,4,2,1,40,0,0
46517,-100,4,2,1,80,0,1
56966,-100,4,2,1,70,0,0
57303,-100,4,2,1,80,0,1
67416,-100,4,2,1,70,0,0
68090,-100,4,2,1,70,0,1
73651,-100,4,2,1,70,0,0
89410,-100,4,2,1,40,0,0

[Colours]
Combo1 : 215,162,251
Combo2 : 0,128,255
SliderTrackOverride : 30,30,30
SliderBorder : 255,255,250

[HitObjects]
38,136,3034,6,0,L|44:201,1,50,2|12,0:0|0:0,0:0:0:0:
61,283,3539,2,0,P|111:262|169:273,1,99.9999999999999,2|8,0:0|0:0,0:0:0:0:
200,287,4045,2,0,P|250:297|300:278,1,99.9999999999999,2|2,0:0|0:0,0:0:0:0:
332,248,4550,2,0,L|392:252,1,50,8|0,0:0|0:0,0:0:0:0:
431,244,4887,2,0,P|433:196|419:134,1,99.9999999999999,2|8,0:0|0:0,0:0:0:0:
376,56,5562,1,2,0:0:0:0:
278,32,5899,1,8,0:0:0:0:
200,94,6236,6,0,P|153:104|98:90,1,99.9999999999999,2|8,0:0|0:0,0:0:0:0:
56,75,6741,2,0,L|48:187,1,99.9999999999999,2|0,0:0|0:0,0:0:0:0:
14,210,7247,2,0,L|18:274,1,50,8|0,0:0|0:0,0:0:0:0:
19,309,7584,2,0,P|67:289|125:296,1,99.9999999999999,2|8,0:0|0:0,0:0:0:0:
200,342,8258,1,2,0:0:0:0:
299,350,8595,1,8,0:0:0:0:
375,286,8932,6,0,L|367:180,1,99.9999999999999,2|8,0:0|0:0,0:0:0:0:
360,136,9438,2,0,P|311:148|252:132,1,99.9999999999999,2|2,0:0|0:0,0:0:0:0:
220,111,9944,2,0,L|149:116,1,50,8|0,0:0|0:0,0:0:0:0:
145,158,10281,2,0,L|35:150,1,99.9999999999999,2|8,0:0|0:0,0:0:0:0:
15,246,10955,1,2,0:0:0:0:
47,340,11292,1,8,0:0:0:0:
145,356,11629,6,0,L|259:346,1,99.9999999999999,6|8,0:0|0:0,0:0:0:0:
272,305,12135,2,0,L|382:316,1,99.9999999999999,0|0,0:0|0:0,0:0:0:0:
419,303,12640,1,8,0:0:0:0:
443,206,12977,2,0,L|381:212,1,50,8|8,0:0|0:0,0:0:0:0:
343,216,13314,2,0,L|281:208,1,50,8|8,0:0|0:0,0:0:0:0:
243,201,13651,1,8,0:0:0:0:
243,201,13820,1,0,0:0:0:0:
272,53,14326,6,0,P|312:46|380:64,1,99.9999999999999,6|2,0:0|0:0,0:0:0:0:
456,107,15000,1,0,0:0:0:0:
443,206,15337,1,0,0:0:0:0:
343,214,15674,2,0,P|329:261|337:322,1,99.9999999999999,2|2,0:0|0:0,0:0:0:0:
296,344,16180,2,0,P|247:329|192:334,1,99.9999999999999,0|0,0:0|0:0,0:0:0:0:
123,267,16854,6,0,L|113:105,1,150,0|2,0:0|0:0,0:0:0:0:
191,55,17696,1,0,0:0:0:0:
254,132,18034,1,0,0:0:0:0:
336,188,18371,2,0,P|386:199|446:182,1,99.9999999999999,2|2,0:0|0:0,0:0:0:0:
474,161,18876,2,0,L|462:44,1,99.9999999999999,0|0,0:0|0:0,0:0:0:0:
366,36,19550,6,0,B|290:14|295:65|206:46,1,150,0|2,0:0|0:0,0:0:0:0:
120,34,20393,1,0,0:0:0:0:
50,106,20730,1,0,0:0:0:0:
84,199,21067,2,0,P|139:214|193:200,1,99.9999999999999,2|2,0:0|0:0,0:0:0:0:
221,177,21573,2,0,P|276:162|330:176,1,99.9999999999999,0|0,0:0|0:0,0:0:0:0:
413,196,22247,6,0,L|400:368,1,150,0|2,0:0|0:0,0:0:0:0:
302,356,23090,1,0,0:0:0:0:
206,326,23427,2,0,L|147:323,1,50,2|2,0:0|0:0,0:0:0:0:
111,301,23764,1,8,0:0:0:0:
111,301,23932,1,8,0:0:0:0:
53,162,24438,1,8,0:0:0:0:
53,162,24607,1,8,0:0:0:0:
112,81,24944,6,0,L|264:75,1,150,4|8,0:0|0:0,0:0:0:0:
361,73,25786,1,2,0:0:0:0:
432,142,26123,1,8,0:0:0:0:
363,214,26460,2,0,P|347:265|361:319,1,99.9999999999999,2|8,0:0|0:0,0:0:0:0:
349,359,26966,2,0,L|243:352,1,99.9999999999999,2|2,0:0|0:0,0:0:0:0:
209,321,27472,1,8,0:0:0:0:
121,273,27809,6,0,L|17:281,1,99.9999999999999,0|10,0:0|0:0,0:0:0:0:
3,182,28483,1,2,0:0:0:0:
21,83,28820,1,8,0:0:0:0:
115,49,29157,2,0,P|161:37|226:56,1,99.9999999999999,0|8,0:0|0:0,0:0:0:0:
240,88,29663,2,0,L|246:196,1,99.9999999999999,0|2,0:0|0:0,0:0:0:0:
250,237,30168,1,8,0:0:0:0:
348,222,30505,6,0,P|398:210|453:225,1,99.9999999999999,4|8,0:0|0:0,0:0:0:0:
465,318,31180,1,2,0:0:0:0:
372,354,31517,1,8,0:0:0:0:
273,339,31854,2,0,P|224:323|165:329,1,99.9999999999999,2|8,0:0|0:0,0:0:0:0:
126,330,32359,2,0,L|118:212,1,99.9999999999999,0|2,0:0|0:0,0:0:0:0:
115,180,32865,1,8,0:0:0:0:
179,103,33202,6,0,P|222:62|283:58,1,99.9999999999999,4|8,0:0|0:0,0:0:0:0:
364,46,33876,1,2,0:0:0:0:
364,46,34045,2,0,L|413:48,1,50,2|0,0:0|0:0,0:0:0:0:
453,78,34382,2,0,P|467:129|447:183,1,99.9999999999999,2|2,0:0|0:0,0:0:0:0:
422,211,34887,2,0,L|434:275,2,50,12|0|8,0:0|0:0|0:0,0:0:0:0:
372,205,35393,2,0,P|343:198|310:195,1,50,8|12,0:0|0:0,0:0:0:0:
224,215,35899,6,0,B|151:238|157:183|71:212,2,150,4|0|2,0:0|0:0|0:0,0:0:0:0:
223,115,37247,2,0,P|188:48|116:31,2,150,0|0|2,0:0|0:0|0:0,0:0:0:0:
273,202,38595,2,0,P|308:269|380:286,2,150,0|0|2,0:0|0:0|0:0,0:0:0:0:
338,126,39944,2,0,B|411:103|406:157|491:129,2,150,0|0|0,0:0|0:0|0:0,0:0:0:0:
305,163,41123,1,0,0:0:0:0:
273,202,41292,6,0,L|281:323,1,99.9999999999999,4|8,0:0|0:0,0:0:0:0:
196,357,41966,2,0,P|150:363|96:341,1,99.9999999999999,0|8,0:0|0:0,0:0:0:0:
50,258,42640,2,0,L|-11:265,2,50,8|8|8,0:0|0:0|0:0,0:0:0:0:
90,228,43146,2,0,P|86:196|76:160,1,50,8|8,0:0|0:0,0:0:0:0:
51,138,43483,2,0,P|55:106|65:70,1,50,8|8,0:0|0:0,0:0:0:0:
98,57,43820,1,8,0:0:0:0:
144,39,43989,6,0,B|225:10|221:68|306:41,2,150,2|2|0,0:0|0:0|0:0,0:0:0:0:
183,131,45337,1,6,0:0:0:0:
240,322,46011,1,8,0:0:0:0:
240,322,46180,1,8,0:0:0:0:
338,341,46517,6,0,P|390:350|450:321,1,99.9999999999999,6|0,0:0|0:0,0:0:0:0:
475,306,47022,1,8,0:0:0:0:
475,306,47191,2,0,L|462:196,1,99.9999999999999,0|0,0:0|0:0,0:0:0:0:
456,157,47696,1,8,0:0:0:0:
387,83,48034,2,0,P|345:59|286:62,1,99.9999999999999,2|8,0:0|0:0,0:0:0:0:
257,93,48539,2,0,L|150:81,1,99.9999999999999,0|0,0:0|0:0,0:0:0:0:
111,63,49045,1,8,0:0:0:0:
16,95,49382,6,0,L|22:207,1,99.9999999999999,2|8,0:0|0:0,0:0:0:0:
63,221,49887,2,0,L|57:334,1,99.9999999999999,0|0,0:0|0:0,0:0:0:0:
95,354,50393,1,8,0:0:0:0:
95,354,50562,2,0,P|141:365|198:352,1,99.9999999999999,2|0,0:0|0:0,0:0:0:0:
235,330,51067,1,8,0:0:0:0:
318,275,51404,2,0,L|309:203,1,50,2|2,0:0|0:0,0:0:0:0:
271,195,51741,2,0,L|278:129,1,50,8|8,0:0|0:0,0:0:0:0:
297,99,52078,6,0,P|342:80|401:86,1,99.9999999999999,2|8,0:0|0:0,0:0:0:0:
478,134,52753,2,0,L|471:250,1,99.9999999999999,2|8,0:0|0:0,0:0:0:0:
445,276,53258,2,0,P|396:273|340:308,1,99.9999999999999,0|0,0:0|0:0,0:0:0:0:
313,327,53764,1,8,0:0:0:0:
313,327,53932,2,0,L|193:319,1,99.9999999999999,0|2,0:0|0:0,0:0:0:0:
167,300,54438,1,8,0:0:0:0:
167,300,54607,6,0,B|138:218|196:224|160:135,1,150,14|8,0:0|0:0,0:0:0:0:
102,76,55449,2,0,P|142:58|214:66,1,99.9999999999999,0|8,0:0|0:0,0:0:0:0:
240,81,55955,2,0,P|300:89|346:69,1,99.9999999999999,8|0,0:0|0:0,0:0:0:0:
373,40,56460,1,2,0:0:0:0:
470,64,56798,2,0,L|475:124,1,50,2|8,0:0|0:0,0:0:0:0:
424,200,57303,6,0,P|377:189|313:205,1,99.9999999999999,6|0,0:0|0:0,0:0:0:0:
285,226,57808,1,8,0:0:0:0:
285,226,57977,2,0,L|297:341,1,99.9999999999999,0|0,0:0|0:0,0:0:0:0:
267,366,58483,1,8,0:0:0:0:
185,310,58820,2,0,P|144:287|84:289,1,99.9999999999999,2|8,0:0|0:0,0:0:0:0:
45,268,59325,2,0,L|49:160,1,99.9999999999999,0|0,0:0|0:0,0:0:0:0:
50,117,59831,1,8,0:0:0:0:
125,50,60168,6,0,P|176:33|234:44,1,99.9999999999999,2|8,0:0|0:0,0:0:0:0:
269,48,60673,2,0,L|263:161,1,99.9999999999999,0|0,0:0|0:0,0:0:0:0:
293,188,61179,1,8,0:0:0:0:
293,188,61348,2,0,P|339:199|396:186,1,99.9999999999999,2|0,0:0|0:0,0:0:0:0:
421,149,61854,1,8,0:0:0:0:
505,201,62191,2,0,L|501:260,1,50,2|2,0:0|0:0,0:0:0:0:
461,280,62527,2,0,L|466:348,1,50,8|8,0:0|0:0,0:0:0:0:
426,362,62865,6,0,P|379:369|328:352,1,99.9999999999999,2|8,0:0|0:0,0:0:0:0:
239,309,63539,2,0,L|230:191,1,99.9999999999999,2|8,0:0|0:0,0:0:0:0:
187,186,64044,2,0,L|196:69,1,99.9999999999999,0|0,0:0|0:0,0:0:0:0:
156,53,64550,1,8,0:0:0:0:
156,53,64719,2,0,P|108:43|56:56,1,99.9999999999999,0|0,0:0|0:0,0:0:0:0:
23,89,65225,1,8,0:0:0:0:
23,89,65393,6,0,B|0:135|0:135|17:254,1,150,14|8,0:0|0:0,0:0:0:0:
80,307,66236,1,2,0:0:0:0:
173,271,66573,1,8,0:0:0:0:
260,318,66910,2,0,P|312:328|369:311,1,99.9999999999999,6|8,0:0|0:0,0:0:0:0:
400,292,67416,1,2,0:0:0:0:
424,195,67753,1,2,0:0:0:0:
378,106,68090,6,0,B|303:81|311:135|224:109,1,150,4|8,0:0|0:0,0:0:0:0:
134,88,68932,1,0,0:0:0:0:
144,187,69269,1,8,0:0:0:0:
234,234,69607,2,0,L|224:346,1,99.9999999999999,2|8,0:0|0:0,0:0:0:0:
261,367,70112,2,0,P|311:376|370:359,1,99.9999999999999,0|0,0:0|0:0,0:0:0:0:
405,348,70618,1,8,0:0:0:0:
446,320,70786,6,0,B|470:243|413:249|442:159,1,150,0|8,0:0|0:0,0:0:0:0:
464,131,71460,2,0,P|416:140|353:114,1,99.9999999999999,8|8,0:0|0:0,0:0:0:0:
333,89,71966,1,8,0:0:0:0:
333,89,72135,2,0,L|219:83,1,99.9999999999999,8|8,0:0|0:0,0:0:0:0:
184,72,72640,1,4,0:0:0:0:
94,120,72977,1,0,0:0:0:0:
126,214,73314,1,8,0:0:0:0:
224,230,73651,6,0,L|231:336,1,99.9999999999999,6|8,0:0|0:0,0:0:0:0:
263,367,74157,2,0,P|316:357|364:363,1,99.9999999999999,2|2,0:0|0:0,0:0:0:0:
411,357,74663,2,0,L|407:287,1,50,8|0,0:0|0:0,0:0:0:0:
375,268,75000,2,0,L|381:165,1,99.9999999999999,2|8,0:0|0:0,0:0:0:0:
415,74,75674,1,2,0:0:0:0:
328,24,76011,1,8,0:0:0:0:
237,65,76348,6,0,L|130:57,1,99.9999999999999,2|8,0:0|0:0,0:0:0:0:
92,80,76854,2,0,P|74:129|87:193,1,99.9999999999999,2|0,0:0|0:0,0:0:0:0:
102,219,77359,2,0,L|163:225,1,50,8|0,0:0|0:0,0:0:0:0:
190,255,77696,2,0,L|295:247,1,99.9999999999999,2|8,0:0|0:0,0:0:0:0:
298,147,78371,1,2,0:0:0:0:
364,72,78708,1,8,0:0:0:0:
448,128,79045,6,0,L|441:244,1,99.9999999999999,2|8,0:0|0:0,0:0:0:0:
395,246,79550,2,0,L|402:355,1,99.9999999999999,2|2,0:0|0:0,0:0:0:0:
352,355,80056,2,0,P|324:350|289:353,1,50,8|0,0:0|0:0,0:0:0:0:
255,367,80393,2,0,P|207:375|156:365,1,99.9999999999999,2|8,0:0|0:0,0:0:0:0:
72,312,81067,1,2,0:0:0:0:
37,218,81404,1,8,0:0:0:0:
114,154,81741,6,0,L|123:50,1,99.9999999999999,6|8,0:0|0:0,0:0:0:0:
167,32,82247,2,0,P|217:22|271:46,1,99.9999999999999,0|0,0:0|0:0,0:0:0:0:
301,69,82752,1,8,0:0:0:0:
263,161,83089,2,0,L|257:221,1,50,8|8,0:0|0:0,0:0:0:0:
221,244,83427,2,0,L|227:306,1,50,8|8,0:0|0:0,0:0:0:0:
241,341,83763,1,8,0:0:0:0:
241,341,83932,1,8,0:0:0:0:
256,192,84269,12,0,89410,0:0:0:0:
