osu file format v14

[General]
AudioFilename: audio.mp3
AudioLeadIn: 0
PreviewTime: 100286
Countdown: 0
SampleSet: Normal
StackLeniency: 0.7
Mode: 1
LetterboxInBreaks: 0
WidescreenStoryboard: 0

[Editor]
DistanceSpacing: 1.2
BeatDivisor: 4
GridSize: 32
TimelineZoom: 1

[Metadata]
Title:My Truth~Rondo capriccioso
TitleUnicode:My Truth~ロンド・カプリチオーソ
Artist:Kaora Miyazono (CV. Risa Taneda)
ArtistUnicode:宮園かをり(CV.種田梨沙)
Creator:Nifty
Version:Light of Life
Source:四月は君の嘘
Tags:your lie in april shigatsu wa kimi no uso setsuna insert
BeatmapID:1975963
BeatmapSetID:946314

[Difficulty]
HPDrainRate:5
CircleSize:2
OverallDifficulty:3.5
ApproachRate:10
SliderMultiplier:1.4
SliderTickRate:1

[Events]
//Background and Video events
0,0,"waifu.jpg",0,-100
//Break Periods
//Storyboard Layer 0 (Background)
//Storyboard Layer 1 (Fail)
//Storyboard Layer 2 (Pass)
//Storyboard Layer 3 (Foreground)
//Storyboard Sound Samples

[TimingPoints]
526,410.958904109589,3,1,0,5,1,0
526,-166.666666666667,3,1,0,5,0,0
21382,-125,3,1,0,15,0,0
41108,-125,3,1,0,20,0,0
80560,-125,3,1,0,30,0,0
92786,-125,3,1,0,10,0,0
96793,-125,3,1,0,10,0,0
99361,-121.951219512195,3,1,0,10,0,0
99567,-119.047619047619,3,1,0,10,0,0
99772,-116.279069767442,3,1,0,20,0,0
99978,-113.636363636364,3,1,0,20,0,0
100389,-100,3,1,0,50,0,1
147238,-100,3,1,0,30,0,0
147854,-106.382978723404,3,1,0,30,0,0
148471,-108.695652173913,3,1,0,30,0,0
148882,-113.636363636364,3,1,0,30,0,0
149087,-116.279069767442,3,1,0,30,0,0
149293,-119.047619047619,3,1,0,30,0,0
149498,-121.951219512195,3,1,0,30,0,0
149704,-125,3,1,0,30,0,0
166861,-142.857142857143,3,1,0,20,0,0
184121,-142.857142857143,3,1,0,10,0,0
186587,-125,3,1,0,30,0,0
206313,-125,3,1,0,30,0,0
210834,-125,3,1,0,40,0,0
218642,-125,3,1,0,10,0,0
225115,-121.951219512195,3,1,0,10,0,0
225320,-119.047619047619,3,1,0,10,0,0
225525,-116.279069767442,3,1,0,20,0,0
225731,-113.636363636364,3,1,0,20,0,0
227375,-100,3,1,0,50,0,1
252032,-100,3,1,0,60,0,1
274224,-100,3,1,0,20,0,0
274841,-104.166666666667,3,1,0,20,0,0
275457,-108.695652173913,3,1,0,20,0,0
276690,-116.279069767442,3,1,0,20,0,0
277306,-121.951219512195,3,1,0,20,0,0
277923,-128.205128205128,3,1,0,20,0,0
279156,-125,3,1,0,20,0,0
297649,-142.857142857143,3,1,0,20,0,0
298882,-166.666666666667,3,1,0,20,0,0
303710,-166.666666666667,3,1,0,10,0,0

[Colours]
Combo1 : 255,255,128
Combo2 : 0,255,0
Combo3 : 255,128,64
Combo4 : 255,50,50

[HitObjects]
268,120,526,5,8,0:0:0:0:
257,109,1347,1,8,0:0:0:0:
261,112,2169,1,0,0:0:0:0:
261,112,2375,1,0,0:0:0:0:
261,112,2580,1,0,0:0:0:0:
268,111,2786,1,0,0:0:0:0:
268,111,2991,1,8,0:0:0:0:
257,109,3813,1,8,0:0:0:0:
265,111,4635,1,0,0:0:0:0:
265,111,4841,1,0,0:0:0:0:
267,112,5046,1,0,0:0:0:0:
267,112,5252,1,8,0:0:0:0:
267,112,5457,1,8,0:0:0:0:
244,123,6690,1,8,0:0:0:0:
244,123,7101,1,8,0:0:0:0:
244,123,7717,1,8,0:0:0:0:
244,123,7923,1,0,0:0:0:0:
265,112,10389,1,0,0:0:0:0:
260,127,12854,1,8,0:0:0:0:
258,126,15320,1,8,0:0:0:0:
265,148,17786,1,8,0:0:0:0:
273,151,21484,1,8,0:0:0:0:
276,141,22306,1,8,0:0:0:0:
272,152,22717,1,12,0:0:0:0:
272,152,23128,1,0,0:0:0:0:
272,152,23334,1,0,0:0:0:0:
272,152,23539,1,0,0:0:0:0:
281,109,23745,1,8,0:0:0:0:
272,152,23950,1,8,0:0:0:0:
271,151,26416,1,8,0:0:0:0:
271,151,27238,1,8,0:0:0:0:
272,152,28060,1,0,0:0:0:0:
272,152,28265,1,0,0:0:0:0:
272,152,28471,1,0,0:0:0:0:
284,105,28676,1,0,0:0:0:0:
272,152,28882,1,8,0:0:0:0:
272,139,29087,1,0,0:0:0:0:
272,139,29293,1,8,0:0:0:0:
249,118,31347,1,8,0:0:0:0:
246,105,32169,1,8,0:0:0:0:
245,105,32580,1,12,0:0:0:0:
247,117,32991,1,0,0:0:0:0:
256,108,33197,1,0,0:0:0:0:
256,108,33402,1,0,0:0:0:0:
256,108,33608,1,8,0:0:0:0:
247,108,33813,1,8,0:0:0:0:
238,123,36279,1,8,0:0:0:0:
248,132,37101,1,8,0:0:0:0:
253,117,37923,1,0,0:0:0:0:
253,117,38128,1,0,0:0:0:0:
253,117,38334,1,0,0:0:0:0:
253,117,38539,1,0,0:0:0:0:
253,117,38745,1,8,0:0:0:0:
252,118,41210,1,0,0:0:0:0:
226,150,42032,1,8,0:0:0:0:
226,150,42238,1,0,0:0:0:0:
226,150,42443,1,8,0:0:0:0:
226,150,43265,1,0,0:0:0:0:
226,150,43676,1,8,0:0:0:0:
226,150,44498,1,0,0:0:0:0:
226,150,44909,1,8,0:0:0:0:
226,150,45526,1,0,0:0:0:0:
226,150,45731,1,8,0:0:0:0:
226,150,45936,1,8,0:0:0:0:
226,150,46142,1,0,0:0:0:0:
237,136,51073,1,0,0:0:0:0:
237,143,51895,1,8,0:0:0:0:
237,143,52101,1,8,0:0:0:0:
237,143,52306,1,0,0:0:0:0:
237,143,53128,1,0,0:0:0:0:
237,143,53539,1,8,0:0:0:0:
237,143,54361,1,0,0:0:0:0:
237,143,54772,1,8,0:0:0:0:
237,143,55389,1,0,0:0:0:0:
237,143,55594,1,0,0:0:0:0:
237,143,55799,1,8,0:0:0:0:
237,143,56005,1,8,0:0:0:0:
238,141,57238,1,0,0:0:0:0:
237,141,60525,1,0,0:0:0:0:
237,141,60731,1,0,0:0:0:0:
237,141,60936,1,8,0:0:0:0:
247,134,61142,1,0,0:0:0:0:
247,134,61347,1,8,0:0:0:0:
262,127,62169,1,8,0:0:0:0:
262,127,62375,1,0,0:0:0:0:
262,127,62580,1,8,0:0:0:0:
263,127,63197,1,0,0:0:0:0:
263,127,63402,1,8,0:0:0:0:
263,127,63608,1,0,0:0:0:0:
273,132,63813,1,8,0:0:0:0:
273,126,64635,1,8,0:0:0:0:
273,126,64841,1,0,0:0:0:0:
273,126,65046,1,0,0:0:0:0:
273,126,65252,1,8,0:0:0:0:
273,126,65457,1,0,0:0:0:0:
273,126,65662,1,0,0:0:0:0:
273,126,65868,1,8,0:0:0:0:
272,110,67101,1,0,0:0:0:0:
276,109,70389,1,0,0:0:0:0:
276,109,70594,1,0,0:0:0:0:
276,109,70799,1,8,0:0:0:0:
276,109,71005,1,0,0:0:0:0:
276,109,71210,1,8,0:0:0:0:
276,109,72032,1,8,0:0:0:0:
276,109,72238,1,0,0:0:0:0:
276,109,72443,1,8,0:0:0:0:
276,109,73060,1,0,0:0:0:0:
276,109,73265,1,8,0:0:0:0:
276,109,73471,1,0,0:0:0:0:
276,109,73676,1,8,0:0:0:0:
273,103,74498,1,8,0:0:0:0:
273,103,74704,1,0,0:0:0:0:
273,103,74909,1,8,0:0:0:0:
273,103,75115,1,0,0:0:0:0:
273,103,75320,1,8,0:0:0:0:
273,103,75526,1,8,0:0:0:0:
273,103,75731,1,8,0:0:0:0:
273,103,76964,1,0,0:0:0:0:
272,103,80662,1,8,0:0:0:0:
272,103,80868,1,0,0:0:0:0:
272,103,81073,1,8,0:0:0:0:
272,103,81279,1,8,0:0:0:0:
272,103,81484,1,0,0:0:0:0:
272,103,81690,1,0,0:0:0:0:
272,103,81895,1,8,0:0:0:0:
272,103,82101,1,0,0:0:0:0:
272,103,82306,1,0,0:0:0:0:
272,103,82512,1,8,0:0:0:0:
272,103,82717,1,0,0:0:0:0:
272,103,82923,1,8,0:0:0:0:
272,103,83128,1,8,0:0:0:0:
274,99,83950,1,0,0:0:0:0:
274,99,84772,1,8,0:0:0:0:
274,99,85183,1,8,0:0:0:0:
274,100,85594,1,8,0:0:0:0:
274,100,85799,1,0,0:0:0:0:
274,100,86005,1,8,0:0:0:0:
274,100,86210,1,8,0:0:0:0:
274,100,86416,1,0,0:0:0:0:
274,100,86621,1,0,0:0:0:0:
274,100,86827,1,8,0:0:0:0:
274,100,87032,1,0,0:0:0:0:
274,100,87238,1,8,0:0:0:0:
274,100,87443,1,8,0:0:0:0:
274,100,87649,1,0,0:0:0:0:
274,100,87854,1,0,0:0:0:0:
274,100,88882,1,0,0:0:0:0:
274,100,89704,1,8,0:0:0:0:
269,104,90526,1,0,0:0:0:0:
267,109,91758,1,8,0:0:0:0:
197,227,92991,2,0,L|263:203,18,56
314,113,97923,5,8,0:0:0:0:
315,115,98539,1,8,0:0:0:0:
313,114,99156,1,8,0:0:0:0:
313,114,99361,1,8,0:0:0:0:
313,114,99567,1,8,0:0:0:0:
313,114,99772,1,8,0:0:0:0:
313,114,99978,1,8,0:0:0:0:
315,102,100389,1,4,0:0:0:0:
308,99,100799,1,8,0:0:0:0:
308,99,101005,1,0,0:0:0:0:
308,99,101210,1,0,0:0:0:0:
308,99,101416,1,8,0:0:0:0:
308,99,101621,1,0,0:0:0:0:
307,90,102032,1,0,0:0:0:0:
307,90,102443,1,8,0:0:0:0:
307,90,102649,1,0,0:0:0:0:
307,90,102854,1,8,0:0:0:0:
320,91,103471,1,0,0:0:0:0:
307,90,103676,1,8,0:0:0:0:
307,89,104087,1,0,0:0:0:0:
307,89,104498,1,0,0:0:0:0:
307,89,104704,1,0,0:0:0:0:
307,89,104909,1,8,0:0:0:0:
307,89,105115,1,8,0:0:0:0:
307,89,105320,1,0,0:0:0:0:
304,89,105731,1,8,0:0:0:0:
304,89,106142,1,8,0:0:0:0:
304,89,106347,1,8,0:0:0:0:
304,89,106553,1,0,0:0:0:0:
300,92,106964,1,8,0:0:0:0:
300,92,107375,1,8,0:0:0:0:
300,92,107786,1,0,0:0:0:0:
295,94,108197,1,8,0:0:0:0:
295,94,108402,1,0,0:0:0:0:
295,94,108608,1,0,0:0:0:0:
295,94,108813,1,8,0:0:0:0:
295,94,109019,1,8,0:0:0:0:
296,88,109430,1,0,0:0:0:0:
296,88,109635,1,8,0:0:0:0:
296,88,109841,1,8,0:0:0:0:
296,88,110252,1,0,0:0:0:0:
295,87,110662,1,0,0:0:0:0:
295,87,110868,1,8,0:0:0:0:
295,87,111073,1,0,0:0:0:0:
295,87,111279,1,0,0:0:0:0:
294,79,111484,1,8,0:0:0:0:
293,84,111895,1,0,0:0:0:0:
293,84,112101,1,8,0:0:0:0:
293,84,112306,1,8,0:0:0:0:
293,84,112512,1,0,0:0:0:0:
293,84,112717,1,8,0:0:0:0:
293,84,113128,1,0,0:0:0:0:
304,68,113539,1,0,0:0:0:0:
303,67,113950,1,8,0:0:0:0:
306,56,114361,1,8,0:0:0:0:
298,68,114772,1,0,0:0:0:0:
298,68,115183,1,0,0:0:0:0:
293,58,115799,1,0,0:0:0:0:
303,56,116005,1,8,0:0:0:0:
303,56,116210,1,0,0:0:0:0:
303,56,116416,1,8,0:0:0:0:
296,54,117238,1,0,0:0:0:0:
284,46,117649,1,8,0:0:0:0:
296,47,118265,1,0,0:0:0:0:
296,47,118471,1,8,0:0:0:0:
296,47,118882,1,8,0:0:0:0:
295,47,119498,1,8,0:0:0:0:
295,47,119704,1,8,0:0:0:0:
296,47,120115,1,0,0:0:0:0:
294,47,120525,1,8,0:0:0:0:
294,47,120731,1,0,0:0:0:0:
294,47,120936,1,8,0:0:0:0:
294,47,121142,1,8,0:0:0:0:
294,47,121347,1,0,0:0:0:0:
294,47,121964,1,0,0:0:0:0:
294,47,122169,1,8,0:0:0:0:
294,47,122580,1,8,0:0:0:0:
294,47,122786,1,0,0:0:0:0:
294,47,122991,1,0,0:0:0:0:
294,47,123197,1,8,0:0:0:0:
294,47,123402,1,0,0:0:0:0:
294,47,123608,1,0,0:0:0:0:
294,47,123813,1,8,0:0:0:0:
294,47,124019,1,0,0:0:0:0:
294,47,124224,1,0,0:0:0:0:
294,47,124430,1,8,0:0:0:0:
294,47,124635,1,8,0:0:0:0:
294,47,124841,1,8,0:0:0:0:
294,47,125046,1,4,0:0:0:0:
293,57,125457,1,0,0:0:0:0:
293,57,125662,1,8,0:0:0:0:
275,45,125868,1,0,0:0:0:0:
283,50,126073,1,0,0:0:0:0:
289,50,126279,1,8,0:0:0:0:
289,50,126690,1,0,0:0:0:0:
286,47,127101,1,8,0:0:0:0:
286,47,127306,1,0,0:0:0:0:
286,47,127512,1,8,0:0:0:0:
288,54,128128,1,0,0:0:0:0:
288,54,128334,1,8,0:0:0:0:
288,54,128539,1,8,0:0:0:0:
288,54,128745,1,0,0:0:0:0:
286,59,129156,1,8,0:0:0:0:
286,59,129567,1,8,0:0:0:0:
286,59,129772,1,0,0:0:0:0:
286,59,129978,1,0,0:0:0:0:
286,59,130389,1,8,0:0:0:0:
286,59,130594,1,0,0:0:0:0:
286,59,130799,1,8,0:0:0:0:
286,59,131005,1,0,0:0:0:0:
286,59,131210,1,0,0:0:0:0:
303,56,131621,1,8,0:0:0:0:
296,57,132032,1,0,0:0:0:0:
296,57,132238,1,0,0:0:0:0:
296,57,132443,1,8,0:0:0:0:
296,57,132854,1,0,0:0:0:0:
296,57,133060,1,8,0:0:0:0:
296,57,133265,1,0,0:0:0:0:
296,57,133471,1,0,0:0:0:0:
296,57,133676,1,8,0:0:0:0:
296,57,134087,1,0,0:0:0:0:
296,57,134293,1,8,0:0:0:0:
297,49,134498,1,8,0:0:0:0:
297,49,134704,1,0,0:0:0:0:
297,49,134909,1,12,0:0:0:0:
296,49,135526,1,0,0:0:0:0:
296,49,135731,1,8,0:0:0:0:
296,49,135936,1,0,0:0:0:0:
296,49,136142,1,8,0:0:0:0:
295,49,136758,1,8,0:0:0:0:
295,49,136964,1,0,0:0:0:0:
295,49,137169,1,0,0:0:0:0:
295,49,137375,1,8,0:0:0:0:
295,50,137991,1,0,0:0:0:0:
295,50,138608,1,8,0:0:0:0:
295,50,139019,1,0,0:0:0:0:
295,50,139430,1,0,0:0:0:0:
295,50,139841,1,8,0:0:0:0:
295,50,140662,1,0,0:0:0:0:
295,50,141073,1,8,0:0:0:0:
295,50,141895,1,8,0:0:0:0:
295,50,142306,1,8,0:0:0:0:
251,155,144772,1,0,0:0:0:0:
251,155,145389,1,8,0:0:0:0:
251,155,145594,1,0,0:0:0:0:
252,145,145799,1,0,0:0:0:0:
252,145,146005,1,8,0:0:0:0:
251,146,146827,1,0,0:0:0:0:
273,151,147238,1,8,0:0:0:0:
283,151,147854,1,0,0:0:0:0:
276,141,148060,1,8,0:0:0:0:
283,151,148471,1,0,0:0:0:0:
272,152,148882,1,0,0:0:0:0:
272,152,149087,1,0,0:0:0:0:
272,152,149293,1,0,0:0:0:0:
281,109,149498,1,8,0:0:0:0:
272,152,149704,1,8,0:0:0:0:
271,151,152169,1,8,0:0:0:0:
286,147,152786,1,0,0:0:0:0:
271,151,152991,1,8,0:0:0:0:
278,147,153402,1,0,0:0:0:0:
272,152,153813,1,0,0:0:0:0:
272,152,154019,1,0,0:0:0:0:
272,152,154224,1,0,0:0:0:0:
284,105,154430,1,0,0:0:0:0:
272,152,154635,1,8,0:0:0:0:
272,139,154841,1,0,0:0:0:0:
272,139,155046,1,8,0:0:0:0:
249,118,157101,5,8,0:0:0:0:
273,148,157717,1,0,0:0:0:0:
246,105,157923,1,8,0:0:0:0:
273,148,158334,1,0,0:0:0:0:
247,117,158745,1,0,0:0:0:0:
256,108,158950,1,0,0:0:0:0:
256,108,159156,1,0,0:0:0:0:
256,108,159361,1,8,0:0:0:0:
247,108,159567,1,8,0:0:0:0:
238,123,162032,1,8,0:0:0:0:
248,132,162649,1,0,0:0:0:0:
248,132,162854,1,8,0:0:0:0:
253,117,163265,1,0,0:0:0:0:
253,117,163676,1,0,0:0:0:0:
253,117,163882,1,0,0:0:0:0:
253,117,164087,1,0,0:0:0:0:
253,117,164293,1,0,0:0:0:0:
253,117,164498,1,8,0:0:0:0:
261,122,166964,1,0,0:0:0:0:
255,141,167375,5,8,0:0:0:0:
260,131,168197,1,0,0:0:0:0:
254,117,171895,1,0,0:0:0:0:
260,131,172512,1,0,0:0:0:0:
260,131,173128,1,0,0:0:0:0:
263,137,176827,1,0,0:0:0:0:
263,137,177443,1,0,0:0:0:0:
263,137,178060,1,0,0:0:0:0:
251,164,181758,1,0,0:0:0:0:
256,160,182375,1,0,0:0:0:0:
256,160,182991,1,0,0:0:0:0:
230,222,184224,2,0,L|263:205,12,24.4999992523194
278,114,186690,1,0,0:0:0:0:
278,114,187101,1,8,0:0:0:0:
278,114,187306,1,0,0:0:0:0:
277,114,187923,1,0,0:0:0:0:
273,100,188334,1,8,0:0:0:0:
279,97,189156,1,0,0:0:0:0:
273,100,191621,1,0,0:0:0:0:
271,102,192238,1,0,0:0:0:0:
271,102,192854,1,0,0:0:0:0:
274,104,196553,1,0,0:0:0:0:
273,100,196964,1,8,0:0:0:0:
273,100,197169,1,0,0:0:0:0:
273,100,197786,1,0,0:0:0:0:
276,91,198197,1,8,0:0:0:0:
268,98,199019,1,0,0:0:0:0:
269,93,201484,1,0,0:0:0:0:
268,93,202101,1,0,0:0:0:0:
268,93,202717,1,0,0:0:0:0:
268,93,206416,1,8,0:0:0:0:
268,93,206621,1,0,0:0:0:0:
268,93,206827,1,8,0:0:0:0:
268,93,207032,1,8,0:0:0:0:
268,93,207238,1,0,0:0:0:0:
268,93,207443,1,0,0:0:0:0:
268,93,207649,1,8,0:0:0:0:
268,93,207854,1,0,0:0:0:0:
268,93,208060,1,8,0:0:0:0:
268,93,208265,1,8,0:0:0:0:
268,93,208471,1,0,0:0:0:0:
268,93,208676,1,8,0:0:0:0:
268,93,208882,1,8,0:0:0:0:
269,80,209704,1,0,0:0:0:0:
269,80,210526,1,8,0:0:0:0:
269,80,210936,1,8,0:0:0:0:
269,80,211347,1,8,0:0:0:0:
269,80,211553,1,0,0:0:0:0:
269,80,211758,1,8,0:0:0:0:
269,80,211964,1,8,0:0:0:0:
269,80,212169,1,0,0:0:0:0:
269,80,212375,1,0,0:0:0:0:
269,80,212580,1,8,0:0:0:0:
269,80,212786,1,0,0:0:0:0:
269,80,212991,1,8,0:0:0:0:
269,80,213197,1,8,0:0:0:0:
269,80,213402,1,0,0:0:0:0:
269,80,213608,1,0,0:0:0:0:
268,80,214635,1,0,0:0:0:0:
267,80,215457,1,8,0:0:0:0:
266,80,216279,1,0,0:0:0:0:
266,79,217512,1,8,0:0:0:0:
211,221,218745,6,0,L|276:202,18,56
256,88,223676,5,8,0:0:0:0:
252,103,224293,1,8,0:0:0:0:
251,102,224909,1,8,0:0:0:0:
251,102,225115,1,8,0:0:0:0:
251,102,225320,1,8,0:0:0:0:
251,102,225525,1,8,0:0:0:0:
251,102,225731,1,8,0:0:0:0:
315,102,227375,1,4,0:0:0:0:
308,99,227786,1,8,0:0:0:0:
308,99,227991,1,0,0:0:0:0:
308,99,228197,1,0,0:0:0:0:
308,99,228402,1,8,0:0:0:0:
308,99,228608,1,0,0:0:0:0:
307,90,229019,1,0,0:0:0:0:
307,90,229430,1,8,0:0:0:0:
307,90,229635,1,0,0:0:0:0:
307,90,229841,1,8,0:0:0:0:
301,102,230457,1,0,0:0:0:0:
307,90,230662,1,8,0:0:0:0:
307,89,231073,1,0,0:0:0:0:
307,89,231484,1,0,0:0:0:0:
307,89,231690,1,0,0:0:0:0:
307,89,231895,1,8,0:0:0:0:
307,89,232101,1,8,0:0:0:0:
307,89,232306,1,0,0:0:0:0:
304,89,232717,1,8,0:0:0:0:
304,89,233128,1,8,0:0:0:0:
304,89,233334,1,8,0:0:0:0:
304,89,233539,1,0,0:0:0:0:
300,92,233950,1,8,0:0:0:0:
300,92,234361,1,8,0:0:0:0:
300,92,234772,1,0,0:0:0:0:
295,94,235183,1,8,0:0:0:0:
295,94,235389,1,0,0:0:0:0:
295,94,235594,1,0,0:0:0:0:
295,94,235799,1,8,0:0:0:0:
295,94,236005,1,8,0:0:0:0:
296,88,236416,1,0,0:0:0:0:
296,88,236621,1,8,0:0:0:0:
296,88,236827,1,8,0:0:0:0:
296,88,237238,1,0,0:0:0:0:
295,87,237649,1,0,0:0:0:0:
295,87,237854,1,8,0:0:0:0:
295,87,238060,1,0,0:0:0:0:
295,87,238265,1,0,0:0:0:0:
294,79,238471,1,8,0:0:0:0:
293,84,238882,1,0,0:0:0:0:
293,84,239087,1,8,0:0:0:0:
293,84,239293,1,8,0:0:0:0:
293,84,239498,1,0,0:0:0:0:
293,84,239704,1,8,0:0:0:0:
293,84,240115,1,0,0:0:0:0:
304,68,240525,1,0,0:0:0:0:
303,67,240936,1,8,0:0:0:0:
306,56,241347,1,8,0:0:0:0:
298,68,241758,1,0,0:0:0:0:
298,68,242169,1,0,0:0:0:0:
293,58,242786,1,0,0:0:0:0:
303,56,242991,1,8,0:0:0:0:
303,56,243197,1,0,0:0:0:0:
303,56,243402,1,8,0:0:0:0:
296,54,244224,1,0,0:0:0:0:
284,46,244635,1,8,0:0:0:0:
296,47,245252,1,0,0:0:0:0:
296,47,245457,1,8,0:0:0:0:
296,47,245868,1,8,0:0:0:0:
295,47,246484,1,8,0:0:0:0:
295,47,246690,1,8,0:0:0:0:
296,47,247101,1,0,0:0:0:0:
294,47,247512,1,8,0:0:0:0:
294,47,247717,1,0,0:0:0:0:
294,47,247923,1,8,0:0:0:0:
294,47,248128,1,8,0:0:0:0:
294,47,248334,1,0,0:0:0:0:
294,47,248950,1,0,0:0:0:0:
294,47,249156,1,8,0:0:0:0:
294,47,249567,1,8,0:0:0:0:
294,47,249772,1,0,0:0:0:0:
294,47,249978,1,0,0:0:0:0:
294,47,250183,1,8,0:0:0:0:
294,47,250389,1,0,0:0:0:0:
294,47,250594,1,0,0:0:0:0:
294,47,250799,1,8,0:0:0:0:
294,47,251005,1,0,0:0:0:0:
294,47,251210,1,0,0:0:0:0:
294,47,251416,1,8,0:0:0:0:
294,47,251621,1,8,0:0:0:0:
294,47,251827,1,8,0:0:0:0:
294,47,252032,1,4,0:0:0:0:
293,57,252443,1,0,0:0:0:0:
293,57,252649,1,8,0:0:0:0:
275,45,252854,1,0,0:0:0:0:
283,50,253060,1,0,0:0:0:0:
289,50,253265,1,8,0:0:0:0:
289,50,253676,1,0,0:0:0:0:
286,47,254087,1,8,0:0:0:0:
286,47,254293,1,0,0:0:0:0:
286,47,254498,1,8,0:0:0:0:
288,54,255115,1,0,0:0:0:0:
288,54,255320,1,8,0:0:0:0:
288,54,255525,1,8,0:0:0:0:
288,54,255731,1,0,0:0:0:0:
286,59,256142,1,8,0:0:0:0:
286,59,256553,1,8,0:0:0:0:
286,59,256758,1,0,0:0:0:0:
286,59,256964,1,0,0:0:0:0:
286,59,257375,1,8,0:0:0:0:
286,59,257580,1,0,0:0:0:0:
286,59,257786,1,8,0:0:0:0:
286,59,257991,1,0,0:0:0:0:
286,59,258197,1,0,0:0:0:0:
303,56,258608,1,8,0:0:0:0:
296,57,259019,1,0,0:0:0:0:
296,57,259224,1,0,0:0:0:0:
296,57,259430,1,8,0:0:0:0:
296,57,259841,1,0,0:0:0:0:
296,57,260046,1,8,0:0:0:0:
296,57,260252,1,0,0:0:0:0:
296,57,260457,1,0,0:0:0:0:
296,57,260662,1,8,0:0:0:0:
296,57,261073,1,0,0:0:0:0:
296,57,261279,1,8,0:0:0:0:
297,49,261484,1,8,0:0:0:0:
297,49,261690,1,0,0:0:0:0:
297,49,261895,1,12,0:0:0:0:
296,49,262512,1,0,0:0:0:0:
296,49,262717,1,8,0:0:0:0:
296,49,262923,1,0,0:0:0:0:
296,49,263128,1,8,0:0:0:0:
295,49,263745,1,8,0:0:0:0:
295,49,263950,1,0,0:0:0:0:
295,49,264156,1,0,0:0:0:0:
295,49,264361,1,8,0:0:0:0:
295,50,264978,1,0,0:0:0:0:
295,50,265594,1,8,0:0:0:0:
295,50,266005,1,0,0:0:0:0:
295,50,266416,1,0,0:0:0:0:
295,50,266827,1,8,0:0:0:0:
295,50,267649,1,0,0:0:0:0:
295,50,268060,1,8,0:0:0:0:
295,50,268882,1,8,0:0:0:0:
295,50,269293,1,8,0:0:0:0:
251,155,271758,1,0,0:0:0:0:
251,155,272375,1,8,0:0:0:0:
251,155,272580,1,0,0:0:0:0:
252,145,272786,1,0,0:0:0:0:
252,145,272991,1,8,0:0:0:0:
251,146,273813,1,0,0:0:0:0:
251,146,274224,1,8,0:0:0:0:
258,123,274841,1,0,0:0:0:0:
258,123,275457,1,0,0:0:0:0:
257,128,276690,1,0,0:0:0:0:
257,127,277306,1,0,0:0:0:0:
260,126,277923,1,0,0:0:0:0:
273,151,279156,1,8,0:0:0:0:
276,141,279772,1,0,0:0:0:0:
276,141,279978,1,8,0:0:0:0:
275,144,280389,1,0,0:0:0:0:
272,152,280799,1,0,0:0:0:0:
272,152,281005,1,0,0:0:0:0:
272,152,281210,1,0,0:0:0:0:
281,109,281416,1,8,0:0:0:0:
272,152,281621,1,8,0:0:0:0:
271,151,284087,1,8,0:0:0:0:
271,138,284704,1,0,0:0:0:0:
271,151,284909,1,8,0:0:0:0:
271,138,285320,1,0,0:0:0:0:
272,152,285731,1,0,0:0:0:0:
272,152,285936,1,0,0:0:0:0:
272,152,286142,1,0,0:0:0:0:
284,105,286347,1,0,0:0:0:0:
272,152,286553,1,8,0:0:0:0:
272,139,286758,1,0,0:0:0:0:
272,139,286964,1,8,0:0:0:0:
249,118,289019,5,8,0:0:0:0:
271,137,289635,1,0,0:0:0:0:
246,105,289841,1,8,0:0:0:0:
245,105,290252,1,0,0:0:0:0:
247,117,290662,1,0,0:0:0:0:
256,108,290868,1,0,0:0:0:0:
256,108,291073,1,0,0:0:0:0:
256,108,291279,1,8,0:0:0:0:
247,108,291484,1,8,0:0:0:0:
238,123,293950,1,8,0:0:0:0:
248,132,294567,1,0,0:0:0:0:
248,132,294772,1,8,0:0:0:0:
253,117,295183,1,0,0:0:0:0:
253,117,295594,1,0,0:0:0:0:
253,117,295799,1,0,0:0:0:0:
253,117,296005,1,0,0:0:0:0:
253,117,296210,1,0,0:0:0:0:
253,117,296416,1,8,0:0:0:0:
252,118,298882,5,0,0:0:0:0:
260,104,299498,1,0,0:0:0:0:
260,104,300115,1,0,0:0:0:0:
256,101,303813,1,0,0:0:0:0:
255,99,304430,1,0,0:0:0:0:
255,99,305046,1,0,0:0:0:0:
