osu file format v14

[General]
AudioFilename: audio.mp3
AudioLeadIn: 0
PreviewTime: 144654
Countdown: 0
SampleSet: Soft
StackLeniency: 0.8
Mode: 0
LetterboxInBreaks: 0
WidescreenStoryboard: 1

[Editor]
DistanceSpacing: 1.4
BeatDivisor: 4
GridSize: 4
TimelineZoom: 1

[Metadata]
Title:Inochi ni Kirawarete Iru.
TitleUnicode:命に嫌われている。
Artist:Kanzaki ft. mafumafu
ArtistUnicode:Kanzaki ft. mafumafu
Creator:DeadlyMffin
Version:Life
Source:
Tags:hatsune miku hated by life itself
BeatmapID:1943892
BeatmapSetID:930909

[Difficulty]
HPDrainRate:5
CircleSize:4
OverallDifficulty:8
ApproachRate:9.6
SliderMultiplier:1.4
SliderTickRate:1

[Events]
//Background and Video events
0,0,"maxresdefault (2).jpg",0,0
//Break Periods
2,78179,87145
2,123854,125545
2,224354,226345
//Storyboard Layer 0 (Background)
//Storyboard Layer 1 (Fail)
//Storyboard Layer 2 (Pass)
//Storyboard Layer 3 (Foreground)
//Storyboard Sound Samples

[TimingPoints]
-246,300,4,2,1,75,1,0
0,-181.818181818181,4,2,1,75,0,0
3654,-1000,4,2,1,75,0,0
5250,-181.818181818182,4,2,1,75,0,0
8454,-1000,4,2,1,75,0,0
10254,-133.333333333333,4,2,1,75,0,0
10354,-133.333333333333,4,2,1,5,0,0
10704,-133.333333333333,4,2,1,75,0,0
10854,-100,4,2,1,75,0,0
15933,-71.4285714285714,4,2,1,75,0,0
18054,-100,4,2,1,75,0,0
18129,-100,4,2,1,5,0,0
18204,-100,4,2,1,75,0,0
20379,-83.3333333333333,4,2,1,75,0,0
20454,-83.3333333333333,4,2,1,80,0,0
29154,-83.3333333333333,4,2,1,5,0,0
29379,-83.3333333333333,4,2,1,80,0,0
29454,-83.3333333333333,4,2,1,5,0,0
29679,-83.3333333333333,4,2,1,80,0,0
29754,-83.3333333333333,4,2,1,5,0,0
29829,-83.3333333333333,4,2,1,80,0,0
34254,-66.6666666666667,4,2,1,80,0,0
48054,-100,4,2,1,80,0,0
58929,-66.6666666666667,4,2,1,90,0,1
63054,-66.6666666666667,4,2,0,90,0,1
70179,-66.6666666666667,4,2,0,90,0,0
70554,-66.6666666666667,4,2,0,90,0,1
72429,-66.6666666666667,4,2,0,90,0,0
72879,-66.6666666666667,4,2,0,90,0,1
77979,-100,4,2,0,5,0,0
78054,-100,4,2,0,75,0,0
93504,-80,4,2,0,75,0,0
102054,-133.333333333333,4,2,0,75,0,0
111654,-100,4,2,0,75,0,0
114054,-80,4,2,0,75,0,0
133104,-80,4,2,0,90,0,1
133404,-68.9655172413793,4,2,0,90,0,1
133704,-60.6060606060606,4,2,0,90,0,1
134004,-54.054054054054,4,2,0,90,0,1
134304,-50,4,2,0,90,0,1
135504,-80,4,2,0,75,0,0
145404,-66.6666666666667,4,2,0,90,0,1
164454,-66.6666666666667,4,2,0,100,0,0
164529,-133.333333333333,4,2,1,15,0,0
173754,-100,4,2,1,75,0,0
183654,-200,4,2,1,75,0,0
186054,-133.333333333333,4,2,1,75,0,0
195504,-100,4,2,1,75,0,0
200450,-100,4,2,1,5,0,1
202554,-100,4,2,1,5,0,0
202854,-66.6666666666667,4,2,1,100,0,1
222054,-133.333333333333,4,2,1,100,0,1
226854,-100,4,2,1,80,0,0
241254,-133.333333333333,4,2,1,49,0,0

[HitObjects]
180,111,654,5,0,0:0:0:0:
215,91,954,1,0,0:0:0:0:
212,131,1254,2,0,L|175:250,1,115.50000352478
359,88,2154,6,0,L|374:125,2,38.5000011749268
138,167,2904,6,0,B|122:254|122:254|134:289,1,115.50000352478
328,199,3654,2,0,P|359:216|393:224,1,70
427,229,5304,5,0,0:0:0:0:
452,133,5454,1,0,0:0:0:0:
349,63,5754,5,0,0:0:0:0:
320,172,6054,1,0,0:0:0:0:
388,95,6954,5,0,0:0:0:0:
331,258,7254,1,0,0:0:0:0:
151,141,7704,5,0,0:0:0:0:
335,36,8154,1,0,0:0:0:0:
335,36,8454,2,0,B|344:93|344:93|335:118,1,84
203,139,10404,5,0,0:0:0:0:
279,293,10554,2,0,L|286:263,1,26.2500010013581
167,89,10854,6,0,L|161:177,1,70
208,253,11304,1,0,0:0:0:0:
208,253,11754,1,0,0:0:0:0:
353,264,12054,2,0,P|404:272|445:260,1,70
436,81,12504,5,0,0:0:0:0:
405,109,12654,1,0,0:0:0:0:
296,220,12954,2,0,P|274:264|244:292,1,70
304,183,13254,2,0,P|319:230|318:271,1,70
276,147,13554,2,0,P|323:161|356:186,1,70
418,313,14154,1,0,0:0:0:0:
221,310,14604,5,0,0:0:0:0:
232,182,14754,1,0,0:0:0:0:
311,287,14904,1,0,0:0:0:0:
172,246,15054,1,0,0:0:0:0:
314,216,15204,1,0,0:0:0:0:
305,78,15354,5,0,0:0:0:0:
379,191,15504,1,0,0:0:0:0:
370,45,15654,2,0,P|393:70|426:87,1,70
311,128,15954,2,0,P|336:137|412:198,1,97.9999970092774
263,248,16554,5,0,0:0:0:0:
323,116,16854,2,0,B|250:122|210:148,1,97.9999970092774
285,231,17154,2,0,P|245:186|222:134,1,97.9999970092774
110,224,17754,1,0,0:0:0:0:
394,220,18054,6,0,L|388:274,1,35
363,88,19254,5,0,0:0:0:0:
288,255,19554,1,0,0:0:0:0:
225,53,19854,1,0,0:0:0:0:
427,252,20154,1,0,0:0:0:0:
183,106,20454,6,0,P|130:95|64:104,1,83.9999974365235
194,281,20754,2,0,P|265:295|305:314,1,83.9999974365235
477,346,21054,2,0,L|481:234,1,83.9999974365235
414,93,21354,1,0,0:0:0:0:
414,93,21504,1,0,0:0:0:0:
329,93,21654,6,0,B|273:129|273:129|227:131,1,83.9999974365235
163,258,21954,2,0,B|181:232|181:232|183:171,1,83.9999974365235
93,43,22254,1,0,0:0:0:0:
93,43,22404,1,0,0:0:0:0:
53,217,22554,6,0,L|81:302,1,83.9999974365235
265,101,22854,2,0,P|329:114|368:135,1,83.9999974365235
265,247,23154,2,0,P|206:261|161:291,1,83.9999974365235
400,168,23454,2,0,P|395:104|365:53,1,83.9999974365235
202,53,23754,5,0,0:0:0:0:
113,251,23904,1,0,0:0:0:0:
305,137,24054,1,0,0:0:0:0:
91,118,24204,1,0,0:0:0:0:
233,269,24354,1,0,0:0:0:0:
233,269,24504,1,0,0:0:0:0:
233,269,24654,1,0,0:0:0:0:
233,269,24804,1,0,0:0:0:0:
330,104,24954,5,0,0:0:0:0:
394,283,25104,1,0,0:0:0:0:
182,290,25254,6,0,P|230:276|273:238,1,83.9999974365235
85,112,25554,2,0,P|92:182|125:217,1,83.9999974365235
249,80,25854,1,0,0:0:0:0:
249,80,26004,1,0,0:0:0:0:
249,80,26154,2,0,P|312:78|359:63,1,83.9999974365235
394,194,26454,5,0,0:0:0:0:
394,194,26604,1,0,0:0:0:0:
249,295,26754,1,0,0:0:0:0:
74,315,27054,5,0,3:3:0:0:
150,149,27354,5,0,0:0:0:0:
334,226,27504,1,0,0:0:0:0:
250,53,27654,1,0,0:0:0:0:
195,259,27804,1,0,0:0:0:0:
347,313,27954,1,0,0:0:0:0:
170,108,28104,1,0,0:0:0:0:
395,175,28404,1,0,0:0:0:0:
182,263,28554,1,0,0:0:0:0:
90,160,29079,6,0,L|110:205,1,41.9999987182618
383,119,29379,2,0,L|369:167,1,41.9999987182618
194,44,29679,2,0,L|203:99,1,41.9999987182618
395,64,30054,5,0,0:0:0:0:
317,255,30204,1,0,0:0:0:0:
290,44,30354,1,0,0:0:0:0:
403,241,30504,1,0,0:0:0:0:
394,59,30654,1,0,0:0:0:0:
256,192,30804,1,0,0:0:0:0:
449,141,30954,1,0,0:0:0:0:
135,254,31104,6,0,L|172:175,1,83.9999974365235
357,152,31404,2,0,L|298:47,1,83.9999974365235
97,73,31854,5,0,3:3:0:0:
218,107,32154,5,0,0:0:0:0:
218,107,32304,1,0,0:0:0:0:
394,246,32454,1,0,0:0:0:0:
190,242,32604,1,0,0:0:0:0:
388,158,32754,2,0,P|397:95|390:60,1,83.9999974365235
312,335,33054,2,0,P|300:278|307:224,1,83.9999974365235
265,73,33354,5,0,0:0:0:0:
265,73,33504,1,0,0:0:0:0:
170,254,33654,1,0,0:0:0:0:
323,151,33804,1,0,0:0:0:0:
263,338,33954,1,0,0:0:0:0:
402,215,34104,1,0,0:0:0:0:
255,83,34254,6,0,B|240:140|247:169|247:169|271:129,1,105.000004005432
178,115,34554,2,0,B|207:166|233:182|233:182|222:136,1,105.000004005432
246,36,34854,5,0,0:0:0:0:
246,36,35004,1,0,0:0:0:0:
394,116,35154,2,0,P|330:148|281:148,1,105.000004005432
144,244,35454,2,0,P|222:256|264:283,1,105.000004005432
139,109,35754,1,0,0:0:0:0:
139,109,35904,1,0,0:0:0:0:
421,37,36054,5,0,0:0:0:0:
336,236,36204,1,0,0:0:0:0:
293,76,36354,1,0,0:0:0:0:
463,230,36504,1,0,0:0:0:0:
124,273,36954,6,0,B|176:260|176:260|237:273,1,105.000004005432
341,299,37254,2,0,B|400:313|400:313|454:297,1,105.000004005432
253,186,37554,1,0,0:0:0:0:
253,186,37704,1,0,0:0:0:0:
373,71,37854,1,0,0:0:0:0:
356,262,38004,1,0,0:0:0:0:
287,88,38154,1,0,0:0:0:0:
172,166,38454,6,0,P|198:233|235:215,1,105.000004005432
172,166,38754,2,0,P|114:208|140:239,1,105.000004005432
172,166,39054,2,0,P|115:120|92:155,1,105.000004005432
289,98,39354,1,0,0:0:0:0:
289,98,39504,1,0,0:0:0:0:
289,98,39654,1,0,0:0:0:0:
424,244,39804,5,0,0:0:0:0:
408,109,39954,1,0,0:0:0:0:
324,251,40104,1,0,0:0:0:0:
466,156,40254,1,0,0:0:0:0:
271,147,40404,1,0,0:0:0:0:
367,306,40554,1,0,0:0:0:0:
394,138,40704,1,0,0:0:0:0:
253,275,40854,5,0,0:0:0:0:
284,108,41004,1,0,0:0:0:0:
362,269,41154,1,0,0:0:0:0:
450,108,41304,2,0,B|384:108|336:124,1,105.000004005432
208,272,41604,1,0,0:0:0:0:
397,293,41754,1,0,0:0:0:0:
279,163,41904,1,0,0:0:0:0:
288,337,42054,5,0,0:0:0:0:
356,138,42204,1,0,0:0:0:0:
449,319,42354,5,0,0:0:0:0:
235,198,42504,1,0,0:0:0:0:
475,173,42654,6,0,P|417:227|383:236,1,105.000004005432
358,328,42954,5,0,0:0:0:0:
293,146,43104,1,0,0:0:0:0:
168,186,43254,5,0,0:0:0:0:
168,186,43404,1,0,0:0:0:0:
345,60,43554,2,0,L|314:176,1,105.000004005432
125,293,43854,2,0,L|243:240,1,105.000004005432
345,242,44154,1,0,0:0:0:0:
334,81,44304,5,0,0:0:0:0:
334,81,44379,1,0,0:0:0:0:
334,81,44454,1,0,0:0:0:0:
175,271,44604,1,0,0:0:0:0:
183,94,44754,1,0,0:0:0:0:
323,229,44904,1,0,0:0:0:0:
144,171,45054,1,0,0:0:0:0:
312,95,45204,1,0,0:0:0:0:
232,294,45354,1,0,0:0:0:0:
195,106,45504,6,0,P|227:158|242:211,1,105.000004005432
395,271,45804,2,0,P|370:206|375:138,1,105.000004005432
276,56,46104,2,0,P|359:39|414:52,1,105.000004005432
257,232,46404,2,0,P|190:247|139:244,1,105.000004005432
408,126,46704,6,0,B|441:171|441:171|416:239,1,105.000004005432
234,77,47004,2,0,B|222:135|222:135|260:186,1,105.000004005432
342,291,47304,5,0,0:0:0:0:
342,291,47454,1,0,0:0:0:0:
198,198,47604,1,0,0:0:0:0:
194,353,47754,1,0,0:0:0:0:
334,164,47904,1,0,0:0:0:0:
120,299,48054,6,0,L|106:214,1,70
210,248,48354,2,0,L|163:178,1,70
285,152,48654,2,0,L|203:126,1,70
312,37,48954,2,0,L|216:56,1,70
406,157,49254,5,0,0:0:0:0:
406,157,49404,1,0,0:0:0:0:
275,325,49554,1,0,0:0:0:0:
275,325,49704,1,0,0:0:0:0:
277,146,49854,1,0,0:0:0:0:
277,146,50004,1,0,0:0:0:0:
394,275,50154,5,0,0:0:0:0:
354,95,50304,1,0,0:0:0:0:
276,285,50454,1,0,0:0:0:0:
424,170,50604,1,0,0:0:0:0:
257,171,50754,1,0,0:0:0:0:
370,316,50904,1,0,0:0:0:0:
164,191,51054,6,0,L|189:265,1,70
414,159,51354,2,0,L|452:88,1,70
455,82,51579,1,0,0:0:0:0:
458,61,51654,6,0,P|409:45|361:55,1,70
303,295,51954,2,0,P|367:282|386:270,1,70
430,117,52254,1,0,0:0:0:0:
430,117,52404,1,0,0:0:0:0:
182,211,52554,1,0,0:0:0:0:
362,79,52704,2,0,P|339:107|290:138,1,70
137,323,53004,2,0,P|163:281|198:253,1,70
336,244,53304,5,0,0:0:0:0:
336,244,53454,1,0,0:0:0:0:
245,115,53604,1,0,0:0:0:0:
227,299,53754,1,0,0:0:0:0:
177,186,53904,1,0,0:0:0:0:
381,135,54054,6,0,L|371:216,1,70
167,255,54354,2,0,L|178:171,1,70
302,70,54654,1,0,0:0:0:0:
302,70,54804,1,0,0:0:0:0:
305,285,54954,1,0,0:0:0:0:
305,285,55104,1,0,0:0:0:0:
152,195,55254,6,0,P|207:190|246:175,1,70
450,135,55554,2,0,P|403:121|362:122,1,70
335,337,55854,2,0,P|325:290|330:243,1,70
210,24,56154,2,0,P|221:70|208:115,1,70
177,275,56454,5,0,0:0:0:0:
177,275,56604,1,0,0:0:0:0:
297,182,56754,1,0,0:0:0:0:
298,353,56904,1,0,0:0:0:0:
196,196,57054,1,0,0:0:0:0:
372,313,57204,1,0,0:0:0:0:
375,88,57354,5,0,0:0:0:0:
321,276,57504,1,0,0:0:0:0:
300,69,57654,5,8,3:3:0:0:
265,72,57729,1,8,3:3:0:0:
231,81,57804,1,8,3:3:0:0:
199,96,57879,1,8,3:3:0:0:
170,115,57954,1,8,3:3:0:0:
145,139,58029,1,8,3:3:0:0:
124,167,58104,1,8,3:3:0:0:
108,198,58179,1,8,3:3:0:0:
102,233,58254,6,8,L|103:282,8,35,8|8|8|8|8|8|8|8|8,3:3|3:3|3:3|3:3|3:3|3:3|3:3|3:3|3:3,3:3:0:0:
236,129,59004,1,0,0:0:0:0:
313,383,59154,1,0,0:0:0:0:
385,70,59304,1,0,0:0:0:0:
154,361,59454,1,0,0:0:0:0:
455,295,59604,5,0,0:0:0:0:
153,130,59754,1,0,0:0:0:0:
484,122,59904,1,0,0:0:0:0:
201,349,60054,1,0,0:0:0:0:
292,55,60204,1,0,0:0:0:0:
411,346,60354,1,0,0:0:0:0:
124,175,60504,1,0,0:0:0:0:
472,105,60654,1,0,0:0:0:0:
248,369,60804,5,0,0:0:0:0:
253,51,60954,1,0,0:0:0:0:
62,327,61104,1,0,0:0:0:0:
420,219,61254,6,0,L|393:320,1,105.000004005432
130,62,61554,2,0,L|96:161,1,105.000004005432
428,48,61854,2,0,P|372:42|285:61,1,105.000004005432
88,323,62154,2,0,P|145:333|211:312,1,105.000004005432
306,39,62454,1,0,0:0:0:0:
339,344,62604,1,0,0:0:0:0:
180,144,62754,1,0,0:0:0:0:
430,220,62904,1,0,0:0:0:0:
187,325,63054,5,8,3:3:0:0:
117,319,63129,1,8,3:3:0:0:
71,266,63204,1,8,3:3:0:0:
76,196,63279,1,8,3:3:0:0:
128,150,63354,1,8,3:3:0:0:
198,155,63429,1,8,3:3:0:0:
245,207,63504,1,8,3:3:0:0:
253,275,63579,2,8,L|257:348,1,52.5000020027161,8|8,3:3|3:3,3:3:0:0:
347,88,63804,5,0,0:0:0:0:
446,345,63954,1,0,0:0:0:0:
149,210,64104,1,0,0:0:0:0:
451,151,64254,1,0,0:0:0:0:
206,352,64404,1,0,0:0:0:0:
234,35,64554,1,0,0:0:0:0:
403,349,64704,1,0,0:0:0:0:
51,84,64854,6,0,P|107:61|164:22,1,105.000004005432
471,310,65154,2,0,P|395:311|333:282,1,105.000004005432
88,289,65454,1,0,0:0:0:0:
88,289,65604,1,0,0:0:0:0:
227,127,65754,1,0,0:0:0:0:
227,127,65904,1,0,0:0:0:0:
306,344,66054,6,0,B|273:294|273:294|231:272,1,105.000004005432
300,40,66354,2,0,B|314:97|314:97|373:120,1,105.000004005432
62,220,66654,1,0,0:0:0:0:
62,220,66804,1,0,0:0:0:0:
430,293,66954,1,0,0:0:0:0:
185,55,67104,1,0,0:0:0:0:
217,317,67254,1,0,0:0:0:0:
443,104,67404,1,0,0:0:0:0:
397,360,67554,5,0,0:0:0:0:
288,100,67704,1,0,0:0:0:0:
148,91,67854,6,8,L|137:146,1,52.5000020027161
108,175,68004,2,8,L|129:241,1,52.5000020027161
116,262,68154,2,8,L|163:296,1,52.5000020027161
170,326,68304,2,8,L|227:333,1,52.5000020027161
262,330,68454,5,8,0:0:0:0:
343,79,68604,1,0,0:0:0:0:
205,194,68754,1,0,0:0:0:0:
434,190,68904,1,0,0:0:0:0:
207,97,69054,1,0,0:0:0:0:
439,104,69204,1,0,0:0:0:0:
349,338,69354,6,0,P|317:249|282:229,1,105.000004005432
144,40,69654,2,0,P|146:138|168:164,1,105.000004005432
457,73,69954,2,0,B|425:184,1,105.000004005432
391,303,70254,5,0,0:0:0:0:
169,234,70404,1,0,0:0:0:0:
218,105,70554,5,0,0:0:0:0:
302,338,70704,1,0,0:0:0:0:
410,145,70854,1,0,0:0:0:0:
143,268,71004,1,0,0:0:0:0:
244,57,71154,1,0,0:0:0:0:
294,308,71304,1,0,0:0:0:0:
380,94,71454,5,0,0:0:0:0:
82,291,71604,1,0,0:0:0:0:
110,77,71754,5,0,0:0:0:0:
367,307,71904,1,0,0:0:0:0:
334,44,72054,5,0,0:0:0:0:
230,344,72204,1,0,0:0:0:0:
455,131,72354,1,0,0:0:0:0:
369,308,72504,5,0,0:0:0:0:
273,99,72654,1,0,0:0:0:0:
218,296,72804,1,0,0:0:0:0:
149,101,72954,6,0,P|194:200|204:200,1,105.000004005432
412,314,73254,2,0,P|409:247|363:220,1,105.000004005432
149,101,73554,2,0,L|107:225,1,105.000004005432
412,314,73854,2,0,L|437:184,1,105.000004005432
272,42,74154,5,0,0:0:0:0:
272,42,74304,1,0,0:0:0:0:
156,337,74454,1,0,0:0:0:0:
413,251,74604,1,0,0:0:0:0:
106,228,74754,1,0,0:0:0:0:
350,86,74904,1,0,0:0:0:0:
194,327,75054,5,0,0:0:0:0:
194,327,75204,1,0,0:0:0:0:
404,127,75354,1,0,0:0:0:0:
404,127,75504,1,0,0:0:0:0:
106,47,75654,5,0,0:0:0:0:
204,360,75804,1,0,0:0:0:0:
396,47,75954,5,0,0:0:0:0:
308,360,76104,1,0,0:0:0:0:
245,74,76254,5,0,0:0:0:0:
219,310,76404,1,0,0:0:0:0:
139,137,76554,5,0,0:0:0:0:
328,328,76704,1,0,0:0:0:0:
428,181,76854,5,0,0:0:0:0:
373,139,76929,1,0,0:0:0:0:
309,114,77004,1,0,0:0:0:0:
241,104,77079,1,0,0:0:0:0:
173,110,77154,1,0,0:0:0:0:
106,126,77229,1,0,0:0:0:0:
47,160,77304,1,0,0:0:0:0:
76,221,77379,5,0,0:0:0:0:
137,249,77454,1,0,0:0:0:0:
200,274,77529,1,0,0:0:0:0:
268,278,77604,1,0,0:0:0:0:
335,270,77679,1,0,0:0:0:0:
388,227,77754,1,0,0:0:0:0:
436,178,77829,1,0,0:0:0:0:
420,110,77904,6,0,L|394:57,1,52.5000020027161
354,77,87654,5,0,0:0:0:0:
322,202,87804,1,0,0:0:0:0:
232,99,87954,1,0,0:0:0:0:
161,251,88104,1,0,0:0:0:0:
53,107,88254,2,0,P|114:96|145:97,1,70
315,133,88554,6,0,P|305:185|313:217,1,70
144,311,88854,2,0,P|197:297|225:305,1,70
425,227,89154,2,0,P|427:168|419:128,1,70
241,78,89454,1,0,0:0:0:0:
241,78,89604,1,0,0:0:0:0:
292,289,89754,1,0,0:0:0:0:
345,128,89904,1,0,0:0:0:0:
159,220,90054,5,0,0:0:0:0:
232,64,90204,1,0,0:0:0:0:
290,278,90354,5,0,0:0:0:0:
143,111,90504,1,0,0:0:0:0:
145,319,90654,6,0,P|217:275|228:273,1,70
408,249,90954,2,0,P|361:216|318:201,1,70
126,155,91254,2,0,P|165:128|196:118,1,70
418,78,91554,2,0,P|370:37|339:26,1,70
60,138,91854,6,0,L|88:222,1,70
311,152,92154,2,0,L|333:52,1,70
243,324,92454,5,0,0:0:0:0:
243,324,92604,1,0,0:0:0:0:
274,182,92754,1,0,0:0:0:0:
345,336,92904,1,0,0:0:0:0:
173,200,93054,1,0,0:0:0:0:
230,353,93204,1,0,0:0:0:0:
305,147,93354,1,0,0:0:0:0:
110,257,93504,6,0,P|163:277|204:276,1,87.5
445,179,93804,2,0,P|390:167|339:173,1,87.5
97,95,94104,1,0,0:0:0:0:
258,80,94254,1,0,0:0:0:0:
161,225,94404,1,0,0:0:0:0:
180,63,94554,1,0,0:0:0:0:
353,174,94704,6,0,P|374:245|359:271,1,87.5
341,240,95004,2,0,P|312:308|284:318,1,87.5
290,284,95304,2,0,P|224:317|196:307,1,87.5
359,142,95604,1,0,0:0:0:0:
359,142,95754,1,0,0:0:0:0:
192,285,95904,5,0,0:0:0:0:
175,109,96054,1,0,0:0:0:0:
66,239,96204,1,0,0:0:0:0:
313,186,96354,1,0,0:0:0:0:
158,121,96504,1,0,0:0:0:0:
254,315,96654,2,0,P|332:300|344:289,1,87.5
413,209,96954,5,0,0:0:0:0:
413,209,97104,1,0,0:0:0:0:
184,72,97254,6,0,B|175:120|175:120|199:159,1,87.5
336,197,97554,2,0,B|331:244|331:244|362:284,1,87.5
146,357,97854,2,0,B|165:313|165:313|140:273,1,87.5
188,132,98154,2,0,B|188:75|188:75|246:76,1,87.5
319,202,98454,1,0,0:0:0:0:
319,202,98604,1,0,0:0:0:0:
226,269,98754,6,0,B|185:238|185:238|190:193,1,87.5
225,268,99054,2,0,B|235:319|235:319|201:349,1,87.5
225,269,99354,2,0,B|259:230|259:230|304:238,1,87.5
403,117,99654,5,0,0:0:0:0:
416,304,99804,1,0,0:0:0:0:
312,167,99954,1,0,0:0:0:0:
234,340,100104,1,0,0:0:0:0:
166,157,100254,1,0,0:0:0:0:
354,302,100404,1,0,0:0:0:0:
326,106,100554,5,0,0:0:0:0:
136,289,100704,2,0,P|181:250|191:217,1,87.5
403,305,101004,1,0,0:0:0:0:
420,103,101154,1,0,0:0:0:0:
123,293,101304,1,0,0:0:0:0:
196,105,101454,6,0,P|154:71|114:50,1,87.5
460,81,101754,1,0,0:0:0:0:
460,81,101904,1,0,0:0:0:0:
133,251,102054,6,0,L|155:313,1,52.5000020027161
346,203,102354,2,0,L|321:265,1,52.5000020027161
151,119,102654,2,0,L|169:170,1,52.5000020027161
296,97,102954,2,0,L|271:150,1,52.5000020027161
216,23,103254,2,0,L|217:82,1,52.5000020027161
383,155,103554,5,0,0:0:0:0:
383,155,103704,1,0,0:0:0:0:
196,112,104154,6,0,P|150:162|140:167,1,78.7500030040742
77,282,104454,6,0,P|131:284|138:284,1,52.5000020027161
329,213,104754,2,0,P|291:213|268:214,1,52.5000020027161
53,201,105054,2,0,P|95:205|113:201,1,52.5000020027161
99,42,105354,2,0,P|113:75|130:88,1,52.5000020027161
276,43,105654,2,0,P|261:77|262:97,1,52.5000020027161
263,216,105954,1,0,0:0:0:0:
198,104,106104,6,0,L|202:168,1,52.5000020027161
256,276,106404,1,0,0:0:0:0:
287,100,106554,2,0,L|290:165,1,52.5000020027161
424,74,106854,5,0,0:0:0:0:
377,267,107004,1,0,0:0:0:0:
334,79,107154,5,0,0:0:0:0:
448,278,107304,1,0,0:0:0:0:
445,107,107454,5,0,0:0:0:0:
223,203,107604,1,0,0:0:0:0:
318,54,107754,1,0,0:0:0:0:
326,286,107904,1,0,0:0:0:0:
106,246,108054,6,0,P|146:224|162:206,1,52.5000020027161
362,148,108354,2,0,P|327:179|320:193,1,52.5000020027161
96,80,108654,6,0,L|117:133,1,52.5000020027161
297,126,108954,2,0,L|261:182,1,52.5000020027161
103,265,109254,2,0,L|162:291,1,52.5000020027161
334,213,109554,2,0,L|308:280,1,52.5000020027161
97,186,109854,6,0,B|99:142|99:142|125:142,1,52.5000020027161
298,325,110154,2,0,B|297:295|297:295|253:295,1,52.5000020027161
411,117,110454,2,0,B|413:156|413:156|382:157,1,52.5000020027161
244,238,110754,1,0,0:0:0:0:
244,238,110904,1,0,0:0:0:0:
308,70,111054,5,0,0:0:0:0:
364,287,111204,1,0,0:0:0:0:
176,333,111354,1,0,0:0:0:0:
379,171,111504,1,0,0:0:0:0:
143,183,111654,6,0,P|148:221|175:258,1,70
345,53,111954,2,0,P|361:98|359:126,1,70
307,324,112254,2,0,P|301:286|321:304,1,70
225,98,112554,2,0,P|185:95|188:84,1,70
452,131,112854,2,0,P|425:166|421:149,1,70
97,246,113154,6,0,B|141:271|141:271|166:243,1,70
343,101,113454,2,0,B|314:131|314:131|307:93,1,70
334,313,113754,2,0,B|282:336|282:336|277:316,1,70
441,154,114054,6,0,B|435:108|390:124|396:70,1,87.5
111,307,114354,2,0,B|170:291|159:327|210:311,1,87.5
402,218,114654,2,0,B|354:203|353:240|306:211,1,87.5
177,145,114954,1,0,0:0:0:0:
177,145,115104,1,0,0:0:0:0:
377,69,115254,5,0,0:0:0:0:
323,279,115404,1,0,0:0:0:0:
267,98,115554,1,0,0:0:0:0:
443,251,115704,1,0,0:0:0:0:
192,255,115854,1,0,0:0:0:0:
267,98,116154,5,0,0:0:0:0:
106,115,116454,6,0,P|105:180|115:212,1,87.5
352,181,116754,2,0,P|359:244|350:284,1,87.5
130,281,117054,2,0,P|193:260|237:258,1,87.5
338,81,117354,2,0,P|311:126|298:184,1,87.5
418,319,117654,5,0,0:0:0:0:
379,161,117804,1,0,0:0:0:0:
285,339,117954,1,0,0:0:0:0:
474,205,118104,1,0,0:0:0:0:
240,164,118254,1,0,0:0:0:0:
72,266,118404,2,0,P|128:277|168:270,1,87.5
337,166,118704,1,0,0:0:0:0:
277,340,118854,1,0,0:0:0:0:
183,156,119004,5,0,0:0:0:0:
361,311,119154,1,0,0:0:0:0:
209,260,119304,1,0,0:0:0:0:
294,123,119454,1,0,0:0:0:0:
322,322,119604,1,0,0:0:0:0:
139,195,119754,2,0,P|195:208|228:198,1,87.5
444,172,120054,2,0,P|383:165|338:175,1,87.5
84,164,120354,5,0,0:0:0:0:
167,296,120504,1,0,0:0:0:0:
364,126,120654,1,0,0:0:0:0:
303,273,120804,1,0,0:0:0:0:
204,46,120954,1,0,0:0:0:0:
214,226,121104,1,0,0:0:0:0:
455,186,121254,6,0,L|362:231,1,87.5
69,249,121554,2,0,L|170:215,1,87.5
281,57,121854,1,0,0:0:0:0:
308,75,122004,1,0,0:0:0:0:
268,244,122154,1,0,0:0:0:0:
232,264,122304,1,0,0:0:0:0:
55,126,122454,6,0,B|106:144|106:144|153:135,1,87.5
444,184,122754,2,0,B|397:203|397:203|361:248,1,87.5
68,304,123054,2,0,P|103:264|160:246,1,87.5
461,115,123354,2,0,B|401:93|367:113|367:113|325:136|267:96,1,175
109,100,126054,5,0,0:0:0:0:
186,315,126204,1,0,0:0:0:0:
244,115,126354,1,0,0:0:0:0:
57,260,126504,1,0,0:0:0:0:
318,213,126654,2,0,L|296:315,1,87.5
135,80,126954,2,0,L|170:189,1,87.5
450,186,127254,5,0,0:0:0:0:
303,246,127404,1,0,0:0:0:0:
345,110,127554,1,0,0:0:0:0:
345,110,127704,1,0,0:0:0:0:
174,298,127854,1,0,0:0:0:0:
217,93,128004,1,0,0:0:0:0:
283,295,128154,1,0,0:0:0:0:
82,95,128304,6,0,P|101:137|143:177,1,87.5
432,228,128604,2,0,P|399:288|357:326,1,87.5
339,80,128904,1,0,0:0:0:0:
159,316,129054,1,0,0:0:0:0:
228,113,129204,1,0,0:0:0:0:
421,145,129354,6,0,P|435:195|410:253,1,87.5
43,352,129654,2,0,P|48:280|85:244,1,87.5
230,44,129954,2,0,L|203:144,1,87.5
353,178,130254,2,0,L|383:289,1,87.5
155,313,130554,1,0,0:0:0:0:
121,140,130704,5,0,0:0:0:0:
121,140,130779,1,0,0:0:0:0:
121,140,130854,1,0,0:0:0:0:
332,69,131004,5,0,0:0:0:0:
238,308,131154,1,0,0:0:0:0:
228,110,131304,1,0,0:0:0:0:
392,297,131454,1,0,0:0:0:0:
392,297,131604,1,0,0:0:0:0:
223,97,131754,5,0,0:0:0:0:
117,237,131904,2,0,P|113:307|123:341,1,87.5
445,203,132204,2,0,P|445:143|433:105,1,87.5
165,118,132504,1,0,0:0:0:0:
337,324,132654,1,0,0:0:0:0:
306,152,132804,1,0,0:0:0:0:
134,339,132954,1,0,0:0:0:0:
149,73,133104,6,0,P|140:142|149:173,1,87.5
332,328,133404,2,0,P|339:268|319:188,1,101.500003097534
465,75,133704,2,0,P|403:68|323:91,1,115.500001101494
107,335,134004,2,0,P|147:271|105:193,1,129.499999505997
419,52,134304,6,0,L|366:201,1,140
45,186,134604,2,0,L|110:362,1,140
454,293,134904,2,0,P|343:298|276:250,1,140
174,73,135204,2,0,P|102:66|14:109,1,140
337,317,135654,6,0,P|338:240|321:208,1,87.5
161,116,135954,1,0,0:0:0:0:
161,116,136104,1,0,0:0:0:0:
220,297,136254,1,0,0:0:0:0:
280,128,136404,1,0,0:0:0:0:
75,277,136554,1,0,0:0:0:0:
160,104,136704,1,0,0:0:0:0:
246,264,136854,1,0,0:0:0:0:
411,44,137004,6,0,P|419:95|393:144,1,87.5
130,322,137304,2,0,P|117:242|135:210,1,87.5
336,159,137604,1,0,0:0:0:0:
121,80,137754,1,0,0:0:0:0:
288,313,137904,1,0,0:0:0:0:
306,298,137979,2,0,L|345:258,1,43.75
425,94,138204,5,0,0:0:0:0:
250,166,138354,1,0,0:0:0:0:
88,69,138504,1,0,0:0:0:0:
115,242,138654,1,0,0:0:0:0:
279,337,138804,1,0,0:0:0:0:
450,210,138954,1,0,0:0:0:0:
357,66,139104,2,0,P|291:55|240:71,1,87.5
103,215,139404,6,0,B|93:263|93:263|115:312,1,87.5
405,285,139704,2,0,B|381:246|381:246|404:188,1,87.5
223,118,140004,1,0,0:0:0:0:
223,118,140154,1,0,0:0:0:0:
318,326,140304,1,0,0:0:0:0:
367,146,140454,6,0,P|323:105|260:84,1,87.5
145,219,140754,1,0,0:0:0:0:
145,219,140904,1,0,0:0:0:0:
318,298,141054,1,0,0:0:0:0:
265,167,141204,1,0,0:0:0:0:
202,341,141354,1,0,0:0:0:0:
168,192,141504,1,0,0:0:0:0:
321,125,141654,6,0,P|370:155|391:183,1,87.5
185,298,141954,2,0,P|134:269|105:228,1,87.5
186,78,142254,1,0,0:0:0:0:
186,78,142404,1,0,0:0:0:0:
314,264,142554,1,0,0:0:0:0:
314,264,142704,1,0,0:0:0:0:
137,136,142854,5,0,0:0:0:0:
384,64,143004,1,0,0:0:0:0:
234,261,143154,1,0,0:0:0:0:
463,149,143304,1,0,0:0:0:0:
186,99,143454,1,0,0:0:0:0:
354,301,143604,1,0,0:0:0:0:
347,35,143754,1,0,0:0:0:0:
198,292,143904,1,0,0:0:0:0:
382,73,144054,5,8,3:3:0:0:
328,41,144129,1,8,3:3:0:0:
267,50,144204,1,8,3:3:0:0:
224,95,144279,1,8,3:3:0:0:
219,156,144354,1,8,3:3:0:0:
253,208,144429,1,8,3:3:0:0:
311,228,144504,1,8,3:3:0:0:
360,226,144579,5,8,3:3:0:0:
340,173,144654,1,8,3:3:0:0:
291,146,144729,1,8,3:3:0:0:
237,157,144804,1,8,3:3:0:0:
202,201,144879,1,8,3:3:0:0:
191,261,144954,1,8,3:3:0:0:
223,313,145029,1,8,3:3:0:0:
279,336,145104,5,8,3:3:0:0:
339,327,145179,1,0,3:3:0:0:
163,132,145404,5,0,3:3:0:0:
397,278,145554,1,0,0:0:0:0:
119,208,145704,1,0,0:0:0:0:
437,77,145854,1,0,0:0:0:0:
218,349,146004,1,0,0:0:0:0:
213,35,146154,1,0,0:0:0:0:
45,223,146304,1,0,0:0:0:0:
455,181,146454,1,0,0:0:0:0:
97,330,146604,6,0,P|181:337|212:329,1,87.5
450,82,146904,2,0,P|387:68|340:76,1,87.5
15,44,147204,2,0,P|15:112|46:177,1,105.000004005432
444,353,147504,2,0,P|446:276|419:245,1,105.000004005432
25,349,147804,5,0,0:0:0:0:
481,33,147954,1,0,0:0:0:0:
464,360,148104,5,0,0:0:0:0:
46,191,148254,1,0,0:0:0:0:
494,23,148404,5,0,0:0:0:0:
114,353,148554,1,0,0:0:0:0:
81,22,148704,5,0,0:0:0:0:
424,362,148854,1,0,0:0:0:0:
330,26,149004,5,0,0:0:0:0:
192,345,149154,1,0,0:0:0:0:
6,28,149304,1,0,0:0:0:0:
374,28,149454,5,0,0:0:0:0:
331,20,149529,1,0,0:0:0:0:
289,33,149604,1,0,0:0:0:0:
257,62,149679,1,0,0:0:0:0:
241,102,149754,1,0,0:0:0:0:
244,145,149829,1,0,0:0:0:0:
265,183,149904,1,0,0:0:0:0:
300,203,149979,1,0,0:0:0:0:
338,212,150054,1,0,0:0:0:0:
207,98,150204,5,0,0:0:0:0:
343,316,150354,1,0,0:0:0:0:
32,146,150504,1,0,0:0:0:0:
404,70,150654,1,0,0:0:0:0:
130,322,150804,1,0,0:0:0:0:
346,128,150954,1,0,0:0:0:0:
277,347,151104,1,0,0:0:0:0:
413,49,151254,6,0,B|385:100|385:100|392:151,1,105.000004005432
163,357,151554,2,0,B|175:305|175:305|127:259,1,105.000004005432
217,69,151854,1,0,0:0:0:0:
282,307,152154,5,0,0:0:0:0:
138,113,152454,5,0,0:0:0:0:
265,328,152604,1,0,0:0:0:0:
311,48,152754,1,0,0:0:0:0:
146,302,152904,1,0,0:0:0:0:
441,128,153054,1,0,0:0:0:0:
88,132,153204,1,0,0:0:0:0:
421,38,153354,2,0,P|410:102|381:155,1,105.000004005432
70,329,153654,2,0,P|125:277|139:235,1,105.000004005432
230,84,153954,1,0,0:0:0:0:
230,84,154104,1,0,0:0:0:0:
316,324,154254,5,0,0:0:0:0:
372,286,154329,1,0,0:0:0:0:
407,227,154404,1,0,0:0:0:0:
411,159,154479,1,0,0:0:0:0:
385,96,154554,1,0,0:0:0:0:
334,52,154629,1,0,0:0:0:0:
268,35,154704,1,0,0:0:0:0:
138,216,154854,5,0,0:0:0:0:
470,288,155004,1,0,0:0:0:0:
365,36,155154,1,0,0:0:0:0:
301,331,155304,1,0,0:0:0:0:
257,32,155454,1,0,0:0:0:0:
405,340,155604,1,0,0:0:0:0:
470,63,155754,1,0,0:0:0:0:
84,295,155904,1,0,0:0:0:0:
247,18,156054,1,0,0:0:0:0:
247,24,156204,1,0,0:0:0:0:
412,344,156354,2,0,P|408:220|252:322,1,367.500014019013
248,324,156954,6,0,L|179:224,1,105.000004005432
201,85,157254,1,0,0:0:0:0:
326,186,157404,1,0,0:0:0:0:
336,20,157554,1,0,0:0:0:0:
222,258,157704,1,0,0:0:0:0:
426,30,157854,1,0,0:0:0:0:
343,300,158004,1,0,0:0:0:0:
259,51,158154,1,0,0:0:0:0:
435,252,158304,1,0,0:0:0:0:
28,149,158454,6,0,P|81:139|156:151,1,105.000004005432
477,266,158754,2,0,P|390:267|341:256,1,105.000004005432
117,354,159054,2,0,P|103:291|125:229,1,105.000004005432
401,20,159354,2,0,P|410:104|383:157,1,105.000004005432
299,344,159654,5,0,0:0:0:0:
174,69,159804,1,0,0:0:0:0:
147,357,159954,5,0,0:0:0:0:
406,58,160104,1,0,0:0:0:0:
340,350,160254,5,0,0:0:0:0:
178,27,160404,1,0,0:0:0:0:
180,334,160554,5,0,0:0:0:0:
494,75,160704,1,0,0:0:0:0:
406,343,160854,5,0,0:0:0:0:
61,162,161004,1,0,0:0:0:0:
146,362,161154,5,0,0:0:0:0:
471,204,161304,1,0,0:0:0:0:
135,54,161454,5,0,0:0:0:0:
332,345,161604,1,0,0:0:0:0:
337,29,161754,5,0,0:0:0:0:
159,358,161904,1,0,0:0:0:0:
391,44,162054,6,0,P|348:113|378:124,1,105.000004005432
166,335,162354,2,0,P|235:300|210:270,1,105.000004005432
186,95,162654,2,0,P|256:73|266:118,1,105.000004005432
466,195,162954,2,0,P|381:256|346:257,1,105.000004005432
52,245,163254,2,0,P|122:217|188:222,1,105.000004005432
336,160,163554,6,0,P|419:184|421:56,1,210.000008010865
327,53,164004,5,8,0:0:0:0:
440,254,164154,1,8,0:0:0:0:
425,40,164304,1,8,0:0:0:0:
294,301,164454,1,0,0:0:0:0:
95,120,164604,6,0,P|126:115|159:127,1,52.5000020027161
193,266,164904,2,0,P|223:276|250:271,1,52.5000020027161
431,311,165204,6,0,L|441:240,1,52.5000020027161
296,180,165504,2,0,L|278:111,1,52.5000020027161
96,340,165804,2,0,L|103:268,2,52.5000020027161
293,242,166254,2,0,L|277:178,2,52.5000020027161
173,88,166704,6,0,P|217:74|235:76,1,52.5000020027161
375,195,167004,2,0,P|335:205|305:201,1,52.5000020027161
262,294,167304,2,0,L|270:227,1,52.5000020027161
112,201,167604,2,0,P|159:204|177:193,1,52.5000020027161
268,82,167904,2,0,P|283:114|281:143,1,52.5000020027161
416,196,168204,2,0,P|398:228|368:248,1,52.5000020027161
72,298,168504,6,0,B|94:311|94:311|121:318,1,52.5000020027161
300,182,168804,2,0,B|319:202|319:202|327:227,1,52.5000020027161
61,175,169104,2,0,B|79:158|79:158|110:153,1,52.5000020027161
264,80,169404,2,0,B|290:91|290:91|299:121,1,52.5000020027161
456,173,169704,6,0,P|430:200|406:206,1,52.5000020027161
181,283,170004,2,0,P|230:304|243:302,1,52.5000020027161
445,327,170304,2,0,P|397:358|390:358,1,52.5000020027161
122,322,170604,6,0,L|140:265,1,52.5000020027161
298,107,170904,2,0,L|321:178,1,52.5000020027161
451,68,171204,2,0,L|440:140,1,52.5000020027161
115,277,171504,6,0,P|145:290|177:291,2,52.5000020027161
316,186,171954,2,0,P|272:209|245:213,2,52.5000020027161
96,80,172404,2,0,L|112:149,1,52.5000020027161
350,149,172704,2,0,L|335:89,2,52.5000020027161
144,237,173154,6,0,P|172:255|195:258,1,52.5000020027161
399,213,173454,2,0,P|346:198|332:199,1,52.5000020027161
168,304,173754,5,0,0:0:0:0:
263,98,174054,5,0,0:0:0:0:
464,197,174354,5,0,0:0:0:0:
112,229,174954,5,0,0:0:0:0:
373,98,175254,5,0,0:0:0:0:
422,253,175404,5,0,0:0:0:0:
144,166,175554,5,0,0:0:0:0:
119,179,176154,5,0,0:0:0:0:
440,111,176454,5,0,0:0:0:0:
193,260,176754,5,0,0:0:0:0:
170,78,177354,5,0,0:0:0:0:
325,164,177654,5,0,0:0:0:0:
139,285,177804,5,0,0:0:0:0:
173,121,177954,5,0,0:0:0:0:
66,110,178554,6,0,P|121:94|183:108,1,105
197,113,178854,1,0,0:0:0:0:
357,169,179004,1,0,0:0:0:0:
183,193,179154,1,0,0:0:0:0:
365,250,179304,1,0,0:0:0:0:
214,275,179454,1,0,0:0:0:0:
288,140,179604,1,0,0:0:0:0:
295,301,179754,1,0,0:0:0:0:
160,153,179904,2,0,P|199:149|241:162,1,70
356,233,180204,2,0,P|394:241|448:238,1,70
264,249,180504,5,0,0:0:0:0:
199,85,180954,6,0,P|214:116|215:155,1,70
199,247,181254,2,0,P|193:300|201:332,1,70
363,263,181554,2,0,P|374:219|364:179,1,70
270,106,181854,1,0,0:0:0:0:
419,75,182004,1,0,0:0:0:0:
325,204,182154,1,0,0:0:0:0:
330,33,182304,1,0,0:0:0:0:
383,195,182454,1,0,0:0:0:0:
268,53,182604,1,0,0:0:0:0:
452,133,182754,1,0,0:0:0:0:
388,86,183654,6,0,B|367:153|268:90|268:90|290:59|290:59|203:168|136:115|101:110|101:110|94:140,1,420
255,324,186054,6,0,B|230:301|214:282|215:242|215:242|210:234|228:134|245:112|266:94|304:89|345:106|381:128|385:159|375:195|358:219|332:237|299:252|263:261|216:260|182:249|138:221|130:182,1,630.000024032594
134,194,188304,5,0,0:0:0:0:
242,98,188454,1,0,0:0:0:0:
250,243,188604,1,0,0:0:0:0:
96,310,188904,5,0,0:0:0:0:
82,176,189054,1,0,0:0:0:0:
192,257,189204,1,0,0:0:0:0:
343,208,189504,5,0,0:0:0:0:
419,96,189654,1,0,0:0:0:0:
284,116,189804,1,0,0:0:0:0:
95,157,190104,5,0,0:0:0:0:
135,175,190254,1,0,0:0:0:0:
183,199,190404,1,0,0:0:0:0:
373,283,190704,5,0,0:0:0:0:
331,118,190854,1,0,0:0:0:0:
310,280,191004,1,0,0:0:0:0:
253,113,191154,1,0,0:0:0:0:
392,232,191304,1,0,0:0:0:0:
199,212,191454,1,0,0:0:0:0:
372,141,191604,1,0,0:0:0:0:
265,297,191754,1,0,0:0:0:0:
275,122,191904,5,0,0:0:0:0:
361,278,192054,1,0,0:0:0:0:
406,100,192204,1,0,0:0:0:0:
247,202,192354,1,0,0:0:0:0:
410,202,192504,1,0,0:0:0:0:
243,103,192654,1,0,0:0:0:0:
93,208,192954,6,0,P|163:226|196:209,1,105.000004005432
146,137,193404,1,0,0:0:0:0:
306,105,193704,2,0,L|358:95,1,52.5000020027161
387,204,194004,1,0,0:0:0:0:
233,308,194304,5,0,0:0:0:0:
248,191,194454,1,0,0:0:0:0:
314,321,194604,1,0,0:0:0:0:
321,165,194754,1,0,0:0:0:0:
393,331,194904,1,0,0:0:0:0:
409,144,195054,1,0,0:0:0:0:
69,211,195504,6,0,P|108:218|158:208,2,70
326,173,195954,2,0,P|272:164|233:172,1,70
176,337,196254,2,0,P|171:284|178:257,1,70
234,94,196554,2,0,P|239:143|230:187,1,70
386,263,196854,2,0,P|331:271|303:269,2,70
472,137,197304,2,0,P|419:136|395:144,1,70
132,195,197754,5,0,0:0:0:0:
301,275,198054,5,0,0:0:0:0:
332,127,198954,5,0,0:0:0:0:
283,188,199254,5,0,0:0:0:0:
242,253,199554,5,0,0:0:0:0:
19,204,200454,6,0,B|68:204|68:204|72:213|72:213|75:204|75:204|114:204|114:204|145:53|145:53|192:212|192:211|192:211|272:212|285:211|285:211|293:234|315:349|315:349|344:202|341:208|341:208|408:208|408:208|414:200|414:200|419:208|419:208|483:208|483:208|484:261,1,980
100,263,202854,5,0,0:0:0:0:
480,65,203004,1,0,0:0:0:0:
132,337,203154,1,0,0:0:0:0:
366,20,203304,1,0,0:0:0:0:
214,364,203454,1,0,0:0:0:0:
276,13,203604,1,0,0:0:0:0:
279,368,203754,1,0,0:0:0:0:
193,19,203904,1,0,0:0:0:0:
67,189,204054,6,0,P|143:231|166:233,1,105.000004005432
444,189,204354,2,0,P|403:220|352:232,1,105.000004005432
239,53,204654,2,0,P|235:123|247:169,1,105.000004005432
267,356,204954,2,0,P|268:282|256:218,1,105.000004005432
410,97,205254,5,0,0:0:0:0:
63,237,205404,1,0,0:0:0:0:
466,246,205554,1,0,0:0:0:0:
67,129,205704,1,0,0:0:0:0:
382,257,205854,1,0,0:0:0:0:
37,214,206004,1,0,0:0:0:0:
484,130,206154,1,0,0:0:0:0:
239,349,206304,1,0,0:0:0:0:
110,90,206454,6,0,L|134:211,1,105.000004005432
363,132,206754,2,0,L|351:249,1,105.000004005432
81,329,207054,1,0,0:0:0:0:
437,207,207204,1,0,0:0:0:0:
46,124,207354,1,0,0:0:0:0:
423,61,207504,1,0,0:0:0:0:
57,271,207654,1,0,0:0:0:0:
211,43,207804,5,0,0:0:0:0:
306,293,207954,1,0,0:0:0:0:
292,34,208104,5,0,0:0:0:0:
390,295,208254,1,0,0:0:0:0:
370,26,208404,5,0,0:0:0:0:
475,288,208554,1,0,0:0:0:0:
470,61,208704,5,0,0:0:0:0:
250,269,208854,1,0,0:0:0:0:
373,26,209004,5,0,0:0:0:0:
357,300,209154,1,0,0:0:0:0:
281,38,209304,5,0,0:0:0:0:
452,298,209454,1,0,0:0:0:0:
95,80,209604,5,0,0:0:0:0:
195,333,209754,1,0,0:0:0:0:
199,45,209904,1,0,0:0:0:0:
314,330,210054,1,0,0:0:0:0:
121,117,210204,1,0,0:0:0:0:
461,211,210354,1,0,0:0:0:0:
92,260,210504,1,0,0:0:0:0:
466,62,210654,1,0,0:0:0:0:
258,332,210804,1,0,0:0:0:0:
166,102,210954,1,0,0:0:0:0:
478,215,211104,1,0,0:0:0:0:
142,255,211254,1,0,0:0:0:0:
333,42,211404,1,0,0:0:0:0:
363,311,211554,1,0,0:0:0:0:
92,148,211704,5,8,3:3:0:0:
129,84,211779,1,8,3:3:0:0:
197,58,211854,1,8,3:3:0:0:
268,75,211929,1,8,3:3:0:0:
326,119,212004,1,8,3:3:0:0:
342,190,212079,1,8,3:3:0:0:
328,262,212154,1,8,3:3:0:0:
273,310,212229,1,8,3:3:0:0:
201,325,212304,1,8,3:3:0:0:
130,304,212379,1,8,3:3:0:0:
95,239,212454,1,8,3:3:0:0:
194,62,212604,5,0,0:0:0:0:
297,254,212754,1,0,0:0:0:0:
316,27,212904,5,0,0:0:0:0:
405,256,213054,1,0,0:0:0:0:
419,57,213204,5,0,0:0:0:0:
345,328,213354,1,0,0:0:0:0:
320,99,213504,5,0,0:0:0:0:
421,339,213654,1,0,0:0:0:0:
425,126,213804,5,0,0:0:0:0:
347,381,213954,1,0,0:0:0:0:
195,159,214104,5,0,0:0:0:0:
457,200,214254,1,0,0:0:0:0:
153,266,214404,5,0,0:0:0:0:
412,177,214554,1,0,0:0:0:0:
83,175,214704,5,0,0:0:0:0:
345,275,214854,1,0,0:0:0:0:
30,269,215004,5,0,0:0:0:0:
268,176,215154,1,0,0:0:0:0:
86,84,215304,1,0,0:0:0:0:
217,298,215454,1,0,0:0:0:0:
192,64,215604,1,0,0:0:0:0:
155,306,215754,1,0,0:0:0:0:
285,104,215904,1,0,0:0:0:0:
75,209,216054,1,0,0:0:0:0:
345,264,216204,1,0,0:0:0:0:
170,107,216354,1,0,0:0:0:0:
259,303,216504,1,0,0:0:0:0:
243,63,216654,1,0,0:0:0:0:
105,191,216804,5,0,0:0:0:0:
483,169,216954,1,0,0:0:0:0:
170,279,217104,1,0,0:0:0:0:
373,97,217254,1,0,0:0:0:0:
86,24,217404,5,0,0:0:0:0:
220,345,217554,1,0,0:0:0:0:
425,55,217704,5,0,0:0:0:0:
49,327,217854,1,0,0:0:0:0:
170,29,218004,5,0,0:0:0:0:
474,369,218154,1,0,0:0:0:0:
349,29,218304,5,0,0:0:0:0:
226,354,218454,1,0,0:0:0:0:
146,27,218604,5,0,0:0:0:0:
475,244,218754,1,0,0:0:0:0:
87,277,218904,5,0,0:0:0:0:
461,106,219054,1,0,0:0:0:0:
277,349,219204,5,0,0:0:0:0:
205,48,219354,1,0,0:0:0:0:
383,337,219504,5,0,0:0:0:0:
296,22,219654,1,0,0:0:0:0:
86,103,219804,5,0,0:0:0:0:
290,356,219954,1,0,0:0:0:0:
199,68,220104,5,0,0:0:0:0:
118,351,220254,1,0,0:0:0:0:
335,15,220404,5,0,0:0:0:0:
285,358,220554,1,0,0:0:0:0:
177,14,220704,1,0,0:0:0:0:
335,15,220854,5,0,0:0:0:0:
285,358,221004,1,0,0:0:0:0:
177,14,221154,1,0,0:0:0:0:
335,15,221304,5,0,0:0:0:0:
285,358,221454,1,0,0:0:0:0:
177,14,221604,1,0,0:0:0:0:
335,15,221754,5,0,0:0:0:0:
285,358,221904,1,0,0:0:0:0:
175,15,222054,6,0,B|201:68|201:68|197:101|197:101|228:169|228:169|312:195|312:195|310:235|310:235|348:256|348:256|291:298|291:298|273:286|273:286|236:330|236:330|186:317|186:317|123:339|123:339|72:311|72:311|45:311|45:311|25:273,1,735.000028038026
165,115,226854,5,0,0:0:0:0:
239,249,227004,1,0,0:0:0:0:
277,65,227154,1,0,0:0:0:0:
332,258,227304,1,0,0:0:0:0:
365,48,227454,1,0,0:0:0:0:
434,268,227604,1,0,0:0:0:0:
470,24,227754,5,0,0:0:0:0:
183,147,228054,6,0,P|152:172|126:218,1,70
171,204,228354,2,0,P|163:243|173:295,1,70
208,263,228654,2,0,P|232:295|277:322,1,70
305,153,228954,5,0,0:0:0:0:
383,253,229254,5,0,0:0:0:0:
354,90,229404,1,0,0:0:0:0:
455,240,229554,1,0,0:0:0:0:
253,158,229704,1,0,0:0:0:0:
429,115,229854,1,0,0:0:0:0:
298,237,230004,1,0,0:0:0:0:
352,81,230154,5,0,0:0:0:0:
128,120,230454,6,0,B|143:173|143:173|166:193,1,70
114,231,230754,6,0,B|162:258|162:258|193:256,1,70
258,314,231054,5,0,3:3:0:0:
293,279,231129,1,0,3:3:0:0:
326,246,231204,1,0,3:3:0:0:
246,77,231354,5,0,3:3:0:0:
205,105,231429,1,0,3:3:0:0:
171,136,231504,1,0,3:3:0:0:
323,295,231654,5,0,0:0:0:0:
302,155,231804,1,0,0:0:0:0:
235,291,231954,1,0,0:0:0:0:
366,202,232104,1,0,0:0:0:0:
231,173,232254,1,0,0:0:0:0:
323,269,232404,1,0,0:0:0:0:
316,144,232554,1,0,0:0:0:0:
246,257,232704,1,0,0:0:0:0:
254,137,232854,1,0,0:0:0:0:
93,222,233154,6,0,P|139:241|188:246,1,70
276,250,233454,2,0,P|323:248|358:238,1,70
450,189,233754,2,0,P|490:162|508:136,1,70
289,128,234054,5,0,0:0:0:0:
258,329,234354,5,0,0:0:0:0:
223,194,234504,1,0,0:0:0:0:
332,293,234654,1,0,0:0:0:0:
317,164,234804,1,0,0:0:0:0:
406,196,234954,1,0,0:0:0:0:
276,241,235104,1,0,0:0:0:0:
402,281,235254,1,0,0:0:0:0:
175,244,235554,5,0,0:0:0:0:
301,117,235854,1,0,0:0:0:0:
332,317,236154,1,0,0:0:0:0:
121,85,236454,6,0,L|137:157,1,70
299,149,236754,2,0,L|283:235,1,70
132,266,237054,2,0,L|153:353,1,70
304,299,237354,6,0,P|347:308|392:298,1,70
457,205,237654,2,0,P|421:200|375:210,1,70
241,279,237954,5,0,0:0:0:0:
258,59,238254,5,0,0:0:0:0:
354,197,238404,1,0,0:0:0:0:
325,51,238554,1,0,0:0:0:0:
287,209,238704,1,0,0:0:0:0:
370,92,238854,1,0,0:0:0:0:
376,250,239004,1,0,0:0:0:0:
328,133,239154,1,0,0:0:0:0:
443,249,239304,1,0,0:0:0:0:
397,129,239454,1,0,0:0:0:0:
361,293,239604,1,0,0:0:0:0:
281,134,239754,1,0,0:0:0:0:
170,312,240054,5,0,0:0:0:0:
261,205,240204,1,0,0:0:0:0:
110,157,240354,1,0,0:0:0:0:
241,55,240504,1,0,0:0:0:0:
269,196,240654,1,0,0:0:0:0:
138,278,240804,1,0,0:0:0:0:
42,168,240954,1,0,0:0:0:0:
166,87,241104,1,0,0:0:0:0:
66,104,241254,6,0,B|117:130|117:130|185:148|294:102|225:4|73:-13|107:82|126:142|161:196|172:213,1,420.000016021729
268,291,243054,5,0,0:0:0:0:
227,342,243654,6,0,B|263:320|266:251|266:251|286:299|288:311|362:366|366:310|366:310|377:330|377:330|381:308|381:308|357:260|350:210|388:173|391:155|391:155|355:173|327:209,1,525.000020027161
267,252,245454,5,0,0:0:0:0:
343,190,245754,5,0,0:0:0:0:
81,289,246054,6,0,B|122:337|212:350|235:280|229:246|229:246|225:217|203:204|169:173|140:140|132:87|134:59|145:41|167:21|194:17|201:17|215:0|249:8|278:39|293:54|297:70|294:87|288:101|287:110|287:110|305:86|307:75|311:64|322:44|340:27|365:19|396:11|434:24|446:37|459:56|463:87|461:114|451:141|441:164|427:187|397:205|364:223|326:241|306:248|293:259|287:283|283:308|291:336|291:336|303:371|329:380|379:376,1,1260.00004806519
370,376,249954,1,0,0:0:0:0:
370,376,250254,1,0,0:0:0:0:
370,376,250554,1,0,0:0:0:0:
