osu file format v14

[General]
AudioFilename: audio.mp3
AudioLeadIn: 0
PreviewTime: 155548
Countdown: 0
SampleSet: Soft
StackLeniency: 0.7
Mode: 3
LetterboxInBreaks: 0
SpecialStyle: 0
WidescreenStoryboard: 1

[Editor]
Bookmarks: 472,15241,30010,46625,63241,78010,92779,107548,122318,138933,155548,170318,181395,199856,216472,229395
DistanceSpacing: 2
BeatDivisor: 5
GridSize: 8
TimelineZoom: 1

[Metadata]
Title:Palette Lab (Extended)
TitleUnicode:Palette Lab (Extended)
Artist:Kanzaki Shion
ArtistUnicode:かんざきしおん
Creator:-MysticEyes
Version:Another
Source:THE BMS OF FIGHTERS EighTeen -Summer Dream Traveler-
Tags:Colour House Color GroundbreakinG 2022 compilation album gdbg BOF:ET BOFET BOF ET osu!mania 4k french tournament 2023 mft tech Electronic Instrumental
BeatmapID:4366048
BeatmapSetID:2019770

[Difficulty]
HPDrainRate:8
CircleSize:4
OverallDifficulty:7.5
ApproachRate:5
SliderMultiplier:1.4
SliderTickRate:1

[Events]
//Background and Video events
0,0,"a.JPG",0,0
//Break Periods
//Storyboard Layer 0 (Background)
//Storyboard Layer 1 (Fail)
//Storyboard Layer 2 (Pass)
//Storyboard Layer 3 (Foreground)
//Storyboard Layer 4 (Overlay)
//Storyboard Sound Samples

[TimingPoints]
482,461.538461538462,4,2,1,15,1,0
7866,-100,4,2,1,30,0,0
13405,-100,4,2,1,40,0,0
15251,-100,4,2,1,90,0,0
21251,-100,4,2,1,40,0,0
25405,-100,4,2,1,55,0,0
30020,-100,4,2,1,65,0,0
59558,-100,4,2,1,40,0,0
63251,-100,4,2,1,65,0,0
78020,-100,4,2,1,65,0,1
107558,-100,4,2,1,65,0,0
122328,-100,4,2,1,80,0,0
137097,-100,4,2,1,65,0,0
152212,-100,4,2,1,40,0,0
156020,-100,4,2,1,40,0,1
166635,-100,4,2,1,65,0,0
170789,-100,4,2,1,40,0,1
174020,-100,4,2,1,65,0,0
177712,-100,4,2,1,40,0,1
181405,-100,4,2,1,65,0,0
229405,-100,4,2,1,40,0,0

[HitObjects]
64,192,482,5,0,0:0:0:0:
192,192,482,1,0,0:0:0:0:
64,192,828,1,0,0:0:0:0:
192,192,885,1,0,0:0:0:0:
320,192,943,1,0,0:0:0:0:
448,192,943,1,0,0:0:0:0:
64,192,1058,1,0,0:0:0:0:
192,192,1174,1,0,0:0:0:0:
64,192,1289,1,0,0:0:0:0:
320,192,1405,1,0,0:0:0:0:
448,192,1405,1,0,0:0:0:0:
192,192,1462,1,0,0:0:0:0:
64,192,1520,1,0,0:0:0:0:
448,192,1578,1,0,0:0:0:0:
192,192,1635,1,0,0:0:0:0:
320,192,1712,1,0,0:0:0:0:
192,192,1789,1,0,0:0:0:0:
320,192,1866,1,0,0:0:0:0:
64,192,1866,1,0,0:0:0:0:
448,192,1982,1,0,0:0:0:0:
320,192,2097,1,0,0:0:0:0:
448,192,2212,1,0,0:0:0:0:
64,192,2328,1,0,0:0:0:0:
192,192,2328,1,0,0:0:0:0:
192,192,2674,1,0,0:0:0:0:
320,192,2789,1,0,0:0:0:0:
448,192,2789,1,0,0:0:0:0:
192,192,2905,1,0,0:0:0:0:
64,192,3251,1,0,0:0:0:0:
192,192,3251,1,0,0:0:0:0:
192,192,3597,1,0,0:0:0:0:
320,192,3712,1,0,0:0:0:0:
448,192,3712,1,0,0:0:0:0:
192,192,3828,1,0,0:0:0:0:
320,192,4174,1,0,0:0:0:0:
448,192,4174,1,0,0:0:0:0:
448,192,4520,1,0,0:0:0:0:
320,192,4578,1,0,0:0:0:0:
192,192,4635,1,0,0:0:0:0:
64,192,4635,1,0,0:0:0:0:
448,192,4751,1,0,0:0:0:0:
320,192,4866,1,0,0:0:0:0:
448,192,4982,1,0,0:0:0:0:
192,192,5097,1,0,0:0:0:0:
64,192,5097,1,0,0:0:0:0:
320,192,5155,1,0,0:0:0:0:
448,192,5212,1,0,0:0:0:0:
64,192,5270,1,0,0:0:0:0:
320,192,5328,1,0,0:0:0:0:
192,192,5405,1,0,0:0:0:0:
320,192,5482,1,0,0:0:0:0:
192,192,5558,1,0,0:0:0:0:
448,192,5558,1,0,0:0:0:0:
64,192,5674,1,0,0:0:0:0:
192,192,5789,1,0,0:0:0:0:
64,192,5905,1,0,0:0:0:0:
448,192,6020,1,0,0:0:0:0:
320,192,6020,1,0,0:0:0:0:
320,192,6366,1,0,0:0:0:0:
192,192,6482,1,0,0:0:0:0:
64,192,6482,1,0,0:0:0:0:
320,192,6597,1,0,0:0:0:0:
448,192,6943,1,0,0:0:0:0:
320,192,6943,1,0,0:0:0:0:
320,192,7289,1,0,0:0:0:0:
192,192,7405,1,0,0:0:0:0:
64,192,7405,1,0,0:0:0:0:
320,192,7520,1,0,0:0:0:0:
192,192,7866,1,0,0:0:0:0:
64,192,7866,1,0,0:0:0:0:
320,192,8097,1,0,0:0:0:0:
64,192,8212,1,0,0:0:0:0:
192,192,8270,1,0,0:0:0:0:
448,192,8328,1,0,0:0:0:0:
320,192,8328,1,0,0:0:0:0:
64,192,8443,1,0,0:0:0:0:
192,192,8558,1,0,0:0:0:0:
64,192,8674,1,0,0:0:0:0:
448,192,8789,1,0,0:0:0:0:
320,192,8789,1,0,0:0:0:0:
192,192,8847,1,0,0:0:0:0:
64,192,8905,1,0,0:0:0:0:
448,192,8962,1,0,0:0:0:0:
192,192,9020,1,0,0:0:0:0:
320,192,9097,1,0,0:0:0:0:
192,192,9174,1,0,0:0:0:0:
64,192,9251,1,0,0:0:0:0:
320,192,9251,1,0,0:0:0:0:
448,192,9366,1,0,0:0:0:0:
320,192,9482,1,0,0:0:0:0:
448,192,9597,1,0,0:0:0:0:
192,192,9712,1,0,0:0:0:0:
64,192,9712,1,0,0:0:0:0:
320,192,9943,1,0,0:0:0:0:
192,192,10058,1,0,0:0:0:0:
64,192,10116,1,0,0:0:0:0:
448,192,10174,1,0,0:0:0:0:
320,192,10174,1,0,0:0:0:0:
192,192,10289,1,0,0:0:0:0:
448,192,10405,1,0,0:0:0:0:
192,192,10635,1,0,0:0:0:0:
64,192,10635,1,0,0:0:0:0:
320,192,10866,1,0,0:0:0:0:
192,192,10982,1,0,0:0:0:0:
64,192,11039,1,0,0:0:0:0:
448,192,11097,1,0,0:0:0:0:
320,192,11097,1,0,0:0:0:0:
192,192,11212,1,0,0:0:0:0:
448,192,11270,1,0,0:0:0:0:
64,192,11328,1,0,0:0:0:0:
448,192,11558,1,0,0:0:0:0:
320,192,11558,1,0,0:0:0:0:
192,192,11789,1,0,0:0:0:0:
448,192,11905,1,0,0:0:0:0:
320,192,11962,1,0,0:0:0:0:
64,192,12020,1,0,0:0:0:0:
192,192,12020,1,0,0:0:0:0:
448,192,12135,1,0,0:0:0:0:
320,192,12251,1,0,0:0:0:0:
448,192,12366,1,0,0:0:0:0:
64,192,12482,1,0,0:0:0:0:
192,192,12482,1,0,0:0:0:0:
320,192,12539,1,0,0:0:0:0:
448,192,12597,1,0,0:0:0:0:
64,192,12655,1,0,0:0:0:0:
320,192,12712,1,0,0:0:0:0:
192,192,12789,1,0,0:0:0:0:
320,192,12866,1,0,0:0:0:0:
448,192,12943,1,0,0:0:0:0:
192,192,12943,1,0,0:0:0:0:
64,192,13058,1,0,0:0:0:0:
192,192,13174,1,0,0:0:0:0:
64,192,13289,1,0,0:0:0:0:
320,192,13405,1,0,0:0:0:0:
448,192,13405,1,0,0:0:0:0:
192,192,13635,1,0,0:0:0:0:
320,192,13751,1,0,0:0:0:0:
448,192,13808,1,0,0:0:0:0:
64,192,13866,1,0,0:0:0:0:
192,192,13866,1,0,0:0:0:0:
320,192,13982,1,0,0:0:0:0:
64,192,14097,5,0,0:0:0:0:
320,192,14328,1,0,0:0:0:0:
448,192,14328,1,0,0:0:0:0:
192,192,14558,1,0,0:0:0:0:
320,192,14674,1,0,0:0:0:0:
448,192,14732,1,0,0:0:0:0:
64,192,14789,1,0,0:0:0:0:
192,192,14789,1,0,0:0:0:0:
320,192,14905,1,0,0:0:0:0:
64,192,14962,1,0,0:0:0:0:
448,192,15020,1,0,0:0:0:0:
192,192,15251,1,0,0:0:0:0:
320,192,15251,1,0,0:0:0:0:
448,192,15328,1,0,0:0:0:0:
64,192,15405,1,0,0:0:0:0:
192,192,15482,1,0,0:0:0:0:
320,192,15597,1,0,0:0:0:0:
192,192,15828,1,0,0:0:0:0:
320,192,15885,1,0,0:0:0:0:
448,192,15943,1,0,0:0:0:0:
192,192,16058,1,0,0:0:0:0:
64,192,16174,1,0,0:0:0:0:
320,192,16289,1,0,0:0:0:0:
64,192,16405,1,0,0:0:0:0:
320,192,16520,1,0,0:0:0:0:
192,192,16635,1,0,0:0:0:0:
192,192,16751,1,0,0:0:0:0:
448,192,16866,1,0,0:0:0:0:
448,192,16982,1,0,0:0:0:0:
192,192,17097,1,0,0:0:0:0:
320,192,17135,1,0,0:0:0:0:
448,192,17174,1,0,0:0:0:0:
64,192,17212,1,0,0:0:0:0:
192,192,17251,1,0,0:0:0:0:
320,192,17289,1,0,0:0:0:0:
448,192,17328,1,0,0:0:0:0:
64,192,17366,1,0,0:0:0:0:
192,192,17405,1,0,0:0:0:0:
320,192,17443,1,0,0:0:0:0:
448,192,17482,1,0,0:0:0:0:
64,192,17520,1,0,0:0:0:0:
192,192,17558,1,0,0:0:0:0:
448,192,17674,1,0,0:0:0:0:
320,192,17789,1,0,0:0:0:0:
192,192,17905,1,0,0:0:0:0:
448,192,18020,1,0,0:0:0:0:
320,192,18135,1,0,0:0:0:0:
192,192,18251,1,0,0:0:0:0:
64,192,18366,1,0,0:0:0:0:
320,192,18482,1,0,0:0:0:0:
192,192,18539,1,0,0:0:0:0:
64,192,18597,1,0,0:0:0:0:
448,192,18655,1,0,0:0:0:0:
320,192,18712,1,0,0:0:0:0:
192,192,18770,1,0,0:0:0:0:
64,192,18828,1,0,0:0:0:0:
448,192,18885,1,0,0:0:0:0:
320,192,18943,1,0,0:0:0:0:
192,192,18943,1,0,0:0:0:0:
64,192,19020,1,0,0:0:0:0:
448,192,19097,1,0,0:0:0:0:
320,192,19174,1,0,0:0:0:0:
192,192,19289,1,0,0:0:0:0:
320,192,19520,1,0,0:0:0:0:
192,192,19578,1,0,0:0:0:0:
64,192,19635,1,0,0:0:0:0:
320,192,19751,1,0,0:0:0:0:
448,192,19866,1,0,0:0:0:0:
192,192,19982,1,0,0:0:0:0:
448,192,20097,1,0,0:0:0:0:
192,192,20212,1,0,0:0:0:0:
320,192,20328,1,0,0:0:0:0:
320,192,20443,1,0,0:0:0:0:
64,192,20558,1,0,0:0:0:0:
64,192,20674,1,0,0:0:0:0:
448,192,20789,1,0,0:0:0:0:
320,192,20828,1,0,0:0:0:0:
192,192,20866,1,0,0:0:0:0:
64,192,20905,1,0,0:0:0:0:
320,192,20962,1,0,0:0:0:0:
448,192,21020,1,0,0:0:0:0:
192,192,21097,1,0,0:0:0:0:
320,192,21174,1,0,0:0:0:0:
64,192,21251,1,0,0:0:0:0:
192,192,21366,1,0,0:0:0:0:
320,192,21482,1,0,0:0:0:0:
64,192,21597,1,0,0:0:0:0:
448,192,21712,1,0,0:0:0:0:
320,192,21828,1,0,0:0:0:0:
192,192,21943,1,0,0:0:0:0:
448,192,22058,1,0,0:0:0:0:
192,192,22174,1,0,0:0:0:0:
320,192,22232,1,0,0:0:0:0:
448,192,22289,1,0,0:0:0:0:
64,192,22347,1,0,0:0:0:0:
192,192,22405,1,0,0:0:0:0:
320,192,22462,1,0,0:0:0:0:
448,192,22520,1,0,0:0:0:0:
64,192,22578,1,0,0:0:0:0:
192,192,22635,1,0,0:0:0:0:
320,192,22635,1,0,0:0:0:0:
448,192,22712,1,0,0:0:0:0:
64,192,22789,1,0,0:0:0:0:
192,192,22866,1,0,0:0:0:0:
320,192,22982,1,0,0:0:0:0:
448,192,22982,1,0,0:0:0:0:
192,192,23212,1,0,0:0:0:0:
320,192,23270,1,0,0:0:0:0:
448,192,23328,1,0,0:0:0:0:
192,192,23443,1,0,0:0:0:0:
448,192,23558,1,0,0:0:0:0:
192,192,23674,1,0,0:0:0:0:
64,192,23789,1,0,0:0:0:0:
320,192,23905,1,0,0:0:0:0:
64,192,24020,1,0,0:0:0:0:
320,192,24135,1,0,0:0:0:0:
448,192,24251,1,0,0:0:0:0:
192,192,24366,1,0,0:0:0:0:
448,192,24482,1,0,0:0:0:0:
192,192,24597,1,0,0:0:0:0:
64,192,24712,1,0,0:0:0:0:
320,192,24828,1,0,0:0:0:0:
192,192,24943,1,0,0:0:0:0:
64,192,24943,1,0,0:0:0:0:
320,192,25097,1,0,0:0:0:0:
448,192,25097,1,0,0:0:0:0:
192,192,25251,1,0,0:0:0:0:
64,192,25251,1,0,0:0:0:0:
320,192,25405,1,0,0:0:0:0:
448,192,25405,1,0,0:0:0:0:
192,192,25520,1,0,0:0:0:0:
64,192,25520,1,0,0:0:0:0:
320,192,25635,5,0,0:0:0:0:
448,192,25635,1,0,0:0:0:0:
192,192,25712,5,0,0:0:0:0:
64,192,25712,1,0,0:0:0:0:
320,192,25789,5,0,0:0:0:0:
448,192,25789,1,0,0:0:0:0:
192,192,25866,5,0,0:0:0:0:
64,192,25866,1,0,0:0:0:0:
320,192,25943,5,0,0:0:0:0:
448,192,25943,1,0,0:0:0:0:
192,192,26020,5,0,0:0:0:0:
64,192,26020,1,0,0:0:0:0:
320,192,26097,5,0,0:0:0:0:
448,192,26097,1,0,0:0:0:0:
192,192,26155,5,0,0:0:0:0:
64,192,26155,1,0,0:0:0:0:
320,192,26212,5,0,0:0:0:0:
448,192,26212,1,0,0:0:0:0:
192,192,26270,5,0,0:0:0:0:
64,192,26270,1,0,0:0:0:0:
448,192,26328,5,0,0:0:0:0:
320,192,26328,1,0,0:0:0:0:
64,192,26443,1,0,0:0:0:0:
192,192,26482,1,0,0:0:0:0:
320,192,26520,1,0,0:0:0:0:
64,192,26597,1,0,0:0:0:0:
448,192,26674,1,0,0:0:0:0:
320,192,26789,1,0,0:0:0:0:
448,192,26905,1,0,0:0:0:0:
192,192,27020,1,0,0:0:0:0:
64,192,27135,1,0,0:0:0:0:
448,192,27251,1,0,0:0:0:0:
320,192,27337,1,0,0:0:0:0:
192,192,27482,1,0,0:0:0:0:
448,192,27597,1,0,0:0:0:0:
64,192,27712,1,0,0:0:0:0:
448,192,27828,1,0,0:0:0:0:
192,192,28020,1,0,0:0:0:0:
448,192,28174,1,0,0:0:0:0:
448,192,28520,1,0,0:0:0:0:
448,192,28751,1,0,0:0:0:0:
448,192,29097,1,0,0:0:0:0:
64,192,29328,128,0,29443:0:0:0:0:
448,192,29558,128,0,29674:0:0:0:0:
448,192,29789,128,0,29905:0:0:0:0:
64,192,30020,1,0,0:0:0:0:
192,192,30020,1,0,0:0:0:0:
448,192,30020,1,0,0:0:0:0:
320,192,30135,1,0,0:0:0:0:
64,192,30251,1,0,0:0:0:0:
64,192,30366,1,0,0:0:0:0:
320,192,30482,1,0,0:0:0:0:
448,192,30482,1,0,0:0:0:0:
192,192,30597,1,0,0:0:0:0:
192,192,30712,1,0,0:0:0:0:
192,192,30828,1,0,0:0:0:0:
320,192,30943,1,0,0:0:0:0:
448,192,30943,1,0,0:0:0:0:
64,192,31058,1,0,0:0:0:0:
320,192,31097,1,0,0:0:0:0:
64,192,31289,1,0,0:0:0:0:
320,192,31328,1,0,0:0:0:0:
192,192,31405,1,0,0:0:0:0:
448,192,31405,1,0,0:0:0:0:
320,192,31520,1,0,0:0:0:0:
64,192,31578,1,0,0:0:0:0:
448,192,31635,1,0,0:0:0:0:
192,192,31751,1,0,0:0:0:0:
320,192,31866,1,0,0:0:0:0:
448,192,31866,1,0,0:0:0:0:
192,192,31924,1,0,0:0:0:0:
64,192,31982,1,0,0:0:0:0:
448,192,32097,1,0,0:0:0:0:
448,192,32212,1,0,0:0:0:0:
64,192,32328,1,0,0:0:0:0:
192,192,32328,1,0,0:0:0:0:
320,192,32443,1,0,0:0:0:0:
320,192,32558,1,0,0:0:0:0:
320,192,32674,1,0,0:0:0:0:
192,192,32789,1,0,0:0:0:0:
64,192,32789,1,0,0:0:0:0:
448,192,32905,1,0,0:0:0:0:
192,192,32943,1,0,0:0:0:0:
448,192,33135,1,0,0:0:0:0:
192,192,33174,1,0,0:0:0:0:
320,192,33251,1,0,0:0:0:0:
64,192,33251,1,0,0:0:0:0:
192,192,33366,1,0,0:0:0:0:
64,192,33424,1,0,0:0:0:0:
320,192,33482,1,0,0:0:0:0:
448,192,33597,1,0,0:0:0:0:
64,192,33712,1,0,0:0:0:0:
192,192,33712,1,0,0:0:0:0:
320,192,33828,1,0,0:0:0:0:
64,192,33943,128,0,34058:0:0:0:0:
192,192,34058,1,0,0:0:0:0:
320,192,34174,1,0,0:0:0:0:
448,192,34174,1,0,0:0:0:0:
192,192,34289,1,0,0:0:0:0:
192,192,34405,1,0,0:0:0:0:
192,192,34520,1,0,0:0:0:0:
320,192,34635,1,0,0:0:0:0:
448,192,34635,1,0,0:0:0:0:
64,192,34751,1,0,0:0:0:0:
320,192,34789,1,0,0:0:0:0:
64,192,34982,1,0,0:0:0:0:
320,192,35020,1,0,0:0:0:0:
192,192,35097,128,0,35328:0:0:0:0:
448,192,35097,128,0,35328:0:0:0:0:
320,192,35328,1,0,0:0:0:0:
64,192,35385,1,0,0:0:0:0:
192,192,35443,1,0,0:0:0:0:
320,192,35501,1,0,0:0:0:0:
64,192,35558,1,0,0:0:0:0:
448,192,35558,1,0,0:0:0:0:
192,192,35674,1,0,0:0:0:0:
192,192,35789,1,0,0:0:0:0:
448,192,35905,1,0,0:0:0:0:
192,192,36020,1,0,0:0:0:0:
64,192,36020,1,0,0:0:0:0:
192,192,36135,1,0,0:0:0:0:
448,192,36251,1,0,0:0:0:0:
320,192,36366,1,0,0:0:0:0:
320,192,36482,1,0,0:0:0:0:
64,192,36482,1,0,0:0:0:0:
192,192,36597,1,0,0:0:0:0:
320,192,36712,1,0,0:0:0:0:
320,192,36828,1,0,0:0:0:0:
192,192,36943,1,0,0:0:0:0:
64,192,36943,1,0,0:0:0:0:
448,192,37001,1,0,0:0:0:0:
320,192,37058,1,0,0:0:0:0:
64,192,37116,1,0,0:0:0:0:
448,192,37174,1,0,0:0:0:0:
192,192,37289,1,0,0:0:0:0:
64,192,37405,1,0,0:0:0:0:
320,192,37405,1,0,0:0:0:0:
448,192,37405,1,0,0:0:0:0:
192,192,37462,1,0,0:0:0:0:
320,192,37520,1,0,0:0:0:0:
448,192,37578,1,0,0:0:0:0:
192,192,37635,1,0,0:0:0:0:
64,192,37693,1,0,0:0:0:0:
448,192,37751,1,0,0:0:0:0:
320,192,37808,1,0,0:0:0:0:
192,192,37866,1,0,0:0:0:0:
64,192,37866,1,0,0:0:0:0:
320,192,37982,1,0,0:0:0:0:
320,192,38097,1,0,0:0:0:0:
320,192,38212,1,0,0:0:0:0:
192,192,38328,1,0,0:0:0:0:
64,192,38328,1,0,0:0:0:0:
448,192,38443,1,0,0:0:0:0:
192,192,38482,1,0,0:0:0:0:
448,192,38674,1,0,0:0:0:0:
192,192,38712,1,0,0:0:0:0:
320,192,38789,1,0,0:0:0:0:
64,192,38789,1,0,0:0:0:0:
192,192,38905,1,0,0:0:0:0:
448,192,38962,1,0,0:0:0:0:
64,192,39020,1,0,0:0:0:0:
320,192,39135,1,0,0:0:0:0:
192,192,39251,1,0,0:0:0:0:
64,192,39251,1,0,0:0:0:0:
320,192,39308,1,0,0:0:0:0:
448,192,39366,1,0,0:0:0:0:
64,192,39482,1,0,0:0:0:0:
64,192,39597,1,0,0:0:0:0:
448,192,39712,1,0,0:0:0:0:
320,192,39712,1,0,0:0:0:0:
192,192,39828,1,0,0:0:0:0:
192,192,39943,1,0,0:0:0:0:
192,192,40058,1,0,0:0:0:0:
320,192,40174,1,0,0:0:0:0:
448,192,40174,1,0,0:0:0:0:
64,192,40289,1,0,0:0:0:0:
320,192,40328,1,0,0:0:0:0:
64,192,40520,1,0,0:0:0:0:
320,192,40558,1,0,0:0:0:0:
192,192,40635,1,0,0:0:0:0:
448,192,40635,1,0,0:0:0:0:
320,192,40751,1,0,0:0:0:0:
448,192,40808,1,0,0:0:0:0:
192,192,40866,1,0,0:0:0:0:
64,192,40982,1,0,0:0:0:0:
448,192,41097,1,0,0:0:0:0:
320,192,41097,1,0,0:0:0:0:
192,192,41212,1,0,0:0:0:0:
448,192,41328,128,0,41443:0:0:0:0:
320,192,41443,1,0,0:0:0:0:
192,192,41558,1,0,0:0:0:0:
64,192,41558,1,0,0:0:0:0:
320,192,41674,1,0,0:0:0:0:
320,192,41789,1,0,0:0:0:0:
320,192,41905,1,0,0:0:0:0:
192,192,42020,1,0,0:0:0:0:
64,192,42020,1,0,0:0:0:0:
448,192,42135,1,0,0:0:0:0:
192,192,42174,1,0,0:0:0:0:
448,192,42366,1,0,0:0:0:0:
192,192,42405,1,0,0:0:0:0:
64,192,42482,1,0,0:0:0:0:
320,192,42482,1,0,0:0:0:0:
448,192,42558,1,0,0:0:0:0:
64,192,42635,1,0,0:0:0:0:
320,192,42712,1,0,0:0:0:0:
192,192,42789,1,0,0:0:0:0:
448,192,42866,1,0,0:0:0:0:
320,192,42943,1,0,0:0:0:0:
64,192,42943,1,0,0:0:0:0:
192,192,43058,1,0,0:0:0:0:
192,192,43174,1,0,0:0:0:0:
448,192,43289,1,0,0:0:0:0:
192,192,43405,1,0,0:0:0:0:
320,192,43405,1,0,0:0:0:0:
192,192,43520,1,0,0:0:0:0:
320,192,43635,1,0,0:0:0:0:
448,192,43751,1,0,0:0:0:0:
192,192,43866,1,0,0:0:0:0:
448,192,43866,1,0,0:0:0:0:
64,192,43982,1,0,0:0:0:0:
448,192,44097,1,0,0:0:0:0:
448,192,44212,1,0,0:0:0:0:
64,192,44328,128,0,44558:0:0:0:0:
192,192,44328,128,0,44558:0:0:0:0:
320,192,44558,1,0,0:0:0:0:
320,192,44674,1,0,0:0:0:0:
64,192,44789,1,0,0:0:0:0:
192,192,44789,1,0,0:0:0:0:
448,192,44789,1,0,0:0:0:0:
320,192,44905,1,0,0:0:0:0:
448,192,45020,1,0,0:0:0:0:
192,192,45135,1,0,0:0:0:0:
64,192,45366,1,0,0:0:0:0:
64,192,45482,1,0,0:0:0:0:
64,192,45597,1,0,0:0:0:0:
448,192,45712,1,0,0:0:0:0:
192,192,45828,1,0,0:0:0:0:
320,192,45943,1,0,0:0:0:0:
192,192,46058,1,0,0:0:0:0:
448,192,46174,1,0,0:0:0:0:
320,192,46289,1,0,0:0:0:0:
64,192,46347,1,0,0:0:0:0:
192,192,46405,1,0,0:0:0:0:
448,192,46520,1,0,0:0:0:0:
64,192,46635,1,0,0:0:0:0:
192,192,46635,1,0,0:0:0:0:
320,192,46693,1,0,0:0:0:0:
448,192,46751,1,0,0:0:0:0:
192,192,46866,1,0,0:0:0:0:
192,192,46982,1,0,0:0:0:0:
320,192,47097,1,0,0:0:0:0:
448,192,47097,1,0,0:0:0:0:
64,192,47212,1,0,0:0:0:0:
64,192,47328,1,0,0:0:0:0:
64,192,47443,1,0,0:0:0:0:
320,192,47558,1,0,0:0:0:0:
448,192,47558,1,0,0:0:0:0:
192,192,47674,1,0,0:0:0:0:
448,192,47712,1,0,0:0:0:0:
192,192,47905,1,0,0:0:0:0:
448,192,47943,1,0,0:0:0:0:
64,192,48020,1,0,0:0:0:0:
320,192,48020,1,0,0:0:0:0:
448,192,48135,1,0,0:0:0:0:
320,192,48193,1,0,0:0:0:0:
64,192,48251,1,0,0:0:0:0:
192,192,48366,1,0,0:0:0:0:
320,192,48482,1,0,0:0:0:0:
448,192,48482,1,0,0:0:0:0:
64,192,48597,1,0,0:0:0:0:
320,192,48712,128,0,48828:0:0:0:0:
448,192,48828,1,0,0:0:0:0:
192,192,48943,1,0,0:0:0:0:
64,192,48943,1,0,0:0:0:0:
448,192,49058,1,0,0:0:0:0:
448,192,49174,1,0,0:0:0:0:
448,192,49289,1,0,0:0:0:0:
192,192,49405,1,0,0:0:0:0:
64,192,49405,1,0,0:0:0:0:
320,192,49520,1,0,0:0:0:0:
64,192,49558,1,0,0:0:0:0:
320,192,49751,1,0,0:0:0:0:
64,192,49789,1,0,0:0:0:0:
192,192,49866,128,0,50097:0:0:0:0:
448,192,49866,128,0,50097:0:0:0:0:
64,192,50097,1,0,0:0:0:0:
320,192,50155,1,0,0:0:0:0:
448,192,50212,1,0,0:0:0:0:
64,192,50270,1,0,0:0:0:0:
192,192,50328,1,0,0:0:0:0:
320,192,50328,1,0,0:0:0:0:
448,192,50443,1,0,0:0:0:0:
448,192,50558,1,0,0:0:0:0:
192,192,50674,1,0,0:0:0:0:
320,192,50789,1,0,0:0:0:0:
448,192,50789,1,0,0:0:0:0:
448,192,50905,1,0,0:0:0:0:
192,192,51020,1,0,0:0:0:0:
64,192,51135,1,0,0:0:0:0:
64,192,51251,1,0,0:0:0:0:
448,192,51251,1,0,0:0:0:0:
320,192,51366,1,0,0:0:0:0:
64,192,51482,1,0,0:0:0:0:
64,192,51597,1,0,0:0:0:0:
320,192,51712,1,0,0:0:0:0:
448,192,51712,1,0,0:0:0:0:
192,192,51770,1,0,0:0:0:0:
64,192,51828,1,0,0:0:0:0:
320,192,51885,1,0,0:0:0:0:
192,192,51943,1,0,0:0:0:0:
448,192,52058,1,0,0:0:0:0:
64,192,52174,1,0,0:0:0:0:
192,192,52174,1,0,0:0:0:0:
320,192,52174,1,0,0:0:0:0:
448,192,52232,1,0,0:0:0:0:
64,192,52289,1,0,0:0:0:0:
192,192,52347,1,0,0:0:0:0:
448,192,52405,1,0,0:0:0:0:
320,192,52462,1,0,0:0:0:0:
192,192,52520,1,0,0:0:0:0:
64,192,52578,1,0,0:0:0:0:
320,192,52635,1,0,0:0:0:0:
448,192,52635,1,0,0:0:0:0:
64,192,52751,1,0,0:0:0:0:
64,192,52866,1,0,0:0:0:0:
64,192,52982,1,0,0:0:0:0:
320,192,53097,1,0,0:0:0:0:
448,192,53097,1,0,0:0:0:0:
192,192,53212,1,0,0:0:0:0:
448,192,53251,1,0,0:0:0:0:
192,192,53443,1,0,0:0:0:0:
448,192,53482,1,0,0:0:0:0:
320,192,53558,1,0,0:0:0:0:
64,192,53558,1,0,0:0:0:0:
192,192,53674,1,0,0:0:0:0:
448,192,53732,1,0,0:0:0:0:
320,192,53789,1,0,0:0:0:0:
64,192,53905,1,0,0:0:0:0:
320,192,54020,1,0,0:0:0:0:
448,192,54020,1,0,0:0:0:0:
192,192,54078,1,0,0:0:0:0:
64,192,54135,1,0,0:0:0:0:
320,192,54251,1,0,0:0:0:0:
320,192,54366,1,0,0:0:0:0:
192,192,54482,1,0,0:0:0:0:
64,192,54482,1,0,0:0:0:0:
448,192,54597,1,0,0:0:0:0:
448,192,54712,1,0,0:0:0:0:
448,192,54828,1,0,0:0:0:0:
64,192,54943,1,0,0:0:0:0:
192,192,54943,1,0,0:0:0:0:
320,192,55058,1,0,0:0:0:0:
320,192,55289,1,0,0:0:0:0:
192,192,55405,1,0,0:0:0:0:
64,192,55405,1,0,0:0:0:0:
448,192,55520,1,0,0:0:0:0:
320,192,55578,1,0,0:0:0:0:
64,192,55635,1,0,0:0:0:0:
192,192,55751,1,0,0:0:0:0:
320,192,55866,1,0,0:0:0:0:
448,192,55866,1,0,0:0:0:0:
64,192,55982,1,0,0:0:0:0:
320,192,56097,128,0,56212:0:0:0:0:
448,192,56212,1,0,0:0:0:0:
192,192,56328,1,0,0:0:0:0:
64,192,56328,1,0,0:0:0:0:
448,192,56443,1,0,0:0:0:0:
448,192,56558,1,0,0:0:0:0:
448,192,56674,1,0,0:0:0:0:
192,192,56789,1,0,0:0:0:0:
64,192,56789,1,0,0:0:0:0:
320,192,56905,1,0,0:0:0:0:
320,192,57135,1,0,0:0:0:0:
64,192,57251,1,0,0:0:0:0:
448,192,57251,1,0,0:0:0:0:
192,192,57328,1,0,0:0:0:0:
320,192,57405,1,0,0:0:0:0:
64,192,57482,1,0,0:0:0:0:
448,192,57558,1,0,0:0:0:0:
320,192,57635,1,0,0:0:0:0:
192,192,57712,1,0,0:0:0:0:
64,192,57712,1,0,0:0:0:0:
448,192,57828,1,0,0:0:0:0:
448,192,57943,1,0,0:0:0:0:
192,192,58058,1,0,0:0:0:0:
448,192,58174,5,0,0:0:0:0:
64,192,58174,1,0,0:0:0:0:
448,192,58289,1,0,0:0:0:0:
64,192,58405,1,0,0:0:0:0:
192,192,58520,1,0,0:0:0:0:
192,192,58635,1,0,0:0:0:0:
448,192,58635,1,0,0:0:0:0:
320,192,58751,1,0,0:0:0:0:
192,192,58866,1,0,0:0:0:0:
192,192,58982,1,0,0:0:0:0:
320,192,59097,128,0,59328:0:0:0:0:
448,192,59097,128,0,59328:0:0:0:0:
64,192,59328,1,0,0:0:0:0:
64,192,59443,1,0,0:0:0:0:
448,192,59558,5,0,0:0:0:0:
320,192,59558,1,0,0:0:0:0:
192,192,59558,1,0,0:0:0:0:
64,192,59616,1,0,0:0:0:0:
448,192,59674,1,0,0:0:0:0:
192,192,59732,1,0,0:0:0:0:
320,192,59789,1,0,0:0:0:0:
64,192,59847,1,0,0:0:0:0:
448,192,59905,1,0,0:0:0:0:
192,192,59962,1,0,0:0:0:0:
320,192,60020,1,0,0:0:0:0:
64,192,60078,1,0,0:0:0:0:
448,192,60135,1,0,0:0:0:0:
192,192,60193,1,0,0:0:0:0:
320,192,60251,1,0,0:0:0:0:
64,192,60308,1,0,0:0:0:0:
448,192,60366,1,0,0:0:0:0:
192,192,60424,1,0,0:0:0:0:
320,192,60482,1,0,0:0:0:0:
192,192,60597,1,0,0:0:0:0:
448,192,60655,1,0,0:0:0:0:
64,192,60745,1,0,0:0:0:0:
192,192,60811,1,0,0:0:0:0:
320,192,60877,1,0,0:0:0:0:
64,192,60943,1,0,0:0:0:0:
448,192,61087,1,0,0:0:0:0:
320,192,61174,1,0,0:0:0:0:
192,192,61289,1,0,0:0:0:0:
64,192,61405,1,0,0:0:0:0:
320,192,61578,1,0,0:0:0:0:
448,192,61607,1,0,0:0:0:0:
64,192,61693,1,0,0:0:0:0:
192,192,61722,1,0,0:0:0:0:
320,192,61866,1,0,0:0:0:0:
192,192,61895,1,0,0:0:0:0:
64,192,62010,1,0,0:0:0:0:
448,192,62097,5,0,0:0:0:0:
320,192,62385,1,0,0:0:0:0:
192,192,62482,1,0,0:0:0:0:
64,192,62533,1,0,0:0:0:0:
448,192,62584,1,0,0:0:0:0:
320,192,62635,1,0,0:0:0:0:
64,192,62687,1,0,0:0:0:0:
448,192,62738,1,0,0:0:0:0:
192,192,62840,1,0,0:0:0:0:
320,192,62892,1,0,0:0:0:0:
448,192,62982,1,0,0:0:0:0:
64,192,63058,1,0,0:0:0:0:
64,192,63251,5,0,0:0:0:0:
192,192,63251,1,0,0:0:0:0:
448,192,63251,1,0,0:0:0:0:
320,192,63424,1,0,0:0:0:0:
448,192,63482,1,0,0:0:0:0:
192,192,63539,1,0,0:0:0:0:
320,192,63597,1,0,0:0:0:0:
192,192,63712,1,0,0:0:0:0:
64,192,63751,1,0,0:0:0:0:
448,192,63905,1,0,0:0:0:0:
320,192,63943,1,0,0:0:0:0:
64,192,64020,1,0,0:0:0:0:
192,192,64058,1,0,0:0:0:0:
320,192,64174,1,0,0:0:0:0:
448,192,64174,1,0,0:0:0:0:
64,192,64232,1,0,0:0:0:0:
192,192,64289,1,0,0:0:0:0:
320,192,64347,1,0,0:0:0:0:
192,192,64405,1,0,0:0:0:0:
64,192,64462,1,0,0:0:0:0:
448,192,64520,1,0,0:0:0:0:
448,192,64635,1,0,0:0:0:0:
192,192,64789,1,0,0:0:0:0:
320,192,64828,1,0,0:0:0:0:
448,192,64866,1,0,0:0:0:0:
192,192,64982,1,0,0:0:0:0:
320,192,65097,1,0,0:0:0:0:
448,192,65097,1,0,0:0:0:0:
64,192,65212,1,0,0:0:0:0:
64,192,65328,1,0,0:0:0:0:
320,192,65385,1,0,0:0:0:0:
192,192,65443,1,0,0:0:0:0:
448,192,65558,1,0,0:0:0:0:
64,192,65597,1,0,0:0:0:0:
320,192,65712,1,0,0:0:0:0:
448,192,65751,1,0,0:0:0:0:
192,192,65789,1,0,0:0:0:0:
64,192,65789,1,0,0:0:0:0:
320,192,65905,1,0,0:0:0:0:
64,192,65943,1,0,0:0:0:0:
192,192,66020,1,0,0:0:0:0:
448,192,66020,1,0,0:0:0:0:
320,192,66078,1,0,0:0:0:0:
64,192,66135,1,0,0:0:0:0:
192,192,66193,1,0,0:0:0:0:
448,192,66251,1,0,0:0:0:0:
192,192,66366,1,0,0:0:0:0:
320,192,66482,1,0,0:0:0:0:
448,192,66597,1,0,0:0:0:0:
448,192,66712,1,0,0:0:0:0:
192,192,66770,1,0,0:0:0:0:
320,192,66828,1,0,0:0:0:0:
192,192,66943,1,0,0:0:0:0:
64,192,66943,1,0,0:0:0:0:
320,192,67020,1,0,0:0:0:0:
64,192,67097,1,0,0:0:0:0:
320,192,67174,1,0,0:0:0:0:
192,192,67232,1,0,0:0:0:0:
448,192,67289,1,0,0:0:0:0:
64,192,67405,1,0,0:0:0:0:
64,192,67520,1,0,0:0:0:0:
320,192,67635,1,0,0:0:0:0:
320,192,67751,1,0,0:0:0:0:
192,192,67866,1,0,0:0:0:0:
448,192,67866,1,0,0:0:0:0:
448,192,67982,1,0,0:0:0:0:
64,192,68097,1,0,0:0:0:0:
192,192,68174,1,0,0:0:0:0:
64,192,68251,1,0,0:0:0:0:
448,192,68328,1,0,0:0:0:0:
320,192,68443,1,0,0:0:0:0:
320,192,68558,1,0,0:0:0:0:
448,192,68616,1,0,0:0:0:0:
192,192,68674,1,0,0:0:0:0:
64,192,68789,1,0,0:0:0:0:
320,192,68789,1,0,0:0:0:0:
448,192,68905,1,0,0:0:0:0:
192,192,69020,1,0,0:0:0:0:
320,192,69078,1,0,0:0:0:0:
64,192,69135,1,0,0:0:0:0:
192,192,69251,1,0,0:0:0:0:
448,192,69366,1,0,0:0:0:0:
320,192,69424,1,0,0:0:0:0:
64,192,69482,1,0,0:0:0:0:
192,192,69482,1,0,0:0:0:0:
320,192,69539,1,0,0:0:0:0:
448,192,69597,1,0,0:0:0:0:
64,192,69712,1,0,0:0:0:0:
192,192,69712,1,0,0:0:0:0:
320,192,69751,1,0,0:0:0:0:
448,192,69789,1,0,0:0:0:0:
64,192,69828,1,0,0:0:0:0:
192,192,69866,1,0,0:0:0:0:
320,192,69905,1,0,0:0:0:0:
448,192,69943,1,0,0:0:0:0:
64,192,70058,1,0,0:0:0:0:
320,192,70174,1,0,0:0:0:0:
192,192,70289,1,0,0:0:0:0:
64,192,70405,1,0,0:0:0:0:
192,192,70520,1,0,0:0:0:0:
320,192,70635,1,0,0:0:0:0:
448,192,70635,1,0,0:0:0:0:
192,192,70789,1,0,0:0:0:0:
320,192,70789,1,0,0:0:0:0:
64,192,70943,1,0,0:0:0:0:
192,192,70943,1,0,0:0:0:0:
64,192,71097,1,0,0:0:0:0:
448,192,71097,1,0,0:0:0:0:
320,192,71212,1,0,0:0:0:0:
192,192,71270,1,0,0:0:0:0:
320,192,71328,1,0,0:0:0:0:
64,192,71443,1,0,0:0:0:0:
320,192,71558,1,0,0:0:0:0:
448,192,71558,1,0,0:0:0:0:
192,192,71597,1,0,0:0:0:0:
64,192,71635,1,0,0:0:0:0:
448,192,71674,1,0,0:0:0:0:
320,192,71712,1,0,0:0:0:0:
192,192,71751,1,0,0:0:0:0:
64,192,71789,1,0,0:0:0:0:
448,192,71905,1,0,0:0:0:0:
320,192,72020,1,0,0:0:0:0:
192,192,72020,1,0,0:0:0:0:
64,192,72135,1,0,0:0:0:0:
192,192,72174,1,0,0:0:0:0:
320,192,72251,1,0,0:0:0:0:
448,192,72251,1,0,0:0:0:0:
448,192,72366,1,0,0:0:0:0:
192,192,72482,1,0,0:0:0:0:
192,192,72597,1,0,0:0:0:0:
320,192,72712,1,0,0:0:0:0:
448,192,72712,1,0,0:0:0:0:
320,192,72828,1,0,0:0:0:0:
448,192,72828,1,0,0:0:0:0:
192,192,72943,1,0,0:0:0:0:
64,192,72943,1,0,0:0:0:0:
64,192,73058,1,0,0:0:0:0:
320,192,73174,5,0,0:0:0:0:
320,192,73289,1,0,0:0:0:0:
64,192,73405,1,0,0:0:0:0:
192,192,73405,1,0,0:0:0:0:
448,192,73443,1,0,0:0:0:0:
320,192,73482,1,0,0:0:0:0:
192,192,73520,1,0,0:0:0:0:
64,192,73558,1,0,0:0:0:0:
448,192,73597,1,0,0:0:0:0:
320,192,73635,1,0,0:0:0:0:
192,192,73635,1,0,0:0:0:0:
64,192,73751,1,0,0:0:0:0:
320,192,73866,1,0,0:0:0:0:
448,192,73905,1,0,0:0:0:0:
192,192,74020,1,0,0:0:0:0:
320,192,74058,1,0,0:0:0:0:
64,192,74174,1,0,0:0:0:0:
192,192,74212,1,0,0:0:0:0:
320,192,74328,5,0,0:0:0:0:
448,192,74366,1,0,0:0:0:0:
64,192,74405,1,0,0:0:0:0:
192,192,74443,1,0,0:0:0:0:
320,192,74482,1,0,0:0:0:0:
448,192,74520,1,0,0:0:0:0:
192,192,74558,1,0,0:0:0:0:
64,192,74558,1,0,0:0:0:0:
64,192,74674,1,0,0:0:0:0:
192,192,74674,1,0,0:0:0:0:
320,192,74789,5,0,0:0:0:0:
64,192,74866,1,0,0:0:0:0:
320,192,74943,1,0,0:0:0:0:
64,192,75020,1,0,0:0:0:0:
192,192,75135,1,0,0:0:0:0:
320,192,75251,1,0,0:0:0:0:
448,192,75251,1,0,0:0:0:0:
64,192,75405,1,0,0:0:0:0:
192,192,75558,1,0,0:0:0:0:
448,192,75712,1,0,0:0:0:0:
320,192,75828,1,0,0:0:0:0:
192,192,75943,1,0,0:0:0:0:
64,192,75943,1,0,0:0:0:0:
448,192,76058,1,0,0:0:0:0:
64,192,76174,1,0,0:0:0:0:
192,192,76289,1,0,0:0:0:0:
320,192,76405,1,0,0:0:0:0:
448,192,76405,1,0,0:0:0:0:
64,192,76462,1,0,0:0:0:0:
192,192,76520,1,0,0:0:0:0:
448,192,76635,1,0,0:0:0:0:
64,192,76751,1,0,0:0:0:0:
192,192,76751,1,0,0:0:0:0:
320,192,76866,1,0,0:0:0:0:
64,192,76982,1,0,0:0:0:0:
192,192,77097,1,0,0:0:0:0:
448,192,77097,1,0,0:0:0:0:
320,192,77155,1,0,0:0:0:0:
64,192,77212,1,0,0:0:0:0:
448,192,77270,1,0,0:0:0:0:
64,192,77328,1,0,0:0:0:0:
320,192,77443,1,0,0:0:0:0:
192,192,77558,1,0,0:0:0:0:
64,192,77558,1,0,0:0:0:0:
448,192,77674,1,0,0:0:0:0:
448,192,77789,1,0,0:0:0:0:
64,192,77789,1,0,0:0:0:0:
192,192,77905,1,0,0:0:0:0:
64,192,78020,5,0,0:0:0:0:
320,192,78020,1,0,0:0:0:0:
448,192,78020,1,0,0:0:0:0:
192,192,78193,1,0,0:0:0:0:
64,192,78251,1,0,0:0:0:0:
320,192,78308,1,0,0:0:0:0:
448,192,78366,1,0,0:0:0:0:
320,192,78482,1,0,0:0:0:0:
64,192,78597,1,0,0:0:0:0:
64,192,78712,1,0,0:0:0:0:
64,192,78828,1,0,0:0:0:0:
320,192,78943,1,0,0:0:0:0:
448,192,78943,1,0,0:0:0:0:
64,192,79058,128,0,79174:0:0:0:0:
320,192,79174,1,0,0:0:0:0:
64,192,79289,1,0,0:0:0:0:
448,192,79405,1,0,0:0:0:0:
320,192,79462,1,0,0:0:0:0:
192,192,79520,1,0,0:0:0:0:
64,192,79578,1,0,0:0:0:0:
320,192,79635,1,0,0:0:0:0:
448,192,79635,1,0,0:0:0:0:
192,192,79693,1,0,0:0:0:0:
64,192,79751,1,0,0:0:0:0:
448,192,79808,1,0,0:0:0:0:
320,192,79866,1,0,0:0:0:0:
64,192,79982,1,0,0:0:0:0:
64,192,80097,1,0,0:0:0:0:
320,192,80155,1,0,0:0:0:0:
192,192,80212,1,0,0:0:0:0:
64,192,80328,1,0,0:0:0:0:
448,192,80443,1,0,0:0:0:0:
448,192,80558,1,0,0:0:0:0:
64,192,80558,1,0,0:0:0:0:
192,192,80616,1,0,0:0:0:0:
320,192,80674,1,0,0:0:0:0:
192,192,80789,1,0,0:0:0:0:
64,192,80789,1,0,0:0:0:0:
320,192,80905,1,0,0:0:0:0:
320,192,81020,1,0,0:0:0:0:
448,192,81078,1,0,0:0:0:0:
192,192,81135,1,0,0:0:0:0:
320,192,81251,1,0,0:0:0:0:
192,192,81366,1,0,0:0:0:0:
192,192,81482,1,0,0:0:0:0:
320,192,81597,1,0,0:0:0:0:
64,192,81712,1,0,0:0:0:0:
448,192,81712,1,0,0:0:0:0:
320,192,81885,1,0,0:0:0:0:
448,192,81943,1,0,0:0:0:0:
192,192,82001,1,0,0:0:0:0:
64,192,82058,1,0,0:0:0:0:
192,192,82174,1,0,0:0:0:0:
448,192,82289,1,0,0:0:0:0:
448,192,82405,1,0,0:0:0:0:
448,192,82520,1,0,0:0:0:0:
64,192,82635,1,0,0:0:0:0:
192,192,82635,1,0,0:0:0:0:
448,192,82751,128,0,82866:0:0:0:0:
192,192,82866,1,0,0:0:0:0:
448,192,82982,1,0,0:0:0:0:
64,192,83097,1,0,0:0:0:0:
192,192,83155,1,0,0:0:0:0:
320,192,83212,1,0,0:0:0:0:
448,192,83270,1,0,0:0:0:0:
64,192,83328,1,0,0:0:0:0:
192,192,83328,1,0,0:0:0:0:
320,192,83385,1,0,0:0:0:0:
192,192,83443,1,0,0:0:0:0:
64,192,83501,1,0,0:0:0:0:
448,192,83558,1,0,0:0:0:0:
448,192,83789,1,0,0:0:0:0:
320,192,83789,1,0,0:0:0:0:
448,192,83905,1,0,0:0:0:0:
64,192,84020,1,0,0:0:0:0:
320,192,84135,1,0,0:0:0:0:
320,192,84251,1,0,0:0:0:0:
192,192,84366,1,0,0:0:0:0:
448,192,84482,1,0,0:0:0:0:
320,192,84520,1,0,0:0:0:0:
192,192,84558,1,0,0:0:0:0:
64,192,84597,1,0,0:0:0:0:
192,192,84712,1,0,0:0:0:0:
448,192,84712,1,0,0:0:0:0:
64,192,84828,1,0,0:0:0:0:
320,192,84943,1,0,0:0:0:0:
448,192,84943,1,0,0:0:0:0:
192,192,85097,1,0,0:0:0:0:
320,192,85174,1,0,0:0:0:0:
448,192,85328,1,0,0:0:0:0:
64,192,85405,1,0,0:0:0:0:
192,192,85405,1,0,0:0:0:0:
64,192,85558,1,0,0:0:0:0:
192,192,85558,1,0,0:0:0:0:
64,192,85712,1,0,0:0:0:0:
192,192,85712,1,0,0:0:0:0:
448,192,85866,1,0,0:0:0:0:
64,192,85866,1,0,0:0:0:0:
320,192,85943,1,0,0:0:0:0:
448,192,86020,1,0,0:0:0:0:
64,192,86097,1,0,0:0:0:0:
192,192,86174,1,0,0:0:0:0:
64,192,86251,1,0,0:0:0:0:
320,192,86328,1,0,0:0:0:0:
448,192,86328,1,0,0:0:0:0:
64,192,86443,128,0,86558:0:0:0:0:
320,192,86558,1,0,0:0:0:0:
64,192,86674,1,0,0:0:0:0:
192,192,86789,1,0,0:0:0:0:
320,192,86789,1,0,0:0:0:0:
448,192,86905,1,0,0:0:0:0:
192,192,87020,1,0,0:0:0:0:
64,192,87020,1,0,0:0:0:0:
320,192,87135,1,0,0:0:0:0:
448,192,87251,1,0,0:0:0:0:
64,192,87366,1,0,0:0:0:0:
64,192,87482,1,0,0:0:0:0:
448,192,87482,1,0,0:0:0:0:
320,192,87539,1,0,0:0:0:0:
192,192,87597,1,0,0:0:0:0:
64,192,87712,1,0,0:0:0:0:
320,192,87712,1,0,0:0:0:0:
448,192,87828,1,0,0:0:0:0:
448,192,87943,1,0,0:0:0:0:
192,192,88001,1,0,0:0:0:0:
320,192,88058,1,0,0:0:0:0:
64,192,88174,1,0,0:0:0:0:
192,192,88174,1,0,0:0:0:0:
320,192,88289,1,0,0:0:0:0:
320,192,88405,1,0,0:0:0:0:
64,192,88405,1,0,0:0:0:0:
448,192,88462,1,0,0:0:0:0:
192,192,88520,1,0,0:0:0:0:
320,192,88635,1,0,0:0:0:0:
192,192,88751,1,0,0:0:0:0:
320,192,88866,1,0,0:0:0:0:
192,192,88866,1,0,0:0:0:0:
64,192,88982,1,0,0:0:0:0:
448,192,89097,1,0,0:0:0:0:
192,192,89097,1,0,0:0:0:0:
320,192,89155,1,0,0:0:0:0:
64,192,89212,1,0,0:0:0:0:
448,192,89270,1,0,0:0:0:0:
192,192,89328,1,0,0:0:0:0:
320,192,89328,1,0,0:0:0:0:
64,192,89385,1,0,0:0:0:0:
320,192,89443,1,0,0:0:0:0:
448,192,89443,1,0,0:0:0:0:
64,192,89558,1,0,0:0:0:0:
192,192,89558,1,0,0:0:0:0:
448,192,89674,1,0,0:0:0:0:
448,192,89789,1,0,0:0:0:0:
448,192,89905,1,0,0:0:0:0:
192,192,90020,1,0,0:0:0:0:
64,192,90020,1,0,0:0:0:0:
448,192,90135,128,0,90251:0:0:0:0:
192,192,90251,1,0,0:0:0:0:
448,192,90366,1,0,0:0:0:0:
64,192,90482,1,0,0:0:0:0:
192,192,90539,1,0,0:0:0:0:
320,192,90597,1,0,0:0:0:0:
448,192,90655,1,0,0:0:0:0:
192,192,90712,1,0,0:0:0:0:
64,192,90712,1,0,0:0:0:0:
320,192,90770,1,0,0:0:0:0:
448,192,90828,1,0,0:0:0:0:
64,192,90885,1,0,0:0:0:0:
192,192,90943,1,0,0:0:0:0:
448,192,91058,1,0,0:0:0:0:
192,192,91174,1,0,0:0:0:0:
64,192,91203,1,0,0:0:0:0:
448,192,91289,1,0,0:0:0:0:
320,192,91318,1,0,0:0:0:0:
192,192,91405,1,0,0:0:0:0:
64,192,91520,1,0,0:0:0:0:
320,192,91635,1,0,0:0:0:0:
448,192,91664,1,0,0:0:0:0:
64,192,91751,1,0,0:0:0:0:
192,192,91780,1,0,0:0:0:0:
320,192,91866,1,0,0:0:0:0:
448,192,91866,1,0,0:0:0:0:
64,192,91982,1,0,0:0:0:0:
320,192,92097,1,0,0:0:0:0:
64,192,92212,1,0,0:0:0:0:
192,192,92328,1,0,0:0:0:0:
448,192,92328,1,0,0:0:0:0:
192,192,92443,1,0,0:0:0:0:
320,192,92558,1,0,0:0:0:0:
320,192,92674,1,0,0:0:0:0:
64,192,92789,1,0,0:0:0:0:
192,192,92789,1,0,0:0:0:0:
448,192,92789,1,0,0:0:0:0:
192,192,92962,1,0,0:0:0:0:
64,192,93020,1,0,0:0:0:0:
320,192,93193,1,0,0:0:0:0:
192,192,93251,1,0,0:0:0:0:
64,192,93251,1,0,0:0:0:0:
448,192,93366,1,0,0:0:0:0:
448,192,93482,1,0,0:0:0:0:
448,192,93597,1,0,0:0:0:0:
192,192,93712,1,0,0:0:0:0:
64,192,93712,1,0,0:0:0:0:
448,192,93828,128,0,93943:0:0:0:0:
192,192,93943,1,0,0:0:0:0:
448,192,94058,1,0,0:0:0:0:
64,192,94116,1,0,0:0:0:0:
320,192,94174,1,0,0:0:0:0:
192,192,94174,1,0,0:0:0:0:
448,192,94232,1,0,0:0:0:0:
64,192,94289,1,0,0:0:0:0:
192,192,94347,1,0,0:0:0:0:
320,192,94405,1,0,0:0:0:0:
448,192,94462,1,0,0:0:0:0:
64,192,94520,1,0,0:0:0:0:
192,192,94578,1,0,0:0:0:0:
448,192,94635,1,0,0:0:0:0:
320,192,94635,1,0,0:0:0:0:
64,192,94751,1,0,0:0:0:0:
64,192,94866,1,0,0:0:0:0:
320,192,94924,1,0,0:0:0:0:
192,192,94982,1,0,0:0:0:0:
320,192,95097,1,0,0:0:0:0:
64,192,95097,1,0,0:0:0:0:
448,192,95212,1,0,0:0:0:0:
448,192,95328,1,0,0:0:0:0:
192,192,95385,1,0,0:0:0:0:
320,192,95443,1,0,0:0:0:0:
192,192,95558,128,0,95674:0:0:0:0:
64,192,95558,128,0,95674:0:0:0:0:
320,192,95674,1,0,0:0:0:0:
320,192,95789,1,0,0:0:0:0:
448,192,95847,1,0,0:0:0:0:
192,192,95905,1,0,0:0:0:0:
320,192,96020,1,0,0:0:0:0:
448,192,96020,1,0,0:0:0:0:
192,192,96135,1,0,0:0:0:0:
192,192,96251,1,0,0:0:0:0:
320,192,96366,1,0,0:0:0:0:
448,192,96482,1,0,0:0:0:0:
64,192,96482,1,0,0:0:0:0:
320,192,96655,1,0,0:0:0:0:
448,192,96712,1,0,0:0:0:0:
192,192,96885,1,0,0:0:0:0:
320,192,96943,1,0,0:0:0:0:
448,192,96943,1,0,0:0:0:0:
64,192,97058,1,0,0:0:0:0:
64,192,97174,1,0,0:0:0:0:
64,192,97289,1,0,0:0:0:0:
320,192,97405,1,0,0:0:0:0:
448,192,97405,1,0,0:0:0:0:
64,192,97520,128,0,97635:0:0:0:0:
320,192,97635,1,0,0:0:0:0:
64,192,97751,1,0,0:0:0:0:
448,192,97808,1,0,0:0:0:0:
320,192,97866,1,0,0:0:0:0:
192,192,97866,1,0,0:0:0:0:
64,192,97924,1,0,0:0:0:0:
448,192,97982,1,0,0:0:0:0:
320,192,98039,1,0,0:0:0:0:
192,192,98097,1,0,0:0:0:0:
64,192,98097,1,0,0:0:0:0:
192,192,98212,1,0,0:0:0:0:
320,192,98328,128,0,98558:0:0:0:0:
64,192,98558,1,0,0:0:0:0:
192,192,98558,1,0,0:0:0:0:
64,192,98674,1,0,0:0:0:0:
448,192,98789,1,0,0:0:0:0:
192,192,98905,1,0,0:0:0:0:
192,192,99020,1,0,0:0:0:0:
64,192,99135,1,0,0:0:0:0:
448,192,99251,1,0,0:0:0:0:
192,192,99289,1,0,0:0:0:0:
64,192,99328,1,0,0:0:0:0:
320,192,99366,1,0,0:0:0:0:
320,192,99482,1,0,0:0:0:0:
192,192,99482,1,0,0:0:0:0:
448,192,99597,1,0,0:0:0:0:
192,192,99712,1,0,0:0:0:0:
64,192,99741,1,0,0:0:0:0:
448,192,99828,1,0,0:0:0:0:
320,192,99857,1,0,0:0:0:0:
192,192,99943,1,0,0:0:0:0:
64,192,99972,1,0,0:0:0:0:
448,192,100058,1,0,0:0:0:0:
320,192,100087,1,0,0:0:0:0:
64,192,100174,1,0,0:0:0:0:
192,192,100174,1,0,0:0:0:0:
448,192,100347,1,0,0:0:0:0:
64,192,100405,1,0,0:0:0:0:
192,192,100405,1,0,0:0:0:0:
320,192,100578,1,0,0:0:0:0:
64,192,100635,1,0,0:0:0:0:
448,192,100635,1,0,0:0:0:0:
192,192,100712,1,0,0:0:0:0:
64,192,100789,1,0,0:0:0:0:
448,192,100866,1,0,0:0:0:0:
320,192,100943,1,0,0:0:0:0:
448,192,101020,1,0,0:0:0:0:
192,192,101097,1,0,0:0:0:0:
64,192,101097,1,0,0:0:0:0:
448,192,101212,128,0,101328:0:0:0:0:
192,192,101328,1,0,0:0:0:0:
448,192,101443,1,0,0:0:0:0:
64,192,101501,1,0,0:0:0:0:
192,192,101558,1,0,0:0:0:0:
320,192,101558,1,0,0:0:0:0:
448,192,101732,1,0,0:0:0:0:
320,192,101789,1,0,0:0:0:0:
320,192,102020,1,0,0:0:0:0:
448,192,102020,1,0,0:0:0:0:
64,192,102135,1,0,0:0:0:0:
64,192,102251,1,0,0:0:0:0:
320,192,102308,1,0,0:0:0:0:
192,192,102366,1,0,0:0:0:0:
64,192,102482,1,0,0:0:0:0:
320,192,102482,1,0,0:0:0:0:
448,192,102597,1,0,0:0:0:0:
448,192,102712,1,0,0:0:0:0:
64,192,102712,1,0,0:0:0:0:
192,192,102770,1,0,0:0:0:0:
320,192,102828,1,0,0:0:0:0:
192,192,102943,1,0,0:0:0:0:
64,192,102943,1,0,0:0:0:0:
320,192,103058,1,0,0:0:0:0:
320,192,103174,1,0,0:0:0:0:
448,192,103232,1,0,0:0:0:0:
192,192,103289,1,0,0:0:0:0:
320,192,103405,1,0,0:0:0:0:
64,192,103405,1,0,0:0:0:0:
192,192,103520,1,0,0:0:0:0:
192,192,103635,1,0,0:0:0:0:
320,192,103751,1,0,0:0:0:0:
64,192,103866,1,0,0:0:0:0:
192,192,103866,1,0,0:0:0:0:
320,192,103982,1,0,0:0:0:0:
448,192,104039,1,0,0:0:0:0:
192,192,104270,1,0,0:0:0:0:
320,192,104328,1,0,0:0:0:0:
448,192,104328,1,0,0:0:0:0:
64,192,104443,1,0,0:0:0:0:
64,192,104558,1,0,0:0:0:0:
64,192,104674,1,0,0:0:0:0:
448,192,104789,1,0,0:0:0:0:
320,192,104789,1,0,0:0:0:0:
64,192,104905,128,0,105020:0:0:0:0:
320,192,105020,1,0,0:0:0:0:
64,192,105135,1,0,0:0:0:0:
448,192,105193,1,0,0:0:0:0:
320,192,105251,1,0,0:0:0:0:
192,192,105251,1,0,0:0:0:0:
64,192,105308,1,0,0:0:0:0:
448,192,105366,1,0,0:0:0:0:
320,192,105424,1,0,0:0:0:0:
192,192,105482,1,0,0:0:0:0:
64,192,105539,1,0,0:0:0:0:
448,192,105597,1,0,0:0:0:0:
320,192,105655,1,0,0:0:0:0:
192,192,105712,1,0,0:0:0:0:
64,192,105712,1,0,0:0:0:0:
320,192,105828,1,0,0:0:0:0:
192,192,105943,1,0,0:0:0:0:
64,192,105972,1,0,0:0:0:0:
448,192,106058,1,0,0:0:0:0:
320,192,106087,1,0,0:0:0:0:
64,192,106174,1,0,0:0:0:0:
192,192,106174,1,0,0:0:0:0:
448,192,106289,1,0,0:0:0:0:
320,192,106405,1,0,0:0:0:0:
448,192,106433,1,0,0:0:0:0:
64,192,106520,1,0,0:0:0:0:
192,192,106549,1,0,0:0:0:0:
320,192,106635,1,0,0:0:0:0:
448,192,106635,1,0,0:0:0:0:
64,192,106751,1,0,0:0:0:0:
64,192,106982,1,0,0:0:0:0:
448,192,107039,1,0,0:0:0:0:
192,192,107097,1,0,0:0:0:0:
320,192,107097,1,0,0:0:0:0:
64,192,107328,1,0,0:0:0:0:
192,192,107385,1,0,0:0:0:0:
448,192,107558,1,0,0:0:0:0:
448,192,107905,1,0,0:0:0:0:
192,192,108020,1,0,0:0:0:0:
448,192,108135,1,0,0:0:0:0:
448,192,108482,1,0,0:0:0:0:
448,192,108828,1,0,0:0:0:0:
192,192,108943,1,0,0:0:0:0:
448,192,109058,1,0,0:0:0:0:
192,192,109405,1,0,0:0:0:0:
448,192,109635,1,0,0:0:0:0:
320,192,109751,1,0,0:0:0:0:
192,192,109866,1,0,0:0:0:0:
64,192,109866,1,0,0:0:0:0:
448,192,109982,1,0,0:0:0:0:
192,192,110097,5,0,0:0:0:0:
448,192,110212,1,0,0:0:0:0:
64,192,110328,1,0,0:0:0:0:
192,192,110328,1,0,0:0:0:0:
320,192,110443,1,0,0:0:0:0:
192,192,110558,1,0,0:0:0:0:
320,192,110674,1,0,0:0:0:0:
192,192,110789,1,0,0:0:0:0:
64,192,110789,1,0,0:0:0:0:
448,192,110905,1,0,0:0:0:0:
448,192,111135,1,0,0:0:0:0:
64,192,111251,5,0,0:0:0:0:
64,192,111597,1,0,0:0:0:0:
320,192,111712,1,0,0:0:0:0:
64,192,111828,1,0,0:0:0:0:
64,192,112174,1,0,0:0:0:0:
64,192,112520,1,0,0:0:0:0:
320,192,112635,1,0,0:0:0:0:
64,192,112751,1,0,0:0:0:0:
448,192,112866,128,0,113097:0:0:0:0:
64,192,113097,128,0,113212:0:0:0:0:
64,192,113328,1,0,0:0:0:0:
448,192,113385,1,0,0:0:0:0:
192,192,113443,128,0,113558:0:0:0:0:
320,192,113558,1,0,0:0:0:0:
192,192,113674,1,0,0:0:0:0:
448,192,113789,128,0,113905:0:0:0:0:
448,192,114020,1,0,0:0:0:0:
64,192,114020,1,0,0:0:0:0:
320,192,114135,128,0,114251:0:0:0:0:
320,192,114366,1,0,0:0:0:0:
192,192,114482,5,0,0:0:0:0:
64,192,114597,1,0,0:0:0:0:
448,192,114712,1,0,0:0:0:0:
320,192,114828,1,0,0:0:0:0:
192,192,114943,5,0,0:0:0:0:
64,192,114943,1,0,0:0:0:0:
192,192,115058,1,0,0:0:0:0:
64,192,115058,1,0,0:0:0:0:
320,192,115174,1,0,0:0:0:0:
448,192,115174,1,0,0:0:0:0:
448,192,115289,1,0,0:0:0:0:
320,192,115289,1,0,0:0:0:0:
192,192,115405,1,0,0:0:0:0:
64,192,115405,1,0,0:0:0:0:
64,192,115520,1,0,0:0:0:0:
192,192,115520,1,0,0:0:0:0:
448,192,115635,1,0,0:0:0:0:
320,192,115635,1,0,0:0:0:0:
448,192,115751,1,0,0:0:0:0:
320,192,115751,1,0,0:0:0:0:
192,192,115866,1,0,0:0:0:0:
64,192,115866,1,0,0:0:0:0:
192,192,115982,1,0,0:0:0:0:
64,192,115982,1,0,0:0:0:0:
320,192,116097,1,0,0:0:0:0:
448,192,116097,1,0,0:0:0:0:
448,192,116212,1,0,0:0:0:0:
320,192,116212,1,0,0:0:0:0:
64,192,116328,1,0,0:0:0:0:
192,192,116443,1,0,0:0:0:0:
64,192,116558,1,0,0:0:0:0:
192,192,116674,1,0,0:0:0:0:
448,192,116789,1,0,0:0:0:0:
320,192,116789,1,0,0:0:0:0:
448,192,116905,1,0,0:0:0:0:
320,192,116905,1,0,0:0:0:0:
192,192,117020,1,0,0:0:0:0:
64,192,117020,1,0,0:0:0:0:
192,192,117135,1,0,0:0:0:0:
64,192,117135,1,0,0:0:0:0:
320,192,117251,1,0,0:0:0:0:
448,192,117251,1,0,0:0:0:0:
448,192,117366,1,0,0:0:0:0:
320,192,117366,1,0,0:0:0:0:
192,192,117482,1,0,0:0:0:0:
64,192,117482,1,0,0:0:0:0:
192,192,117597,1,0,0:0:0:0:
64,192,117597,1,0,0:0:0:0:
320,192,117712,1,0,0:0:0:0:
448,192,117712,1,0,0:0:0:0:
448,192,117828,1,0,0:0:0:0:
320,192,117828,1,0,0:0:0:0:
192,192,117943,1,0,0:0:0:0:
64,192,117943,1,0,0:0:0:0:
192,192,118058,1,0,0:0:0:0:
64,192,118058,1,0,0:0:0:0:
448,192,118174,1,0,0:0:0:0:
320,192,118203,1,0,0:0:0:0:
448,192,118289,1,0,0:0:0:0:
192,192,118405,1,0,0:0:0:0:
320,192,118482,1,0,0:0:0:0:
64,192,118558,1,0,0:0:0:0:
448,192,118635,1,0,0:0:0:0:
320,192,118635,1,0,0:0:0:0:
320,192,118751,1,0,0:0:0:0:
448,192,118751,1,0,0:0:0:0:
192,192,118866,1,0,0:0:0:0:
64,192,118866,1,0,0:0:0:0:
192,192,118982,1,0,0:0:0:0:
64,192,118982,1,0,0:0:0:0:
320,192,119097,1,0,0:0:0:0:
192,192,119212,1,0,0:0:0:0:
320,192,119328,1,0,0:0:0:0:
192,192,119443,1,0,0:0:0:0:
448,192,119558,1,0,0:0:0:0:
448,192,119674,1,0,0:0:0:0:
192,192,119789,1,0,0:0:0:0:
192,192,119905,1,0,0:0:0:0:
320,192,120020,1,0,0:0:0:0:
320,192,120135,1,0,0:0:0:0:
64,192,120251,1,0,0:0:0:0:
64,192,120366,1,0,0:0:0:0:
192,192,120482,1,0,0:0:0:0:
448,192,120597,1,0,0:0:0:0:
320,192,120635,1,0,0:0:0:0:
192,192,120674,1,0,0:0:0:0:
448,192,120770,1,0,0:0:0:0:
64,192,120828,1,0,0:0:0:0:
320,192,120943,1,0,0:0:0:0:
192,192,121058,1,0,0:0:0:0:
64,192,121174,1,0,0:0:0:0:
448,192,121289,1,0,0:0:0:0:
320,192,121405,1,0,0:0:0:0:
192,192,121520,1,0,0:0:0:0:
448,192,121635,1,0,0:0:0:0:
320,192,121751,1,0,0:0:0:0:
448,192,121866,1,0,0:0:0:0:
320,192,121982,1,0,0:0:0:0:
448,192,122097,1,0,0:0:0:0:
64,192,122328,1,0,0:0:0:0:
192,192,122328,1,0,0:0:0:0:
320,192,122328,1,0,0:0:0:0:
448,192,122443,1,0,0:0:0:0:
192,192,122558,1,0,0:0:0:0:
192,192,122674,1,0,0:0:0:0:
448,192,122789,1,0,0:0:0:0:
64,192,122905,1,0,0:0:0:0:
64,192,123020,1,0,0:0:0:0:
192,192,123020,1,0,0:0:0:0:
448,192,123135,1,0,0:0:0:0:
448,192,123251,1,0,0:0:0:0:
320,192,123251,1,0,0:0:0:0:
192,192,123366,1,0,0:0:0:0:
192,192,123482,1,0,0:0:0:0:
320,192,123482,1,0,0:0:0:0:
64,192,123597,1,0,0:0:0:0:
448,192,123712,1,0,0:0:0:0:
320,192,123828,1,0,0:0:0:0:
320,192,123943,1,0,0:0:0:0:
192,192,124058,1,0,0:0:0:0:
320,192,124174,1,0,0:0:0:0:
448,192,124174,1,0,0:0:0:0:
64,192,124289,128,0,124405:0:0:0:0:
448,192,124405,1,0,0:0:0:0:
192,192,124462,1,0,0:0:0:0:
320,192,124520,1,0,0:0:0:0:
64,192,124635,128,0,124751:0:0:0:0:
192,192,124751,1,0,0:0:0:0:
320,192,124866,1,0,0:0:0:0:
448,192,124866,1,0,0:0:0:0:
64,192,124982,128,0,125097:0:0:0:0:
192,192,125097,1,0,0:0:0:0:
448,192,125097,1,0,0:0:0:0:
320,192,125212,1,0,0:0:0:0:
64,192,125328,128,0,125443:0:0:0:0:
448,192,125328,1,0,0:0:0:0:
448,192,125443,1,0,0:0:0:0:
192,192,125558,1,0,0:0:0:0:
320,192,125674,1,0,0:0:0:0:
448,192,125674,1,0,0:0:0:0:
64,192,125789,1,0,0:0:0:0:
64,192,125905,1,0,0:0:0:0:
320,192,126020,1,0,0:0:0:0:
448,192,126020,1,0,0:0:0:0:
192,192,126135,1,0,0:0:0:0:
64,192,126193,1,0,0:0:0:0:
320,192,126251,1,0,0:0:0:0:
448,192,126366,1,0,0:0:0:0:
64,192,126482,1,0,0:0:0:0:
320,192,126597,1,0,0:0:0:0:
320,192,126712,1,0,0:0:0:0:
192,192,126712,1,0,0:0:0:0:
448,192,126828,1,0,0:0:0:0:
192,192,126943,1,0,0:0:0:0:
64,192,126943,1,0,0:0:0:0:
320,192,127058,1,0,0:0:0:0:
448,192,127116,1,0,0:0:0:0:
192,192,127174,1,0,0:0:0:0:
64,192,127174,1,0,0:0:0:0:
320,192,127289,1,0,0:0:0:0:
192,192,127405,1,0,0:0:0:0:
64,192,127482,1,0,0:0:0:0:
320,192,127558,1,0,0:0:0:0:
448,192,127635,128,0,127866:0:0:0:0:
64,192,127866,1,0,0:0:0:0:
320,192,127924,1,0,0:0:0:0:
192,192,127982,1,0,0:0:0:0:
192,192,128097,1,0,0:0:0:0:
448,192,128212,1,0,0:0:0:0:
64,192,128270,1,0,0:0:0:0:
320,192,128328,1,0,0:0:0:0:
320,192,128443,1,0,0:0:0:0:
192,192,128558,1,0,0:0:0:0:
448,192,128616,1,0,0:0:0:0:
64,192,128674,1,0,0:0:0:0:
64,192,128789,1,0,0:0:0:0:
320,192,128905,1,0,0:0:0:0:
192,192,128962,1,0,0:0:0:0:
448,192,129020,1,0,0:0:0:0:
448,192,129135,1,0,0:0:0:0:
64,192,129251,1,0,0:0:0:0:
192,192,129251,1,0,0:0:0:0:
320,192,129395,1,0,0:0:0:0:
448,192,129395,1,0,0:0:0:0:
64,192,129482,1,0,0:0:0:0:
64,192,129597,1,0,0:0:0:0:
448,192,129712,1,0,0:0:0:0:
320,192,129712,1,0,0:0:0:0:
192,192,129712,1,0,0:0:0:0:
64,192,129828,1,0,0:0:0:0:
320,192,129943,1,0,0:0:0:0:
320,192,130058,1,0,0:0:0:0:
64,192,130174,1,0,0:0:0:0:
448,192,130289,1,0,0:0:0:0:
448,192,130405,1,0,0:0:0:0:
320,192,130405,1,0,0:0:0:0:
64,192,130520,1,0,0:0:0:0:
64,192,130635,1,0,0:0:0:0:
192,192,130635,1,0,0:0:0:0:
320,192,130751,1,0,0:0:0:0:
320,192,130866,1,0,0:0:0:0:
192,192,130866,1,0,0:0:0:0:
448,192,130982,1,0,0:0:0:0:
64,192,131097,1,0,0:0:0:0:
192,192,131097,1,0,0:0:0:0:
320,192,131212,1,0,0:0:0:0:
192,192,131270,1,0,0:0:0:0:
64,192,131328,1,0,0:0:0:0:
448,192,131328,1,0,0:0:0:0:
320,192,131443,1,0,0:0:0:0:
192,192,131558,1,0,0:0:0:0:
64,192,131558,1,0,0:0:0:0:
448,192,131674,128,0,131789:0:0:0:0:
64,192,131789,1,0,0:0:0:0:
320,192,131847,1,0,0:0:0:0:
192,192,131905,1,0,0:0:0:0:
448,192,132020,128,0,132135:0:0:0:0:
64,192,132020,1,0,0:0:0:0:
320,192,132135,1,0,0:0:0:0:
192,192,132251,1,0,0:0:0:0:
64,192,132251,1,0,0:0:0:0:
448,192,132366,128,0,132482:0:0:0:0:
320,192,132482,1,0,0:0:0:0:
64,192,132482,1,0,0:0:0:0:
192,192,132597,1,0,0:0:0:0:
448,192,132712,128,0,132828:0:0:0:0:
64,192,132712,1,0,0:0:0:0:
64,192,132828,1,0,0:0:0:0:
320,192,132943,1,0,0:0:0:0:
448,192,132943,1,0,0:0:0:0:
192,192,133058,1,0,0:0:0:0:
64,192,133058,1,0,0:0:0:0:
448,192,133174,1,0,0:0:0:0:
448,192,133289,1,0,0:0:0:0:
64,192,133405,1,0,0:0:0:0:
192,192,133405,1,0,0:0:0:0:
192,192,133520,1,0,0:0:0:0:
448,192,133635,128,0,133751:0:0:0:0:
320,192,133751,1,0,0:0:0:0:
64,192,133866,1,0,0:0:0:0:
448,192,133866,1,0,0:0:0:0:
192,192,133982,1,0,0:0:0:0:
192,192,134097,1,0,0:0:0:0:
320,192,134097,1,0,0:0:0:0:
64,192,134212,1,0,0:0:0:0:
320,192,134328,1,0,0:0:0:0:
448,192,134328,1,0,0:0:0:0:
192,192,134443,1,0,0:0:0:0:
320,192,134558,1,0,0:0:0:0:
448,192,134558,1,0,0:0:0:0:
64,192,134674,1,0,0:0:0:0:
448,192,134789,1,0,0:0:0:0:
192,192,134866,1,0,0:0:0:0:
320,192,134943,1,0,0:0:0:0:
64,192,135020,1,0,0:0:0:0:
192,192,135097,1,0,0:0:0:0:
320,192,135174,1,0,0:0:0:0:
64,192,135251,1,0,0:0:0:0:
448,192,135251,1,0,0:0:0:0:
192,192,135366,1,0,0:0:0:0:
192,192,135482,1,0,0:0:0:0:
448,192,135597,1,0,0:0:0:0:
192,192,135712,1,0,0:0:0:0:
64,192,135712,1,0,0:0:0:0:
192,192,135828,1,0,0:0:0:0:
320,192,135943,1,0,0:0:0:0:
448,192,136058,1,0,0:0:0:0:
448,192,136174,1,0,0:0:0:0:
192,192,136174,128,0,136289:0:0:0:0:
64,192,136289,1,0,0:0:0:0:
448,192,136405,1,0,0:0:0:0:
320,192,136405,1,0,0:0:0:0:
448,192,136520,1,0,0:0:0:0:
64,192,136635,5,0,0:0:0:0:
192,192,136635,1,0,0:0:0:0:
320,192,136780,1,0,0:0:0:0:
448,192,136780,1,0,0:0:0:0:
192,192,136866,5,0,0:0:0:0:
192,192,136982,1,0,0:0:0:0:
448,192,137097,5,0,0:0:0:0:
64,192,137097,1,0,0:0:0:0:
320,192,137097,1,0,0:0:0:0:
192,192,137212,1,0,0:0:0:0:
64,192,137328,1,0,0:0:0:0:
448,192,137443,1,0,0:0:0:0:
192,192,137558,1,0,0:0:0:0:
320,192,137674,1,0,0:0:0:0:
320,192,137789,1,0,0:0:0:0:
320,192,137905,1,0,0:0:0:0:
64,192,138020,1,0,0:0:0:0:
448,192,138135,1,0,0:0:0:0:
192,192,138251,1,0,0:0:0:0:
448,192,138366,1,0,0:0:0:0:
64,192,138482,1,0,0:0:0:0:
192,192,138597,1,0,0:0:0:0:
448,192,138655,1,0,0:0:0:0:
320,192,138712,1,0,0:0:0:0:
64,192,138828,1,0,0:0:0:0:
320,192,138943,5,0,0:0:0:0:
448,192,138943,1,0,0:0:0:0:
192,192,139001,1,0,0:0:0:0:
64,192,139058,1,0,0:0:0:0:
448,192,139174,1,0,0:0:0:0:
448,192,139289,1,0,0:0:0:0:
64,192,139405,1,0,0:0:0:0:
192,192,139405,1,0,0:0:0:0:
320,192,139520,1,0,0:0:0:0:
320,192,139635,1,0,0:0:0:0:
320,192,139751,1,0,0:0:0:0:
192,192,139866,1,0,0:0:0:0:
64,192,139866,1,0,0:0:0:0:
448,192,139982,1,0,0:0:0:0:
192,192,140020,1,0,0:0:0:0:
448,192,140212,1,0,0:0:0:0:
192,192,140251,1,0,0:0:0:0:
320,192,140328,1,0,0:0:0:0:
64,192,140328,1,0,0:0:0:0:
192,192,140443,1,0,0:0:0:0:
64,192,140501,1,0,0:0:0:0:
320,192,140558,1,0,0:0:0:0:
448,192,140674,1,0,0:0:0:0:
64,192,140789,1,0,0:0:0:0:
192,192,140789,1,0,0:0:0:0:
320,192,140905,1,0,0:0:0:0:
64,192,141020,128,0,141135:0:0:0:0:
192,192,141135,1,0,0:0:0:0:
320,192,141251,1,0,0:0:0:0:
448,192,141251,1,0,0:0:0:0:
192,192,141366,1,0,0:0:0:0:
192,192,141482,1,0,0:0:0:0:
192,192,141597,1,0,0:0:0:0:
320,192,141712,1,0,0:0:0:0:
448,192,141712,1,0,0:0:0:0:
64,192,141828,1,0,0:0:0:0:
320,192,141866,1,0,0:0:0:0:
64,192,142058,1,0,0:0:0:0:
320,192,142097,1,0,0:0:0:0:
192,192,142174,128,0,142405:0:0:0:0:
448,192,142174,128,0,142405:0:0:0:0:
320,192,142405,1,0,0:0:0:0:
64,192,142462,1,0,0:0:0:0:
192,192,142520,1,0,0:0:0:0:
320,192,142578,1,0,0:0:0:0:
64,192,142635,1,0,0:0:0:0:
448,192,142635,1,0,0:0:0:0:
192,192,142751,1,0,0:0:0:0:
192,192,142866,1,0,0:0:0:0:
448,192,142982,1,0,0:0:0:0:
192,192,143097,1,0,0:0:0:0:
64,192,143097,1,0,0:0:0:0:
192,192,143212,1,0,0:0:0:0:
448,192,143328,1,0,0:0:0:0:
320,192,143443,1,0,0:0:0:0:
320,192,143558,1,0,0:0:0:0:
64,192,143558,1,0,0:0:0:0:
192,192,143674,1,0,0:0:0:0:
320,192,143789,1,0,0:0:0:0:
320,192,143905,1,0,0:0:0:0:
192,192,144020,1,0,0:0:0:0:
64,192,144020,1,0,0:0:0:0:
448,192,144078,1,0,0:0:0:0:
320,192,144135,1,0,0:0:0:0:
64,192,144193,1,0,0:0:0:0:
448,192,144251,1,0,0:0:0:0:
192,192,144366,1,0,0:0:0:0:
64,192,144482,1,0,0:0:0:0:
320,192,144482,1,0,0:0:0:0:
448,192,144482,1,0,0:0:0:0:
192,192,144539,1,0,0:0:0:0:
320,192,144597,1,0,0:0:0:0:
448,192,144655,1,0,0:0:0:0:
192,192,144712,1,0,0:0:0:0:
64,192,144770,1,0,0:0:0:0:
448,192,144828,1,0,0:0:0:0:
320,192,144885,1,0,0:0:0:0:
192,192,144943,1,0,0:0:0:0:
64,192,144943,1,0,0:0:0:0:
320,192,145058,1,0,0:0:0:0:
320,192,145174,1,0,0:0:0:0:
320,192,145289,1,0,0:0:0:0:
192,192,145405,1,0,0:0:0:0:
64,192,145405,1,0,0:0:0:0:
448,192,145520,1,0,0:0:0:0:
192,192,145558,1,0,0:0:0:0:
448,192,145751,1,0,0:0:0:0:
192,192,145789,1,0,0:0:0:0:
320,192,145866,1,0,0:0:0:0:
64,192,145866,1,0,0:0:0:0:
192,192,145982,1,0,0:0:0:0:
448,192,146039,1,0,0:0:0:0:
64,192,146097,1,0,0:0:0:0:
320,192,146212,1,0,0:0:0:0:
192,192,146328,1,0,0:0:0:0:
64,192,146328,1,0,0:0:0:0:
320,192,146385,1,0,0:0:0:0:
448,192,146443,1,0,0:0:0:0:
64,192,146558,1,0,0:0:0:0:
64,192,146674,1,0,0:0:0:0:
448,192,146789,1,0,0:0:0:0:
320,192,146789,1,0,0:0:0:0:
192,192,146905,1,0,0:0:0:0:
192,192,147020,1,0,0:0:0:0:
192,192,147135,1,0,0:0:0:0:
320,192,147251,1,0,0:0:0:0:
448,192,147251,1,0,0:0:0:0:
64,192,147366,1,0,0:0:0:0:
320,192,147405,1,0,0:0:0:0:
64,192,147597,1,0,0:0:0:0:
320,192,147635,1,0,0:0:0:0:
192,192,147712,1,0,0:0:0:0:
448,192,147712,1,0,0:0:0:0:
320,192,147828,1,0,0:0:0:0:
448,192,147885,1,0,0:0:0:0:
192,192,147943,1,0,0:0:0:0:
64,192,148058,1,0,0:0:0:0:
448,192,148174,1,0,0:0:0:0:
320,192,148174,1,0,0:0:0:0:
192,192,148289,1,0,0:0:0:0:
448,192,148405,128,0,148520:0:0:0:0:
320,192,148520,1,0,0:0:0:0:
192,192,148635,1,0,0:0:0:0:
64,192,148635,1,0,0:0:0:0:
320,192,148751,1,0,0:0:0:0:
320,192,148866,1,0,0:0:0:0:
320,192,148982,1,0,0:0:0:0:
192,192,149097,1,0,0:0:0:0:
64,192,149097,1,0,0:0:0:0:
448,192,149212,1,0,0:0:0:0:
192,192,149251,1,0,0:0:0:0:
448,192,149443,1,0,0:0:0:0:
192,192,149482,1,0,0:0:0:0:
64,192,149558,1,0,0:0:0:0:
320,192,149558,1,0,0:0:0:0:
448,192,149635,1,0,0:0:0:0:
64,192,149712,1,0,0:0:0:0:
320,192,149789,1,0,0:0:0:0:
192,192,149866,1,0,0:0:0:0:
448,192,149943,1,0,0:0:0:0:
320,192,150020,1,0,0:0:0:0:
64,192,150020,1,0,0:0:0:0:
192,192,150135,1,0,0:0:0:0:
192,192,150251,1,0,0:0:0:0:
448,192,150366,1,0,0:0:0:0:
192,192,150482,1,0,0:0:0:0:
320,192,150482,1,0,0:0:0:0:
192,192,150597,1,0,0:0:0:0:
320,192,150712,1,0,0:0:0:0:
448,192,150828,1,0,0:0:0:0:
192,192,150943,1,0,0:0:0:0:
448,192,150943,1,0,0:0:0:0:
64,192,151058,1,0,0:0:0:0:
448,192,151174,1,0,0:0:0:0:
448,192,151289,5,0,0:0:0:0:
64,192,151405,128,0,151635:0:0:0:0:
192,192,151405,128,0,151635:0:0:0:0:
320,192,151635,1,0,0:0:0:0:
320,192,151751,1,0,0:0:0:0:
64,192,151866,1,0,0:0:0:0:
192,192,151866,1,0,0:0:0:0:
448,192,151866,1,0,0:0:0:0:
192,192,152212,1,0,0:0:0:0:
448,192,152443,5,0,0:0:0:0:
320,192,152558,1,0,0:0:0:0:
192,192,152674,1,0,0:0:0:0:
64,192,152905,1,0,0:0:0:0:
320,192,153020,1,0,0:0:0:0:
192,192,153135,1,0,0:0:0:0:
448,192,153366,1,0,0:0:0:0:
192,192,153482,1,0,0:0:0:0:
192,192,153597,1,0,0:0:0:0:
64,192,153828,1,0,0:0:0:0:
320,192,153943,1,0,0:0:0:0:
320,192,154058,1,0,0:0:0:0:
448,192,154289,1,0,0:0:0:0:
192,192,154405,1,0,0:0:0:0:
192,192,154520,1,0,0:0:0:0:
448,192,154635,1,0,0:0:0:0:
64,192,154693,1,0,0:0:0:0:
192,192,154751,1,0,0:0:0:0:
320,192,154808,1,0,0:0:0:0:
448,192,154866,1,0,0:0:0:0:
64,192,154943,1,0,0:0:0:0:
192,192,155020,1,0,0:0:0:0:
64,192,155212,128,0,155328:0:0:0:0:
320,192,155328,1,0,0:0:0:0:
448,192,155366,1,0,0:0:0:0:
64,192,155443,1,0,0:0:0:0:
192,192,155558,1,0,0:0:0:0:
320,192,155558,1,0,0:0:0:0:
448,192,155558,1,0,0:0:0:0:
64,192,155732,1,0,0:0:0:0:
192,192,155789,1,0,0:0:0:0:
448,192,155905,1,0,0:0:0:0:
320,192,155962,1,0,0:0:0:0:
192,192,156020,1,0,0:0:0:0:
64,192,156020,1,0,0:0:0:0:
192,192,156135,1,0,0:0:0:0:
448,192,156251,1,0,0:0:0:0:
64,192,156251,1,0,0:0:0:0:
448,192,156366,1,0,0:0:0:0:
64,192,156482,1,0,0:0:0:0:
192,192,156482,1,0,0:0:0:0:
320,192,156597,1,0,0:0:0:0:
64,192,156712,1,0,0:0:0:0:
448,192,156712,1,0,0:0:0:0:
64,192,156828,1,0,0:0:0:0:
320,192,156943,1,0,0:0:0:0:
448,192,156943,1,0,0:0:0:0:
192,192,157058,1,0,0:0:0:0:
448,192,157174,1,0,0:0:0:0:
64,192,157174,1,0,0:0:0:0:
448,192,157289,1,0,0:0:0:0:
192,192,157405,1,0,0:0:0:0:
64,192,157405,1,0,0:0:0:0:
320,192,157520,1,0,0:0:0:0:
64,192,157635,1,0,0:0:0:0:
448,192,157635,1,0,0:0:0:0:
64,192,157751,1,0,0:0:0:0:
320,192,157866,1,0,0:0:0:0:
448,192,157866,1,0,0:0:0:0:
192,192,157982,1,0,0:0:0:0:
320,192,158039,1,0,0:0:0:0:
448,192,158097,1,0,0:0:0:0:
64,192,158097,1,0,0:0:0:0:
448,192,158212,1,0,0:0:0:0:
64,192,158328,1,0,0:0:0:0:
320,192,158328,1,0,0:0:0:0:
320,192,158443,1,0,0:0:0:0:
448,192,158443,1,0,0:0:0:0:
192,192,158558,1,0,0:0:0:0:
192,192,158674,1,0,0:0:0:0:
64,192,158674,1,0,0:0:0:0:
448,192,158789,1,0,0:0:0:0:
320,192,158789,1,0,0:0:0:0:
192,192,158905,1,0,0:0:0:0:
64,192,159020,1,0,0:0:0:0:
192,192,159097,1,0,0:0:0:0:
448,192,159174,1,0,0:0:0:0:
320,192,159251,1,0,0:0:0:0:
192,192,159251,1,0,0:0:0:0:
64,192,159251,1,0,0:0:0:0:
320,192,159405,1,0,0:0:0:0:
64,192,159597,1,0,0:0:0:0:
192,192,159655,1,0,0:0:0:0:
448,192,159712,1,0,0:0:0:0:
320,192,159712,1,0,0:0:0:0:
64,192,159828,1,0,0:0:0:0:
320,192,159943,1,0,0:0:0:0:
192,192,159943,1,0,0:0:0:0:
320,192,160058,1,0,0:0:0:0:
192,192,160174,1,0,0:0:0:0:
64,192,160174,1,0,0:0:0:0:
448,192,160289,1,0,0:0:0:0:
192,192,160405,1,0,0:0:0:0:
320,192,160405,1,0,0:0:0:0:
192,192,160520,1,0,0:0:0:0:
448,192,160635,1,0,0:0:0:0:
320,192,160635,1,0,0:0:0:0:
64,192,160751,1,0,0:0:0:0:
320,192,160866,1,0,0:0:0:0:
192,192,160866,1,0,0:0:0:0:
320,192,160982,1,0,0:0:0:0:
64,192,161097,1,0,0:0:0:0:
192,192,161097,1,0,0:0:0:0:
448,192,161212,1,0,0:0:0:0:
192,192,161328,1,0,0:0:0:0:
320,192,161328,1,0,0:0:0:0:
192,192,161443,1,0,0:0:0:0:
448,192,161558,1,0,0:0:0:0:
320,192,161558,1,0,0:0:0:0:
64,192,161674,1,0,0:0:0:0:
320,192,161789,1,0,0:0:0:0:
192,192,161789,1,0,0:0:0:0:
320,192,161905,1,0,0:0:0:0:
64,192,162020,1,0,0:0:0:0:
192,192,162020,1,0,0:0:0:0:
448,192,162078,1,0,0:0:0:0:
320,192,162135,1,0,0:0:0:0:
192,192,162193,1,0,0:0:0:0:
64,192,162251,1,0,0:0:0:0:
448,192,162328,1,0,0:0:0:0:
320,192,162405,1,0,0:0:0:0:
64,192,162482,1,0,0:0:0:0:
192,192,162482,1,0,0:0:0:0:
64,192,162597,1,0,0:0:0:0:
448,192,162712,1,0,0:0:0:0:
448,192,162828,1,0,0:0:0:0:
192,192,162943,1,0,0:0:0:0:
64,192,162943,1,0,0:0:0:0:
320,192,163020,1,0,0:0:0:0:
448,192,163097,1,0,0:0:0:0:
64,192,163174,1,0,0:0:0:0:
320,192,163289,1,0,0:0:0:0:
192,192,163347,1,0,0:0:0:0:
448,192,163405,1,0,0:0:0:0:
64,192,163405,1,0,0:0:0:0:
192,192,163520,1,0,0:0:0:0:
448,192,163635,1,0,0:0:0:0:
64,192,163635,1,0,0:0:0:0:
448,192,163751,1,0,0:0:0:0:
64,192,163866,1,0,0:0:0:0:
192,192,163866,1,0,0:0:0:0:
320,192,163982,1,0,0:0:0:0:
64,192,164097,1,0,0:0:0:0:
448,192,164097,1,0,0:0:0:0:
64,192,164212,1,0,0:0:0:0:
320,192,164328,1,0,0:0:0:0:
448,192,164328,1,0,0:0:0:0:
192,192,164443,1,0,0:0:0:0:
448,192,164558,1,0,0:0:0:0:
64,192,164558,1,0,0:0:0:0:
448,192,164674,1,0,0:0:0:0:
64,192,164789,128,0,164905:0:0:0:0:
192,192,164789,128,0,164905:0:0:0:0:
320,192,164905,1,0,0:0:0:0:
64,192,165020,1,0,0:0:0:0:
448,192,165020,1,0,0:0:0:0:
64,192,165135,1,0,0:0:0:0:
320,192,165251,1,0,0:0:0:0:
448,192,165251,1,0,0:0:0:0:
192,192,165366,1,0,0:0:0:0:
448,192,165482,1,0,0:0:0:0:
64,192,165482,1,0,0:0:0:0:
448,192,165597,1,0,0:0:0:0:
64,192,165712,1,0,0:0:0:0:
192,192,165712,1,0,0:0:0:0:
320,192,165828,1,0,0:0:0:0:
448,192,165866,1,0,0:0:0:0:
320,192,166058,1,0,0:0:0:0:
448,192,166097,1,0,0:0:0:0:
64,192,166174,128,0,166405:0:0:0:0:
192,192,166174,128,0,166405:0:0:0:0:
320,192,166405,1,0,0:0:0:0:
448,192,166462,1,0,0:0:0:0:
192,192,166520,1,0,0:0:0:0:
64,192,166635,5,0,0:0:0:0:
448,192,166635,1,0,0:0:0:0:
320,192,166635,1,0,0:0:0:0:
192,192,166808,1,0,0:0:0:0:
64,192,166866,1,0,0:0:0:0:
320,192,166924,1,0,0:0:0:0:
448,192,166982,1,0,0:0:0:0:
320,192,167097,1,0,0:0:0:0:
64,192,167212,1,0,0:0:0:0:
64,192,167328,1,0,0:0:0:0:
64,192,167443,1,0,0:0:0:0:
320,192,167558,1,0,0:0:0:0:
448,192,167558,1,0,0:0:0:0:
192,192,167674,1,0,0:0:0:0:
448,192,167732,1,0,0:0:0:0:
320,192,167789,1,0,0:0:0:0:
64,192,167866,1,0,0:0:0:0:
192,192,167943,1,0,0:0:0:0:
448,192,168020,1,0,0:0:0:0:
192,192,168135,1,0,0:0:0:0:
64,192,168193,1,0,0:0:0:0:
448,192,168251,1,0,0:0:0:0:
320,192,168308,1,0,0:0:0:0:
192,192,168366,1,0,0:0:0:0:
448,192,168424,1,0,0:0:0:0:
320,192,168482,1,0,0:0:0:0:
64,192,168597,1,0,0:0:0:0:
64,192,168712,1,0,0:0:0:0:
320,192,168770,1,0,0:0:0:0:
192,192,168828,1,0,0:0:0:0:
64,192,168943,1,0,0:0:0:0:
448,192,169058,1,0,0:0:0:0:
448,192,169174,1,0,0:0:0:0:
64,192,169174,1,0,0:0:0:0:
192,192,169232,1,0,0:0:0:0:
320,192,169289,1,0,0:0:0:0:
192,192,169405,1,0,0:0:0:0:
64,192,169405,1,0,0:0:0:0:
320,192,169520,1,0,0:0:0:0:
320,192,169635,1,0,0:0:0:0:
448,192,169693,1,0,0:0:0:0:
192,192,169751,1,0,0:0:0:0:
320,192,169866,1,0,0:0:0:0:
192,192,169982,1,0,0:0:0:0:
192,192,170097,1,0,0:0:0:0:
320,192,170212,1,0,0:0:0:0:
64,192,170328,1,0,0:0:0:0:
448,192,170328,1,0,0:0:0:0:
192,192,170328,1,0,0:0:0:0:
320,192,170501,1,0,0:0:0:0:
192,192,170558,1,0,0:0:0:0:
448,192,170674,1,0,0:0:0:0:
320,192,170732,1,0,0:0:0:0:
64,192,170789,1,0,0:0:0:0:
192,192,170789,1,0,0:0:0:0:
192,192,170905,1,0,0:0:0:0:
448,192,171020,1,0,0:0:0:0:
448,192,171135,1,0,0:0:0:0:
64,192,171251,1,0,0:0:0:0:
192,192,171251,1,0,0:0:0:0:
320,192,171366,1,0,0:0:0:0:
192,192,171482,1,0,0:0:0:0:
192,192,171597,1,0,0:0:0:0:
320,192,171712,1,0,0:0:0:0:
448,192,171712,1,0,0:0:0:0:
64,192,171828,1,0,0:0:0:0:
448,192,171943,1,0,0:0:0:0:
448,192,172058,1,0,0:0:0:0:
192,192,172174,1,0,0:0:0:0:
64,192,172174,1,0,0:0:0:0:
320,192,172289,1,0,0:0:0:0:
192,192,172405,1,0,0:0:0:0:
192,192,172520,1,0,0:0:0:0:
320,192,172635,1,0,0:0:0:0:
448,192,172635,1,0,0:0:0:0:
64,192,172751,1,0,0:0:0:0:
448,192,172866,1,0,0:0:0:0:
448,192,172982,1,0,0:0:0:0:
64,192,173097,1,0,0:0:0:0:
192,192,173097,1,0,0:0:0:0:
320,192,173155,1,0,0:0:0:0:
448,192,173212,1,0,0:0:0:0:
64,192,173270,1,0,0:0:0:0:
192,192,173328,1,0,0:0:0:0:
320,192,173405,1,0,0:0:0:0:
448,192,173482,1,0,0:0:0:0:
192,192,173558,1,0,0:0:0:0:
64,192,173558,1,0,0:0:0:0:
64,192,173674,1,0,0:0:0:0:
320,192,173789,1,0,0:0:0:0:
320,192,173905,1,0,0:0:0:0:
192,192,174020,1,0,0:0:0:0:
64,192,174020,1,0,0:0:0:0:
448,192,174020,1,0,0:0:0:0:
320,192,174193,1,0,0:0:0:0:
448,192,174251,1,0,0:0:0:0:
192,192,174308,1,0,0:0:0:0:
64,192,174366,1,0,0:0:0:0:
192,192,174482,1,0,0:0:0:0:
448,192,174597,1,0,0:0:0:0:
448,192,174712,1,0,0:0:0:0:
448,192,174828,1,0,0:0:0:0:
192,192,174943,1,0,0:0:0:0:
64,192,174943,1,0,0:0:0:0:
320,192,175058,1,0,0:0:0:0:
64,192,175116,1,0,0:0:0:0:
192,192,175174,1,0,0:0:0:0:
448,192,175251,1,0,0:0:0:0:
320,192,175328,1,0,0:0:0:0:
64,192,175405,1,0,0:0:0:0:
320,192,175520,1,0,0:0:0:0:
448,192,175578,1,0,0:0:0:0:
64,192,175635,1,0,0:0:0:0:
192,192,175693,1,0,0:0:0:0:
320,192,175751,1,0,0:0:0:0:
64,192,175808,1,0,0:0:0:0:
192,192,175866,1,0,0:0:0:0:
448,192,175982,1,0,0:0:0:0:
448,192,176097,1,0,0:0:0:0:
192,192,176155,1,0,0:0:0:0:
320,192,176212,1,0,0:0:0:0:
448,192,176328,1,0,0:0:0:0:
64,192,176443,1,0,0:0:0:0:
64,192,176558,1,0,0:0:0:0:
448,192,176558,1,0,0:0:0:0:
320,192,176616,1,0,0:0:0:0:
192,192,176674,1,0,0:0:0:0:
320,192,176789,1,0,0:0:0:0:
448,192,176789,1,0,0:0:0:0:
192,192,176905,1,0,0:0:0:0:
192,192,177020,1,0,0:0:0:0:
64,192,177078,1,0,0:0:0:0:
320,192,177135,1,0,0:0:0:0:
192,192,177251,1,0,0:0:0:0:
320,192,177366,1,0,0:0:0:0:
320,192,177482,1,0,0:0:0:0:
192,192,177597,1,0,0:0:0:0:
320,192,177712,1,0,0:0:0:0:
448,192,177712,1,0,0:0:0:0:
448,192,177866,1,0,0:0:0:0:
64,192,178058,1,0,0:0:0:0:
192,192,178116,1,0,0:0:0:0:
448,192,178174,1,0,0:0:0:0:
320,192,178174,1,0,0:0:0:0:
320,192,178289,1,0,0:0:0:0:
64,192,178405,1,0,0:0:0:0:
64,192,178520,1,0,0:0:0:0:
448,192,178635,1,0,0:0:0:0:
320,192,178635,1,0,0:0:0:0:
192,192,178751,1,0,0:0:0:0:
320,192,178866,1,0,0:0:0:0:
320,192,178982,1,0,0:0:0:0:
192,192,179097,1,0,0:0:0:0:
64,192,179097,1,0,0:0:0:0:
448,192,179212,1,0,0:0:0:0:
64,192,179328,1,0,0:0:0:0:
64,192,179443,1,0,0:0:0:0:
320,192,179558,1,0,0:0:0:0:
448,192,179558,1,0,0:0:0:0:
192,192,179674,1,0,0:0:0:0:
320,192,179789,1,0,0:0:0:0:
320,192,179905,1,0,0:0:0:0:
192,192,180020,1,0,0:0:0:0:
64,192,180020,1,0,0:0:0:0:
448,192,180135,1,0,0:0:0:0:
64,192,180251,1,0,0:0:0:0:
64,192,180366,1,0,0:0:0:0:
320,192,180482,1,0,0:0:0:0:
448,192,180482,1,0,0:0:0:0:
192,192,180558,1,0,0:0:0:0:
64,192,180635,1,0,0:0:0:0:
320,192,180712,1,0,0:0:0:0:
192,192,180789,1,0,0:0:0:0:
64,192,180866,1,0,0:0:0:0:
320,192,180943,1,0,0:0:0:0:
448,192,180943,1,0,0:0:0:0:
192,192,181058,1,0,0:0:0:0:
320,192,181174,1,0,0:0:0:0:
448,192,181289,1,0,0:0:0:0:
64,192,181405,1,0,0:0:0:0:
64,192,181751,1,0,0:0:0:0:
320,192,181866,1,0,0:0:0:0:
64,192,181982,1,0,0:0:0:0:
64,192,182328,1,0,0:0:0:0:
64,192,182674,1,0,0:0:0:0:
320,192,182789,1,0,0:0:0:0:
64,192,182905,1,0,0:0:0:0:
320,192,183251,1,0,0:0:0:0:
64,192,183482,1,0,0:0:0:0:
192,192,183597,1,0,0:0:0:0:
320,192,183712,1,0,0:0:0:0:
448,192,183712,1,0,0:0:0:0:
64,192,183828,1,0,0:0:0:0:
320,192,183943,5,0,0:0:0:0:
64,192,184058,1,0,0:0:0:0:
448,192,184174,1,0,0:0:0:0:
320,192,184174,1,0,0:0:0:0:
192,192,184289,1,0,0:0:0:0:
320,192,184405,1,0,0:0:0:0:
192,192,184520,1,0,0:0:0:0:
320,192,184635,1,0,0:0:0:0:
448,192,184635,1,0,0:0:0:0:
64,192,184751,1,0,0:0:0:0:
64,192,184982,1,0,0:0:0:0:
448,192,185097,5,0,0:0:0:0:
448,192,185443,1,0,0:0:0:0:
192,192,185558,1,0,0:0:0:0:
448,192,185674,1,0,0:0:0:0:
448,192,186020,1,0,0:0:0:0:
448,192,186366,1,0,0:0:0:0:
192,192,186482,1,0,0:0:0:0:
448,192,186597,1,0,0:0:0:0:
64,192,186712,128,0,186943:0:0:0:0:
448,192,186943,128,0,187058:0:0:0:0:
448,192,187174,1,0,0:0:0:0:
64,192,187232,1,0,0:0:0:0:
320,192,187289,128,0,187405:0:0:0:0:
192,192,187405,1,0,0:0:0:0:
320,192,187520,1,0,0:0:0:0:
64,192,187635,128,0,187751:0:0:0:0:
64,192,187866,1,0,0:0:0:0:
448,192,187866,1,0,0:0:0:0:
192,192,187982,128,0,188097:0:0:0:0:
192,192,188212,1,0,0:0:0:0:
320,192,188328,5,0,0:0:0:0:
448,192,188443,1,0,0:0:0:0:
64,192,188558,1,0,0:0:0:0:
192,192,188674,1,0,0:0:0:0:
320,192,188789,5,0,0:0:0:0:
448,192,188789,1,0,0:0:0:0:
320,192,188905,1,0,0:0:0:0:
448,192,188905,1,0,0:0:0:0:
192,192,189020,1,0,0:0:0:0:
64,192,189020,1,0,0:0:0:0:
64,192,189135,1,0,0:0:0:0:
192,192,189135,1,0,0:0:0:0:
320,192,189251,1,0,0:0:0:0:
448,192,189251,1,0,0:0:0:0:
448,192,189366,1,0,0:0:0:0:
320,192,189366,1,0,0:0:0:0:
64,192,189482,1,0,0:0:0:0:
192,192,189482,1,0,0:0:0:0:
64,192,189597,1,0,0:0:0:0:
192,192,189597,1,0,0:0:0:0:
320,192,189712,1,0,0:0:0:0:
448,192,189712,1,0,0:0:0:0:
320,192,189828,1,0,0:0:0:0:
448,192,189828,1,0,0:0:0:0:
192,192,189943,1,0,0:0:0:0:
64,192,189943,1,0,0:0:0:0:
64,192,190058,1,0,0:0:0:0:
192,192,190058,1,0,0:0:0:0:
448,192,190174,1,0,0:0:0:0:
320,192,190289,1,0,0:0:0:0:
448,192,190405,1,0,0:0:0:0:
320,192,190520,1,0,0:0:0:0:
64,192,190635,1,0,0:0:0:0:
192,192,190635,1,0,0:0:0:0:
64,192,190751,1,0,0:0:0:0:
192,192,190751,1,0,0:0:0:0:
320,192,190866,1,0,0:0:0:0:
448,192,190866,1,0,0:0:0:0:
320,192,190982,1,0,0:0:0:0:
448,192,190982,1,0,0:0:0:0:
192,192,191097,1,0,0:0:0:0:
64,192,191097,1,0,0:0:0:0:
64,192,191212,1,0,0:0:0:0:
192,192,191212,1,0,0:0:0:0:
320,192,191328,1,0,0:0:0:0:
448,192,191328,1,0,0:0:0:0:
320,192,191443,1,0,0:0:0:0:
448,192,191443,1,0,0:0:0:0:
192,192,191558,1,0,0:0:0:0:
64,192,191558,1,0,0:0:0:0:
64,192,191674,1,0,0:0:0:0:
192,192,191674,1,0,0:0:0:0:
320,192,191789,1,0,0:0:0:0:
448,192,191789,1,0,0:0:0:0:
320,192,191905,1,0,0:0:0:0:
448,192,191905,1,0,0:0:0:0:
64,192,192020,1,0,0:0:0:0:
192,192,192049,1,0,0:0:0:0:
64,192,192135,1,0,0:0:0:0:
320,192,192251,1,0,0:0:0:0:
192,192,192328,1,0,0:0:0:0:
448,192,192405,1,0,0:0:0:0:
64,192,192482,1,0,0:0:0:0:
192,192,192482,1,0,0:0:0:0:
192,192,192597,1,0,0:0:0:0:
64,192,192597,1,0,0:0:0:0:
320,192,192712,1,0,0:0:0:0:
448,192,192712,1,0,0:0:0:0:
320,192,192828,1,0,0:0:0:0:
448,192,192828,1,0,0:0:0:0:
192,192,192943,1,0,0:0:0:0:
320,192,193058,1,0,0:0:0:0:
192,192,193174,1,0,0:0:0:0:
320,192,193289,1,0,0:0:0:0:
64,192,193405,1,0,0:0:0:0:
64,192,193520,1,0,0:0:0:0:
320,192,193635,1,0,0:0:0:0:
320,192,193751,1,0,0:0:0:0:
192,192,193866,1,0,0:0:0:0:
192,192,193982,1,0,0:0:0:0:
448,192,194097,1,0,0:0:0:0:
448,192,194212,1,0,0:0:0:0:
64,192,194328,1,0,0:0:0:0:
64,192,194443,1,0,0:0:0:0:
320,192,194558,1,0,0:0:0:0:
320,192,194674,1,0,0:0:0:0:
192,192,194789,1,0,0:0:0:0:
192,192,194905,1,0,0:0:0:0:
448,192,195020,1,0,0:0:0:0:
448,192,195135,1,0,0:0:0:0:
64,192,195251,1,0,0:0:0:0:
192,192,195251,1,0,0:0:0:0:
64,192,195366,1,0,0:0:0:0:
192,192,195366,1,0,0:0:0:0:
320,192,195482,1,0,0:0:0:0:
448,192,195482,1,0,0:0:0:0:
320,192,195597,1,0,0:0:0:0:
448,192,195597,1,0,0:0:0:0:
192,192,195712,1,0,0:0:0:0:
64,192,195712,1,0,0:0:0:0:
64,192,195828,1,0,0:0:0:0:
192,192,195828,1,0,0:0:0:0:
320,192,195943,1,0,0:0:0:0:
448,192,195943,1,0,0:0:0:0:
320,192,196058,1,0,0:0:0:0:
448,192,196058,1,0,0:0:0:0:
64,192,196174,5,0,0:0:0:0:
192,192,196174,1,0,0:0:0:0:
448,192,196232,1,0,0:0:0:0:
64,192,196289,1,0,0:0:0:0:
320,192,196347,1,0,0:0:0:0:
192,192,196405,1,0,0:0:0:0:
448,192,196462,1,0,0:0:0:0:
64,192,196520,1,0,0:0:0:0:
320,192,196578,1,0,0:0:0:0:
192,192,196635,1,0,0:0:0:0:
448,192,196693,1,0,0:0:0:0:
64,192,196751,1,0,0:0:0:0:
320,192,196808,1,0,0:0:0:0:
192,192,196866,1,0,0:0:0:0:
448,192,196924,1,0,0:0:0:0:
64,192,196982,1,0,0:0:0:0:
320,192,197039,1,0,0:0:0:0:
192,192,197097,1,0,0:0:0:0:
320,192,197212,1,0,0:0:0:0:
64,192,197270,1,0,0:0:0:0:
448,192,197361,1,0,0:0:0:0:
320,192,197427,1,0,0:0:0:0:
192,192,197492,1,0,0:0:0:0:
448,192,197558,1,0,0:0:0:0:
64,192,197703,1,0,0:0:0:0:
192,192,197789,1,0,0:0:0:0:
320,192,197905,1,0,0:0:0:0:
192,192,198020,1,0,0:0:0:0:
64,192,198020,1,0,0:0:0:0:
448,192,198020,1,0,0:0:0:0:
64,192,198251,1,0,0:0:0:0:
192,192,198251,1,0,0:0:0:0:
320,192,198366,1,0,0:0:0:0:
64,192,198482,1,0,0:0:0:0:
448,192,198482,1,0,0:0:0:0:
320,192,198597,1,0,0:0:0:0:
64,192,198655,1,0,0:0:0:0:
192,192,198712,1,0,0:0:0:0:
448,192,198712,1,0,0:0:0:0:
320,192,198828,1,0,0:0:0:0:
64,192,198943,1,0,0:0:0:0:
192,192,198943,1,0,0:0:0:0:
448,192,199001,1,0,0:0:0:0:
192,192,199058,1,0,0:0:0:0:
320,192,199174,1,0,0:0:0:0:
448,192,199174,1,0,0:0:0:0:
320,192,199347,1,0,0:0:0:0:
192,192,199405,1,0,0:0:0:0:
64,192,199405,1,0,0:0:0:0:
192,192,199578,1,0,0:0:0:0:
320,192,199635,1,0,0:0:0:0:
320,192,199808,1,0,0:0:0:0:
64,192,199866,1,0,0:0:0:0:
192,192,199866,1,0,0:0:0:0:
448,192,199866,1,0,0:0:0:0:
320,192,199982,1,0,0:0:0:0:
64,192,200097,1,0,0:0:0:0:
64,192,200212,1,0,0:0:0:0:
320,192,200328,1,0,0:0:0:0:
448,192,200328,1,0,0:0:0:0:
192,192,200443,1,0,0:0:0:0:
192,192,200558,1,0,0:0:0:0:
192,192,200674,1,0,0:0:0:0:
320,192,200789,1,0,0:0:0:0:
448,192,200789,1,0,0:0:0:0:
64,192,200905,1,0,0:0:0:0:
320,192,200943,1,0,0:0:0:0:
64,192,201135,1,0,0:0:0:0:
320,192,201174,1,0,0:0:0:0:
192,192,201251,1,0,0:0:0:0:
448,192,201251,1,0,0:0:0:0:
320,192,201366,1,0,0:0:0:0:
64,192,201424,1,0,0:0:0:0:
448,192,201482,1,0,0:0:0:0:
192,192,201597,1,0,0:0:0:0:
320,192,201712,1,0,0:0:0:0:
448,192,201712,1,0,0:0:0:0:
192,192,201770,1,0,0:0:0:0:
64,192,201828,1,0,0:0:0:0:
448,192,201943,1,0,0:0:0:0:
448,192,202058,1,0,0:0:0:0:
64,192,202174,1,0,0:0:0:0:
192,192,202174,1,0,0:0:0:0:
320,192,202289,1,0,0:0:0:0:
320,192,202405,1,0,0:0:0:0:
320,192,202520,1,0,0:0:0:0:
192,192,202635,1,0,0:0:0:0:
64,192,202635,1,0,0:0:0:0:
448,192,202751,1,0,0:0:0:0:
192,192,202789,1,0,0:0:0:0:
448,192,202982,1,0,0:0:0:0:
192,192,203020,1,0,0:0:0:0:
320,192,203097,1,0,0:0:0:0:
64,192,203097,1,0,0:0:0:0:
192,192,203212,1,0,0:0:0:0:
64,192,203270,1,0,0:0:0:0:
320,192,203328,1,0,0:0:0:0:
448,192,203443,1,0,0:0:0:0:
64,192,203558,1,0,0:0:0:0:
192,192,203558,1,0,0:0:0:0:
320,192,203674,1,0,0:0:0:0:
64,192,203789,128,0,203905:0:0:0:0:
192,192,203905,1,0,0:0:0:0:
320,192,204020,1,0,0:0:0:0:
448,192,204020,1,0,0:0:0:0:
192,192,204135,1,0,0:0:0:0:
192,192,204251,1,0,0:0:0:0:
192,192,204366,1,0,0:0:0:0:
320,192,204482,1,0,0:0:0:0:
448,192,204482,1,0,0:0:0:0:
64,192,204597,1,0,0:0:0:0:
320,192,204635,1,0,0:0:0:0:
64,192,204828,1,0,0:0:0:0:
320,192,204866,1,0,0:0:0:0:
192,192,204943,128,0,205174:0:0:0:0:
448,192,204943,128,0,205174:0:0:0:0:
320,192,205174,1,0,0:0:0:0:
64,192,205232,1,0,0:0:0:0:
192,192,205289,1,0,0:0:0:0:
320,192,205347,1,0,0:0:0:0:
64,192,205405,1,0,0:0:0:0:
448,192,205405,1,0,0:0:0:0:
192,192,205520,1,0,0:0:0:0:
192,192,205635,1,0,0:0:0:0:
448,192,205751,1,0,0:0:0:0:
192,192,205866,1,0,0:0:0:0:
64,192,205866,1,0,0:0:0:0:
192,192,205982,1,0,0:0:0:0:
448,192,206097,1,0,0:0:0:0:
320,192,206212,1,0,0:0:0:0:
320,192,206328,1,0,0:0:0:0:
64,192,206328,1,0,0:0:0:0:
192,192,206443,1,0,0:0:0:0:
320,192,206558,1,0,0:0:0:0:
320,192,206674,1,0,0:0:0:0:
192,192,206789,1,0,0:0:0:0:
64,192,206789,1,0,0:0:0:0:
448,192,206847,1,0,0:0:0:0:
320,192,206905,1,0,0:0:0:0:
64,192,206962,1,0,0:0:0:0:
448,192,207020,1,0,0:0:0:0:
192,192,207135,1,0,0:0:0:0:
64,192,207251,1,0,0:0:0:0:
320,192,207251,1,0,0:0:0:0:
448,192,207251,1,0,0:0:0:0:
192,192,207308,1,0,0:0:0:0:
320,192,207366,1,0,0:0:0:0:
448,192,207424,1,0,0:0:0:0:
192,192,207482,1,0,0:0:0:0:
64,192,207539,1,0,0:0:0:0:
448,192,207597,1,0,0:0:0:0:
320,192,207655,1,0,0:0:0:0:
192,192,207712,1,0,0:0:0:0:
64,192,207712,1,0,0:0:0:0:
320,192,207828,1,0,0:0:0:0:
320,192,207943,1,0,0:0:0:0:
320,192,208058,1,0,0:0:0:0:
192,192,208174,1,0,0:0:0:0:
64,192,208174,1,0,0:0:0:0:
448,192,208289,1,0,0:0:0:0:
192,192,208328,1,0,0:0:0:0:
448,192,208520,1,0,0:0:0:0:
192,192,208558,1,0,0:0:0:0:
320,192,208635,1,0,0:0:0:0:
64,192,208635,1,0,0:0:0:0:
192,192,208751,1,0,0:0:0:0:
448,192,208808,1,0,0:0:0:0:
64,192,208866,1,0,0:0:0:0:
320,192,208982,1,0,0:0:0:0:
192,192,209097,1,0,0:0:0:0:
64,192,209097,1,0,0:0:0:0:
320,192,209155,1,0,0:0:0:0:
448,192,209212,1,0,0:0:0:0:
64,192,209328,1,0,0:0:0:0:
64,192,209443,1,0,0:0:0:0:
448,192,209558,1,0,0:0:0:0:
320,192,209558,1,0,0:0:0:0:
192,192,209674,1,0,0:0:0:0:
192,192,209789,1,0,0:0:0:0:
192,192,209905,1,0,0:0:0:0:
320,192,210020,1,0,0:0:0:0:
448,192,210020,1,0,0:0:0:0:
64,192,210135,1,0,0:0:0:0:
320,192,210174,1,0,0:0:0:0:
64,192,210366,1,0,0:0:0:0:
320,192,210405,1,0,0:0:0:0:
192,192,210482,1,0,0:0:0:0:
448,192,210482,1,0,0:0:0:0:
320,192,210597,1,0,0:0:0:0:
448,192,210655,1,0,0:0:0:0:
192,192,210712,1,0,0:0:0:0:
64,192,210828,1,0,0:0:0:0:
448,192,210943,1,0,0:0:0:0:
320,192,210943,1,0,0:0:0:0:
192,192,211058,1,0,0:0:0:0:
448,192,211174,128,0,211289:0:0:0:0:
320,192,211289,1,0,0:0:0:0:
192,192,211405,1,0,0:0:0:0:
64,192,211405,1,0,0:0:0:0:
320,192,211520,1,0,0:0:0:0:
320,192,211635,1,0,0:0:0:0:
320,192,211751,1,0,0:0:0:0:
192,192,211866,1,0,0:0:0:0:
64,192,211866,1,0,0:0:0:0:
448,192,211982,1,0,0:0:0:0:
192,192,212020,1,0,0:0:0:0:
448,192,212212,1,0,0:0:0:0:
192,192,212251,1,0,0:0:0:0:
64,192,212328,1,0,0:0:0:0:
320,192,212328,1,0,0:0:0:0:
448,192,212405,1,0,0:0:0:0:
64,192,212482,1,0,0:0:0:0:
320,192,212558,1,0,0:0:0:0:
192,192,212635,1,0,0:0:0:0:
448,192,212712,1,0,0:0:0:0:
320,192,212789,1,0,0:0:0:0:
64,192,212789,1,0,0:0:0:0:
192,192,212905,1,0,0:0:0:0:
192,192,213020,1,0,0:0:0:0:
448,192,213135,1,0,0:0:0:0:
192,192,213251,1,0,0:0:0:0:
192,192,213366,1,0,0:0:0:0:
320,192,213482,1,0,0:0:0:0:
448,192,213597,1,0,0:0:0:0:
192,192,213712,1,0,0:0:0:0:
448,192,213712,1,0,0:0:0:0:
64,192,213828,1,0,0:0:0:0:
448,192,213943,1,0,0:0:0:0:
448,192,214058,1,0,0:0:0:0:
64,192,214174,128,0,214405:0:0:0:0:
192,192,214174,128,0,214405:0:0:0:0:
320,192,214405,1,0,0:0:0:0:
320,192,214520,1,0,0:0:0:0:
64,192,214635,1,0,0:0:0:0:
192,192,214635,1,0,0:0:0:0:
448,192,214635,1,0,0:0:0:0:
320,192,214751,1,0,0:0:0:0:
448,192,214866,1,0,0:0:0:0:
192,192,214982,1,0,0:0:0:0:
64,192,215212,1,0,0:0:0:0:
64,192,215328,1,0,0:0:0:0:
64,192,215443,1,0,0:0:0:0:
448,192,215558,1,0,0:0:0:0:
192,192,215674,1,0,0:0:0:0:
320,192,215789,1,0,0:0:0:0:
192,192,215905,1,0,0:0:0:0:
448,192,216020,1,0,0:0:0:0:
320,192,216135,1,0,0:0:0:0:
64,192,216193,1,0,0:0:0:0:
192,192,216251,1,0,0:0:0:0:
448,192,216366,1,0,0:0:0:0:
64,192,216482,1,0,0:0:0:0:
192,192,216482,1,0,0:0:0:0:
320,192,216539,1,0,0:0:0:0:
448,192,216597,1,0,0:0:0:0:
192,192,216712,1,0,0:0:0:0:
192,192,216828,1,0,0:0:0:0:
320,192,216943,1,0,0:0:0:0:
448,192,216943,1,0,0:0:0:0:
64,192,217058,1,0,0:0:0:0:
64,192,217174,1,0,0:0:0:0:
64,192,217289,1,0,0:0:0:0:
320,192,217405,1,0,0:0:0:0:
448,192,217405,1,0,0:0:0:0:
192,192,217520,1,0,0:0:0:0:
448,192,217558,1,0,0:0:0:0:
192,192,217751,1,0,0:0:0:0:
448,192,217789,1,0,0:0:0:0:
64,192,217866,1,0,0:0:0:0:
320,192,217866,1,0,0:0:0:0:
448,192,217982,1,0,0:0:0:0:
320,192,218039,1,0,0:0:0:0:
64,192,218097,1,0,0:0:0:0:
192,192,218212,1,0,0:0:0:0:
320,192,218328,1,0,0:0:0:0:
448,192,218328,1,0,0:0:0:0:
64,192,218443,1,0,0:0:0:0:
320,192,218558,128,0,218674:0:0:0:0:
448,192,218674,1,0,0:0:0:0:
192,192,218789,1,0,0:0:0:0:
64,192,218789,1,0,0:0:0:0:
448,192,218905,1,0,0:0:0:0:
448,192,219020,1,0,0:0:0:0:
448,192,219135,1,0,0:0:0:0:
192,192,219251,1,0,0:0:0:0:
64,192,219251,1,0,0:0:0:0:
320,192,219366,1,0,0:0:0:0:
64,192,219405,1,0,0:0:0:0:
320,192,219597,1,0,0:0:0:0:
64,192,219635,1,0,0:0:0:0:
192,192,219712,128,0,219943:0:0:0:0:
448,192,219712,128,0,219943:0:0:0:0:
64,192,219943,1,0,0:0:0:0:
320,192,220001,1,0,0:0:0:0:
448,192,220058,1,0,0:0:0:0:
64,192,220116,1,0,0:0:0:0:
192,192,220174,1,0,0:0:0:0:
320,192,220174,1,0,0:0:0:0:
448,192,220289,1,0,0:0:0:0:
448,192,220405,1,0,0:0:0:0:
192,192,220520,1,0,0:0:0:0:
320,192,220635,1,0,0:0:0:0:
448,192,220635,1,0,0:0:0:0:
448,192,220751,1,0,0:0:0:0:
192,192,220866,1,0,0:0:0:0:
64,192,220982,1,0,0:0:0:0:
64,192,221097,1,0,0:0:0:0:
448,192,221097,1,0,0:0:0:0:
320,192,221212,1,0,0:0:0:0:
64,192,221328,1,0,0:0:0:0:
64,192,221443,1,0,0:0:0:0:
320,192,221558,1,0,0:0:0:0:
448,192,221558,1,0,0:0:0:0:
192,192,221616,1,0,0:0:0:0:
64,192,221674,1,0,0:0:0:0:
320,192,221732,1,0,0:0:0:0:
192,192,221789,1,0,0:0:0:0:
448,192,221905,1,0,0:0:0:0:
64,192,222020,1,0,0:0:0:0:
192,192,222020,1,0,0:0:0:0:
320,192,222020,1,0,0:0:0:0:
448,192,222078,1,0,0:0:0:0:
64,192,222135,1,0,0:0:0:0:
192,192,222193,1,0,0:0:0:0:
448,192,222251,1,0,0:0:0:0:
320,192,222308,1,0,0:0:0:0:
192,192,222366,1,0,0:0:0:0:
64,192,222424,1,0,0:0:0:0:
320,192,222482,1,0,0:0:0:0:
448,192,222482,1,0,0:0:0:0:
64,192,222597,1,0,0:0:0:0:
64,192,222712,1,0,0:0:0:0:
64,192,222828,1,0,0:0:0:0:
320,192,222943,1,0,0:0:0:0:
448,192,222943,1,0,0:0:0:0:
192,192,223058,1,0,0:0:0:0:
448,192,223097,1,0,0:0:0:0:
192,192,223289,1,0,0:0:0:0:
448,192,223328,1,0,0:0:0:0:
320,192,223405,1,0,0:0:0:0:
64,192,223405,1,0,0:0:0:0:
192,192,223520,1,0,0:0:0:0:
448,192,223578,1,0,0:0:0:0:
320,192,223635,1,0,0:0:0:0:
64,192,223751,1,0,0:0:0:0:
320,192,223866,1,0,0:0:0:0:
448,192,223866,1,0,0:0:0:0:
192,192,223924,1,0,0:0:0:0:
64,192,223982,1,0,0:0:0:0:
320,192,224097,1,0,0:0:0:0:
320,192,224212,1,0,0:0:0:0:
192,192,224328,1,0,0:0:0:0:
64,192,224328,1,0,0:0:0:0:
448,192,224443,1,0,0:0:0:0:
448,192,224558,1,0,0:0:0:0:
448,192,224674,1,0,0:0:0:0:
64,192,224789,1,0,0:0:0:0:
192,192,224789,1,0,0:0:0:0:
320,192,224905,1,0,0:0:0:0:
320,192,225135,1,0,0:0:0:0:
192,192,225251,1,0,0:0:0:0:
64,192,225251,1,0,0:0:0:0:
448,192,225366,1,0,0:0:0:0:
320,192,225424,1,0,0:0:0:0:
64,192,225482,1,0,0:0:0:0:
192,192,225597,1,0,0:0:0:0:
320,192,225712,1,0,0:0:0:0:
448,192,225712,1,0,0:0:0:0:
64,192,225828,1,0,0:0:0:0:
320,192,225943,128,0,226058:0:0:0:0:
448,192,226058,1,0,0:0:0:0:
192,192,226174,1,0,0:0:0:0:
64,192,226174,1,0,0:0:0:0:
448,192,226289,1,0,0:0:0:0:
448,192,226405,1,0,0:0:0:0:
448,192,226520,1,0,0:0:0:0:
192,192,226635,1,0,0:0:0:0:
64,192,226635,1,0,0:0:0:0:
320,192,226751,1,0,0:0:0:0:
320,192,226982,1,0,0:0:0:0:
64,192,227097,1,0,0:0:0:0:
448,192,227097,1,0,0:0:0:0:
192,192,227174,1,0,0:0:0:0:
320,192,227251,1,0,0:0:0:0:
64,192,227328,1,0,0:0:0:0:
448,192,227405,1,0,0:0:0:0:
320,192,227482,1,0,0:0:0:0:
192,192,227558,1,0,0:0:0:0:
64,192,227558,1,0,0:0:0:0:
448,192,227674,1,0,0:0:0:0:
448,192,227789,1,0,0:0:0:0:
192,192,227905,1,0,0:0:0:0:
448,192,228020,5,0,0:0:0:0:
64,192,228020,1,0,0:0:0:0:
448,192,228135,1,0,0:0:0:0:
64,192,228251,1,0,0:0:0:0:
192,192,228366,1,0,0:0:0:0:
192,192,228482,1,0,0:0:0:0:
448,192,228482,1,0,0:0:0:0:
320,192,228597,1,0,0:0:0:0:
192,192,228712,1,0,0:0:0:0:
192,192,228828,1,0,0:0:0:0:
320,192,228943,128,0,229174:0:0:0:0:
448,192,228943,128,0,229174:0:0:0:0:
64,192,229174,1,0,0:0:0:0:
64,192,229289,1,0,0:0:0:0:
448,192,229405,5,0,0:0:0:0:
320,192,229405,1,0,0:0:0:0:
192,192,229405,1,0,0:0:0:0:
64,192,229462,1,0,0:0:0:0:
448,192,229520,1,0,0:0:0:0:
192,192,229578,1,0,0:0:0:0:
320,192,229635,1,0,0:0:0:0:
64,192,229693,1,0,0:0:0:0:
448,192,229751,1,0,0:0:0:0:
192,192,229808,1,0,0:0:0:0:
320,192,229866,1,0,0:0:0:0:
64,192,229924,1,0,0:0:0:0:
448,192,229982,1,0,0:0:0:0:
192,192,230039,1,0,0:0:0:0:
320,192,230097,1,0,0:0:0:0:
64,192,230155,1,0,0:0:0:0:
448,192,230212,1,0,0:0:0:0:
192,192,230270,1,0,0:0:0:0:
320,192,230328,1,0,0:0:0:0:
192,192,230443,1,0,0:0:0:0:
448,192,230501,1,0,0:0:0:0:
64,192,230591,1,0,0:0:0:0:
192,192,230657,1,0,0:0:0:0:
320,192,230723,1,0,0:0:0:0:
64,192,230789,1,0,0:0:0:0:
448,192,230933,1,0,0:0:0:0:
320,192,231020,1,0,0:0:0:0:
192,192,231135,1,0,0:0:0:0:
64,192,231251,1,0,0:0:0:0:
320,192,231424,1,0,0:0:0:0:
448,192,231453,1,0,0:0:0:0:
64,192,231539,1,0,0:0:0:0:
192,192,231568,1,0,0:0:0:0:
320,192,231712,1,0,0:0:0:0:
192,192,231741,1,0,0:0:0:0:
64,192,231857,1,0,0:0:0:0:
448,192,231943,5,0,0:0:0:0:
320,192,232232,1,0,0:0:0:0:
192,192,232328,1,0,0:0:0:0:
64,192,232379,1,0,0:0:0:0:
448,192,232430,1,0,0:0:0:0:
320,192,232482,1,0,0:0:0:0:
64,192,232533,1,0,0:0:0:0:
448,192,232584,1,0,0:0:0:0:
192,192,232687,1,0,0:0:0:0:
320,192,232738,1,0,0:0:0:0:
448,192,232828,1,0,0:0:0:0:
64,192,232905,1,0,0:0:0:0:
