osu file format v14

[General]
AudioFilename: audio.mp3
AudioLeadIn: 0
PreviewTime: 170462
Countdown: 0
SampleSet: Soft
StackLeniency: 0.6
Mode: 0
LetterboxInBreaks: 0
WidescreenStoryboard: 1

[Editor]
DistanceSpacing: 1
BeatDivisor: 4
GridSize: 32
TimelineZoom: 1.200006

[Metadata]
Title:step, step
TitleUnicode:step, step
Artist:Kanzaki Elza starring ReoNa
ArtistUnicode:神崎エルザ starring ReoNa
Creator:Stratos
Version:kowari's insane
Source:ソードアート・オンライン オルタナティブ ガンゲイル・オンライン
Tags:agatsu kowari fuju rugmunch himekawa sao sword art online alternative gun gale ggo japanese jpop pop
BeatmapID:2771476
BeatmapSetID:1337889

[Difficulty]
HPDrainRate:5.2
CircleSize:3.8
OverallDifficulty:7.8
ApproachRate:8.4
SliderMultiplier:1.65
SliderTickRate:1

[Events]
//Background and Video events
0,0,"Elza.jpg",0,0
//Break Periods
2,142696,155432
2,168412,184663
//Storyboard Layer 0 (Background)
//Storyboard Layer 1 (Fail)
//Storyboard Layer 2 (Pass)
//Storyboard Layer 3 (Foreground)
//Storyboard Layer 4 (Overlay)
//Storyboard Sound Samples

[TimingPoints]
211,428.571428571429,4,2,1,50,1,0
4925,-100,4,2,1,50,0,0
5353,-100,4,2,1,80,0,0
15639,-111.111111111111,4,2,1,80,0,0
19068,-125,4,2,1,50,0,0
19711,-125,4,2,1,50,0,0
25282,-125,4,2,1,60,0,0
25496,-100,4,2,1,60,0,0
25925,422.535211267606,4,2,1,65,1,0
25925,-111.111111111111,4,2,1,65,0,0
27615,476.190476190476,4,2,1,65,1,0
27615,-111.111111111111,4,2,1,65,0,0
27853,428.571428571429,4,2,1,65,1,0
28067,428.571428571429,4,2,1,65,1,0
28067,-111.111111111111,4,2,1,65,0,0
29353,428.571428571429,4,2,1,65,1,0
29353,-111.111111111111,4,2,1,65,0,0
32781,-125,4,2,1,50,0,0
39639,-111.111111111111,4,2,1,50,0,0
42210,441.176470588236,4,2,1,50,1,0
43092,422.535211267606,4,2,1,50,1,0
44782,410.958904109589,4,2,1,60,1,0
45398,439.56043956044,4,2,1,50,1,0
46496,428.571428571429,4,2,1,80,1,0
46496,-90.9090909090909,4,2,1,80,0,1
49925,-90.9090909090909,4,2,1,80,0,1
67067,-90.9090909090909,4,2,1,70,0,1
73281,-100,4,2,1,70,0,0
73925,-100,4,2,1,80,0,0
77353,425.531914893617,4,2,1,80,1,0
77353,-100,4,2,1,80,0,0
79055,454.545454545455,4,2,1,80,1,0
79282,428.571428571429,4,2,1,80,1,0
79496,428.571428571429,4,2,1,80,1,0
80781,428.571428571429,4,2,1,80,1,0
80782,-100,4,2,1,80,0,0
86781,-125,4,2,2,50,0,0
87638,-142.857142857143,4,2,2,50,0,0
88068,-142.857142857143,4,2,1,50,0,0
93852,-142.857142857143,4,2,1,60,0,0
94066,-100,4,2,1,60,0,0
94495,-111.111111111111,4,2,1,65,0,0
99852,-111.111111111111,4,2,1,70,0,0
101353,-125,4,2,1,50,0,0
108209,425.531914893617,4,2,1,50,1,0
108211,-111.111111111111,4,2,1,50,0,0
111506,480,4,2,1,50,1,0
111626,434.782608695652,4,2,1,50,1,0
111626,-111.111111111111,4,2,1,50,0,0
112495,405.405405405405,4,2,1,50,1,0
112697,428.571428571429,4,2,1,50,1,0
113554,428.571428571429,4,2,1,50,1,0
113554,-83.3333333333333,4,2,1,50,0,0
114411,408.163265306122,4,2,1,50,1,0
114411,-83.3333333333333,4,2,1,50,0,0
114921,545.454545454546,4,2,1,50,1,0
115057,431.654676258993,4,2,1,80,1,0
115057,-90.9090909090909,4,2,1,80,0,1
116782,428.571428571429,4,2,1,80,1,1
116782,-90.9090909090909,4,2,1,80,0,1
135639,-90.9090909090909,4,2,1,70,0,1
141853,-100,4,2,1,70,0,0
155782,-100,4,2,1,50,0,0
156210,-125,4,2,1,60,0,0
157924,419.58041958042,4,2,1,60,1,0
157924,-125,4,2,1,60,0,0
158763,437.956204379562,4,2,1,60,1,0
158763,-125,4,2,1,60,0,0
159638,428.571428571429,4,2,1,60,1,0
159638,-125,4,2,1,60,0,0
162209,408.163265306122,4,2,1,60,1,0
162209,-125,4,2,1,60,0,0
162311,-125,4,2,2,60,0,0
162617,428.571428571429,4,2,2,60,1,0
162617,-125,4,2,2,60,0,0
163045,434.782608695652,4,2,1,70,1,0
163045,-111.111111111111,4,2,1,70,0,0
164784,428.571428571429,4,2,1,70,1,0
164784,-111.111111111111,4,2,1,70,0,0
169926,-111.111111111111,4,2,1,5,0,0
171641,-111.111111111111,4,2,1,50,0,0
181926,422.535211267606,4,2,1,50,1,0
183616,472.44094488189,4,2,1,50,1,0
183853,428.571428571429,4,2,1,50,1,0
185353,428.571428571429,4,2,1,90,1,0
185353,-90.9090909090909,4,2,1,90,0,1
199067,-90.9090909090909,4,2,1,90,0,1
200781,422.535211267606,4,2,1,90,1,1
200781,-90.9090909090909,4,2,1,90,0,1
202471,454.545454545455,4,2,1,90,1,1
202471,-90.9090909090909,4,2,1,90,0,1
202925,428.571428571429,4,2,1,90,1,1
202925,-90.9090909090909,4,2,1,90,0,1
204210,428.571428571429,4,2,1,90,1,1
204210,-90.9090909090909,4,2,1,90,0,1
205924,-90.9090909090909,4,2,1,60,0,1
212138,-100,4,2,1,60,0,0
212781,-100,4,2,1,75,0,0
219638,-100,4,2,1,60,0,0
223067,-100,4,2,1,70,0,0
224781,425.531914893617,4,2,1,50,1,0
224993,-100,4,2,1,55,0,0
225206,-100,4,2,1,60,0,0
225419,-100,4,2,1,65,0,0
225632,-100,4,2,1,70,0,0
225844,-100,4,2,1,75,0,0
226057,-100,4,2,1,80,0,0
226270,-100,4,2,1,85,0,0
226483,428.571428571429,4,2,1,90,1,0
226911,-100,4,2,1,70,0,0
227768,-100,4,2,1,50,0,0
228197,-100,4,2,1,60,0,0
228840,-100,4,2,1,80,0,0
229483,-100,4,2,1,90,0,0
229911,437.956204379562,4,2,1,50,1,0
230348,465.116279069767,4,2,1,50,1,0
230813,504.201680672269,4,2,1,50,1,0
231317,540.540540540541,4,2,1,40,1,0
231857,645.161290322581,4,2,1,50,1,0
232179,566.037735849057,4,2,1,50,1,0
232462,652.173913043478,4,2,1,30,1,0

[Colours]
Combo1 : 0,249,63
Combo2 : 157,157,206
Combo3 : 131,6,255
Combo4 : 151,255,255

[HitObjects]
323,340,4710,5,8,0:0:0:0:
360,162,4925,1,14,0:0:0:0:
360,162,5353,6,0,B|284:147|284:147|260:171|222:172,1,123.75,14|0,0:0|3:0,0:0:0:0:
174,109,5782,2,0,P|184:40|191:6,1,82.5,10|0,0:0|3:0,0:0:0:0:
66,222,6210,1,10,0:0:0:0:
255,174,6425,1,0,3:0:0:0:
78,90,6639,5,10,0:0:0:0:
170,271,6853,1,2,3:2:0:0:
170,271,6960,1,0,3:0:0:0:
170,271,7068,2,0,P|229:285|269:271,1,82.5,10|0,0:0|3:0,0:0:0:0:
367,143,7496,5,10,0:0:0:0:
347,324,7710,1,2,3:2:0:0:
347,324,7818,1,0,3:0:0:0:
347,324,7925,2,0,P|335:264|328:223,1,82.5,10|0,0:0|3:0,0:0:0:0:
473,130,8353,2,0,P|465:170|457:210,1,82.5,10|0,0:0|3:0,0:0:0:0:
291,133,8782,6,0,P|266:65|299:15,1,123.75,10|0,0:0|3:0,0:0:0:0:
379,0,9210,2,0,P|426:9|473:16,1,82.5,10|0,0:0|3:0,0:0:0:0:
488,193,9639,1,10,0:0:0:0:
347,78,9853,1,0,3:2:0:0:
261,238,10068,2,0,B|250:282|250:282|264:321,1,82.5,10|0,0:0|3:0,0:0:0:0:
400,199,10496,5,10,0:0:0:0:
243,105,10710,1,2,3:2:0:0:
243,105,10818,1,0,3:0:0:0:
243,105,10925,2,0,P|192:98|157:110,1,82.5,10|0,0:0|3:0,0:0:0:0:
64,326,11353,5,14,0:0:0:0:
26,97,11568,1,14,0:0:0:0:
202,287,11782,1,14,0:0:0:0:
163,106,11996,1,0,3:0:0:0:
335,165,12210,6,0,P|314:280|308:311,1,123.75,14|0,0:2|3:0,0:0:0:0:
302,376,12639,2,0,P|366:384|401:368,1,82.5,10|0,0:0|3:0,0:0:0:0:
454,187,13068,1,10,0:0:0:0:
283,288,13282,1,0,3:0:0:0:
468,310,13496,5,10,0:0:0:0:
321,159,13710,1,2,3:2:0:0:
472,59,13925,2,0,B|500:106|500:106|466:188,1,123.75,10|0,0:0|3:0,0:0:0:0:
457,202,14353,5,10,0:0:0:0:
345,57,14568,1,2,3:2:0:0:
225,192,14782,2,0,P|210:235|220:276,1,82.5,10|8,0:0|0:3,0:0:0:0:
387,334,15210,2,0,P|401:295|394:255,1,82.5,10|0,0:0|3:0,0:0:0:0:
296,141,15639,6,0,P|171:155|118:162,1,148.49999546814,14|0,0:2|3:0,0:0:0:0:
6,76,16282,1,2,3:2:0:0:
152,4,16496,2,0,B|168:42|168:42|152:81,1,74.2499977340699,10|2,0:0|3:2,0:0:0:0:
66,210,16925,2,0,B|53:179|53:179|69:141,1,74.2499977340699,10|0,0:0|0:0,0:0:0:0:
83,128,17211,2,0,L|108:134,2,24.74999924469,8|8|0,0:3|0:3|3:0,0:0:0:0:
225,265,17568,1,2,3:2:0:0:
23,300,17782,1,10,0:0:0:0:
200,141,17996,1,2,3:2:0:0:
163,371,18210,5,10,0:0:0:0:
30,163,18425,1,10,0:0:0:0:
163,371,18639,1,10,0:0:0:0:
357,284,19068,5,6,3:2:0:0:
357,284,19282,2,0,P|377:222|351:163,1,132,2|2,0:0|0:0,0:0:0:0:
248,138,19925,1,2,0:0:0:0:
248,138,20139,2,0,B|199:149|199:149|171:138|171:138|121:152,1,132,2|2,0:0|0:0,0:0:0:0:
35,91,20782,1,2,0:1:0:0:
35,91,20996,1,2,0:0:0:0:
8,300,21425,5,2,0:0:0:0:
93,361,21639,2,0,P|134:364|169:350,1,66,2|2,0:0|0:0,0:0:0:0:
226,276,22068,2,0,P|267:273|302:287,1,66,2|2,0:0|0:0,0:0:0:0:
363,356,22496,5,2,0:1:0:0:
363,356,22711,2,0,P|383:251|390:216,1,132,2|2,0:0|0:0,0:0:0:0:
319,146,23353,1,2,0:0:0:0:
319,146,23568,2,0,P|271:172|195:137,1,132,2|2,0:0|0:0,0:0:0:0:
184,46,24210,1,2,0:1:0:0:
184,46,24425,1,2,0:0:0:0:
391,6,24853,5,2,0:0:0:0:
447,95,25068,2,0,P|437:147|430:182,1,66,2|2,0:0|3:2,0:0:0:0:
413,295,25496,2,0,B|332:282|332:282|301:323,1,123.75,14|0,0:0|0:0,0:0:0:0:
229,354,25925,6,0,P|220:315|234:270,1,74.2499977340699,14|0,0:0|3:0,0:0:0:0:
227,282,26241,1,0,3:0:0:0:
227,282,26347,1,8,0:0:0:0:
331,197,26558,1,2,3:2:0:0:
239,100,26770,2,0,B|156:96|184:151|91:138,1,148.49999546814,10|8,0:0|0:0,0:0:0:0:
16,34,27403,1,2,3:2:0:0:
148,18,27615,5,10,0:0:0:0:
87,140,27853,1,0,3:0:0:0:
87,140,27960,1,0,3:0:0:0:
87,140,28067,2,0,P|94:201|98:240,1,74.2499977340699,10|2,0:0|3:2,0:0:0:0:
149,335,28495,1,10,0:0:0:0:
26,280,28709,1,0,3:0:0:0:
180,200,28924,2,0,P|230:192|258:201,1,74.2499977340699,8|2,0:0|3:2,0:0:0:0:
310,344,29352,5,10,0:0:0:0:
426,241,29567,1,0,3:0:0:0:
426,241,29674,1,0,3:0:0:0:
426,241,29781,2,0,P|418:179|414:148,1,74.2499977340699,8|2,0:0|3:2,0:0:0:0:
390,151,30067,2,0,L|351:159,2,24.74999924469,0|0|10,3:0|3:0|0:0,0:0:0:0:
482,66,30424,2,0,L|518:70,3,24.74999924469,0|0|0|8,3:0|3:0|3:0|0:3,0:0:0:0:
349,0,30852,1,2,3:2:0:0:
80,37,31281,5,12,0:0:0:0:
149,216,31495,1,12,0:0:0:0:
203,93,31710,1,2,3:2:0:0:
203,93,31817,1,0,3:0:0:0:
203,93,31924,2,0,P|243:81|284:95,1,74.2499977340699,10|2,0:0|3:2,0:0:0:0:
318,214,32352,2,0,P|278:226|237:212,1,74.2499977340699,10|2,0:2|3:2,0:0:0:0:
397,141,32781,6,0,P|428:190|408:266,1,132,6|0,3:2|0:0,0:0:0:0:
340,336,33424,2,0,B|258:319|258:319|241:339|212:351,1,132,0|0,3:0|3:0,0:0:0:0:
110,296,34067,1,8,0:0:0:0:
191,201,34281,2,0,P|200:141|204:115,1,66,8|0,0:0|3:0,0:0:0:0:
124,62,34710,5,0,3:0:0:0:
124,62,34924,1,2,3:2:0:0:
28,143,35138,2,0,P|1:194|24:268,1,132,2|0,3:2|0:0,0:0:0:0:
103,327,35781,2,0,P|178:317|224:310,1,99,2|0,3:2|3:0,0:0:0:0:
231,304,36210,6,0,B|313:304|272:356|365:342,1,132,0|2,3:2|0:0,0:0:0:0:
441,288,36852,2,0,B|460:201|460:201|419:173,1,132,2|0,3:2|3:0,0:0:0:0:
314,123,37495,1,10,0:0:0:0:
309,227,37710,6,0,P|312:190|316:149,1,66,2|0,3:2|3:0,0:0:0:0:
400,83,38138,1,0,3:0:0:0:
400,83,38352,1,2,3:2:0:0:
308,30,38567,2,0,P|206:41|162:47,1,132,2|12,3:2|0:0,0:0:0:0:
100,138,39210,2,0,P|137:158|174:160,1,66,12|2,0:0|0:0,0:0:0:0:
291,182,39638,5,6,3:2:0:0:
186,264,39852,1,0,0:0:0:0:
295,341,40067,2,0,P|356:331|396:325,1,74.2499977340699,8|2,0:0|3:2,0:0:0:0:
450,224,40495,1,2,3:2:0:0:
320,258,40710,1,0,0:0:0:0:
452,375,40924,2,0,P|465:336|456:301,1,74.2499977340699,8|2,0:0|3:2,0:0:0:0:
355,182,41352,5,2,3:2:0:0:
494,112,41567,1,0,0:0:0:0:
389,10,41781,2,0,B|352:2|352:2|315:20,1,74.2499977340699,8|8,0:0|0:3,0:0:0:0:
319,17,42103,1,4,0:3:0:0:
319,17,42210,1,8,0:3:0:0:
242,126,42430,1,8,0:3:0:0:
208,140,42540,1,8,0:3:0:0:
171,141,42651,1,8,0:3:0:0:
136,129,42761,1,8,0:3:0:0:
108,104,42871,1,8,0:3:0:0:
92,72,42982,1,4,0:3:0:0:
88,35,43092,1,6,3:2:0:0:
117,279,44782,5,8,0:0:0:0:
184,58,44987,1,8,0:0:0:0:
117,279,45192,1,8,0:0:0:0:
184,58,45398,1,10,0:0:0:0:
436,345,46496,6,0,B|352:324|352:324|328:295|346:267,1,136.125004154205,14|0,0:0|3:0,0:0:0:0:
413,211,46924,2,0,P|427:159|415:119,1,90.7500027694703,8|2,0:0|3:2,0:0:0:0:
218,39,47353,1,10,0:0:0:0:
257,229,47567,1,0,3:0:0:0:
356,63,47781,1,14,0:0:0:0:
148,129,47995,2,0,P|68:119|31:114,1,90.7500027694703,2|8,0:0|0:0,0:0:0:0:
127,303,48424,5,2,3:2:0:0:
280,182,48638,2,0,B|297:139|297:139|280:83,1,90.7500027694703,8|2,0:0|3:2,0:0:0:0:
284,96,48960,1,0,3:0:0:0:
284,96,49067,1,10,0:0:0:0:
186,246,49281,1,0,3:0:0:0:
370,284,49495,1,10,0:0:0:0:
204,137,49710,1,2,3:2:0:0:
196,350,49924,6,0,P|126:368|65:340,1,136.125004154205,10|0,0:0|3:0,0:0:0:0:
16,268,50353,1,10,0:0:0:0:
159,124,50567,2,0,B|170:170|170:170|147:225,1,90.7500027694703,2|8,3:2|0:0,0:0:0:0:
17,101,50995,1,0,3:0:0:0:
153,210,51210,6,0,B|260:220|216:146|332:153,1,181.500005538941,14|8,0:0|0:0,0:0:0:0:
497,306,51853,1,0,3:0:0:0:
306,249,52067,1,8,0:0:0:0:
453,155,52281,1,2,3:2:0:0:
453,155,52388,1,0,3:0:0:0:
453,155,52495,1,10,0:0:0:0:
374,359,52710,1,2,3:2:0:0:
289,158,52924,1,10,0:0:0:0:
182,347,53138,1,0,3:0:0:0:
182,347,53245,1,0,3:0:0:0:
182,347,53353,6,0,P|87:328|31:319,1,136.125004154205,14|0,0:0|3:0,0:0:0:0:
21,320,53781,1,10,0:0:0:0:
150,145,53995,2,0,P|165:196|151:242,1,90.7500027694703,2|8,3:2|0:0,0:0:0:0:
8,71,54424,1,2,3:2:0:0:
219,21,54638,6,0,B|286:37|286:37|331:17|331:17|404:33,1,181.500005538941,14|8,0:0|0:0,0:0:0:0:
468,235,55281,1,2,3:2:0:0:
263,159,55495,1,10,0:0:0:0:
432,119,55710,1,0,3:0:0:0:
432,119,55817,1,0,3:0:0:0:
432,119,55924,1,8,0:0:0:0:
357,241,56138,1,2,3:2:0:0:
305,66,56353,2,0,B|259:54|259:54|209:73,1,90.7500027694703,10|2,0:0|3:2,0:0:0:0:
107,242,56781,6,0,P|169:272|246:232,1,136.125004154205,14|0,0:0|3:0,0:0:0:0:
242,233,57210,1,10,0:0:0:0:
144,7,57424,2,0,P|126:49|142:96,1,90.7500027694703,2|8,3:2|0:0,0:0:0:0:
342,165,57853,1,2,3:2:0:0:
207,336,58067,6,0,B|113:313|113:313|67:350,1,136.125004154205,14|0,0:0|3:0,0:0:0:0:
59,363,58495,1,8,0:0:0:0:
4,151,58710,1,0,3:0:0:0:
211,215,58924,1,8,0:0:0:0:
6,289,59138,1,0,3:0:0:0:
6,289,59245,1,0,3:0:0:0:
6,289,59353,5,10,0:0:0:0:
92,89,59567,1,2,3:2:0:0:
144,299,59781,1,10,0:0:0:0:
241,104,59995,1,2,3:2:0:0:
241,104,60103,1,0,3:0:0:0:
241,104,60210,6,0,P|312:98|389:92,1,136.125004154205,12|0,0:0|3:0,0:0:0:0:
469,83,60638,2,0,P|484:130|473:173,1,90.7500027694703,8|2,0:0|3:2,0:0:0:0:
338,266,61067,2,0,P|323:219|334:176,1,90.7500027694703,2|0,0:0|3:0,0:0:0:0:
446,325,61496,1,8,0:0:0:0:
286,365,61710,1,2,0:0:0:0:
237,151,61924,6,0,P|185:130|90:171,1,136.125004154205,0|0,3:0|0:0,0:0:0:0:
56,225,62353,2,0,P|65:282|70:320,1,90.7500027694703,8|2,0:0|0:0,0:0:0:0:
69,314,62674,1,0,3:0:0:0:
69,314,62781,1,2,3:2:0:0:
255,242,62995,1,0,3:0:0:0:
255,242,63103,1,0,3:0:0:0:
255,242,63210,1,10,0:0:0:0:
83,140,63424,1,2,3:2:0:0:
256,41,63638,6,0,B|317:11|317:11|284:137,1,181.500005538941,6|10,3:2|0:0,0:0:0:0:
410,279,64281,1,2,3:2:0:0:
410,279,64388,1,0,3:0:0:0:
410,279,64495,2,0,P|446:229|456:193,1,90.7500027694703,0|0,3:0|3:0,0:0:0:0:
248,216,64924,2,0,P|261:305|270:375,1,136.125004154205,14|0,0:0|0:0,0:0:0:0:
273,384,65353,5,0,3:0:0:0:
114,262,65567,2,0,B|99:218|99:218|121:173,1,90.7500027694703,0|8,3:0|0:0,0:0:0:0:
258,36,65995,1,2,3:2:0:0:
258,36,66103,1,0,3:0:0:0:
258,36,66210,1,10,0:0:0:0:
65,89,66424,1,8,0:3:0:0:
214,220,66638,2,0,P|276:212|322:207,1,90.7500027694703,4|0,0:3|3:0,0:0:0:0:
439,61,67067,6,0,B|331:39|331:39|288:56|295:103,1,181.500005538941,6|2,3:2|0:0,0:0:0:0:
439,191,67710,1,0,3:0:0:0:
326,298,67924,2,0,B|275:327|275:327|308:183,1,181.500005538941,10|2,0:0|3:2,0:0:0:0:
198,82,68567,1,2,3:2:0:0:
71,184,68781,6,0,P|88:255|94:284,1,90.7500027694703,2|8,0:0|0:0,0:0:0:0:
216,165,69210,1,2,0:0:0:0:
85,67,69424,1,2,3:2:0:0:
236,6,69638,2,0,P|288:-2|331:12,1,90.7500027694703,10|0,0:0|3:0,0:0:0:0:
385,159,70067,2,0,P|333:167|290:153,1,90.7500027694703,2|0,0:0|3:0,0:0:0:0:
469,57,70495,6,0,B|509:166|509:166|459:243,1,181.500005538941,12|2,0:0|0:0,0:0:0:0:
343,328,71138,1,0,3:0:0:0:
404,139,71353,1,8,0:0:0:0:
499,342,71567,1,0,3:0:0:0:
323,210,71781,6,0,B|225:205|265:272|144:256,1,181.500005538941,14|0,0:0|3:0,0:0:0:0:
38,162,72424,1,0,3:0:0:0:
106,370,72638,1,2,3:2:0:0:
208,133,72853,1,0,3:0:0:0:
5,275,73067,1,10,0:0:0:0:
288,347,73281,1,10,0:0:0:0:
256,16,73924,6,0,P|251:87|246:167,1,123.75,14|0,0:0|3:0,0:0:0:0:
240,229,74353,2,0,P|289:244|331:231,1,82.5,10|0,0:0|3:0,0:0:0:0:
457,109,74781,1,10,0:0:0:0:
410,313,74995,1,0,3:0:0:0:
340,127,75210,5,10,0:0:0:0:
512,239,75424,1,2,3:2:0:0:
512,239,75531,1,0,3:0:0:0:
512,239,75638,2,0,P|508:304|506:334,1,82.5,10|0,0:0|3:0,0:0:0:0:
340,228,76067,5,10,0:0:0:0:
444,80,76281,1,2,3:2:0:0:
444,80,76388,1,0,3:0:0:0:
444,80,76495,2,0,B|485:68|485:68|528:87,1,82.5,10|0,0:0|3:0,0:0:0:0:
340,228,76924,2,0,B|299:240|299:240|256:221,1,82.5,10|0,0:0|3:0,0:0:0:0:
167,69,77353,6,0,B|136:50|136:50|160:146,1,123.75,10|0,0:0|3:0,0:0:0:0:
120,217,77778,2,0,P|81:230|42:220,1,82.5,10|0,0:0|3:0,0:0:0:0:
243,129,78203,1,10,0:0:0:0:
64,77,78416,1,0,3:0:0:0:
219,245,78629,2,0,P|212:310|210:345,1,82.5,10|0,0:0|3:0,0:0:0:0:
382,247,79055,5,10,0:0:0:0:
272,101,79282,1,2,3:2:0:0:
272,101,79389,1,0,3:0:0:0:
272,101,79496,2,0,P|223:94|172:120,1,82.5,10|0,0:0|3:0,0:0:0:0:
309,297,79924,5,14,0:0:0:0:
427,79,80138,1,14,0:0:0:0:
208,191,80353,1,14,0:0:0:0:
404,222,80567,1,0,3:0:0:0:
259,375,80780,6,0,B|163:351|163:351|138:369|93:378,1,165,6|0,3:2|3:0,0:0:0:0:
4,242,81423,1,2,3:2:0:0:
129,135,81638,2,0,P|153:179|111:253,1,123.75,10|0,0:0|0:0,0:0:0:0:
99,267,82066,5,0,3:2:0:0:
18,123,82280,1,2,3:2:0:0:
162,44,82495,2,0,P|229:56|262:62,1,82.5,2|8,0:0|0:0,0:0:0:0:
317,206,82923,5,2,3:2:0:0:
401,64,83138,1,0,3:0:0:0:
241,154,83352,2,0,B|221:190|221:190|230:235,1,82.5,10|8,0:0|0:3,0:0:0:0:
388,273,83780,2,0,B|408:237|408:237|399:192,1,82.5,4|0,0:3|3:0,0:0:0:0:
291,321,84209,5,14,0:0:0:0:
291,321,84423,2,0,P|234:328|193:336,1,82.5,0|0,3:0|3:0,0:0:0:0:
44,222,84852,1,14,0:0:0:0:
225,230,85066,1,2,3:2:0:0:
95,356,85280,1,2,3:2:0:0:
145,181,85495,2,0,P|151:129|137:94,1,82.5,14|4,0:0|0:3,0:0:0:0:
128,85,85781,6,0,L|135:42,2,27.5,8|4|0,0:3|0:3|3:0,0:0:0:0:
23,239,86138,1,10,0:0:0:0:
246,216,86352,1,10,0:0:0:0:
34,111,86566,1,10,0:0:0:0:
115,285,86781,6,0,P|167:276|200:273,1,66,0|8,3:0|0:0,0:0:0:0:
266,335,87209,1,8,0:0:0:0:
449,352,87638,6,0,P|471:304|404:209,1,173.24999471283,2|2,0:0|0:0,0:0:0:0:
318,211,88495,2,0,P|327:86|335:20,1,173.24999471283,2|2,0:0|0:0,0:0:0:0:
246,2,89352,1,2,0:1:0:0:
5,137,89995,5,2,0:0:0:0:
5,137,90209,2,0,P|11:186|14:219,1,57.7499982376099,2|2,0:0|0:0,0:0:0:0:
87,248,90638,2,0,P|81:297|78:330,1,57.7499982376099,2|2,0:0|0:0,0:0:0:0:
146,370,91066,6,0,B|253:376|191:309|321:317,1,173.24999471283,2|2,0:1|0:0,0:0:0:0:
367,383,91923,2,0,B|406:330|406:330|368:214,1,173.24999471283,2|2,0:0|0:0,0:0:0:0:
280,216,92780,1,2,0:1:0:0:
482,26,93423,5,2,0:0:0:0:
482,26,93638,2,0,P|473:79|470:106,1,57.7499982376099,2|2,0:0|3:2,0:0:0:0:
356,150,94066,2,0,P|289:163|249:95,1,123.75,14|0,0:0|0:0,0:0:0:0:
243,48,94495,6,0,P|192:41|159:59,1,74.2499977340699,6|0,3:2|3:0,0:0:0:0:
172,49,94816,1,0,3:0:0:0:
172,49,94923,1,0,3:2:0:0:
82,147,95138,1,2,3:2:0:0:
176,240,95352,2,0,P|183:305|187:337,1,74.2499977340699,2|0,3:2|3:0,0:0:0:0:
184,313,95673,1,0,3:0:0:0:
184,313,95780,1,0,3:2:0:0:
61,366,95995,1,2,3:2:0:0:
61,366,96102,1,0,3:0:0:0:
61,366,96209,6,0,P|22:331|16:261,1,111.374996601105,2|0,3:2|3:0,0:0:0:0:
46,248,96638,2,0,P|65:199|60:170,1,74.2499977340699,0|2,3:0|3:2,0:0:0:0:
35,56,97066,1,2,3:2:0:0:
35,56,97173,1,0,3:0:0:0:
35,56,97280,2,0,L|-13:67,2,37.1249988670349,0|0|8,3:0|3:0|0:0,0:0:0:0:
156,112,97709,1,2,3:2:0:0:
261,8,97923,6,0,P|313:-2|354:12,1,74.2499977340699,2|0,3:2|3:0,0:0:0:0:
333,2,98245,1,0,3:0:0:0:
333,2,98352,1,0,3:2:0:0:
428,96,98566,1,2,3:2:0:0:
304,195,98780,1,10,0:0:0:0:
462,264,98995,1,4,0:3:0:0:
462,264,99102,1,8,0:3:0:0:
462,264,99209,1,0,3:0:0:0:
428,81,99423,1,10,0:0:0:0:
193,208,99852,6,0,P|156:264|169:315,2,111.374996601105,6|6|6,3:2|3:2|3:2,0:0:0:0:
325,181,100709,1,4,0:3:0:0:
348,163,100816,1,8,0:3:0:0:
363,138,100923,1,8,0:3:0:0:
368,108,101030,1,8,0:3:0:0:
361,80,101138,1,8,0:3:0:0:
344,56,101245,1,8,0:3:0:0:
319,40,101352,5,6,3:2:0:0:
38,168,101995,1,0,3:0:0:0:
271,297,102423,5,0,3:0:0:0:
257,166,102638,1,8,0:0:0:0:
137,243,102852,2,0,P|125:286|132:317,1,66,10|0,0:0|3:2,0:0:0:0:
243,382,103280,2,0,P|311:371|338:367,1,66,0|2,3:0|3:2,0:0:0:0:
449,352,103709,1,2,3:2:0:0:
501,90,104138,5,0,3:0:0:0:
501,90,104352,2,0,P|454:68|397:100,1,99,10|0,0:0|0:0,0:0:0:0:
387,123,104780,6,0,P|391:185|396:250,1,99,0|0,3:0|0:0,0:0:0:0:
398,265,105209,1,2,0:0:0:0:
304,337,105423,2,0,B|233:336|266:294|162:291,1,132,2|0,3:2|3:0,0:0:0:0:
52,229,106066,1,10,0:0:0:0:
171,169,106280,1,2,3:2:0:0:
80,55,106495,6,0,P|38:49|0:66,1,66,0|0,3:0|0:0,0:0:0:0:
153,164,106923,1,2,0:0:0:0:
153,164,107138,2,0,B|233:146|233:146|257:172|304:177,1,132,2|8,3:2|0:0,0:0:0:0:
380,228,107780,2,0,L|424:224,3,33,8|2|2|2,0:0|0:0|0:0|0:0,0:0:0:0:
458,222,108208,5,6,3:2:0:0:
398,341,108421,1,0,0:0:0:0:
288,265,108634,2,0,P|276:221|285:183,1,74.2499977340699,8|2,0:0|3:2,0:0:0:0:
350,78,109059,1,2,3:2:0:0:
375,209,109272,1,0,0:2:0:0:
246,106,109485,2,0,P|191:117|154:125,1,74.2499977340699,8|2,0:0|0:0,0:0:0:0:
36,31,109911,5,2,3:2:0:0:
195,39,110123,1,0,0:0:0:0:
98,181,110336,2,0,B|80:149|80:149|88:109,1,74.2499977340699,8|2,0:0|0:0,0:0:0:0:
213,225,110762,2,0,P|203:275|195:316,1,74.2499977340699,2|0,3:2|3:0,0:0:0:0:
220,332,111081,1,0,3:0:0:0:
250,352,111187,1,8,0:0:0:0:
287,358,111294,1,8,0:3:0:0:
323,351,111400,1,4,0:3:0:0:
353,329,111506,1,4,0:3:0:0:
372,298,111626,6,0,P|411:283|450:289,1,74.2499977340699,14|0,0:0|0:0,0:0:0:0:
308,162,112060,1,2,3:2:0:0:
511,185,112278,1,10,0:0:0:0:
353,329,112495,1,0,3:0:0:0:
397,89,112697,1,10,0:0:0:0:
512,319,112911,1,8,0:0:0:0:
233,237,113125,1,10,0:0:0:0:
281,11,113554,6,0,L|295:111,1,98.9999969787599,12|0,0:0|0:0,0:0:0:0:
212,154,113875,2,0,L|198:55,1,98.9999969787599,8|0,0:0|0:0,0:0:0:0:
128,11,114196,1,10,0:0:0:0:
27,248,114411,6,0,L|80:239,1,49.4999984893799,0|0,3:0|3:0,0:0:0:0:
180,322,114615,1,8,0:3:0:0:
180,322,114717,1,8,0:3:0:0:
180,322,114819,2,0,L|116:313,1,49.4999984893799,4|4,0:3|0:3,0:0:0:0:
258,239,115057,6,0,B|312:235|312:235|338:254|338:254|401:252,1,136.125004154205,14|0,0:0|3:0,0:0:0:0:
484,245,115488,2,0,P|494:189|475:157,1,90.7500027694703,8|2,0:0|3:2,0:0:0:0:
284,93,115920,1,10,0:0:0:0:
426,36,116136,1,0,3:0:0:0:
324,215,116351,1,14,0:0:0:0:
186,45,116567,2,0,P|188:90|193:135,1,90.7500027694703,2|8,3:2|0:0,0:0:0:0:
164,321,116996,5,2,3:2:0:0:
30,217,117210,2,0,P|13:160|16:116,1,90.7500027694703,8|2,0:0|3:2,0:0:0:0:
13,129,117531,1,0,3:0:0:0:
13,129,117639,1,10,0:0:0:0:
177,237,117853,1,0,3:0:0:0:
20,332,118067,1,10,0:0:0:0:
137,160,118281,1,2,3:2:0:0:
232,363,118496,6,0,B|324:378|324:378|377:348,1,136.125004154205,14|0,0:0|3:0,0:0:0:0:
433,296,118924,1,10,0:0:0:0:
346,137,119139,2,0,P|335:192|356:246,1,90.7500027694703,2|8,3:2|0:0,0:0:0:0:
458,376,119567,1,0,3:0:0:0:
440,94,119781,6,0,B|374:94|374:94|336:123|336:123|247:122,1,181.500005538941,14|8,0:0|0:0,0:0:0:0:
60,53,120424,1,0,3:0:0:0:
161,245,120639,1,8,0:0:0:0:
195,30,120853,1,2,3:2:0:0:
46,167,121067,1,10,0:0:0:0:
215,181,121281,1,2,3:2:0:0:
215,181,121389,1,0,3:0:0:0:
215,181,121496,1,10,0:0:0:0:
98,295,121710,1,0,3:0:0:0:
294,375,121924,6,0,P|372:382|441:353,1,136.125004154205,14|0,0:0|3:0,0:0:0:0:
444,337,122353,1,10,0:0:0:0:
330,150,122567,2,0,P|340:224|345:269,1,90.7500027694703,2|8,3:2|0:0,0:0:0:0:
485,76,122996,1,2,3:2:0:0:
271,27,123210,6,0,B|159:62|203:-12|82:23,1,181.500005538941,14|8,0:0|0:0,0:0:0:0:
14,221,123853,1,2,3:2:0:0:
205,150,124067,1,10,0:0:0:0:
37,110,124281,1,0,3:0:0:0:
37,110,124389,1,0,3:0:0:0:
37,110,124496,1,8,0:0:0:0:
120,252,124710,1,2,3:2:0:0:
232,61,124924,2,0,P|281:41|345:48,1,90.7500027694703,10|2,0:0|3:2,0:0:0:0:
467,199,125353,6,0,P|349:212|305:218,1,136.125004154205,14|0,0:0|3:0,0:0:0:0:
308,217,125781,1,10,0:0:0:0:
131,344,125996,2,0,P|200:355|230:361,1,90.7500027694703,2|8,3:2|0:0,0:0:0:0:
227,140,126424,1,2,3:2:0:0:
31,234,126639,2,0,P|1:298|20:360,1,136.125004154205,14|0,0:0|3:0,0:0:0:0:
38,371,127067,5,8,0:0:0:0:
211,239,127281,1,2,3:2:0:0:
31,116,127496,1,8,0:0:0:0:
129,311,127710,1,0,3:0:0:0:
129,311,127817,1,0,3:0:0:0:
129,311,127924,5,10,0:0:0:0:
186,101,128139,1,8,0:3:0:0:
280,296,128353,1,8,0:0:0:0:
361,97,128567,1,2,3:2:0:0:
361,97,128674,1,0,3:0:0:0:
361,97,128781,6,0,P|421:78|491:104,1,136.125004154205,14|0,0:0|3:0,0:0:0:0:
511,196,129210,2,0,P|497:278|492:307,1,90.7500027694703,8|2,0:0|3:2,0:0:0:0:
306,355,129639,2,0,P|298:310|290:265,1,90.7500027694703,2|0,3:2|0:0,0:0:0:0:
424,116,130067,1,10,0:0:0:0:
397,280,130281,1,2,0:0:0:0:
200,157,130496,6,0,P|208:87|217:14,1,136.125004154205,0|0,3:0|0:0,0:0:0:0:
118,2,130924,2,0,P|95:48|108:96,1,90.7500027694703,8|2,0:0|3:2,0:0:0:0:
101,85,131246,1,0,3:0:0:0:
101,85,131353,1,2,3:2:0:0:
283,219,131567,1,0,3:0:0:0:
61,204,131781,1,10,0:0:0:0:
250,97,131996,1,2,3:2:0:0:
152,292,132210,6,0,P|143:366|140:398,1,90.7500027694703,6|0,3:2|3:0,0:0:0:0:
141,382,132531,1,0,3:0:0:0:
141,382,132639,1,8,0:0:0:0:
256,200,132853,1,2,3:2:0:0:
256,200,132960,1,0,3:0:0:0:
256,200,133067,1,0,3:0:0:0:
48,264,133281,1,0,3:0:0:0:
252,352,133496,6,0,B|369:333|369:333|405:352|397:392,1,181.500005538941,14|0,0:0|3:0,0:0:0:0:
462,175,134139,1,0,3:0:0:0:
253,237,134353,1,8,0:0:0:0:
466,282,134567,1,2,3:2:0:0:
466,282,134674,1,0,3:0:0:0:
466,282,134781,2,0,L|411:268,1,45.3750013847352,8|4,0:3|0:3,0:0:0:0:
306,163,134996,2,0,L|361:149,1,45.3750013847352,0|0,3:0|3:0,0:0:0:0:
495,104,135210,1,14,0:0:0:0:
390,261,135424,1,0,3:0:0:0:
327,79,135639,6,0,P|258:45|154:96,1,181.500005538941,6|2,3:2|0:0,0:0:0:0:
80,220,136281,1,0,3:0:0:0:
223,296,136496,2,0,B|274:248|274:248|249:134,1,181.500005538941,10|2,0:0|3:2,0:0:0:0:
107,219,137139,1,2,3:2:0:0:
180,376,137353,6,0,P|236:383|280:367,1,90.7500027694703,2|8,0:0|0:0,0:0:0:0:
374,200,137781,1,2,0:0:0:0:
190,221,137996,1,2,3:2:0:0:
361,384,138210,2,0,P|371:324|379:281,1,90.7500027694703,10|0,0:0|3:0,0:0:0:0:
272,122,138639,2,0,P|280:166|287:211,1,90.7500027694703,2|0,0:0|3:0,0:0:0:0:
401,45,139067,6,0,B|334:48|334:48|292:29|292:29|224:33,1,181.500005538941,2|2,3:2|3:2,0:0:0:0:
82,182,139710,1,0,3:0:0:0:
272,122,139924,1,8,0:0:0:0:
90,23,140139,1,0,3:0:0:0:
205,216,140353,6,0,B|213:331|151:279|159:387,1,181.500005538941,14|0,0:0|3:0,0:0:0:0:
315,247,140996,1,0,3:0:0:0:
117,163,141210,1,2,3:2:0:0:
243,362,141424,1,0,3:0:0:0:
261,117,141639,1,10,0:0:0:0:
24,299,141853,1,10,0:0:0:0:
209,233,142496,5,2,3:2:0:0:
256,191,156210,6,0,B|356:205|305:136|421:156,1,165,6|2,3:2|0:0,0:0:0:0:
492,258,157067,2,0,P|483:316|476:363,2,99,2|2|2,3:2|0:0|0:0,0:0:0:0:
423,166,157924,2,0,P|415:117|408:68,2,99,2|2|2,3:2|0:0|0:0,0:0:0:0:
331,242,158763,6,0,L|250:234,1,66,8|0,3:3|0:0,0:0:0:0:
234,215,159091,2,0,L|168:221,1,66,8|0,0:3|0:0,0:0:0:0:
129,228,159419,1,4,0:3:0:0:
13,201,159638,2,0,P|-21:151|15:63,1,132,6|0,3:2|0:0,0:0:0:0:
32,49,160210,2,0,P|54:57|77:68,1,44,2|2,0:0|0:0,0:0:0:0:
145,87,160495,6,0,P|175:56|252:72,2,99,2|2|2,3:2|0:0|0:0,0:0:0:0:
183,215,161352,2,0,P|153:246|76:230,2,99,2|2|2,3:2|0:0|0:0,0:0:0:0:
277,141,162209,2,0,L|317:150,3,33,2|2|2|2,0:0|0:0|0:0|0:0,0:0:0:0:
354,177,162617,2,0,P|446:166|473:163,1,99,2|0,3:2|0:0,0:0:0:0:
511,212,163045,6,0,P|523:255|490:318,1,111.374996601105,6|8,3:2|0:0,0:0:0:0:
447,325,163479,2,0,P|394:319|359:314,1,74.2499977340699,0|8,3:2|0:0,0:0:0:0:
250,261,163914,1,2,3:2:0:0:
250,261,164023,2,0,P|177:277|148:282,1,74.2499977340699,8|0,0:0|0:0,0:0:0:0:
144,277,164349,1,8,0:0:0:0:
39,192,164566,2,0,L|44:147,1,37.1249988670349,2|0,0:0|0:0,0:0:0:0:
54,76,164784,6,0,P|100:56|168:98,1,111.374996601105,10|8,0:0|0:0,0:0:0:0:
176,109,165212,2,0,P|215:122|251:110,1,74.2499977340699,0|10,3:0|0:0,0:0:0:0:
343,22,165641,2,0,L|396:27,1,37.1249988670349,2|8,3:2|0:0,0:0:0:0:
459,125,165855,2,0,L|406:130,1,37.1249988670349,8|8,0:0|0:0,0:0:0:0:
332,211,166069,1,8,0:3:0:0:
334,238,166176,1,8,0:3:0:0:
336,266,166284,1,4,0:3:0:0:
339,294,166391,1,4,0:3:0:0:
341,321,166498,6,0,P|298:339|267:333,1,74.2499977340699,6|0,3:2|0:0,0:0:0:0:
128,233,166926,1,2,3:2:0:0:
179,384,167141,1,8,0:0:0:0:
235,219,167355,2,0,P|244:158|251:102,1,111.374996601105,2|8,3:2|0:3,0:0:0:0:
253,77,167783,1,0,3:0:0:0:
116,212,167998,1,8,0:3:0:0:
341,168,168212,1,6,3:2:0:0:
441,197,185353,6,0,P|469:142|428:61,1,136.125004154205,14|0,0:0|3:0,0:0:0:0:
354,34,185781,2,0,P|280:43|233:47,1,90.7500027694703,8|2,0:0|3:2,0:0:0:0:
149,230,186210,1,10,0:0:0:0:
82,45,186424,1,0,3:0:0:0:
238,133,186638,1,14,0:0:0:0:
36,215,186852,2,0,B|21:172|21:172|38:122,1,90.7500027694703,2|8,0:0|0:0,0:0:0:0:
236,213,187281,5,2,3:2:0:0:
87,369,187495,2,0,P|35:377|-7:360,1,90.7500027694703,8|2,0:0|3:2,0:0:0:0:
0,365,187817,1,0,3:0:0:0:
0,365,187924,1,10,0:0:0:0:
122,170,188138,1,0,3:0:0:0:
195,346,188352,1,10,0:0:0:0:
28,262,188567,1,2,3:2:0:0:
238,181,188781,6,0,B|332:170|332:170|368:209,1,136.125004154205,14|0,0:0|3:0,0:0:0:0:
446,248,189210,2,0,P|458:195|447:156,1,90.7500027694703,10|2,0:0|3:2,0:0:0:0:
271,78,189638,1,8,0:0:0:0:
304,273,189852,1,0,3:0:0:0:
100,193,190067,6,0,P|65:126|119:23,1,181.500005538941,14|8,0:0|0:0,0:0:0:0:
234,211,190710,1,0,3:0:0:0:
43,296,190924,1,8,0:0:0:0:
153,122,191138,1,2,3:2:0:0:
196,333,191352,1,14,0:0:0:0:
311,147,191567,1,14,0:0:0:0:
106,228,191781,1,14,0:0:0:0:
313,302,191995,1,0,3:0:0:0:
313,302,192102,1,0,3:0:0:0:
313,302,192210,6,0,P|424:291|477:286,1,136.125004154205,14|0,0:0|3:0,0:0:0:0:
478,287,192638,1,10,0:0:0:0:
343,116,192852,2,0,B|320:157|320:157|343:206,1,90.7500027694703,2|8,3:2|0:0,0:0:0:0:
485,93,193281,1,2,3:2:0:0:
290,24,193495,6,0,B|174:51|174:51|210:-1,1,181.500005538941,14|8,0:0|0:0,0:0:0:0:
244,223,194138,1,2,3:2:0:0:
78,124,194353,2,0,P|62:70|67:32,1,90.7500027694703,10|0,0:0|3:0,0:0:0:0:
243,131,194781,1,8,0:0:0:0:
131,282,194995,1,2,3:2:0:0:
321,339,195210,2,0,P|393:336|432:310,1,90.7500027694703,10|2,0:0|3:2,0:0:0:0:
243,210,195638,6,0,B|153:195|153:195|127:207|118:233,1,136.125004154205,14|0,0:0|3:0,0:0:0:0:
114,257,196067,1,10,0:0:0:0:
11,62,196281,1,2,3:2:0:0:
11,62,196388,1,0,3:0:0:0:
11,62,196495,2,0,L|67:68,1,45.3750013847352,8|8,0:3|0:3,0:0:0:0:
155,113,196710,2,0,L|199:106,1,45.3750013847352,8|8,0:3|0:3,0:0:0:0:
337,32,196924,6,0,B|389:44|389:44|407:68|407:68|463:81,1,136.125004154205,14|8,0:0|0:0,0:0:0:0:
492,88,197352,1,0,3:0:0:0:
339,244,197567,2,0,L|327:174,1,45.3750013847352,10|8,0:0|0:0,0:0:0:0:
433,161,197781,1,8,0:0:0:0:
469,187,197888,1,8,0:0:0:0:
489,227,197995,1,8,0:0:0:0:
489,272,198102,1,8,0:0:0:0:
468,312,198210,1,2,3:2:0:0:
432,339,198317,1,0,3:0:0:0:
387,346,198424,2,0,L|326:335,1,45.3750013847352,4|4,0:3|0:3,0:0:0:0:
237,311,198638,5,4,3:3:0:0:
215,316,198745,1,4,0:3:0:0:
193,320,198852,1,8,3:3:0:0:
170,325,198960,1,8,0:3:0:0:
148,329,199067,6,0,P|114:278|132:202,1,136.125004154205,14|0,0:0|3:0,0:0:0:0:
214,166,199495,2,0,P|267:176|329:188,1,90.7500027694703,8|2,0:0|3:2,0:0:0:0:
303,182,199816,1,0,3:0:0:0:
303,182,199924,1,2,3:2:0:0:
420,33,200138,1,0,3:0:0:0:
240,47,200352,1,10,0:0:0:0:
407,153,200567,1,2,0:0:0:0:
317,10,200781,6,0,P|296:55|307:106,1,90.7500027694703,0|2,3:0|3:2,0:0:0:0:
427,296,201203,1,8,0:0:0:0:
427,296,201308,1,0,3:0:0:0:
427,296,201414,2,0,L|424:239,1,45.3750013847352,2|8,0:0|0:0,0:0:0:0:
420,160,201626,2,0,P|315:181|266:190,1,136.125004154205,2|0,3:2|3:0,0:0:0:0:
252,198,202048,1,10,0:0:0:0:
133,60,202259,1,2,3:2:0:0:
19,201,202471,6,0,P|-3:265|38:337,1,136.125004154205,14|0,0:0|3:0,0:0:0:0:
54,338,202925,1,10,0:0:0:0:
215,255,203139,1,2,3:2:0:0:
215,255,203246,1,0,3:0:0:0:
215,255,203353,1,0,3:0:0:0:
47,183,203567,1,0,3:0:0:0:
195,346,203782,6,0,B|314:326|314:326|349:343|338:390,1,181.500005538941,14|0,0:0|3:0,0:0:0:0:
228,232,204424,1,0,3:0:0:0:
404,272,204638,1,8,0:0:0:0:
328,117,204852,1,2,3:2:0:0:
328,117,204959,1,0,3:0:0:0:
328,117,205067,2,0,L|331:172,1,45.3750013847352,10|0,0:0|0:0,0:0:0:0:
418,182,205281,2,0,L|415:127,1,45.3750013847352,8|8,0:3|0:3,0:0:0:0:
407,54,205495,1,4,0:3:0:0:
407,54,205602,1,4,0:3:0:0:
407,54,205709,1,0,3:0:0:0:
225,58,205924,6,0,P|210:103|224:151,1,90.7500027694703,6|0,3:2|0:0,0:0:0:0:
118,294,206352,2,0,P|127:250|112:207,1,90.7500027694703,2|0,0:0|3:0,0:0:0:0:
23,353,206781,2,0,P|181:339|223:337,1,181.500005538941,10|2,0:0|3:2,0:0:0:0:
342,251,207424,1,2,3:2:0:0:
226,135,207638,6,0,B|206:180|206:180|237:227,1,90.7500027694703,2|8,0:0|0:0,0:0:0:0:
350,104,208067,1,2,0:0:0:0:
197,45,208281,1,2,3:2:0:0:
336,202,208495,2,0,P|409:191|451:186,1,90.7500027694703,10|0,0:0|3:0,0:0:0:0:
502,333,208924,2,0,P|457:326|412:319,1,90.7500027694703,2|0,0:0|3:0,0:0:0:0:
254,361,209352,6,0,P|201:320|242:203,1,181.500005538941,14|2,0:0|3:2,0:0:0:0:
367,146,209995,1,0,3:0:0:0:
239,43,210209,2,0,P|183:51|130:58,1,90.7500027694703,8|0,0:0|0:0,0:0:0:0:
119,59,210531,1,0,3:0:0:0:
119,59,210638,6,0,B|110:129|110:129|143:160|143:160|133:231,1,181.500005538941,14|0,0:0|3:0,0:0:0:0:
257,323,211281,1,0,3:0:0:0:
32,253,211495,1,2,3:2:0:0:
253,139,211709,1,0,3:0:0:0:
125,358,211924,1,10,0:0:0:0:
97,68,212138,1,10,0:0:0:0:
479,203,212781,6,0,P|422:178|346:218,1,123.75,14|0,0:0|3:0,0:0:0:0:
315,272,213209,2,0,P|326:339|330:370,1,82.5,10|0,0:0|3:0,0:0:0:0:
204,221,213638,1,10,0:0:0:0:
105,373,213852,1,0,3:0:0:0:
6,213,214067,5,10,0:0:0:0:
170,317,214281,1,2,3:2:0:0:
170,317,214388,1,0,3:0:0:0:
170,317,214495,2,0,P|222:322|263:310,1,82.5,10|0,0:0|3:0,0:0:0:0:
251,132,214924,5,10,0:0:0:0:
92,219,215138,1,2,3:2:0:0:
92,219,215245,1,0,3:0:0:0:
92,219,215352,2,0,P|82:289|80:320,1,82.5,10|0,0:0|3:0,0:0:0:0:
232,151,215781,2,0,P|227:109|221:69,1,82.5,10|0,0:0|3:0,0:0:0:0:
48,12,216209,6,0,B|12:49|12:49|42:136,1,123.75,14|0,0:0|3:0,0:0:0:0:
119,152,216638,2,0,P|129:104|112:72,1,82.5,10|0,0:0|3:0,0:0:0:0:
0,231,217067,1,10,0:0:0:0:
181,289,217281,1,0,3:0:0:0:
181,289,217388,1,0,3:0:0:0:
181,289,217495,2,0,P|257:283|286:282,1,82.5,10|0,0:0|3:0,0:0:0:0:
445,275,217924,5,10,0:0:0:0:
340,127,218138,1,2,3:2:0:0:
340,127,218245,1,0,3:0:0:0:
340,127,218352,2,0,P|286:111|250:112,1,82.5,10|0,0:0|3:0,0:0:0:0:
162,309,218781,5,14,0:0:0:0:
93,78,218995,1,14,0:0:0:0:
34,250,219209,1,14,0:0:0:0:
203,186,219424,1,2,3:2:0:0:
70,62,219638,6,0,B|19:41|19:41|58:163,1,165,6|0,3:2|3:0,0:0:0:0:
137,287,220281,1,2,3:2:0:0:
216,166,220495,2,0,B|300:163|254:202|351:202,1,123.75,10|0,0:0|0:0,0:0:0:0:
359,194,220924,5,2,3:2:0:0:
494,99,221138,1,2,3:2:0:0:
343,32,221352,2,0,B|322:71|322:71|338:113,1,82.5,2|8,0:0|0:0,0:0:0:0:
474,196,221781,5,2,3:2:0:0:
347,301,221995,1,0,3:0:0:0:
497,370,222209,2,0,P|505:305|509:272,1,82.5,10|8,0:0|0:3,0:0:0:0:
352,208,222638,2,0,P|356:248|362:289,1,82.5,4|0,0:3|3:0,0:0:0:0:
215,367,223067,6,0,P|192:321|191:274,1,82.5,6|0,3:2|0:0,0:0:0:0:
252,125,223495,1,0,3:0:0:0:
95,233,223709,1,2,3:2:0:0:
280,237,223924,1,2,3:2:0:0:
138,119,224138,1,2,3:2:0:0:
189,290,224352,5,2,3:2:0:0:
208,53,224567,1,0,3:0:0:0:
69,221,224781,1,0,3:0:0:0:
276,146,224993,1,2,3:2:0:0:
88,56,225206,5,2,3:2:0:0:
162,267,225419,1,2,3:2:0:0:
244,46,225632,1,2,3:2:0:0:
315,257,225844,1,2,3:2:0:0:
118,158,226057,1,2,3:2:0:0:
345,36,226270,1,2,3:2:0:0:
331,276,226483,6,0,P|320:360|318:388,1,82.5,14|0,0:0|0:0,0:0:0:0:
269,153,226911,1,0,3:0:0:0:
423,228,227125,1,2,3:2:0:0:
230,268,227340,1,2,3:2:0:0:
382,115,227554,1,0,3:0:0:0:
333,365,227768,5,10,0:0:0:0:
137,215,227983,1,10,0:0:0:0:
386,136,228197,5,10,0:0:0:0:
204,310,228411,1,10,0:0:0:0:
200,48,228625,1,10,0:0:0:0:
364,279,228840,5,10,0:0:0:0:
110,193,229054,1,10,0:0:0:0:
339,41,229268,1,10,0:0:0:0:
203,319,229483,5,10,0:0:0:0:
199,34,229697,1,10,0:0:0:0:
