osu file format v14

[General]
AudioFilename: audio.mp3
AudioLeadIn: 0
PreviewTime: 170462
Countdown: 0
SampleSet: Soft
StackLeniency: 0.6
Mode: 0
LetterboxInBreaks: 0
WidescreenStoryboard: 1

[Editor]
Bookmarks: 25931,46502,67074,87645,101360,115074,128788,142502,142610,142717,142824,142931,143038,143145,143252,143360,143467,143574,143681,143788,143895,144002,144110,144217,144324,144431,144538,144645,144752,144860,144967,145074,145181,145288,145395,145502,145610,145717,145824,145931,146038,146145,146252,146360,146467,146574,146681,146788,146895,147002,147110,147217,147324,147431,147538,147645,147752,147860,147967,148074,148181,148288,148395,148502,148610,148717,148824,148931,149038,149145,149252,149360,149467,149574,149681,149788,149895,150002,150110,150217,150324,150431,150538,150645,150752,150860,150967,151074,151181,151288,151395,151502,151610,151717,151824,151931,152038,152145,152252,152360,152467,152574,152681,152788,152895,153002,153110,153217,153324,153431,153538,153645,153752,153860,153967,154074,154181,154288,154395,154502,154610,154717,154824,154931,155038,155145,155252,155360,155467,155574,155681,155788,171645,185360,199074,212788
DistanceSpacing: 1
BeatDivisor: 4
GridSize: 32
TimelineZoom: 1.1

[Metadata]
Title:step, step
TitleUnicode:step, step
Artist:Kanzaki Elza starring ReoNa
ArtistUnicode:神崎エルザ starring ReoNa
Creator:Stratos
Version:fuju's normal
Source:ソードアート・オンライン オルタナティブ ガンゲイル・オンライン
Tags:agatsu kowari fuju rugmunch himekawa sao sword art online alternative gun gale ggo japanese jpop pop
BeatmapID:2772780
BeatmapSetID:1337889

[Difficulty]
HPDrainRate:3
CircleSize:3
OverallDifficulty:4
ApproachRate:5
SliderMultiplier:0.999999999999999
SliderTickRate:1

[Events]
//Background and Video events
0,0,"bg.jpg",0,0
//Break Periods
2,87638,93295
2,142696,155010
2,171641,184153
//Storyboard Layer 0 (Background)
//Storyboard Layer 1 (Fail)
//Storyboard Layer 2 (Pass)
//Storyboard Layer 3 (Foreground)
//Storyboard Layer 4 (Overlay)
//Storyboard Sound Samples

[TimingPoints]
211,428.571428571429,4,2,1,50,1,0
4925,-100,4,2,1,50,0,0
5353,-100,4,2,1,80,0,0
19068,-111.111111111111,4,2,1,50,0,0
19711,-111.111111111111,4,2,1,50,0,0
25282,-111.111111111111,4,2,1,60,0,0
25496,-125,4,2,1,60,0,0
25925,422.535211267606,4,2,1,65,1,0
25925,-105.263157894737,4,2,1,65,0,0
27615,476.190476190476,4,2,1,65,1,0
27615,-105.263157894737,4,2,1,65,0,0
27853,428.571428571429,4,2,1,65,1,0
28067,428.571428571429,4,2,1,65,1,0
28281,-105.263157894737,4,2,1,65,0,0
29353,428.571428571429,4,2,1,65,1,0
29353,-105.263157894737,4,2,1,65,0,0
30210,-100,4,2,1,65,0,0
32781,-111.111111111111,4,2,1,50,0,0
37495,-111.111111111111,4,2,1,50,0,0
42210,441.176470588236,4,2,1,50,1,0
42210,-111.111111111111,4,2,1,50,0,0
43092,422.535211267606,4,2,1,50,1,0
44782,410.958904109589,4,2,1,60,1,0
44782,-95.2380952380952,4,2,1,60,0,0
45398,439.56043956044,4,2,1,50,1,0
46496,428.571428571429,4,2,1,80,1,0
46496,-95.2380952380952,4,2,1,80,0,0
49925,-95.2380952380952,4,2,1,80,0,0
67067,-111.111111111111,4,2,1,70,0,0
73924,-100,4,2,1,80,0,0
77353,425.531914893617,4,2,1,80,1,0
77353,-100,4,2,1,80,0,0
79055,454.545454545455,4,2,1,80,1,0
79055,-100,4,2,1,80,0,0
79282,428.571428571429,4,2,1,80,1,0
79496,428.571428571429,4,2,1,80,1,0
79496,-100,4,2,1,80,0,0
80781,428.571428571429,4,2,1,80,1,0
80782,-100,4,2,1,80,0,0
86781,-100,4,2,2,50,0,0
88068,-142.857142857143,4,2,1,50,0,0
93852,-142.857142857143,4,2,1,60,0,0
94495,-105.263157894737,4,2,1,65,0,0
100281,-111.111111111111,4,2,1,70,0,0
101352,-111.111111111111,4,2,1,50,0,0
108209,425.531914893617,4,2,1,50,1,0
108209,-111.111111111111,4,2,1,50,0,0
111506,480,4,2,1,50,1,0
111626,434.782608695652,4,2,1,50,1,0
112495,405.405405405405,4,2,1,50,1,0
112697,428.571428571429,4,2,1,50,1,0
113554,428.571428571429,4,2,1,50,1,0
113554,-100,4,2,1,50,0,0
114196,-95.2380952380952,4,2,1,50,0,0
114411,408.163265306122,4,2,1,50,1,0
114921,545.454545454546,4,2,1,50,1,0
115055,-83.3333333333333,4,2,1,80,0,0
115057,431.654676258993,4,2,1,80,1,0
115057,-100,4,2,1,80,0,0
116782,428.571428571429,4,2,1,80,1,1
116996,-95.2380952380952,4,2,1,80,0,0
118924,-95.2380952380952,4,2,1,80,0,0
120211,-95.2380952380952,4,2,1,80,0,0
135639,-111.111111111111,4,2,1,70,0,0
155782,-111.111111111111,4,2,1,50,0,0
156210,-125,4,2,1,60,0,0
157924,419.58041958042,4,2,1,60,1,0
157924,-125,4,2,1,60,0,0
158763,437.956204379562,4,2,1,60,1,0
158763,-125,4,2,1,60,0,0
159638,428.571428571429,4,2,1,60,1,0
159638,-125,4,2,1,60,0,0
162209,408.163265306122,4,2,1,60,1,0
162209,-125,4,2,1,60,0,0
162311,-125,4,2,2,60,0,0
162617,428.571428571429,4,2,2,60,1,0
162617,-117.647058823529,4,2,2,60,0,0
163045,434.782608695652,4,2,1,70,1,0
163045,-111.111111111111,4,2,1,70,0,0
164784,428.571428571429,4,2,1,70,1,0
164784,-111.111111111111,4,2,1,70,0,0
168212,-142.857142857143,4,2,1,70,0,0
169926,-142.857142857143,4,2,1,20,0,0
171641,-142.857142857143,4,2,1,50,0,0
181926,422.535211267606,4,2,1,50,1,0
181926,-142.857142857143,4,2,1,50,0,0
183616,472.44094488189,4,2,1,50,1,0
183853,428.571428571429,4,2,1,50,1,0
185353,428.571428571429,4,2,1,90,1,0
185353,-95.2380952380952,4,2,1,90,0,0
199709,-95.2380952380952,4,2,1,90,0,0
200781,422.535211267606,4,2,1,90,1,0
201626,-95.2380952380952,4,2,1,90,0,0
202471,454.545454545455,4,2,1,90,1,0
202471,-95.2380952380952,4,2,1,90,0,0
202925,428.571428571429,4,2,1,90,1,0
203139,-95.2380952380952,4,2,1,90,0,0
204210,428.571428571429,4,2,1,90,1,0
205924,-111.111111111111,4,2,1,60,0,0
212781,-100,4,2,1,75,0,0
219638,-100,4,2,1,60,0,0
223067,-105.263157894737,4,2,1,70,0,0
224781,425.531914893617,4,2,1,50,1,0
224781,-105.263157894737,4,2,1,50,0,0
224993,-105.263157894737,4,2,1,55,0,0
225206,-105.263157894737,4,2,1,60,0,0
225419,-105.263157894737,4,2,1,65,0,0
225632,-105.263157894737,4,2,1,70,0,0
225844,-105.263157894737,4,2,1,75,0,0
226057,-105.263157894737,4,2,1,80,0,0
226270,-105.263157894737,4,2,1,85,0,0
226483,428.571428571429,4,2,1,90,1,0
226911,-105.263157894737,4,2,1,70,0,0
227768,-105.263157894737,4,2,1,50,0,0
228197,-105.263157894737,4,2,1,60,0,0
228840,-105.263157894737,4,2,1,80,0,0
229483,-105.263157894737,4,2,1,90,0,0
229911,437.956204379562,4,2,1,50,1,0
230348,465.116279069767,4,2,1,50,1,0
230813,504.201680672269,4,2,1,50,1,0
231317,540.540540540541,4,2,1,40,1,0
231857,645.161290322581,4,2,1,50,1,0
232179,566.037735849057,4,2,1,50,1,0
232462,652.173913043478,4,2,1,30,1,0

[Colours]
Combo1 : 250,180,240
Combo2 : 120,200,230
Combo3 : 255,230,130
Combo4 : 160,230,150

[HitObjects]
21,22,4711,5,8,0:0:0:0:
21,22,4925,1,14,0:0:0:0:
103,78,5353,2,0,L|83:176,1,99.9999999999999,14|10,0:0|0:0,0:0:0:0:
18,252,6211,1,10,0:0:0:0:
83,327,6639,2,0,L|131:338,1,50,10|2,0:0|3:2,0:0:0:0:
173,366,7068,1,10,0:0:0:0:
258,314,7496,2,0,L|269:265,1,50,10|2,0:0|3:2,0:0:0:0:
297,224,7925,1,10,0:0:0:0:
252,134,8353,1,10,0:0:0:0:
318,59,8782,6,0,P|350:95|399:100,1,99.9999999999999,10|10,0:0|0:0,0:0:0:0:
465,175,9639,1,10,0:0:0:0:
393,245,10068,1,10,0:0:0:0:
464,315,10496,2,0,L|452:367,1,50,10|2,0:0|3:2,0:0:0:0:
405,380,10925,1,10,0:0:0:0:
334,309,11353,2,0,L|346:257,2,50,14|14|14,0:0|0:0|0:0,0:0:0:0:
295,339,11996,5,0,3:0:0:0:
295,339,12211,2,0,P|253:311|204:307,1,99.9999999999999,14|10,0:2|0:0,0:0:0:0:
125,372,13068,1,10,0:0:0:0:
48,307,13496,2,0,P|38:283|38:258,1,50,10|2,0:0|3:2,0:0:0:0:
57,212,13925,1,10,0:0:0:0:
146,166,14353,2,0,P|155:142|155:117,1,50,10|2,0:0|3:2,0:0:0:0:
122,80,14782,2,0,P|112:56|112:31,1,50,10|8,0:0|0:3,0:0:0:0:
153,2,15211,1,10,0:0:0:0:
240,50,15639,6,0,L|336:77,1,99.9999999999999,14|0,0:2|3:0,0:0:0:0:
385,66,16282,1,2,3:2:0:0:
385,66,16496,2,0,P|394:42|394:17,2,50,10|2|10,0:0|3:2|0:0,0:0:0:0:
438,150,17353,1,0,3:0:0:0:
438,150,17568,2,0,P|447:173|447:198,1,50,2|10,3:2|0:0,0:0:0:0:
473,246,17996,1,2,3:2:0:0:
473,246,18211,2,0,P|472:270|463:294,2,50,10|10|10,0:0|0:0|0:0,0:0:0:0:
383,252,19068,6,0,L|241:286,1,134.999995880127,6|2,3:2|0:0,0:0:0:0:
215,310,19925,1,2,0:0:0:0:
102,234,20568,1,2,0:0:0:0:
102,234,20782,2,0,L|90:277,1,44.999998626709,2|0,0:1|0:0,0:0:0:0:
8,254,21425,1,2,0:0:0:0:
8,254,21639,2,0,L|27:166,1,89.999997253418,2|2,0:0|0:0,0:0:0:0:
64,138,22282,1,2,0:0:0:0:
64,138,22496,2,0,L|75:94,1,44.999998626709,2|0,0:1|0:0,0:0:0:0:
137,29,23139,5,2,0:0:0:0:
137,29,23353,2,0,P|183:77|249:74,1,134.999995880127,2|2,0:0|0:0,0:0:0:0:
283,47,24211,2,0,L|326:57,1,44.999998626709,2|0,0:1|0:0,0:0:0:0:
418,42,24853,1,2,0:0:0:0:
418,42,25068,2,0,L|428:-1,2,44.999998626709,2|2|14,0:0|3:2|0:0,0:0:0:0:
469,124,25925,5,14,0:0:0:0:
469,124,26136,2,0,P|433:157|443:218,1,94.9999974632263,0|2,3:0|3:2,0:0:0:0:
473,234,26770,1,10,0:0:0:0:
473,234,26981,2,0,L|453:326,1,94.9999974632263,0|2,3:0|3:2,0:0:0:0:
444,368,27615,1,10,0:0:0:0:
326,278,28281,1,2,3:2:0:0:
326,278,28495,2,0,P|294:312|248:311,1,94.9999974632263,10|8,0:0|0:0,0:0:0:0:
205,291,29138,1,2,3:2:0:0:
205,291,29353,2,0,L|219:197,1,94.9999974632263,10|8,0:0|0:0,0:0:0:0:
184,103,30210,6,0,B|146:138|146:138|98:132,1,99.9999999999999,10|8,0:0|0:3,0:0:0:0:
50,115,30853,1,2,3:2:0:0:
50,115,31067,2,0,L|61:59,1,50,2|12,0:0|0:0,0:0:0:0:
71,17,31495,1,12,0:0:0:0:
170,9,31924,2,0,L|219:17,1,50,10|2,0:0|3:2,0:0:0:0:
258,49,32353,2,0,L|307:57,1,50,10|2,0:2|3:2,0:0:0:0:
345,33,32781,6,0,P|384:82|376:155,1,134.999995880127,6|0,3:2|3:0,0:0:0:0:
432,274,34067,1,8,0:0:0:0:
432,274,34281,2,0,P|389:258|345:253,1,89.999997253418,8|0,0:0|3:0,0:0:0:0:
309,279,34924,1,2,3:2:0:0:
309,279,35138,1,2,3:2:0:0:
205,365,35781,5,2,3:2:0:0:
205,365,35995,2,0,P|181:328|186:284,1,89.999997253418,2|0,0:0|0:0,0:0:0:0:
212,248,36638,2,0,L|221:203,1,44.999998626709,2|2,0:0|3:2,0:0:0:0:
154,93,37495,1,10,0:0:0:0:
154,93,37710,1,2,3:2:0:0:
32,146,38353,1,2,3:2:0:0:
32,146,38568,2,0,P|9:109|12:65,1,89.999997253418,2|12,3:2|0:0,0:0:0:0:
44,33,39210,1,12,0:0:0:0:
128,2,39638,6,0,P|161:32|205:35,1,89.999997253418,6|8,3:2|0:0,0:0:0:0:
244,58,40281,1,2,3:2:0:0:
244,58,40495,2,0,P|276:27|320:24,1,89.999997253418,2|8,3:2|0:0,0:0:0:0:
362,41,41138,1,2,3:2:0:0:
362,41,41353,1,2,3:2:0:0:
460,125,41995,1,8,0:3:0:0:
460,125,42210,2,0,L|433:231,1,89.999997253418,8|8,0:3|0:3,0:0:0:0:
422,254,42871,1,8,0:3:0:0:
422,254,43092,1,6,3:2:0:0:
106,369,44782,6,0,L|95:317,1,52.4999983978271,8|8,0:0|0:0,0:0:0:0:
57,281,45192,2,0,L|46:229,1,52.4999983978271,8|10,0:0|0:0,0:0:0:0:
17,27,46496,5,14,0:0:0:0:
17,27,46710,2,0,P|52:63|104:63,1,104.999996795654,2|2,0:0|3:2,0:0:0:0:
145,30,47353,2,0,L|196:42,1,52.4999983978271,10|0,0:0|0:0,0:0:0:0:
248,66,47781,1,14,0:0:0:0:
248,66,47996,1,2,0:0:0:0:
310,150,48424,1,2,3:2:0:0:
262,245,48853,1,2,3:2:0:0:
262,245,49067,2,0,L|153:226,1,104.999996795654,10|10,0:0|0:0,0:0:0:0:
110,224,49710,1,2,3:2:0:0:
110,224,49924,1,10,0:0:0:0:
48,310,50353,5,10,0:0:0:0:
48,310,50567,2,0,L|151:328,1,104.999996795654,2|0,3:2|3:0,0:0:0:0:
178,373,51210,2,0,P|219:343|270:348,1,104.999996795654,14|8,0:0|0:0,0:0:0:0:
320,378,51853,1,0,3:0:0:0:
320,378,52067,1,8,0:0:0:0:
407,325,52496,2,0,L|396:273,1,52.4999983978271,10|2,0:0|3:2,0:0:0:0:
425,230,52924,2,0,L|414:178,1,52.4999983978271,10|0,0:0|3:0,0:0:0:0:
433,129,53353,1,14,0:0:0:0:
369,44,53781,5,10,0:0:0:0:
369,44,53996,2,0,P|335:81|284:85,1,104.999996795654,2|2,3:2|3:2,0:0:0:0:
239,58,54638,2,0,L|134:47,1,104.999996795654,14|8,0:0|0:0,0:0:0:0:
86,52,55281,1,2,3:2:0:0:
86,52,55496,2,0,L|73:102,1,52.4999983978271,10|0,0:0|3:0,0:0:0:0:
13,190,56138,1,2,3:2:0:0:
13,190,56353,2,0,L|23:241,1,52.4999983978271,10|2,0:0|3:2,0:0:0:0:
32,293,56781,1,14,0:0:0:0:
140,281,57210,5,10,0:0:0:0:
140,281,57425,2,0,L|153:176,1,104.999996795654,2|2,3:2|3:2,0:0:0:0:
179,132,58067,2,0,P|214:95|265:99,1,104.999996795654,14|8,0:0|0:0,0:0:0:0:
308,137,58710,1,0,3:0:0:0:
308,137,58924,1,8,0:0:0:0:
388,190,59353,2,0,L|379:241,1,52.4999983978271,10|2,0:0|3:2,0:0:0:0:
400,295,59781,5,10,0:0:0:0:
400,295,59996,2,0,P|351:279|307:304,1,104.999996795654,2|2,3:2|0:0,0:0:0:0:
230,374,60853,1,2,3:2:0:0:
230,374,61067,2,0,L|124:355,1,104.999996795654,2|8,0:0|0:0,0:0:0:0:
78,334,61710,1,2,0:0:0:0:
130,242,62138,1,2,3:2:0:0:
45,184,62567,1,2,0:0:0:0:
45,184,62781,2,0,P|22:137|31:86,1,104.999996795654,2|10,3:2|0:0,0:0:0:0:
64,45,63424,1,2,3:2:0:0:
64,45,63638,1,6,3:2:0:0:
148,108,64067,5,10,0:0:0:0:
148,108,64281,2,0,B|187:75|187:75|238:91,1,104.999996795654,2|0,3:2|3:0,0:0:0:0:
276,127,64924,2,0,P|264:177|260:230,1,104.999996795654,14|0,0:0|3:0,0:0:0:0:
280,279,65567,1,0,3:0:0:0:
366,346,65996,1,2,3:2:0:0:
366,346,66210,2,0,P|377:323|382:297,1,52.4999983978271,10|8,0:0|0:3,0:0:0:0:
419,259,66638,2,0,P|414:233|402:209,1,52.4999983978271,4|0,0:3|3:0,0:0:0:0:
385,168,67067,6,0,P|416:136|460:135,2,89.999997253418,6|2|10,3:2|0:0|0:0,0:0:0:0:
316,109,68353,2,0,L|271:101,1,44.999998626709,2|2,3:2|3:2,0:0:0:0:
227,92,68781,1,2,0:0:0:0:
175,18,69210,2,0,L|130:10,1,44.999998626709,2|2,0:0|3:2,0:0:0:0:
86,1,69638,1,10,0:0:0:0:
26,68,70067,1,2,0:0:0:0:
92,129,70496,6,0,L|74:217,1,89.999997253418,12|2,0:0|0:0,0:0:0:0:
61,262,71138,1,0,3:0:0:0:
61,262,71353,1,8,0:0:0:0:
117,329,71781,2,0,P|158:311|203:315,1,89.999997253418,14|0,0:0|3:0,0:0:0:0:
240,349,72424,1,0,3:0:0:0:
240,349,72638,2,0,P|280:366|325:362,1,89.999997253418,2|10,3:2|0:0,0:0:0:0:
362,337,73281,1,10,0:0:0:0:
484,250,73924,6,0,P|451:213|453:165,1,99.9999999999999,14|10,0:0|0:0,0:0:0:0:
503,78,74782,1,10,0:0:0:0:
425,15,75210,2,0,L|376:26,1,50,10|2,0:0|3:2,0:0:0:0:
335,54,75639,1,10,0:0:0:0:
256,115,76067,2,0,L|207:103,1,50,10|2,0:0|3:2,0:0:0:0:
166,76,76496,1,10,0:0:0:0:
98,149,76924,1,10,0:0:0:0:
177,210,77353,6,0,B|204:252|204:252|187:299,1,99.9999999999999,10|10,0:0|0:0,0:0:0:0:
118,374,78204,1,10,0:0:0:0:
43,306,78629,1,10,0:0:0:0:
101,230,79055,2,0,L|89:178,1,50,10|2,0:0|3:2,0:0:0:0:
42,165,79496,1,10,0:0:0:0:
110,91,79924,2,0,L|98:39,2,50,14|14|14,0:0|0:0|0:0,0:0:0:0:
162,108,80567,5,0,3:0:0:0:
162,108,80782,2,0,P|202:139|249:129,1,99.9999999999999,6|0,3:2|3:0,0:0:0:0:
302,47,81638,1,10,0:0:0:0:
383,105,82067,2,0,L|369:159,1,50,0|2,3:2|3:2,0:0:0:0:
358,201,82496,1,2,0:0:0:0:
308,287,82923,2,0,L|254:273,1,50,2|0,3:2|3:0,0:0:0:0:
225,311,83352,2,0,L|171:297,1,50,10|8,0:0|0:3,0:0:0:0:
128,314,83782,1,4,0:3:0:0:
63,237,84210,6,0,P|47:191|72:149,1,99.9999999999999,14|0,0:0|3:0,0:0:0:0:
114,120,84853,1,14,0:0:0:0:
114,120,85067,2,0,L|106:70,2,50,2|2|14,3:2|3:2|0:0,0:0:0:0:
210,162,85923,1,0,3:0:0:0:
210,162,86137,2,0,L|202:211,1,50,10|10,0:0|0:0,0:0:0:0:
233,257,86566,1,10,0:0:0:0:
233,257,86780,2,0,L|225:306,2,50,0|8|8,3:0|0:0|0:0,0:0:0:0:
0,62,94495,6,0,P|47:57|94:52,1,94.9999974632263,6|0,3:2|3:2,0:0:0:0:
141,72,95138,1,2,3:2:0:0:
141,72,95352,2,0,L|124:165,1,94.9999974632263,2|0,3:2|3:2,0:0:0:0:
36,204,96209,2,0,P|8:240|18:285,1,94.9999974632263,2|0,3:2|3:0,0:0:0:0:
38,334,96852,1,2,3:2:0:0:
38,334,97066,2,0,L|131:319,1,94.9999974632263,2|8,3:2|0:0,0:0:0:0:
215,364,97923,6,0,L|308:350,1,94.9999974632263,2|0,3:2|3:2,0:0:0:0:
357,336,98566,1,2,3:2:0:0:
357,336,98781,2,0,L|364:289,1,47.4999987316131,10|4,0:0|0:3,0:0:0:0:
438,228,99423,1,10,0:0:0:0:
438,228,99638,2,0,L|445:181,1,47.4999987316131,0|6,0:0|3:2,0:0:0:0:
386,108,100281,1,8,0:0:0:0:
386,108,100495,2,0,L|341:114,1,44.999998626709,6|4,3:2|0:3,0:0:0:0:
311,148,100923,2,0,L|266:155,1,44.999998626709,8|8,0:3|0:3,0:0:0:0:
225,138,101352,6,0,P|185:86|200:22,1,134.999995880127,6|0,3:2|3:0,0:0:0:0:
79,81,102638,1,8,0:0:0:0:
79,81,102852,2,0,P|102:118|98:164,1,89.999997253418,8|0,0:0|3:0,0:0:0:0:
77,204,103495,1,2,3:2:0:0:
77,204,103709,1,2,3:2:0:0:
66,338,104352,5,10,0:0:0:0:
66,338,104566,2,0,B|101:309|101:309|144:320,1,89.999997253418,2|0,0:0|0:0,0:0:0:0:
183,353,105209,2,0,L|243:365,1,44.999998626709,2|2,0:0|3:2,0:0:0:0:
362,334,106066,1,10,0:0:0:0:
362,334,106281,1,2,3:2:0:0:
287,228,106923,1,2,0:0:0:0:
287,228,107138,2,0,P|265:189|273:146,1,89.999997253418,2|8,3:2|0:0,0:0:0:0:
311,123,107781,1,8,0:0:0:0:
359,46,108209,6,0,P|326:15|282:12,1,89.999997253418,6|8,3:2|0:0,0:0:0:0:
247,39,108847,1,2,3:2:0:0:
247,39,109060,2,0,L|159:58,1,89.999997253418,2|8,3:2|0:0,0:2:0:0:
118,70,109698,1,2,0:0:0:0:
118,70,109911,1,2,3:2:0:0:
36,178,110549,1,2,0:0:0:0:
36,178,110762,2,0,P|3:205|4:249,1,89.999997253418,2|8,3:2|0:0,0:0:0:0:
25,294,111400,1,4,0:3:0:0:
25,294,111626,1,14,0:0:0:0:
107,360,112060,5,2,3:2:0:0:
107,360,112278,2,0,L|161:349,1,50,10|0,0:0|3:0,0:0:0:0:
199,367,112697,2,0,L|253:356,1,50,10|8,0:0|0:0,0:0:0:0:
295,373,113125,1,10,0:0:0:0:
382,324,113554,6,0,L|398:217,1,99.9999999999999,12|10,0:0|0:0,0:0:0:0:
409,176,114196,2,0,P|373:140|323:142,1,102.99999913559,10|8,0:0|0:3,0:0:0:0:
283,170,114819,1,4,0:3:0:0:
204,99,115272,1,2,0:0:0:0:
263,19,115704,1,2,3:2:0:0:
263,19,115920,2,0,L|361:36,1,99.9999999999999,10|14,0:0|0:0,0:0:0:0:
410,47,116567,1,2,3:2:0:0:
351,134,116996,1,2,3:2:0:0:
442,196,117424,5,2,3:2:0:0:
442,196,117639,2,0,P|405:232|410:288,1,104.999996795654,10|10,0:0|0:0,0:0:0:0:
441,327,118282,1,2,3:2:0:0:
441,327,118496,1,14,0:0:0:0:
354,384,118924,5,10,0:0:0:0:
354,384,119139,2,0,P|310:348|252:355,1,104.999996795654,2|0,3:2|3:0,0:0:0:0:
218,323,119782,2,0,L|233:219,1,104.999996795654,14|8,0:0|0:0,0:0:0:0:
243,171,120424,1,0,3:0:0:0:
243,171,120639,1,8,0:0:0:0:
208,71,121067,2,0,L|156:81,1,52.4999983978271,10|2,0:0|3:2,0:0:0:0:
115,113,121496,2,0,L|63:123,1,52.4999983978271,10|0,0:0|3:0,0:0:0:0:
27,161,121924,1,14,0:0:0:0:
99,244,122353,5,10,0:0:0:0:
99,244,122567,2,0,P|131:282|122:332,1,104.999996795654,2|2,3:2|3:2,0:0:0:0:
106,383,123210,2,0,L|210:372,1,104.999996795654,14|8,0:0|0:0,0:0:0:0:
259,348,123853,1,2,3:2:0:0:
259,348,124067,2,0,B|250:296,1,52.4999983978271,10|0,0:0|3:0,0:0:0:0:
241,195,124710,1,2,3:2:0:0:
241,195,124924,2,0,L|250:143,1,52.4999983978271,10|2,0:0|3:2,0:0:0:0:
267,93,125353,1,14,0:0:0:0:
370,63,125782,5,10,0:0:0:0:
370,63,125996,2,0,L|473:81,1,104.999996795654,2|2,3:2|3:2,0:0:0:0:
500,126,126639,2,0,P|516:174|496:229,1,104.999996795654,14|8,0:0|0:0,0:0:0:0:
469,268,127282,1,2,3:2:0:0:
469,268,127496,1,8,0:0:0:0:
412,354,127924,2,0,P|391:340|365:338,1,52.4999983978271,10|8,0:0|0:3,0:0:0:0:
317,352,128353,1,8,0:0:0:0:
317,352,128567,2,0,L|326:247,1,104.999996795654,2|2,3:2|3:2,0:0:0:0:
351,149,129424,5,2,3:2:0:0:
351,149,129639,2,0,P|312:181|261:174,1,104.999996795654,2|10,3:2|0:0,0:0:0:0:
218,144,130282,1,2,0:0:0:0:
254,45,130710,1,2,3:2:0:0:
158,13,131139,1,2,3:2:0:0:
158,13,131353,2,0,P|114:39|63:34,1,104.999996795654,2|10,3:2|0:0,0:0:0:0:
21,9,131996,1,2,3:2:0:0:
21,9,132210,1,6,3:2:0:0:
25,118,132639,5,8,0:0:0:0:
25,118,132853,2,0,L|5:221,1,104.999996795654,2|0,3:2|3:0,0:0:0:0:
15,274,133496,2,0,B|56:244|56:244|107:259,1,104.999996795654,14|0,0:0|3:0,0:0:0:0:
150,297,134139,1,0,3:0:0:0:
150,297,134353,1,8,0:0:0:0:
233,360,134782,2,0,L|284:370,1,52.4999983978271,8|0,0:3|3:0,0:0:0:0:
331,346,135210,2,0,L|382:356,1,52.4999983978271,14|0,0:0|3:0,0:0:0:0:
433,342,135639,6,0,P|456:305|448:262,2,89.999997253418,6|2|10,3:2|0:0|0:0,0:0:0:0:
362,286,136924,2,0,L|353:241,1,44.999998626709,2|2,3:2|3:2,0:0:0:0:
342,198,137353,1,2,0:0:0:0:
411,141,137782,2,0,L|402:96,1,44.999998626709,2|2,0:0|3:2,0:0:0:0:
391,53,138211,1,10,0:0:0:0:
310,93,138639,1,2,0:0:0:0:
241,32,139067,6,0,P|202:13|158:19,1,89.999997253418,2|2,3:2|3:2,0:0:0:0:
125,50,139710,1,0,3:0:0:0:
125,50,139924,1,8,0:0:0:0:
53,104,140353,2,0,L|65:207,1,89.999997253418,14|0,0:0|3:0,0:0:0:0:
39,233,140996,1,0,3:0:0:0:
39,233,141210,2,0,L|51:336,1,89.999997253418,2|10,3:2|0:0,0:0:0:0:
52,367,141853,1,10,0:0:0:0:
138,263,142496,5,2,3:2:0:0:
38,9,156210,6,0,L|24:87,1,79.9999999999999,6|0,3:2|0:0,0:0:0:0:
49,134,156853,1,2,0:0:0:0:
49,134,157067,2,0,L|38:193,1,59.9999999999999,2|2,3:2|0:0,0:0:0:0:
88,265,157710,1,2,0:0:0:0:
88,265,157924,2,0,P|62:280|33:279,2,59.9999999999999,2|2|2,3:2|0:0|0:0,0:0:0:0:
120,232,158763,2,0,L|198:248,1,79.9999999999999,8|0,3:3|0:0,0:0:0:0:
283,209,159638,6,0,P|304:176|305:137,1,79.9999999999999,6|0,3:2|0:0,0:0:0:0:
282,95,160280,1,2,0:0:0:0:
282,95,160495,2,0,L|222:105,1,59.9999999999999,2|2,3:2|0:0,0:0:0:0:
209,23,161138,1,2,0:0:0:0:
209,23,161353,2,0,L|268:12,2,59.9999999999999,2|2|2,3:2|0:0|0:0,0:0:0:0:
168,39,162209,2,0,P|130:22|89:25,1,79.9999999999999,2|2,0:0|3:2,0:0:0:0:
23,84,163045,6,0,L|43:171,1,89.999997253418,6|0,3:2|3:2,0:0:0:0:
61,218,163697,1,8,0:0:0:0:
61,218,163914,1,2,3:2:0:0:
132,330,164566,1,2,0:0:0:0:
132,330,164784,2,0,P|178:298|209:308,1,89.999997253418,10|0,0:0|3:0,0:0:0:0:
248,335,165426,1,10,0:0:0:0:
248,335,165641,1,2,3:2:0:0:
316,276,166069,1,8,0:3:0:0:
256,208,166498,6,0,B|233:168|233:168|248:127,1,89.999997253418,6|2,3:2|3:2,0:0:0:0:
269,89,167141,1,8,0:0:0:0:
269,89,167355,2,0,L|334:103,2,67.4999979400635,2|8|8,3:2|0:3|0:3,0:0:0:0:
263,54,168212,6,0,B|191:27|127:74|149:113|90:164|14:125,1,279.999991455078,6|0,3:2|0:0,0:0:0:0:
36,383,185353,5,14,0:0:0:0:
36,383,185567,2,0,P|27:332|11:282,1,104.999996795654,2|2,0:0|3:2,0:0:0:0:
0,233,186210,2,0,B|38:198|38:198|88:213,1,104.999996795654,10|14,0:0|0:0,0:0:0:0:
131,244,186853,1,2,0:0:0:0:
223,195,187281,1,2,3:2:0:0:
152,127,187710,1,2,3:2:0:0:
152,127,187924,2,0,P|125:83|140:34,1,104.999996795654,10|10,0:0|0:0,0:0:0:0:
189,12,188567,1,2,3:2:0:0:
189,12,188781,1,14,0:0:0:0:
274,81,189210,5,10,0:0:0:0:
274,81,189424,2,0,P|326:87|374:106,1,104.999996795654,2|0,3:2|3:0,0:0:0:0:
405,149,190067,2,0,P|437:187|424:236,1,104.999996795654,14|8,0:0|0:0,0:0:0:0:
395,281,190710,1,0,3:0:0:0:
395,281,190924,1,8,0:0:0:0:
307,339,191353,2,0,L|255:328,1,52.4999983978271,14|14,0:0|0:0,0:0:0:0:
219,290,191781,2,0,L|229:238,1,52.4999983978271,14|0,0:0|3:0,0:0:0:0:
243,187,192210,1,14,0:0:0:0:
313,109,192638,5,10,0:0:0:0:
313,109,192853,2,0,P|278:71|227:72,1,104.999996795654,2|2,3:2|3:2,0:0:0:0:
182,99,193495,2,0,P|147:136|96:135,1,104.999996795654,14|8,0:0|0:0,0:0:0:0:
21,208,194353,2,0,P|38:257|45:309,1,104.999996795654,10|8,0:0|0:0,0:0:0:0:
80,355,194995,1,2,3:2:0:0:
80,355,195210,2,0,L|131:345,1,52.4999983978271,10|2,0:0|3:2,0:0:0:0:
182,333,195638,1,14,0:0:0:0:
277,286,196067,5,10,0:0:0:0:
277,286,196282,2,0,B|305:241|305:241|285:192,1,104.999996795654,2|8,3:2|0:3,0:0:0:0:
246,157,196924,2,0,L|265:54,1,104.999996795654,14|0,0:0|3:0,0:0:0:0:
282,6,197567,1,10,0:0:0:0:
282,6,197781,1,8,0:0:0:0:
180,33,198210,2,0,L|169:85,1,52.4999983978271,10|4,0:0|0:3,0:0:0:0:
139,128,198638,5,4,3:3:0:0:
139,128,198853,2,0,P|87:129|47:161,1,104.999996795654,8|0,3:3|0:0,0:0:0:0:
88,264,199709,1,2,3:2:0:0:
88,264,199924,2,0,P|139:262|179:230,1,104.999996795654,2|10,3:2|0:0,0:0:0:0:
212,188,200567,1,2,0:0:0:0:
291,249,200992,1,2,3:2:0:0:
385,209,201414,1,2,0:0:0:0:
385,209,201626,2,0,P|407:162|398:111,1,104.999996795654,2|10,3:2|0:0,0:0:0:0:
368,75,202259,1,2,3:2:0:0:
368,75,202471,1,14,0:0:0:0:
290,11,202925,5,10,0:0:0:0:
290,11,203139,2,0,P|267:57|276:108,1,104.999996795654,2|0,3:2|3:0,0:0:0:0:
275,161,203782,2,0,P|237:195|187:187,1,104.999996795654,14|0,0:0|3:0,0:0:0:0:
154,157,204424,1,0,3:0:0:0:
154,157,204638,1,8,0:0:0:0:
61,191,205067,2,0,P|71:213|78:237,1,50,10|8,0:0|0:3,0:0:0:0:
113,270,205495,2,0,P|109:294|98:317,1,50,4|0,0:3|3:0,0:0:0:0:
88,361,205924,6,0,L|1:340,2,89.999997253418,6|2|10,3:2|0:0|0:0,0:0:0:0:
176,380,207210,2,0,L|220:372,1,44.999998626709,2|2,3:2|3:2,0:0:0:0:
263,359,207638,1,2,0:0:0:0:
294,275,208067,2,0,L|249:267,1,44.999998626709,2|2,0:0|3:2,0:0:0:0:
207,255,208495,1,10,0:0:0:0:
151,184,208924,1,2,0:0:0:0:
222,129,209353,6,0,L|204:40,1,89.999997253418,14|2,0:0|3:2,0:0:0:0:
233,7,209995,1,0,3:0:0:0:
233,7,210210,1,8,0:0:0:0:
320,26,210638,2,0,L|337:114,1,89.999997253418,14|0,0:0|3:0,0:0:0:0:
378,143,211281,1,0,3:0:0:0:
378,143,211495,2,0,L|395:231,1,89.999997253418,2|10,3:2|0:0,0:0:0:0:
428,261,212138,1,10,0:0:0:0:
366,326,212567,5,2,0:0:0:0:
366,326,212781,2,0,P|324:298|275:298,1,99.9999999999999,14|10,0:0|0:0,0:0:0:0:
201,366,213639,1,10,0:0:0:0:
106,329,214067,2,0,P|96:307|95:282,1,50,10|2,0:0|3:2,0:0:0:0:
112,235,214496,1,10,0:0:0:0:
176,158,214924,2,0,P|186:135|187:110,1,50,10|2,0:0|3:2,0:0:0:0:
171,63,215353,1,10,0:0:0:0:
77,26,215781,1,10,0:0:0:0:
11,101,216210,6,0,P|27:148|32:197,1,99.9999999999999,14|10,0:0|0:0,0:0:0:0:
99,272,217067,1,10,0:0:0:0:
188,226,217496,1,10,0:0:0:0:
264,289,217924,2,0,P|285:277|310:275,1,50,10|2,0:0|3:2,0:0:0:0:
357,291,218353,1,10,0:0:0:0:
446,335,218781,2,0,L|457:383,2,50,14|14|14,0:0|0:0|0:0,0:0:0:0:
486,305,219424,5,2,3:2:0:0:
486,305,219639,2,0,P|512:265|495:220,1,99.9999999999999,6|0,3:2|3:0,0:0:0:0:
414,161,220496,1,10,0:0:0:0:
464,74,220924,2,0,L|416:57,1,50,2|2,3:2|3:2,0:0:0:0:
370,37,221353,1,2,0:0:0:0:
290,96,221781,2,0,L|242:112,1,50,2|0,3:2|3:0,0:0:0:0:
199,86,222210,2,0,L|151:102,1,50,10|8,0:0|0:3,0:0:0:0:
103,88,222639,1,4,0:3:0:0:
43,161,223067,6,0,P|61:204|68:251,1,94.9999974632263,6|0,3:2|3:0,0:0:0:0:
53,299,223710,1,2,3:2:0:0:
53,299,223924,2,0,L|6:310,2,47.4999987316131,2|2|2,3:2|3:2|3:2,0:0:0:0:
142,346,224781,1,0,3:0:0:0:
142,346,224993,2,0,L|189:357,1,47.4999987316131,2|2,3:2|3:2,0:0:0:0:
231,334,225419,1,2,3:2:0:0:
231,334,225633,2,0,L|278:345,1,47.4999987316131,2|2,3:2|3:2,0:0:0:0:
319,325,226057,2,0,P|331:304|332:280,2,47.4999987316131,2|2|14,3:2|3:2|0:0,0:0:0:0:
247,264,226911,6,0,L|236:160,1,94.9999974632263,0|2,3:0|3:2,0:0:0:0:
199,150,227554,1,0,3:0:0:0:
199,150,227768,2,0,L|188:46,1,94.9999974632263,10|10,0:0|0:0,0:0:0:0:
218,18,228411,2,0,L|265:24,1,47.4999987316131,10|10,0:0|0:0,0:0:0:0:
301,55,228840,1,10,0:0:0:0:
301,55,229054,2,0,L|348:61,1,47.4999987316131,10|10,0:0|0:0,0:0:0:0:
390,94,229483,1,10,0:0:0:0:
390,94,229697,1,10,0:0:0:0:
