osu file format v14

[General]
AudioFilename: audio.mp3
AudioLeadIn: 0
PreviewTime: 52539
Countdown: 0
SampleSet: Soft
StackLeniency: 0.5
Mode: 0
LetterboxInBreaks: 0
WidescreenStoryboard: 0

[Editor]
Bookmarks: 15142,33672,52495,71319,99554,118378,137201,173672,193672,204260,227789
DistanceSpacing: 3.4
BeatDivisor: 4
GridSize: 8
TimelineZoom: 2.799999

[Metadata]
Title:Dancer in the Discord
TitleUnicode:Dancer in the Discord
Artist:Kanzaki Elza starring ReoNa
ArtistUnicode:神崎エルザ starring ReoNa
Creator:Kibbleru
Version:Masquerade
Source:ソードアート・オンライン オルタナティブ ガンゲイル・オンライン
Tags:草野華余子 毛蟹 堀江晶 Shota Horie Hair Crab Hanako Kusano LIVE LAB Japanese coco cococolaco amiya sparhten loli catgirl deca agatsu technica Rialkuu j rock Prologue sword art online alternative gun gale ggo toadnica
BeatmapID:2318096
BeatmapSetID:1109271

[Difficulty]
HPDrainRate:6
CircleSize:4
OverallDifficulty:9
ApproachRate:9.3
SliderMultiplier:1.8
SliderTickRate:1

[Events]
//Background and Video events
0,0,"76424724_p0.jpg",0,0
//Break Periods
2,193734,197591
//Storyboard Layer 0 (Background)
//Storyboard Layer 1 (Fail)
//Storyboard Layer 2 (Pass)
//Storyboard Layer 3 (Foreground)
//Storyboard Layer 4 (Overlay)
//Storyboard Sound Samples

[TimingPoints]
793,294.117647058824,4,2,1,50,1,0
5498,-100,4,1,1,70,0,0
15204,-142.857142857143,4,2,1,40,0,0
19395,-142.857142857143,4,2,1,25,0,0
19469,-142.857142857143,4,2,1,33,0,0
19543,-142.857142857143,4,2,1,40,0,0
21969,-142.857142857143,4,2,1,50,0,0
24322,-111.111111111111,4,1,1,50,0,0
31381,-111.111111111111,4,2,1,60,0,0
33734,-125,4,2,1,50,0,0
37851,-166.666666666667,4,2,1,50,0,0
38440,-125,4,2,1,50,0,0
43145,-100,4,1,1,60,0,0
50204,-71.4285714285714,4,1,1,60,0,0
52557,-90.9090909090909,4,1,1,70,0,1
58734,-83.3333333333333,4,1,1,70,0,1
59616,-90.9090909090909,4,1,1,70,0,1
60057,-83.3333333333333,4,1,1,70,0,1
61381,-71.4285714285714,4,1,1,70,0,1
61528,-71.4285714285714,4,1,1,70,0,0
61822,-90.9090909090909,4,1,1,70,0,1
67263,-90.9090909090909,4,1,1,74,0,1
67851,-90.9090909090909,4,1,1,78,0,1
68440,-90.9090909090909,4,1,1,82,0,1
69028,-95.2380952380952,4,1,1,70,0,0
70204,-142.857142857143,4,1,1,70,0,1
71087,-142.857142857143,4,1,1,40,0,0
71381,-100,4,1,1,70,0,0
82851,-200,4,1,1,40,0,0
83146,-200,4,1,1,50,0,0
89028,-100,4,1,1,40,0,0
89322,-142.857142857143,4,1,1,40,0,0
89616,-125,4,1,1,50,0,0
90204,-111.111111111111,4,1,1,50,0,0
99616,-125,4,2,1,50,0,0
103733,-166.666666666667,4,2,1,50,0,0
104322,-125,4,2,1,50,0,0
109028,-100,4,1,1,60,0,0
113734,-71.4285714285714,4,1,1,60,0,0
114322,-83.3333333333333,4,1,1,60,0,0
116087,-71.4285714285714,4,1,1,60,0,0
118440,-90.9090909090909,4,1,1,70,0,1
125940,-83.3333333333333,4,1,1,70,0,1
127263,-71.4285714285714,4,1,1,70,0,1
127410,-71.4285714285714,4,1,1,70,0,0
127704,-90.9090909090909,4,1,1,70,0,1
133146,-100,4,1,1,74,0,1
133734,-100,4,1,1,78,0,1
134616,-100,4,1,1,82,0,1
134910,-95.2380952380952,4,1,1,70,0,0
136087,-142.857142857143,4,1,1,70,0,1
136675,-90.9090909090909,4,1,1,70,0,1
136969,-100,4,1,1,50,0,0
137263,-166.666666666667,4,1,1,60,0,0
140793,-83.3333333333333,4,1,1,60,0,0
141087,-100,4,1,1,60,0,0
141381,-76.9230769230769,4,1,1,60,0,0
141675,-62.5,4,1,1,60,0,0
144322,-166.666666666667,4,1,1,60,0,0
145498,-125,4,1,1,55,0,0
147165,-83.3333333333333,4,1,1,55,0,0
147851,-125,4,1,1,55,0,0
149517,-83.3333333333333,4,1,1,55,0,0
150204,-100,4,1,1,55,0,0
153440,-76.9230769230769,4,1,1,55,0,0
153734,-83.3333333333333,4,1,1,55,0,0
154910,-83.3333333333333,4,1,1,60,0,0
164322,-71.4285714285714,4,1,1,65,0,0
164616,-83.3333333333333,4,1,1,65,0,0
165204,-166.666666666667,4,1,1,65,0,0
165498,-71.4285714285714,4,1,1,65,0,0
165793,-83.3333333333333,4,1,1,65,0,0
166675,-71.4285714285714,4,1,1,65,0,0
166969,-83.3333333333333,4,1,1,65,0,0
170204,-71.4285714285714,4,1,1,65,0,0
170498,-83.3333333333333,4,1,1,65,0,0
170793,-100,4,1,1,65,0,0
171087,-125,4,1,1,65,0,0
171381,-83.3333333333333,4,1,1,65,0,0
172263,-166.666666666667,4,1,1,65,0,0
174028,-111.111111111111,4,2,1,50,0,0
185793,-142.857142857143,4,2,1,50,0,0
186675,-90.9090909090909,4,2,1,50,0,0
186969,-100,4,2,1,50,0,0
187557,-125,4,2,1,50,0,0
187851,-100,4,2,1,55,0,0
188440,-83.3333333333333,4,2,1,55,0,0
188734,-125,4,2,1,58,0,0
189028,-100,4,2,1,60,0,0
189322,-83.3333333333333,4,2,1,60,0,0
189616,-71.4285714285714,4,2,1,60,0,0
189910,-62.5,4,2,1,60,0,0
198145,-166.666666666667,4,2,1,30,0,0
198440,-166.666666666667,4,2,1,40,0,0
199028,-125,4,2,1,40,0,0
199616,-100,4,2,1,40,0,0
200793,-83.3333333333333,4,1,1,60,0,1
201822,-83.3333333333333,4,1,1,60,0,0
202116,-83.3333333333333,4,1,1,50,0,0
203145,-100,4,1,1,50,0,0
203734,-500,4,1,1,60,0,0
204322,-76.9230769230769,4,1,1,70,0,1
204616,-90.9090909090909,4,1,1,70,0,1
211528,-83.3333333333333,4,1,1,70,0,1
213145,-71.4285714285714,4,1,1,70,0,1
213293,-71.4285714285714,4,1,1,70,0,0
213587,-90.9090909090909,4,1,1,70,0,1
218440,-95.2380952380952,4,1,1,70,0,1
223734,-100,4,1,1,74,0,1
224322,-100,4,1,1,78,0,1
225204,-100,4,1,1,82,0,1
225498,-95.2380952380952,4,1,1,70,0,0
226675,-142.857142857143,4,1,1,70,0,1
227557,-142.857142857143,4,1,1,60,0,0
227851,-100,4,1,1,60,0,0
246601,-83.3333333333333,4,2,1,60,0,0
246749,-83.3333333333333,4,2,1,20,0,0
250793,-83.3333333333333,4,2,1,70,0,0

[Colours]
Combo1 : 162,138,255
Combo2 : 255,91,136
Combo3 : 255,153,85

[HitObjects]
105,61,5057,5,2,2:0:0:0:
129,138,5204,1,2,2:0:0:0:
99,213,5351,1,2,2:0:0:0:
35,130,5498,6,2,B|96:140|96:140|126:179|126:179|193:190,1,180,4|8,3:2|0:0,0:0:0:0:
360,246,5940,2,0,B|378:205|378:205|363:130,1,90,2|0,0:0|3:0,0:0:0:0:
289,83,6234,1,0,3:0:0:0:
270,303,6381,1,0,1:0:0:0:
286,102,6528,6,2,L|272:284,1,180,2|0,0:0|3:0,0:0:0:0:
446,271,6969,2,0,L|352:243,1,90,8|0,1:0|0:0,0:0:0:0:
106,218,7263,2,0,L|200:190,1,90,0|2,3:0|3:1,0:0:0:0:
194,174,7484,1,0,3:2:0:0:
195,156,7557,1,8,1:0:0:0:
55,121,7704,1,2,0:0:0:0:
180,279,7851,6,2,P|191:311|197:373,1,90,6|0,3:2|3:0,0:0:0:0:
277,136,8145,1,8,1:0:0:0:
420,289,8293,2,2,P|350:293|269:225,1,180,2|0,0:0|3:0,0:0:0:0:
277,136,8734,1,8,1:1:0:0:
375,185,8881,1,2,0:0:0:0:
189,175,9028,6,0,L|67:161,1,90,2|0,3:1|3:0,0:0:0:0:
20,331,9322,2,2,B|86:320|86:320|116:288|116:288|184:276,1,180,8|0,1:0|3:0,0:0:0:0:
257,238,9763,1,2,3:1:0:0:
261,260,9837,1,0,3:0:0:0:
265,281,9910,1,8,1:2:0:0:
359,194,10057,1,2,3:1:0:0:
438,353,10204,6,2,L|458:168,1,180,4|8,3:2|1:0,0:0:0:0:
394,21,10645,2,0,P|381:66|386:125,1,90,2|0,0:0|3:0,0:0:0:0:
497,252,10940,1,0,3:0:0:0:
464,77,11087,1,8,1:0:0:0:
354,216,11234,6,2,P|289:233|200:150,1,180,2|0,0:0|3:0,0:0:0:0:
137,29,11675,2,0,B|119:69|119:69|131:134,1,90,8|0,1:0|0:0,0:0:0:0:
195,384,11969,2,0,B|213:344|213:344|201:279,1,90,0|2,3:0|3:1,0:0:0:0:
187,292,12190,1,0,3:0:0:0:
169,286,12263,1,8,1:0:0:0:
217,82,12410,1,2,0:0:0:0:
42,220,12557,6,2,L|162:207,1,90,6|0,3:2|0:0,0:0:0:0:
329,152,12851,1,8,1:0:0:0:
204,298,12998,2,2,B|311:304|257:246|373:256,1,180,2|0,0:0|3:0,0:0:0:0:
443,220,13440,2,0,P|464:267|465:320,1,90,8|2,1:0|0:0,0:0:0:0:
226,217,13734,6,0,L|237:113,1,90,4|0,3:1|3:0,0:0:0:0:
240,101,13954,1,0,3:0:0:0:
244,74,14028,2,0,L|250:22,2,45,0|0|0,3:0|3:0|3:0,3:3:0:0:
79,360,14322,2,0,L|61:217,1,135,4|0,3:3|0:0,0:0:0:0:
57,194,14616,1,0,3:0:0:0:
52,162,14690,1,0,3:0:0:0:
47,131,14763,1,0,3:0:0:0:
41,99,14837,2,0,L|29:26,1,45,0|4,3:0|0:2,3:3:0:0:
346,140,15204,6,0,L|471:158,2,125.999996154785,2|2|0,3:2|3:2|3:0,0:0:0:0:
244,30,15940,2,0,L|277:111,1,62.9999980773926,2|0,0:0|3:0,0:0:0:0:
210,227,16234,2,0,L|263:157,1,62.9999980773926,2|0,0:0|3:0,0:0:0:0:
393,162,16528,2,0,L|306:150,1,62.9999980773926,2|0,0:0|3:0,0:0:0:0:
185,93,16822,1,0,0:0:0:0:
310,233,16969,2,0,B|310:309|325:280|324:358,1,125.999996154785,2|0,3:2|3:0,0:0:0:0:
58,160,17557,6,0,P|118:154|182:110,2,125.999996154785,2|2|0,3:2|3:2|3:0,0:0:0:0:
144,236,18293,2,0,P|190:251|214:268,1,62.9999980773926,2|0,0:0|3:0,0:0:0:0:
293,343,18587,2,0,P|282:295|285:266,1,62.9999980773926,2|0,0:0|3:0,0:0:0:0:
314,168,18881,2,0,P|278:200|251:212,1,62.9999980773926,2|0,0:0|3:0,0:0:0:0:
208,339,19175,1,2,0:0:0:0:
375,261,19322,1,0,3:0:0:0:
375,261,19395,1,2,0:0:0:0:
375,261,19469,1,2,0:0:0:0:
375,261,19543,1,2,0:0:0:0:
375,261,19616,6,0,L|505:279,1,125.999996154785,0|0,3:0|3:0,0:0:0:0:
241,147,20204,2,0,L|371:165,1,125.999996154785,0|0,3:0|3:0,0:0:0:0:
455,152,20645,1,2,0:0:0:0:
455,152,20719,1,2,0:0:0:0:
455,152,20793,2,0,L|479:79,1,62.9999980773926,0|0,3:0|0:0,0:0:0:0:
349,65,21087,5,2,3:2:0:0:
365,164,21381,1,2,3:2:0:0:
381,263,21675,1,2,3:2:0:0:
470,334,21969,5,2,3:2:0:0:
289,226,22263,1,2,3:2:0:0:
158,303,22557,1,2,3:2:0:0:
26,253,22851,1,2,3:2:0:0:
100,159,22998,1,2,0:0:0:0:
100,159,23072,1,2,0:0:0:0:
100,159,23145,6,0,P|109:188|114:220,1,62.9999980773926,2|2,0:0|0:0,0:0:0:0:
262,310,23440,2,0,P|252:339|247:371,1,62.9999980773926,2|2,0:0|0:0,0:0:0:0:
483,175,23734,5,8,3:2:0:0:
457,206,23807,1,8,0:0:0:0:
420,222,23881,1,8,0:0:0:0:
379,219,23954,1,8,0:0:0:0:
328,158,24028,5,8,3:2:0:0:
328,158,24101,1,8,0:0:0:0:
328,158,24175,1,8,0:0:0:0:
328,158,24248,1,8,0:0:0:0:
328,158,24322,6,0,L|241:169,1,80.9999975280763,6|0,3:1|0:0,0:0:0:0:
77,161,24616,2,0,L|157:150,1,80.9999975280763,10|0,0:2|0:0,0:0:0:0:
207,76,24910,2,0,L|190:259,1,161.999995056153,2|8,3:2|0:0,0:0:0:0:
128,323,25351,6,0,P|115:280|115:226,1,80.9999975280763,2|0,0:2|3:0,0:0:0:0:
252,299,25645,2,0,P|287:311|338:318,1,80.9999975280763,2|8,0:2|1:0,0:0:0:0:
475,186,25940,2,0,P|439:198|389:205,1,80.9999975280763,2|0,0:2|3:0,0:0:0:0:
336,146,26234,1,0,0:0:0:0:
441,299,26381,2,0,P|409:257|294:232,1,161.999995056153,10|0,1:2|3:0,0:0:0:0:
91,277,26969,6,0,L|78:187,1,80.9999975280763,10|0,1:2|0:0,0:0:0:0:
2,354,27263,2,0,B|94:312|94:312|146:342,1,161.999995056153,2|8,3:2|1:0,0:0:0:0:
250,241,27704,6,0,L|167:257,1,80.9999975280763,2|0,0:2|3:0,0:0:0:0:
0,213,27998,2,0,L|79:197,1,80.9999975280763,2|8,0:2|1:0,0:0:0:0:
160,164,28293,2,0,P|171:122|173:82,1,80.9999975280763,2|0,0:2|3:0,0:0:0:0:
243,23,28587,1,0,0:0:0:0:
332,146,28734,2,0,P|295:131|264:105,1,80.9999975280763,10|0,1:2|0:0,0:0:0:0:
415,111,29028,6,0,P|459:153|470:272,2,161.999995056153,4|8|0,3:2|1:0|3:0,0:0:0:0:
237,357,29910,2,0,L|254:277,1,80.9999975280763,12|0,1:2|0:0,0:0:0:0:
323,231,30204,6,0,B|263:236|263:236|229:259|229:259|168:263,1,161.999995056153,2|8,3:2|1:0,0:0:0:0:
106,89,30793,1,0,3:0:0:0:
125,92,30866,1,0,3:0:0:0:
145,95,30940,1,0,3:0:0:0:
164,98,31013,1,0,3:0:0:0:
184,101,31087,2,0,L|199:204,1,80.9999975280763,8|0,0:2|3:0,0:0:0:0:
93,301,31381,5,2,1:1:0:0:
467,359,31528,1,4,1:2:0:0:
451,362,31822,5,6,1:2:0:0:
371,201,32116,1,6,1:1:0:0:
455,45,32410,1,6,1:1:0:0:
458,61,32704,5,0,3:0:0:0:
402,119,32851,1,0,3:0:0:0:
322,102,32998,1,0,3:0:0:0:
304,22,33145,5,2,3:2:0:0:
409,211,33293,1,0,3:0:0:0:
458,61,33440,5,0,3:0:0:0:
255,173,33587,1,0,3:0:0:0:
434,365,33734,6,0,P|445:328|446:286,1,72,4|0,3:2|0:0,0:0:0:0:
434,365,34175,1,0,3:0:0:0:
475,202,34322,2,0,P|444:245|334:271,1,144,12|0,0:0|3:0,0:0:0:0:
289,232,34763,2,0,L|195:205,1,72,0|4,3:0|0:1,0:0:0:0:
142,178,35057,5,0,3:0:0:0:
138,195,35131,1,0,3:0:0:0:
135,212,35204,1,0,3:0:0:0:
69,96,35351,1,0,3:0:0:0:
219,212,35498,1,12,0:0:0:0:
42,337,35645,2,0,P|87:305|184:293,1,144,0|0,0:0|0:0,0:0:0:0:
396,141,36087,6,0,L|313:153,1,72,4|0,3:1|0:0,0:0:0:0:
396,141,36528,1,0,3:0:0:0:
269,79,36675,2,0,L|286:247,1,144,12|0,0:0|3:0,0:0:0:0:
203,269,37116,2,0,B|194:236|194:236|200:194,1,72,0|4,3:0|0:1,0:0:0:0:
375,238,37410,5,0,3:0:0:0:
392,241,37484,1,0,3:0:0:0:
409,245,37557,1,0,3:0:0:0:
426,332,37704,1,0,3:0:0:0:
299,384,37851,2,2,L|283:222,1,161.999995056153,12|0,0:0|0:0,0:0:0:0:
79,35,38440,6,0,L|86:106,1,72,4|0,3:3|0:0,0:0:0:0:
79,35,38881,1,0,3:0:0:0:
44,189,39028,2,0,P|86:153|186:136,1,144,12|0,0:0|3:0,0:0:0:0:
233,65,39469,2,0,P|191:58|153:48,1,72,0|4,3:0|0:1,0:0:0:0:
142,234,39763,5,0,3:0:0:0:
149,250,39837,1,0,3:0:0:0:
153,267,39910,1,0,3:0:0:0:
117,340,40057,1,0,3:0:0:0:
314,208,40204,1,12,0:0:0:0:
263,381,40351,2,0,P|240:329|240:236,1,144,0|0,0:0|0:0,0:0:0:0:
74,84,40793,6,0,L|144:98,1,72,4|0,3:1|0:0,0:0:0:0:
74,84,41234,1,0,3:0:0:0:
285,102,41381,2,0,L|142:125,1,144,12|0,0:0|3:0,0:0:0:0:
87,191,41822,2,0,L|98:273,1,72,0|4,3:0|0:1,0:0:0:0:
284,341,42116,5,0,3:0:0:0:
291,324,42190,1,0,3:0:0:0:
293,306,42263,1,0,3:0:0:0:
220,249,42410,1,0,3:0:0:0:
161,336,42557,1,8,1:0:0:0:
443,195,42851,1,0,3:0:0:0:
148,113,43145,6,0,L|126:14,1,90,4|0,1:0|2:0,0:0:0:0:
364,271,43440,2,0,L|383:358,1,90,0|0,1:0|2:0,0:0:0:0:
453,75,43734,2,0,L|364:101,1,90,0|0,1:0|2:0,0:0:0:0:
59,309,44028,2,0,L|148:283,1,90,0|0,1:0|2:0,0:0:0:0:
463,261,44322,6,0,B|397:248|397:248|367:209|367:209|292:193,1,180,0|0,1:0|1:0,0:0:0:0:
171,274,44763,1,0,2:0:0:0:
45,146,44910,2,0,B|111:133|111:133|141:94|141:94|216:78,1,180,0|0,1:0|1:0,0:0:0:0:
430,188,45498,5,8,1:2:0:0:
401,301,45645,1,8,1:2:0:0:
288,272,45793,1,8,1:2:0:0:
317,159,45940,1,8,1:2:0:0:
449,176,46087,5,8,1:2:0:0:
268,283,46234,1,8,1:2:0:0:
305,139,46381,5,8,1:2:0:0:
412,320,46528,1,8,1:2:0:0:
360,231,46675,5,8,1:2:0:0:
239,268,46822,1,8,1:2:0:0:
137,211,46969,1,8,1:2:0:0:
16,248,47116,1,8,1:2:0:0:
98,294,47263,5,8,3:2:0:0:
103,249,47337,1,8,3:2:0:0:
108,204,47410,1,8,3:2:0:0:
113,159,47484,1,8,3:2:0:0:
107,77,47557,5,8,3:2:0:0:
107,77,47631,1,0,3:2:0:0:
107,77,47704,1,0,3:2:0:0:
107,77,47778,1,0,3:2:0:0:
107,77,47851,5,12,1:2:0:0:
200,183,47998,1,0,3:0:0:0:
22,228,48145,1,0,3:0:0:0:
113,159,48293,5,12,1:2:0:0:
252,249,48440,1,0,3:0:0:0:
404,179,48587,1,0,3:0:0:0:
503,275,48734,5,12,1:2:0:0:
317,158,48881,1,0,3:0:0:0:
504,90,49028,1,0,3:0:0:0:
389,36,49175,5,12,1:2:0:0:
404,179,49322,1,0,3:0:0:0:
419,322,49469,1,0,3:0:0:0:
296,270,49616,5,12,1:2:0:0:
504,90,49763,1,0,3:0:0:0:
205,12,49910,1,12,0:0:0:0:
395,116,50057,5,0,3:0:0:0:
395,116,50131,1,0,3:0:0:0:
395,116,50204,2,0,L|404:184,3,62.9999980773926,4|2|0|0,3:1|3:2|3:0|3:0,3:3:0:0:
288,332,50498,5,0,3:0:0:0:
288,332,50572,1,2,3:2:0:0:
288,332,50645,2,0,L|295:269,1,62.9999980773926,2|0,3:2|3:0,3:3:0:0:
161,118,50793,5,0,3:0:0:0:
161,118,50866,1,2,3:2:0:0:
161,118,50940,2,0,L|171:182,1,62.9999980773926,2|0,3:2|3:0,3:3:0:0:
74,259,51087,5,2,3:2:0:0:
52,264,51160,1,2,3:2:0:0:
30,269,51234,1,2,1:2:0:0:
30,269,51528,5,2,2:0:0:0:
108,250,51675,1,2,2:0:0:0:
158,313,51822,1,2,2:0:0:0:
30,269,51969,5,2,2:0:0:0:
131,172,52116,1,2,2:0:0:0:
158,313,52263,1,2,2:0:0:0:
30,269,52557,6,0,P|89:226|162:217,1,148.50000453186,4|0,3:1|2:0,0:0:0:0:
162,217,52851,2,2,P|174:269|190:311,1,99.0000030212403,10|0,1:1|0:0,0:0:0:0:
407,269,53145,1,2,3:1:0:0:
240,133,53293,2,0,L|248:84,2,49.5000015106202,0|0|8,0:0|0:0|1:0,0:0:0:0:
331,351,53587,1,2,0:2:0:0:
331,351,53660,1,2,0:2:0:0:
331,351,53734,6,0,P|319:299|302:256,1,99.0000030212403,0|0,3:0|0:0,0:0:0:0:
512,144,54028,2,2,B|429:137|464:175|367:166,1,148.50000453186,10|0,1:1|2:0,0:0:0:0:
331,93,54322,1,2,3:1:0:0:
188,224,54469,1,0,0:0:0:0:
155,32,54616,5,10,1:2:0:0:
318,236,54763,1,2,0:1:0:0:
148,131,54910,6,0,L|40:158,1,99.0000030212403,4|0,3:2|0:0,0:0:0:0:
266,155,55204,2,2,P|303:95|302:18,1,148.50000453186,8|0,1:2|2:0,0:0:0:0:
303,19,55498,2,2,L|394:101,1,99.0000030212403,2|0,3:2|0:0,0:0:0:0:
188,224,55793,2,0,L|173:271,2,49.5000015106202,10|0|0,1:2|0:2|0:2,0:0:0:0:
220,70,56087,5,2,3:2:0:0:
286,265,56234,1,0,0:0:0:0:
120,124,56381,1,10,1:0:0:0:
364,165,56528,1,0,0:0:0:0:
364,165,56601,1,0,0:0:0:0:
364,165,56675,2,0,L|263:154,1,99.0000030212403,0|0,3:0|3:0,0:0:0:0:
106,333,56969,5,12,1:2:0:0:
220,70,57116,1,2,0:1:0:0:
6,262,57263,6,2,B|61:269|106:241|106:241|156:248|184:289,1,198.000006042481,6|8,3:1|1:0,0:0:0:0:
278,273,57704,1,0,0:0:0:0:
142,129,57851,2,2,P|125:82|125:33,1,99.0000030212403,2|0,3:1|0:0,0:0:0:0:
379,191,58145,1,10,1:2:0:0:
292,28,58293,1,0,0:0:0:0:
451,104,58440,5,2,3:1:0:0:
235,153,58587,1,0,0:0:0:0:
235,153,58660,1,0,0:0:0:0:
235,153,58734,2,0,L|221:213,2,53.9999983520508,4|0|0,1:1|3:0|3:0,0:0:0:0:
367,278,59028,5,8,0:0:0:0:
451,104,59175,1,8,0:0:0:0:
430,68,59248,1,8,0:0:0:0:
395,44,59322,1,8,0:0:0:0:
353,38,59395,1,8,0:0:0:0:
314,52,59469,1,8,0:0:0:0:
68,297,59616,6,2,L|181:274,1,99.0000030212403,4|0,1:1|3:0,0:0:0:0:
404,298,59910,1,0,3:0:0:0:
313,359,60057,6,2,L|326:250,1,107.999996704102,4|0,1:2|3:0,0:0:0:0:
402,169,60278,2,2,L|452:149,2,53.9999983520508,2|0|0,3:1|3:1|3:1,3:3:0:0:
247,117,60498,2,2,L|291:149,1,53.9999983520508,6|0,1:0|3:0,3:3:0:0:
404,298,60645,5,0,3:0:0:0:
361,293,60719,1,0,3:0:0:0:
320,303,60793,1,0,3:0:0:0:
280,315,60866,1,0,3:0:0:0:
237,313,60940,2,2,L|226:227,1,53.9999983520508,6|0,1:1|0:0,0:0:0:0:
38,140,61087,1,0,3:0:0:0:
38,140,61160,1,0,3:0:0:0:
38,140,61234,1,0,3:0:0:0:
38,140,61307,1,0,3:0:0:0:
38,140,61381,6,0,L|130:154,1,62.9999980773926,6|0,1:0|2:0,0:0:0:0:
330,37,61528,1,6,1:2:0:0:
330,37,61822,6,2,L|315:134,1,99.0000030212403,4|0,3:1|0:0,0:0:0:0:
395,300,62116,1,0,3:0:0:0:
161,316,62263,2,2,P|124:252|129:170,1,148.50000453186,10|0,1:1|2:0,0:0:0:0:
126,180,62557,2,0,L|223:162,1,99.0000030212403,2|0,3:1|3:0,0:0:0:0:
322,226,62851,1,8,1:2:0:0:
413,80,62998,1,2,0:2:0:0:
413,80,63072,1,2,0:2:0:0:
413,80,63145,6,0,P|425:127|420:176,1,99.0000030212403,0|0,3:0|0:0,0:0:0:0:
364,301,63440,1,10,1:1:0:0:
324,128,63587,1,2,0:2:0:0:
68,203,63734,2,0,B|157:200|121:236|209:237,1,148.50000453186,2|0,3:1|2:0,0:0:0:0:
297,210,64028,5,10,1:2:0:0:
92,95,64175,1,2,0:0:0:0:
186,50,64322,6,0,L|190:148,1,99.0000030212403,4|0,3:2|0:0,0:0:0:0:
489,294,64616,2,2,P|453:229|390:192,1,148.50000453186,10|0,1:2|2:0,0:0:0:0:
390,192,64910,2,2,L|402:144,2,49.5000015106202,2|0|0,3:2|0:1|0:1,3:1:0:0:
252,235,65204,1,10,1:2:0:0:
282,127,65351,1,0,0:0:0:0:
154,135,65498,5,2,3:1:0:0:
338,283,65645,1,2,0:2:0:0:
348,56,65793,1,10,1:0:0:0:
184,321,65940,1,2,0:2:0:0:
409,209,66087,5,10,1:1:0:0:
362,202,66160,1,0,3:0:0:0:
315,195,66234,1,0,3:0:0:0:
268,188,66307,1,0,3:0:0:0:
174,163,66381,5,10,2:2:0:0:
178,176,66454,1,0,3:0:0:0:
182,189,66528,1,0,3:0:0:0:
186,202,66601,1,0,3:0:0:0:
191,215,66675,1,4,3:1:0:0:
52,345,66969,5,0,3:0:0:0:
52,345,67116,1,0,3:2:0:0:
136,297,67263,1,2,3:3:0:0:
244,347,67410,1,0,3:0:0:0:
319,275,67557,1,0,3:0:0:0:
435,343,67704,1,0,3:2:0:0:
480,236,67851,5,2,3:3:0:0:
315,293,67998,1,2,3:2:0:0:
244,174,68145,5,0,3:0:0:0:
476,254,68293,1,2,3:2:0:0:
438,106,68440,5,2,3:3:0:0:
223,265,68587,1,2,3:2:0:0:
119,57,68734,5,0,3:0:0:0:
397,193,68881,1,2,3:2:0:0:
422,173,70204,6,0,L|319:192,1,94.499997116089,6|0,1:0|2:0,0:0:0:0:
225,363,70498,2,0,L|258:263,1,94.499997116089,6|0,1:0|2:0,0:0:0:0:
135,72,70793,2,0,L|226:178,1,125.999996154785,6|2,1:0|0:2,0:0:0:0:
315,193,71234,1,2,0:2:0:0:
512,262,71381,6,2,B|447:265|447:265|411:297|411:297|339:302,1,180,4|8,3:2|0:0,0:0:0:0:
196,357,71822,2,0,P|178:310|181:263,1,90,2|0,0:0|3:0,0:0:0:0:
320,158,72116,1,0,3:0:0:0:
261,301,72263,1,0,1:0:0:0:
150,197,72410,6,2,P|83:193|0:284,1,180,2|0,0:0|3:0,0:0:0:0:
6,86,72851,2,0,L|126:116,1,90,8|0,1:0|0:0,0:0:0:0:
150,197,73145,1,0,3:0:0:0:
202,40,73293,1,2,3:1:0:0:
202,40,73366,1,0,3:0:0:0:
202,40,73440,1,8,1:0:0:0:
270,195,73587,1,2,0:0:0:0:
374,69,73734,6,2,L|254:99,1,90,6|0,3:2|3:0,0:0:0:0:
212,287,74028,1,8,1:0:0:0:
265,357,74175,2,2,B|304:307|304:307|270:192,1,180,2|0,0:0|3:0,0:0:0:0:
222,38,74616,1,8,1:0:0:0:
164,206,74763,1,2,0:0:0:0:
8,31,74910,5,2,3:1:0:0:
21,68,74984,1,0,3:0:0:0:
51,96,75057,1,0,3:0:0:0:
89,107,75131,1,0,3:0:0:0:
129,99,75204,1,8,1:0:0:0:
164,206,75351,1,0,0:0:0:0:
384,142,75498,2,0,P|335:122|277:120,1,90,0|2,3:0|3:1,0:0:0:0:
281,121,75719,1,0,3:0:0:0:
264,125,75793,1,8,1:0:0:0:
227,39,75940,1,2,3:1:0:0:
164,206,76087,6,2,B|111:162|111:162|142:29,1,180,4|8,3:2|1:0,0:0:0:0:
3,280,76528,2,0,P|52:260|110:258,1,90,2|0,0:0|3:0,0:0:0:0:
149,341,76822,1,0,3:0:0:0:
262,224,76969,1,8,1:0:0:0:
463,266,77116,6,2,B|356:252|388:313|290:301,1,180,2|0,0:0|3:0,0:0:0:0:
7,188,77557,2,0,P|55:181|99:166,1,90,8|0,1:0|0:0,0:0:0:0:
278,93,77851,2,0,L|266:200,1,90,0|2,3:0|3:1,0:0:0:0:
283,191,78072,1,0,3:0:0:0:
298,199,78145,1,8,1:0:0:0:
365,136,78293,1,2,0:1:0:0:
173,354,78440,6,2,L|162:264,1,90,6|0,3:2|0:0,0:0:0:0:
26,110,78734,1,8,1:0:0:0:
84,224,78881,2,2,B|96:161|96:161|132:131|132:131|147:57,1,180,2|0,0:0|3:0,0:0:0:0:
26,110,79322,1,8,1:0:0:0:
179,218,79469,5,2,3:1:0:0:
179,218,79543,1,0,3:0:0:0:
179,218,79616,2,0,L|292:202,1,90,4|0,3:1|3:0,0:0:0:0:
332,136,79837,1,0,3:0:0:0:
337,153,79910,5,8,3:2:0:0:
341,170,79984,1,0,3:0:0:0:
345,186,80057,1,0,3:0:0:0:
350,203,80131,1,0,3:0:0:0:
390,206,80204,5,8,3:2:0:0:
388,214,80278,1,0,3:0:0:0:
386,222,80351,1,0,3:0:0:0:
384,230,80425,1,0,3:0:0:0:
382,238,80498,2,0,L|361:311,1,45,8|0,0:2|2:0,0:0:0:0:
272,375,80645,5,8,3:2:0:0:
267,344,80719,1,8,3:2:0:0:
262,312,80793,1,6,1:1:0:0:
78,90,82851,2,0,L|73:117,5,15,0|0|0|0|0|0,3:0|3:0|3:0|3:0|3:0|3:0,3:3:0:0:
72,66,83145,5,6,1:0:0:0:
375,179,83293,1,0,1:0:0:0:
382,162,83587,5,6,1:0:0:0:
389,145,85498,5,6,1:1:0:0:
158,196,85645,1,0,0:0:0:0:
152,178,85940,5,6,1:0:0:0:
409,252,86087,1,0,0:0:0:0:
415,234,86381,5,6,1:0:0:0:
127,309,86528,1,0,0:0:0:0:
121,291,86822,5,6,1:0:0:0:
454,341,86969,1,0,0:0:0:0:
460,323,89028,6,0,L|398:332,3,45,2|2|2|2,0:2|0:2|0:2|0:2,0:0:0:0:
323,311,89322,2,2,L|286:306,5,20.9999993591309,0|0|0|0|0|0,0:2|0:2|0:2|0:2|0:2|0:2,0:0:0:0:
240,358,89616,6,2,P|266:270|167:324,1,252,8|0,1:0|2:0,0:0:0:0:
166,321,90204,1,6,3:1:0:0:
167,147,90498,6,0,P|203:163|243:171,1,80.9999975280763,10|0,0:2|0:0,0:0:0:0:
293,88,90793,2,0,L|274:256,1,161.999995056153,2|8,3:2|0:0,0:0:0:0:
370,137,91234,6,0,P|380:85|380:39,1,80.9999975280763,2|0,0:2|3:0,0:0:0:0:
220,0,91528,2,0,P|210:52|210:98,1,80.9999975280763,2|8,0:2|1:0,0:0:0:0:
266,168,91822,1,2,0:2:0:0:
274,248,91969,2,0,L|285:338,1,80.9999975280763,0|0,3:0|0:0,0:0:0:0:
179,159,92263,2,0,L|18:139,1,161.999995056153,10|0,1:2|3:0,0:0:0:0:
396,360,92851,6,0,P|399:307|408:264,1,80.9999975280763,10|0,1:2|0:0,0:0:0:0:
470,216,93145,2,0,B|371:205|410:260|316:249,1,161.999995056153,2|8,3:2|1:0,0:0:0:0:
238,279,93587,6,0,L|223:199,1,80.9999975280763,2|0,0:2|3:0,0:0:0:0:
358,90,93881,2,0,L|343:169,1,80.9999975280763,2|8,0:2|1:0,0:0:0:0:
238,279,94175,1,2,0:2:0:0:
198,121,94322,2,0,P|134:114|58:209,1,161.999995056153,0|10,3:0|1:2,0:0:0:0:
341,263,94910,6,0,B|402:271|402:271|431:295|431:295|493:303,2,161.999995056153,4|8|0,3:2|1:0|3:0,0:0:0:0:
186,40,95793,2,0,L|200:135,1,80.9999975280763,12|0,1:2|0:0,0:0:0:0:
145,204,96087,2,0,L|133:255,2,40.4999987640381,2|0|0,3:2|0:0|0:0,0:0:0:0:
109,129,96381,2,0,L|17:111,1,80.9999975280763,8|0,1:0|0:0,0:0:0:0:
188,343,96675,5,0,3:0:0:0:
207,340,96748,1,0,3:0:0:0:
227,337,96822,1,0,3:0:0:0:
247,334,96895,1,0,3:0:0:0:
268,331,96969,2,0,L|280:263,1,40.4999987640381,0|0,3:0|1:0,3:3:0:0:
413,230,97116,1,0,3:0:0:0:
413,230,97190,1,0,3:0:0:0:
413,230,97263,1,6,1:0:0:0:
29,111,97557,5,0,3:0:0:0:
37,142,97631,1,0,3:0:0:0:
45,173,97704,1,6,1:0:0:0:
443,116,97998,1,6,1:0:0:0:
234,38,98293,6,0,B|222:130|266:98|251:196,1,161.999995056153,6|0,1:0|3:0,0:0:0:0:
202,265,98734,1,0,3:0:0:0:
271,322,98881,1,0,3:0:0:0:
178,373,99028,5,2,3:2:0:0:
389,257,99248,1,0,3:0:0:0:
110,122,99469,1,0,3:0:0:0:
163,50,99616,6,0,L|251:66,1,72,4|0,3:2|0:0,0:0:0:0:
163,50,100057,1,0,3:0:0:0:
342,75,100204,2,0,P|279:87|228:154,1,144,12|0,0:0|3:0,0:0:0:0:
157,214,100645,2,0,P|155:178|148:142,1,72,0|4,3:0|0:1,0:0:0:0:
324,157,100940,5,0,3:0:0:0:
322,174,101013,1,0,3:0:0:0:
320,192,101087,1,0,3:0:0:0:
243,253,101234,1,0,3:0:0:0:
228,63,101381,1,12,0:0:0:0:
240,229,101528,2,0,L|228:67,1,144,0|0,0:0|0:0,0:0:0:0:
512,90,101969,6,0,P|479:104|444:114,1,72,4|0,3:1|0:0,0:0:0:0:
512,90,102410,1,0,3:0:0:0:
383,66,102557,2,0,B|415:112|415:112|402:200,1,144,12|0,0:0|3:0,0:0:0:0:
476,263,102998,2,0,L|487:182,1,72,0|4,3:0|0:1,0:0:0:0:
326,134,103293,5,0,3:0:0:0:
308,138,103366,1,0,3:0:0:0:
290,142,103440,1,0,3:0:0:0:
225,248,103587,1,0,3:0:0:0:
285,374,103734,2,2,P|321:327|313:226,1,161.999995056153,12|0,0:0|0:0,0:0:0:0:
197,160,104248,1,0,0:0:0:0:
197,160,104322,6,0,L|125:150,1,72,4|0,3:3|0:0,0:0:0:0:
197,160,104763,1,0,3:0:0:0:
0,252,104910,2,0,L|142:230,1,144,12|0,0:0|3:0,0:0:0:0:
90,76,105351,2,0,L|106:159,1,72,0|4,3:0|0:1,0:0:0:0:
225,282,105645,5,0,3:0:0:0:
228,264,105719,1,0,3:0:0:0:
231,246,105793,1,0,3:0:0:0:
305,192,105940,1,0,3:0:0:0:
292,346,106087,1,12,0:0:0:0:
464,314,106234,2,0,P|422:278|332:274,1,144,0|0,0:0|0:0,0:0:0:0:
103,146,106675,6,0,P|139:142|185:131,2,72,4|0|0,3:1|0:0|0:0,0:0:0:0:
131,54,107116,1,0,3:0:0:0:
227,66,107263,2,0,L|212:230,1,144,12|0,0:0|3:0,0:0:0:0:
301,272,107704,2,0,P|305:213|300:175,1,72,0|4,3:0|0:1,0:0:0:0:
126,234,107998,5,0,3:0:0:0:
301,272,108145,1,0,3:0:0:0:
170,318,108293,1,0,3:0:0:0:
248,363,108440,5,8,1:0:0:0:
43,264,108587,1,0,3:0:0:0:
312,183,108734,1,8,0:0:0:0:
39,81,109028,6,0,L|126:103,1,90,4|0,1:0|2:0,0:0:0:0:
385,350,109322,2,0,L|356:264,1,90,0|0,1:0|2:0,0:0:0:0:
155,264,109616,2,0,L|127:350,1,90,0|0,1:0|2:0,0:0:0:0:
385,103,109910,2,0,L|473:81,1,90,0|0,1:0|2:0,0:0:0:0:
155,264,110204,6,0,P|120:212|-4:203,1,180,0|0,1:0|1:0,0:0:0:0:
167,80,110645,1,0,2:0:0:0:
307,144,110793,2,0,B|413:157|369:93|477:106,1,180,0|0,1:0|1:0,0:0:0:0:
325,377,111381,5,8,1:2:0:0:
369,229,111528,1,8,3:2:0:0:
487,338,111675,2,0,L|384:316,1,90,8|8,3:2|3:2,3:3:0:0:
231,42,111969,5,8,3:2:0:0:
275,190,112116,1,8,3:2:0:0:
113,151,112263,2,8,L|216:129,1,90,8|8,3:2|3:2,3:3:0:0:
337,96,112557,5,8,3:2:0:0:
192,227,112704,1,8,3:2:0:0:
196,27,112851,5,8,3:2:0:0:
342,291,112998,1,8,3:2:0:0:
464,70,113145,5,8,3:2:0:0:
435,104,113219,1,8,3:2:0:0:
396,125,113293,1,8,3:2:0:0:
351,128,113366,1,8,3:2:0:0:
257,124,113440,5,8,3:2:0:0:
257,124,113513,1,8,3:2:0:0:
257,124,113587,1,8,3:2:0:0:
257,124,113660,1,8,3:2:0:0:
256,123,113734,2,0,P|265:154|271:185,1,62.9999980773926,4|0,3:2|0:0,0:0:0:0:
41,247,113881,5,0,3:0:0:0:
56,206,113954,1,0,3:0:0:0:
88,176,114028,1,0,3:0:0:0:
130,164,114101,1,0,3:0:0:0:
172,173,114175,1,4,3:1:0:0:
288,324,114322,5,0,3:0:0:0:
261,319,114395,1,0,3:0:0:0:
234,314,114469,2,0,L|224:251,1,53.9999983520508,0|0,3:0|3:0,3:3:0:0:
369,147,114616,1,4,1:2:0:0:
144,298,114763,1,0,3:0:0:0:
156,11,114910,5,4,3:2:0:0:
183,16,114984,1,0,3:0:0:0:
210,21,115057,2,0,L|220:84,1,53.9999983520508,0|0,3:0|3:0,3:3:0:0:
172,173,115204,1,0,3:0:0:0:
188,171,115278,1,0,3:0:0:0:
204,169,115351,1,0,3:0:0:0:
220,167,115425,1,0,3:0:0:0:
236,165,115498,2,0,L|289:158,1,53.9999983520508,4|0,3:2|3:0,3:3:0:0:
437,293,115645,5,0,3:0:0:0:
402,289,115719,1,0,3:0:0:0:
367,291,115793,1,0,3:0:0:0:
334,304,115866,1,0,3:0:0:0:
304,320,115940,1,0,3:0:0:0:
269,325,116013,1,0,3:0:0:0:
234,322,116087,6,0,P|230:290|225:259,1,62.9999980773926,4|0,1:0|3:0,0:0:0:0:
45,86,116234,1,0,3:0:0:0:
45,86,116307,1,2,3:2:0:0:
45,86,116381,1,0,3:0:0:0:
45,86,116454,1,2,3:2:0:0:
45,86,116528,6,0,P|74:98|104:109,1,62.9999980773926,4|0,3:1|3:0,0:0:0:0:
352,49,116675,1,0,3:0:0:0:
352,49,116748,1,2,3:2:0:0:
352,49,116822,1,2,3:2:0:0:
352,49,116895,1,2,3:2:0:0:
352,49,116969,6,0,P|327:68|302:88,1,62.9999980773926,4|0,3:2|3:0,0:0:0:0:
208,150,117116,1,4,1:0:0:0:
424,340,117410,5,2,2:0:0:0:
404,261,117557,1,2,2:0:0:0:
384,183,117704,1,2,2:0:0:0:
485,195,117851,5,2,2:0:0:0:
319,324,117998,1,2,2:0:0:0:
404,261,118145,1,2,2:0:0:0:
404,261,118440,6,2,B|318:247|338:284|257:270,1,148.50000453186,4|0,3:1|2:0,0:0:0:0:
257,270,118734,2,2,L|239:173,1,99.0000030212403,10|0,1:1|0:0,0:0:0:0:
110,114,119028,1,2,3:1:0:0:
163,288,119175,2,0,L|145:342,2,49.5000015106202,0|0|8,0:0|0:0|1:0,0:0:0:0:
300,110,119469,1,2,0:2:0:0:
300,110,119543,1,2,0:2:0:0:
300,110,119616,6,0,P|255:88|206:87,1,99.0000030212403,0|0,3:0|0:0,0:0:0:0:
321,384,119910,2,2,P|366:326|372:253,1,148.50000453186,10|0,1:1|2:0,0:0:0:0:
314,192,120204,1,2,3:1:0:0:
182,254,120351,1,0,0:0:0:0:
180,95,120498,5,10,1:2:0:0:
285,277,120645,1,2,0:1:0:0:
74,314,120793,6,0,L|94:217,1,99.0000030212403,4|0,3:2|0:0,0:0:0:0:
325,80,121087,2,2,B|240:67|260:102|178:94,1,148.50000453186,10|0,1:2|2:0,0:0:0:0:
180,95,121381,2,2,L|158:-2,1,99.0000030212403,2|0,3:2|0:0,0:0:0:0:
29,142,121675,1,10,1:2:0:0:
29,142,121748,1,0,0:2:0:0:
29,142,121822,1,0,0:2:0:0:
177,285,121969,6,0,P|226:281|271:262,1,99.0000030212403,2|0,3:2|0:0,0:0:0:0:
329,118,122263,1,10,1:0:0:0:
216,190,122410,1,0,0:0:0:0:
353,317,122557,2,0,L|364:211,1,99.0000030212403,0|0,3:0|0:0,0:0:0:0:
228,89,122851,5,12,1:2:0:0:
447,273,122998,1,2,0:1:0:0:
139,363,123145,6,2,B|87:331|87:331|68:255|115:201,1,198.000006042481,6|8,3:1|1:0,0:0:0:0:
204,221,123587,1,0,0:0:0:0:
301,13,123734,2,2,P|320:58|323:107,1,99.0000030212403,2|0,3:1|0:0,0:0:0:0:
337,220,124028,1,10,1:2:0:0:
228,89,124175,1,0,0:0:0:0:
414,62,124322,5,2,3:1:0:0:
204,221,124469,1,0,0:0:0:0:
422,174,124616,2,0,L|469:161,2,49.5000015106202,4|0|0,1:1|3:0|3:0,0:0:0:0:
228,89,124910,5,8,0:0:0:0:
469,286,125057,1,8,0:0:0:0:
451,246,125131,1,8,0:0:0:0:
419,220,125204,1,8,0:0:0:0:
378,210,125278,1,8,0:0:0:0:
337,220,125351,1,8,0:0:0:0:
230,340,125498,6,2,P|239:292|237:243,1,99.0000030212403,4|0,1:1|3:0,0:0:0:0:
197,15,125793,1,0,3:0:0:0:
54,99,125940,5,6,1:1:0:0:
54,99,126013,1,2,0:2:0:0:
54,99,126087,2,2,L|107:90,1,53.9999983520508,2|2,0:2|0:2,3:3:0:0:
448,136,126234,1,0,3:1:0:0:
421,140,126307,1,0,3:1:0:0:
394,145,126381,2,0,L|340:153,1,53.9999983520508,6|0,0:0|3:0,0:0:0:0:
222,136,126528,5,2,3:1:0:0:
222,136,126601,1,0,3:0:0:0:
222,136,126675,1,0,3:0:0:0:
222,136,126748,1,0,3:0:0:0:
222,136,126822,1,6,1:1:0:0:
161,208,126969,1,0,0:0:0:0:
279,278,127116,1,0,0:0:0:0:
187,368,127263,6,0,L|196:303,1,62.9999980773926,6|0,1:0|2:0,0:0:0:0:
197,15,127410,1,6,1:2:0:0:
197,15,127704,6,2,L|295:40,1,99.0000030212403,4|0,3:1|0:0,0:0:0:0:
419,6,127998,1,0,3:0:0:0:
457,139,128145,2,2,B|371:113|371:113|318:139,1,148.50000453186,10|0,1:1|2:0,0:0:0:0:
318,139,128440,2,2,P|328:187|333:245,1,99.0000030212403,2|0,3:1|3:0,0:0:0:0:
133,162,128734,1,8,1:2:0:0:
237,316,128881,1,2,0:2:0:0:
237,316,128954,1,2,0:2:0:0:
237,316,129028,6,0,P|227:268|222:210,1,99.0000030212403,0|0,3:0|0:0,0:0:0:0:
512,248,129322,2,2,P|457:296|381:303,1,148.50000453186,10|0,1:1|0:0,0:0:0:0:
332,236,129616,1,2,3:1:0:0:
220,341,129763,1,0,0:0:0:0:
168,142,129910,5,10,1:2:0:0:
316,349,130057,1,2,0:0:0:0:
35,300,130204,6,0,L|133:289,1,99.0000030212403,4|0,3:2|0:0,0:0:0:0:
396,180,130498,2,2,B|308:172|329:205|251:203,1,148.50000453186,10|0,1:2|2:0,0:0:0:0:
251,203,130793,2,2,L|264:96,1,99.0000030212403,2|0,3:2|0:1,3:1:0:0:
97,202,131087,2,0,L|43:188,2,49.5000015106202,8|0|0,1:0|0:0|0:0,0:0:0:0:
297,287,131381,5,2,3:1:0:0:
169,139,131528,1,2,0:2:0:0:
350,93,131675,1,10,1:0:0:0:
152,315,131822,1,2,0:2:0:0:
82,99,131969,5,10,1:1:0:0:
116,66,132043,1,0,3:0:0:0:
161,53,132116,1,0,3:0:0:0:
206,62,132190,1,0,3:0:0:0:
259,155,132263,5,10,2:2:0:0:
249,165,132337,1,0,3:0:0:0:
241,177,132410,1,0,3:0:0:0:
236,190,132484,1,0,3:0:0:0:
235,204,132557,1,4,3:1:0:0:
448,357,132851,5,0,3:0:0:0:
448,357,132998,1,0,3:2:0:0:
353,284,133145,1,2,3:3:0:0:
292,383,133293,1,0,3:0:0:0:
155,253,133440,1,0,3:0:0:0:
54,374,133587,1,0,3:2:0:0:
71,184,133734,5,2,3:3:0:0:
126,329,133881,1,2,3:2:0:0:
199,151,134028,5,0,3:0:0:0:
210,320,134175,1,2,3:2:0:0:
282,93,134322,5,2,3:3:0:0:
383,298,134469,1,2,3:2:0:0:
410,60,134616,5,0,3:0:0:0:
299,307,134763,1,2,3:2:0:0:
126,35,136087,6,0,B|110:78|110:78|120:131,1,94.499997116089,6|0,1:0|2:0,0:0:0:0:
110,307,136381,2,0,B|126:264|126:264|116:211,1,94.499997116089,6|0,1:0|2:0,0:0:0:0:
46,160,136675,2,0,L|199:178,1,148.50000453186,6|0,1:0|2:0,0:0:0:0:
263,130,136969,6,0,L|305:123,5,30,2|0|0|0|0|0,0:2|3:0|3:0|3:0|3:0|3:0,0:0:0:0:
348,228,137263,5,6,1:0:0:0:
185,45,138440,5,4,1:0:0:0:
351,126,139616,5,4,1:0:0:0:
195,316,140204,1,4,1:0:0:0:
496,189,140793,6,0,B|437:170|437:170|412:143|412:143|351:126,1,161.999995056153,4|0,0:3|2:0,0:0:0:0:
230,234,141087,2,2,B|311:199|311:199|360:212,1,135,4|0,0:0|2:0,0:0:0:0:
213,28,141381,2,0,B|272:59|271:127|271:127|220:149,1,175.499991966248,4|0,0:3|2:0,0:0:0:0:
276,368,141675,2,2,P|311:389|312:284,1,216,4|0,0:0|2:0,0:0:0:0:
302,290,141969,5,4,1:0:0:0:
86,58,143145,5,4,1:0:0:0:
9,239,144322,6,0,B|112:246|71:185|177:194,1,179.999994506836,4|2,1:3|0:2,0:0:0:0:
250,237,144910,5,12,3:2:0:0:
313,178,145008,1,8,0:2:0:0:
389,211,145106,1,8,0:2:0:0:
393,236,145204,5,12,3:2:0:0:
465,261,145302,1,10,0:2:0:0:
512,202,145400,1,10,0:2:0:0:
469,127,145498,6,0,L|373:138,1,96,4|0,3:3|3:0,0:0:0:0:
394,112,145793,1,8,0:0:0:0:
313,260,145989,1,2,0:2:0:0:
287,257,146087,2,0,L|191:245,1,96,0|0,3:0|3:0,0:0:0:0:
212,272,146381,1,8,0:0:0:0:
133,169,146577,1,2,0:2:0:0:
107,172,146675,2,0,L|11:184,1,96,0|0,3:0|3:0,0:0:0:0:
32,157,146969,1,8,0:0:0:0:
36,326,147165,1,2,0:2:0:0:
54,341,147263,6,0,B|85:369|85:369|103:265,1,143.999995605469,2|0,3:2|3:0,0:0:0:0:
204,81,147557,2,0,B|257:63|257:63|275:167,1,143.999995605469,10|0,0:2|0:0,0:0:0:0:
428,345,147851,6,0,L|440:249,1,96,2|0,3:2|3:0,0:0:0:0:
458,278,148145,1,8,0:0:0:0:
267,127,148342,1,2,0:2:0:0:
272,149,148440,2,0,L|284:244,1,96,0|0,3:0|3:0,0:0:0:0:
302,216,148734,1,8,0:0:0:0:
67,357,148930,1,2,0:2:0:0:
72,335,149028,2,0,L|84:240,1,96,0|0,3:0|3:0,0:0:0:0:
102,268,149322,1,8,0:0:0:0:
49,91,149518,1,2,0:2:0:0:
22,115,149616,6,0,B|81:100|81:100|115:132|154:135,1,143.999995605469,2|0,3:2|3:0,0:0:0:0:
302,216,149910,2,0,B|361:231|361:231|395:199|434:195,1,143.999995605469,10|0,0:2|0:0,0:0:0:0:
512,347,150204,6,0,L|369:326,1,120,6|0,3:2|3:0,0:0:0:0:
322,373,150498,2,0,B|287:322|287:322|240:357,1,120,10|0,0:0|0:0,0:0:0:0:
38,310,150793,6,2,B|98:304|98:304|136:277|136:277|209:270,1,180,2|8,3:1|0:0,0:0:0:0:
286,287,151185,1,0,3:0:0:0:
324,217,151283,1,0,3:0:0:0:
271,158,151381,1,0,3:0:0:0:
438,267,151577,6,0,P|410:277|380:282,1,60,2|8,0:0|0:0,0:0:0:0:
198,189,151773,2,0,P|171:177|141:174,1,60,2|0,0:0|0:0,0:0:0:0:
60,195,151969,2,2,P|144:184|185:103,1,180,2|8,3:1|0:0,0:0:0:0:
436,59,152459,1,2,0:0:0:0:
355,66,152557,6,0,P|335:113|389:145,1,120,2|0,3:2|3:0,0:0:0:0:
434,221,152851,2,0,P|454:268|400:300,1,120,8|0,0:0|3:0,0:0:0:0:
380,282,153145,1,4,0:1:0:0:
104,327,153342,1,0,3:0:0:0:
124,356,153440,6,0,B|116:287|116:287|121:270|121:270|111:191,1,155.999992858887,4|0,3:2|0:0,0:0:0:0:
104,104,153734,5,10,0:0:0:0:
201,180,153832,1,10,0:0:0:0:
83,225,153930,1,10,0:0:0:0:
132,116,154028,5,10,0:0:0:0:
174,198,154126,1,10,0:0:0:0:
80,192,154224,1,10,0:0:0:0:
130,167,154322,6,8,L|230:184,1,71.9999978027344,10|10,0:0|0:0,0:0:0:0:
351,98,154518,2,8,L|283:174,1,71.9999978027344,10|10,0:0|0:0,0:0:0:0:
292,307,154714,1,10,0:0:0:0:
284,278,154812,1,10,0:0:0:0:
278,250,154910,6,2,B|365:253|330:283|414:289,1,143.999995605469,6|0,3:0|0:0,0:0:0:0:
502,303,155204,2,0,P|490:269|482:233,1,71.9999978027344,8|0,0:2|0:0,0:0:0:0:
509,142,155400,1,0,0:0:0:0:
441,73,155498,2,0,P|403:133|400:204,1,143.999995605469,2|0,0:0|0:0,0:0:0:0:
278,250,155793,2,0,P|259:218|249:172,1,71.9999978027344,10|0,0:1|0:0,0:0:0:0:
285,107,155989,1,0,0:0:0:0:
72,177,156087,6,2,P|123:128|216:119,1,143.999995605469,2|0,0:0|0:0,0:0:0:0:
400,204,156381,2,0,P|367:189|331:185,1,71.9999978027344,8|0,0:2|0:0,0:0:0:0:
249,328,156577,1,2,0:0:0:0:
278,250,156675,2,2,B|194:241|220:277|138:274,1,143.999995605469,2|0,0:0|0:0,0:0:0:0:
335,352,156969,1,8,0:2:0:0:
406,300,157067,1,0,0:0:0:0:
483,336,157165,1,0,0:0:0:0:
456,358,157263,6,2,P|438:266|443:203,1,143.999995605469,2|0,0:0|0:0,0:0:0:0:
450,106,157557,2,0,P|423:129|392:148,1,71.9999978027344,8|0,0:2|0:0,0:0:0:0:
306,152,157753,1,2,0:0:0:0:
343,75,157851,2,2,P|267:34|180:50,1,143.999995605469,2|0,0:0|0:0,0:0:0:0:
284,220,158145,2,0,P|306:148|307:117,2,71.9999978027344,10|0|0,0:1|0:0|0:0,0:0:0:0:
170,113,158440,5,2,0:0:0:0:
390,195,158636,1,0,0:0:0:0:
396,172,158734,5,8,0:2:0:0:
157,236,158930,1,2,0:0:0:0:
151,213,159028,5,2,0:0:0:0:
379,316,159224,1,0,0:0:0:0:
385,293,159322,5,8,0:2:0:0:
301,256,159420,1,0,0:0:0:0:
245,324,159518,1,0,0:0:0:0:
254,350,159616,6,2,P|168:343|89:381,1,143.999995605469,2|0,0:0|0:0,0:0:0:0:
40,328,159910,2,0,P|23:295|17:260,1,71.9999978027344,8|0,0:2|0:0,0:0:0:0:
42,164,160106,1,0,0:0:0:0:
137,133,160204,2,2,P|156:208|130:284,1,143.999995605469,2|0,0:0|0:0,0:0:0:0:
246,181,160498,2,0,P|280:170|317:170,1,71.9999978027344,10|0,0:1|0:0,0:0:0:0:
391,207,160694,1,0,0:0:0:0:
486,322,160793,6,2,B|402:312|436:288|348:283,1,143.999995605469,2|0,0:0|0:0,0:0:0:0:
300,384,161087,2,0,P|336:379|368:364,1,71.9999978027344,8|0,0:2|0:0,0:0:0:0:
473,232,161283,1,2,0:0:0:0:
391,207,161381,2,2,P|357:143|357:70,1,143.999995605469,2|0,0:0|0:0,0:0:0:0:
165,19,161675,1,8,0:2:0:0:
215,89,161773,1,0,0:0:0:0:
177,166,161871,1,0,0:0:0:0:
150,142,161969,6,2,P|221:144|291:201,1,143.999995605469,2|0,0:0|0:0,0:0:0:0:
350,258,162263,2,0,P|361:223|361:188,1,71.9999978027344,8|0,0:2|0:0,0:0:0:0:
94,224,162459,1,2,0:0:0:0:
162,286,162557,2,0,P|173:320|173:355,1,71.9999978027344,2|0,0:0|0:0,0:0:0:0:
294,322,162753,1,0,0:0:0:0:
372,345,162851,2,0,P|403:328|429:303,1,71.9999978027344,10|0,0:1|0:0,0:0:0:0:
440,118,163047,1,0,0:0:0:0:
498,221,163145,6,2,B|447:214|447:214|416:193|416:193|360:187,1,143.999995605469,4|0,0:2|0:0,0:0:0:0:
162,286,163440,2,0,B|106:291|106:291|75:312|75:312|24:319,1,143.999995605469,4|0,0:3|0:0,0:0:0:0:
24,90,163734,5,8,0:2:0:0:
115,99,163832,1,8,0:2:0:0:
28,105,163930,1,8,0:2:0:0:
140,178,164028,5,8,0:2:0:0:
14,190,164126,1,8,0:2:0:0:
138,196,164224,1,8,0:2:0:0:
18,308,164322,6,0,B|85:290|85:290|125:319|194:324,1,167.999994873047,4|0,0:0|0:0,0:0:0:0:
198,305,164616,2,0,L|99:333,1,71.9999978027344,8|2,0:2|0:0,0:0:0:0:
265,352,164812,1,2,0:0:0:0:
301,250,164910,1,2,0:0:0:0:
355,335,165008,1,2,0:2:0:0:
420,285,165106,1,2,0:2:0:0:
443,307,165204,6,0,L|542:335,1,71.9999978027344,8|0,0:2|0:0,0:0:0:0:
482,71,165498,6,0,B|411:83|411:83|391:104|391:104|321:117,1,167.999994873047,2|2,0:0|0:0,0:0:0:0:
163,101,165793,2,0,P|199:105|230:124,2,71.9999978027344,8|0|2,0:2|0:0|0:0,0:0:0:0:
225,226,166087,1,2,0:0:0:0:
304,213,166185,1,2,0:2:0:0:
313,133,166283,1,2,0:2:0:0:
241,97,166381,2,0,P|171:107|133:165,1,143.999995605469,8|2,0:2|0:0,0:0:0:0:
22,254,166675,6,0,B|115:265|66:310|165:331,1,167.999994873047,2|0,0:0|0:0,0:0:0:0:
244,367,166969,1,8,0:2:0:0:
318,358,167067,1,2,0:2:0:0:
307,284,167165,1,2,0:2:0:0:
227,276,167263,5,2,0:0:0:0:
233,379,167361,1,2,0:2:0:0:
335,371,167459,1,2,0:0:0:0:
318,268,167557,1,8,0:2:0:0:
106,48,167753,5,2,0:0:0:0:
29,85,167851,2,0,P|62:79|108:70,2,71.9999978027344,2|0|0,0:0|0:0|0:0,0:0:0:0:
181,105,168145,2,0,P|214:110|260:120,1,71.9999978027344,8|0,0:2|0:0,0:0:0:0:
378,83,168342,1,2,0:0:0:0:
413,161,168440,1,2,0:0:0:0:
291,214,168538,1,0,0:2:0:0:
267,103,168636,5,2,0:0:0:0:
337,150,168734,2,0,L|322:313,1,143.999995605469,10|0,0:2|0:0,0:0:0:0:
473,344,169028,6,0,L|394:321,1,71.9999978027344,4|0,0:1|0:0,0:0:0:0:
156,190,169224,1,0,0:2:0:0:
143,274,169322,2,0,L|222:251,1,71.9999978027344,10|0,0:2|0:0,0:0:0:0:
474,228,169518,1,2,0:2:0:0:
487,144,169616,2,0,L|408:167,1,71.9999978027344,0|0,0:2|0:0,0:0:0:0:
178,18,169812,1,2,0:2:0:0:
121,82,169910,2,0,L|200:105,1,71.9999978027344,10|0,0:2|0:0,0:0:0:0:
384,313,170106,1,2,0:2:0:0:
295,344,170204,6,2,B|306:278|306:278|322:250|322:250|332:181,1,167.999994873047,4|0,0:3|0:0,0:0:0:0:
374,44,170498,2,0,P|422:92|401:184,1,143.999995605469,8|2,0:2|0:0,0:0:0:0:
341,196,170793,2,0,L|211:208,1,120,2|2,0:2|0:0,0:0:0:0:
143,176,171087,2,0,L|25:187,1,96,8|2,0:2|0:0,0:0:0:0:
8,161,171381,6,0,B|94:166|58:202|139:211,1,143.999995605469,2|0,0:0|0:0,0:0:0:0:
226,187,171675,1,8,0:2:0:0:
309,218,171773,1,8,0:2:0:0:
351,115,171871,1,10,0:1:0:0:
251,47,171969,6,0,L|269:126,1,71.9999978027344,2|8,0:0|0:2,0:0:0:0:
473,199,172165,1,8,0:2:0:0:
407,241,172263,6,0,L|389:320,1,71.9999978027344,2|2,0:0|0:0,0:0:0:0:
87,379,172557,1,4,0:1:0:0:
281,301,172753,5,10,3:2:0:0:
190,237,172851,1,10,0:2:0:0:
281,176,172949,1,8,0:2:0:0:
219,110,173047,1,8,0:2:0:0:
259,21,173145,5,2,0:2:0:0:
280,65,173243,1,8,0:2:0:0:
264,100,173342,1,8,0:2:0:0:
264,100,173440,6,0,L|259:238,1,107.999996704102,2|4,0:2|3:1,0:0:0:0:
502,352,174028,2,0,P|446:294|364:298,1,161.999995056153,8|2,0:0|3:2,0:0:0:0:
369,295,174518,1,0,3:0:0:0:
302,340,174616,2,0,L|181:350,1,107.999996704102,8|0,0:0|0:0,0:0:0:0:
117,375,174910,6,0,P|78:340|97:224,1,161.999995056153,2|8,3:2|0:0,0:0:0:0:
83,44,175400,1,0,0:0:0:0:
150,89,175498,2,0,P|164:150|140:204,1,107.999996704102,2|0,0:0|0:0,0:0:0:0:
149,191,175793,6,0,B|214:203|214:203|236:223|236:223|304:235,1,161.999995056153,10|0,0:0|3:0,0:0:0:0:
420,112,176381,2,0,P|342:98|279:145,1,161.999995056153,10|0,0:0|3:0,0:0:0:0:
279,145,176871,1,0,3:0:0:0:
310,220,176969,2,0,L|318:298,1,53.9999983520508,8|0,0:0|0:0,0:0:0:0:
379,380,177165,6,0,L|384:326,1,53.9999983520508,2|0,0:0|3:0,0:0:0:0:
226,316,177459,2,0,L|231:262,1,53.9999983520508,0|8,3:0|0:0,0:0:0:0:
73,252,177753,1,0,3:0:0:0:
91,173,177851,2,0,L|221:158,1,107.999996704102,2|0,3:2|0:0,0:0:0:0:
279,145,178145,1,10,0:0:0:0:
279,145,178440,6,0,L|386:157,1,107.999996704102,4|0,3:1|0:0,0:0:0:0:
460,126,178734,2,0,P|503:183|471:287,1,161.999995056153,8|2,0:0|0:0,0:0:0:0:
488,267,179224,1,0,3:0:0:0:
415,304,179322,2,0,P|362:305|318:335,1,107.999996704102,10|0,0:0|0:0,0:0:0:0:
236,344,179616,6,0,P|208:299|207:246,1,107.999996704102,2|0,3:2|3:0,0:0:0:0:
248,176,179910,1,10,0:0:0:0:
146,41,180204,2,0,P|174:86|175:139,1,107.999996704102,2|0,3:2|0:0,0:0:0:0:
248,176,180498,6,0,B|339:180|304:133|402:141,1,161.999995056153,10|0,0:0|3:0,0:0:0:0:
495,300,181087,2,0,P|453:235|375:226,1,161.999995056153,10|0,0:0|3:0,0:0:0:0:
68,133,181577,1,0,3:0:0:0:
55,213,181675,6,0,P|97:147|175:138,1,161.999995056153,12|0,0:0|3:0,0:0:0:0:
435,69,182263,2,0,P|367:64|316:110,1,107.999996704102,12|0,0:0|0:0,0:0:0:0:
266,145,182557,5,10,0:0:0:0:
279,224,182655,1,8,0:0:0:0:
292,303,182753,1,8,0:0:0:0:
366,272,182851,2,0,L|218:255,1,107.999996704102,10|8,0:0|0:0,0:0:0:0:
195,311,183145,6,0,B|133:318|133:318|103:341|103:341|41:348,1,161.999995056153,4|8,3:1|0:0,0:0:0:0:
154,82,183636,1,0,0:0:0:0:
85,119,183734,2,0,P|62:167|70:220,1,107.999996704102,2|0,3:2|0:0,0:0:0:0:
69,219,184028,2,0,L|176:231,1,107.999996704102,8|0,0:0|0:0,0:0:0:0:
234,175,184322,6,0,P|312:173|367:230,2,161.999995056153,2|8|2,3:2|0:0|3:2,0:0:0:0:
234,175,185106,1,0,3:0:0:0:
165,218,185204,6,0,B|158:285|158:285|143:312|143:312|136:375,1,161.999995056153,10|0,0:0|3:0,0:0:0:0:
136,375,185793,6,0,L|266:359,1,125.999996154785,10|0,0:0|3:0,0:0:0:0:
408,315,186381,6,0,L|324:304,1,83.9999974365235,10|0,0:0|0:0,0:0:0:0:
261,359,186675,6,0,B|239:317|239:317|254:233,1,132.00000402832,4|0,1:0|0:0,0:0:0:0:
213,44,186969,2,0,B|235:86|235:86|221:157,1,120,12|0,0:0|0:0,0:0:0:0:
173,229,187263,6,0,L|90:244,2,60,4|0|0,3:3|3:0|3:0,0:0:0:0:
305,164,187557,2,0,L|399:178,1,96,2|0,3:2|3:0,0:0:0:0:
488,345,187851,5,4,1:0:0:0:
488,345,188145,2,0,B|425:339|435:371|373:376,1,120,0|0,1:0|3:0,0:0:0:0:
244,255,188440,2,0,B|328:247|301:290|386:293,1,143.999995605469,0|0,1:0|3:0,0:0:0:0:
457,263,188734,2,0,P|435:222|433:172,1,96,0|0,1:0|3:0,0:0:0:0:
469,73,189028,6,0,P|450:129|403:165,1,120,0|0,1:0|3:0,0:0:0:0:
315,172,189322,6,0,P|264:122|194:109,1,143.999995605469,0|0,1:0|3:0,0:0:0:0:
29,320,189616,6,0,B|68:334|68:334|136:314|141:223,1,167.999994873047,0|0,1:0|3:0,0:0:0:0:
73,30,189910,6,0,B|44:10|11:20|11:20|-8:92|61:140,1,192,0|0,1:0|3:0,0:0:0:0:
128,162,190204,5,14,3:2:0:0:
448,240,190498,1,10,3:2:0:0:
128,162,190793,1,10,3:2:0:0:
448,240,191087,1,10,3:2:0:0:
128,162,191381,5,10,3:2:0:0:
174,173,191479,1,2,3:2:0:0:
220,184,191577,1,2,3:2:0:0:
304,204,191675,5,10,3:2:0:0:
331,211,191773,1,2,3:2:0:0:
358,218,191871,1,2,3:2:0:0:
448,240,191969,5,10,3:2:0:0:
225,297,192165,1,10,3:2:0:0:
2,354,192361,1,10,3:2:0:0:
487,257,198145,6,0,L|473:309,1,53.9999983520508,2|2,0:0|0:0,0:0:0:0:
471,319,198366,1,2,0:0:0:0:
469,329,198440,6,0,L|482:400,1,53.9999983520508,2|0,0:0|0:0,0:0:0:0:
382,317,198734,2,0,L|395:388,1,53.9999983520508,2|0,0:0|0:0,0:0:0:0:
76,215,199028,6,0,L|62:299,1,72,2|0,0:0|0:0,0:0:0:0:
162,200,199322,2,0,L|148:284,1,72,2|0,0:0|0:0,0:0:0:0:
442,133,199616,6,0,L|458:226,1,90,2|0,0:0|0:0,0:0:0:0:
357,120,199910,2,0,L|373:213,1,90,2|0,0:0|0:3,0:0:0:0:
131,17,200204,5,2,0:0:0:0:
102,29,200278,1,2,0:0:0:0:
82,52,200351,1,2,0:0:0:0:
74,83,200425,1,2,0:0:0:0:
81,113,200498,2,0,L|124:129,5,30,2|2|2|2|2|2,0:0|0:0|0:0|0:0|0:0|0:0,0:0:0:0:
86,144,200793,6,0,L|138:133,1,53.9999983520508,8|0,3:2|0:0,0:0:0:0:
312,39,200940,1,8,3:2:0:0:
498,215,201087,6,0,L|445:204,1,53.9999983520508,8|0,3:2|0:0,0:0:0:0:
272,110,201234,1,8,3:2:0:0:
86,286,201381,6,0,L|138:275,1,53.9999983520508,8|0,3:2|0:0,0:0:0:0:
312,181,201528,1,8,3:2:0:0:
498,357,201675,6,0,L|445:346,1,53.9999983520508,8|0,3:2|0:0,0:0:0:0:
272,252,201822,1,8,3:2:0:0:
272,252,202116,5,2,2:1:0:0:
312,181,202263,1,2,2:2:0:0:
272,110,202410,1,2,2:2:0:0:
312,39,202557,5,2,2:1:0:0:
312,39,202704,1,2,2:2:0:0:
312,39,202851,1,2,2:1:0:0:
272,110,203072,5,0,0:0:0:0:
312,181,203145,6,0,L|321:249,3,45,0|0|0|0,0:0|0:0|0:0|0:0,0:0:0:0:
272,252,203440,6,0,L|267:281,5,30,0|0|0|0|0|0,3:0|3:0|3:0|3:0|3:0|3:0,3:3:0:0:
339,316,203734,6,2,L|348:369,1,54,2|0,0:0|2:0,0:0:0:0:
423,333,204322,6,2,B|356:342|356:342|321:362|321:362|254:371,1,175.499991966248,4|0,3:1|2:0,0:0:0:0:
253,371,204616,2,2,P|236:324|232:275,1,99.0000030212403,10|0,1:1|0:0,0:0:0:0:
261,193,204910,1,2,3:1:0:0:
145,340,205057,2,0,L|70:357,2,49.5000015106202,0|0|8,0:0|0:0|1:0,0:0:0:0:
329,127,205351,1,2,0:2:0:0:
329,127,205425,1,2,0:2:0:0:
329,127,205498,6,0,P|345:173|349:222,1,99.0000030212403,0|0,3:0|0:0,0:0:0:0:
56,227,205793,2,2,P|128:210|177:157,1,148.50000453186,10|0,1:1|2:0,0:0:0:0:
184,71,206087,1,2,3:1:0:0:
261,193,206234,1,0,0:0:0:0:
324,22,206381,5,10,1:2:0:0:
100,112,206528,1,2,0:1:0:0:
348,121,206675,6,0,L|442:150,1,99.0000030212403,4|0,3:2|0:0,0:0:0:0:
249,339,206969,2,2,B|242:252|268:280|260:191,1,148.50000453186,8|0,1:2|2:0,0:0:0:0:
221,116,207263,1,2,3:2:0:0:
338,291,207410,1,0,0:0:0:0:
169,236,207557,2,0,L|121:248,2,49.5000015106202,10|0|0,1:2|0:2|0:2,0:0:0:0:
399,225,207851,6,0,P|421:268|423:317,1,99.0000030212403,2|0,3:2|0:0,0:0:0:0:
298,183,208145,1,10,1:0:0:0:
222,335,208293,1,0,0:0:0:0:
71,219,208440,2,0,L|169:236,1,99.0000030212403,2|0,3:2|3:0,0:0:0:0:
346,374,208734,5,12,1:2:0:0:
243,105,208881,1,2,0:1:0:0:
489,200,209028,6,2,B|449:149|388:150|388:150|360:181|315:184,1,198.000006042481,6|8,3:1|1:0,0:0:0:0:
392,64,209469,1,0,0:0:0:0:
198,324,209616,2,2,P|180:279|180:230,1,99.0000030212403,2|0,3:1|0:0,0:0:0:0:
151,124,209910,1,8,1:0:0:0:
274,261,210057,1,0,0:0:0:0:
96,284,210204,5,2,0:1:0:0:
96,284,210278,1,0,0:0:0:0:
96,284,210351,1,0,0:0:0:0:
96,284,210425,1,0,0:0:0:0:
96,284,210498,2,0,L|0:303,1,99.0000030212403,4|0,1:0|0:0,0:0:0:0:
451,329,210793,5,8,3:2:0:0:
447,310,210866,1,8,3:2:0:0:
443,291,210940,2,8,L|435:242,1,49.5000015106202,8|0,3:2|0:2,3:3:0:0:
393,38,211087,1,8,3:2:0:0:
356,58,211160,1,0,3:2:0:0:
332,92,211234,1,0,3:2:0:0:
326,134,211307,1,0,3:2:0:0:
340,174,211381,1,4,1:3:0:0:
498,156,211528,5,0,3:2:0:0:
498,156,211601,1,2,3:2:0:0:
498,156,211675,1,2,3:2:0:0:
348,264,211822,2,0,L|280:255,1,53.9999983520508,6|0,3:1|0:0,0:0:0:0:
241,131,211969,2,0,L|173:140,1,53.9999983520508,0|2,3:0|0:2,0:0:0:0:
102,296,212116,1,0,3:0:0:0:
13,200,212263,5,6,3:1:0:0:
56,195,212337,1,0,3:0:0:0:
97,205,212410,1,0,3:0:0:0:
137,217,212484,1,0,3:0:0:0:
180,215,212557,2,0,L|191:129,1,53.9999983520508,0|0,3:0|3:0,3:3:0:0:
394,232,212704,5,6,3:1:0:0:
442,252,212778,1,0,3:0:0:0:
464,300,212851,1,0,3:0:0:0:
449,350,212925,1,0,3:0:0:0:
403,377,212998,1,0,3:0:0:0:
351,366,213072,1,0,3:0:0:0:
320,324,213145,6,0,L|308:236,1,62.9999980773926,6|0,1:0|2:0,0:0:0:0:
106,78,213293,1,6,1:2:0:0:
106,78,213587,6,2,L|205:98,1,99.0000030212403,4|0,3:1|0:0,0:0:0:0:
300,244,213881,1,0,3:0:0:0:
441,40,214028,2,2,B|354:27|380:65|295:56,1,148.50000453186,10|0,1:1|2:0,0:0:0:0:
296,57,214322,2,2,P|291:106|281:154,1,99.0000030212403,2|0,3:1|3:0,0:0:0:0:
207,240,214616,1,8,1:2:0:0:
386,326,214763,1,2,0:2:0:0:
386,326,214837,1,2,0:2:0:0:
386,326,214910,6,0,P|391:277|401:229,1,99.0000030212403,0|0,3:0|0:0,0:0:0:0:
87,96,215204,2,2,P|81:170|119:234,1,148.50000453186,10|0,1:1|0:0,0:0:0:0:
207,240,215498,1,2,3:1:0:0:
110,319,215645,1,0,0:0:0:0:
186,140,215793,5,10,1:2:0:0:
271,351,215940,1,2,0:0:0:0:
399,205,216087,6,0,L|301:224,1,99.0000030212403,4|0,3:2|0:0,0:0:0:0:
186,140,216381,2,2,L|332:113,1,148.50000453186,10|0,1:2|2:0,0:0:0:0:
332,113,216675,2,2,L|348:46,2,49.5000015106202,2|0|0,3:2|0:1|0:1,3:1:0:0:
349,301,216969,1,8,1:0:0:0:
272,223,217116,1,0,0:0:0:0:
392,185,217263,5,2,3:1:0:0:
215,341,217410,1,2,0:2:0:0:
205,115,217557,1,10,1:0:0:0:
409,361,217704,1,2,0:2:0:0:
120,376,217851,6,0,P|113:321|103:266,1,99.0000030212403,10|0,1:2|0:0,0:0:0:0:
274,26,218145,2,2,B|248:117|248:117|263:135|281:176,1,148.50000453186,0|0,1:0|0:0,0:0:0:0:
275,163,218440,1,6,3:2:0:0:
453,322,218734,5,8,1:0:0:0:
453,322,218881,1,0,3:0:0:0:
376,275,219028,1,2,3:1:0:0:
283,322,219175,1,0,3:0:0:0:
190,254,219322,1,8,1:0:0:0:
84,323,219469,1,0,3:0:0:0:
40,167,219616,5,2,3:1:0:0:
208,240,219763,1,0,3:0:0:0:
287,139,219910,1,8,1:0:0:0:
123,202,220057,1,0,3:0:0:0:
34,55,220204,5,2,3:1:0:0:
64,67,220278,1,0,3:0:0:0:
95,79,220351,1,0,3:0:0:0:
126,91,220425,1,0,3:0:0:0:
179,93,220498,6,0,L|127:112,1,47.2499985580445,8|0,1:0|1:0,0:0:0:0:
26,261,220645,2,0,L|78:280,1,47.2499985580445,12|0,1:0|1:0,0:0:0:0:
202,358,220793,6,2,P|203:310|192:264,1,94.499997116089,4|0,3:1|0:0,0:0:0:0:
336,88,221087,2,0,P|314:154|324:224,1,141.749995674133,8|0,1:0|0:0,0:0:0:0:
316,241,221381,2,2,P|373:245|414:258,1,94.499997116089,4|0,3:2|0:0,0:0:0:0:
186,130,221675,2,0,B|110:134|134:164|52:171,1,141.749995674133,8|0,1:0|0:0,0:0:0:0:
63,155,221969,6,2,L|80:247,1,94.499997116089,4|0,3:0|3:0,0:0:0:0:
202,379,222190,1,0,3:0:0:0:
205,360,222263,2,0,L|213:313,1,47.2499985580445,8|0,3:2|3:0,0:0:0:0:
324,167,222410,2,0,L|332:214,1,47.2499985580445,0|0,3:0|3:0,0:0:0:0:
407,247,222557,5,6,1:0:0:0:
376,282,222631,1,0,3:0:0:0:
331,295,222704,1,0,3:0:0:0:
287,281,222778,1,0,3:0:0:0:
240,216,222851,5,8,3:2:0:0:
209,180,222925,1,0,3:0:0:0:
164,167,222998,1,8,3:2:0:0:
120,181,223072,1,0,3:0:0:0:
76,259,223145,5,4,3:2:0:0:
479,378,223440,5,0,3:2:0:0:
402,354,223587,1,0,3:2:0:0:
437,281,223734,5,2,3:3:0:0:
296,330,223881,1,2,3:2:0:0:
320,252,224028,5,0,3:2:0:0:
160,196,224175,1,2,3:2:0:0:
91,255,224322,5,2,3:3:0:0:
272,152,224469,1,2,3:2:0:0:
320,252,224616,5,0,3:2:0:0:
122,116,224763,1,2,3:2:0:0:
26,197,224910,5,8,3:2:0:0:
335,61,225057,1,10,3:2:0:0:
3,5,225204,5,8,3:2:0:0:
374,173,225351,1,10,3:2:0:0:
97,186,226675,6,0,L|199:204,1,94.499997116089,6|0,1:0|2:0,0:0:0:0:
296,369,226969,2,0,L|263:269,1,94.499997116089,6|0,1:0|2:0,0:0:0:0:
384,80,227263,2,0,L|292:186,1,125.999996154785,6|2,1:0|0:2,0:0:0:0:
205,205,227704,1,2,0:2:0:0:
11,341,227851,6,2,P|78:284|164:296,1,180,4|8,3:2|0:0,0:0:0:0:
114,111,228293,2,0,P|109:155|92:201,1,90,2|0,0:0|3:0,0:0:0:0:
244,352,228587,1,0,3:0:0:0:
183,204,228734,1,0,1:0:0:0:
268,256,228881,6,2,L|372:237,1,90,2|0,0:0|0:0,0:0:0:0:
473,90,229175,1,0,3:0:0:0:
512,215,229322,2,0,B|454:197|454:197|431:159|431:159|359:136,1,180,8|0,1:0|3:0,0:0:0:0:
177,93,229763,1,2,3:1:0:0:
179,110,229837,1,0,3:0:0:0:
182,127,229910,1,8,1:0:0:0:
284,48,230057,1,2,0:0:0:0:
245,270,230204,6,2,L|259:181,1,90,6|0,3:2|3:0,0:0:0:0:
15,120,230498,1,8,1:0:0:0:
78,64,230645,2,2,B|131:75|131:75|160:122|150:197,1,180,2|0,0:0|3:0,0:0:0:0:
70,312,231087,2,0,P|111:294|155:286,1,90,8|2,1:0|0:0,0:0:0:0:
277,189,231381,5,2,3:1:0:0:
204,355,231528,1,0,3:0:0:0:
487,230,231675,2,2,B|384:217|422:276|314:265,1,180,8|0,1:0|3:0,0:0:0:0:
166,170,232116,1,2,3:1:0:0:
169,187,232190,1,0,3:0:0:0:
172,204,232263,1,8,1:0:0:0:
326,119,232410,1,2,0:0:0:0:
143,93,232557,6,2,L|120:286,1,180,4|8,3:2|1:0,0:0:0:0:
55,384,232998,2,0,P|38:332|44:272,1,90,2|0,0:0|3:0,0:0:0:0:
194,315,233293,1,0,3:0:0:0:
44,200,233440,1,8,1:0:0:0:
240,136,233587,6,2,P|257:188|251:248,1,90,2|0,0:0|0:0,0:0:0:0:
194,315,233881,1,0,3:0:0:0:
327,105,234028,2,0,P|240:100|182:23,1,180,8|0,1:0|3:0,0:0:0:0:
47,222,234469,1,2,3:1:0:0:
64,218,234543,1,0,3:0:0:0:
81,215,234616,2,0,L|180:196,1,90,8|2,1:0|0:0,0:0:0:0:
252,243,234910,5,6,3:2:0:0:
103,116,235057,1,0,0:0:0:0:
77,318,235204,1,8,1:0:0:0:
255,151,235351,2,2,L|273:62,1,90,2|0,0:0|0:0,0:0:0:0:
352,250,235645,5,0,3:0:0:0:
419,197,235793,1,8,1:0:0:0:
183,99,235940,1,2,0:0:0:0:
5,226,236087,5,6,3:1:0:0:
58,220,236160,1,2,0:2:0:0:
103,222,236234,1,10,0:2:0:0:
136,234,236307,1,8,0:2:0:0:
160,244,236381,1,8,0:2:0:0:
185,251,236454,1,0,0:2:0:0:
212,253,236528,1,2,0:2:0:0:
238,253,236601,1,2,0:2:0:0:
262,248,236675,2,8,L|275:201,3,45,8|0|0|0,3:2|3:2|3:2|3:2,0:0:0:0:
351,247,236969,2,8,L|362:290,3,45,8|0|0|0,3:2|3:2|3:2|3:2,0:0:0:0:
447,329,237263,6,0,P|504:262|486:177,1,180,4|8,3:2|1:0,0:0:0:0:
318,95,237704,1,2,0:2:0:0:
466,70,237851,2,0,P|434:101|395:123,1,90,4|0,3:0|3:0,0:0:0:0:
237,184,238145,1,8,1:0:0:0:
292,10,238293,1,0,0:0:0:0:
54,27,238440,6,0,P|141:24|206:83,1,180,4|8,3:2|1:0,0:0:0:0:
300,251,238881,2,0,P|317:209|322:165,1,90,2|4,0:2|3:0,0:0:0:0:
42,138,239175,1,0,3:0:0:0:
124,143,239322,2,0,P|141:184|146:228,1,90,10|0,1:2|0:0,0:0:0:0:
24,354,239616,6,0,B|129:345|89:305|194:303,1,180,4|8,3:2|1:0,0:0:0:0:
241,191,240057,1,2,0:2:0:0:
336,316,240204,2,0,P|338:271|323:229,1,90,4|0,3:0|3:0,0:0:0:0:
279,2,240498,2,0,P|276:46|291:88,1,90,10|0,1:2|0:0,0:0:0:0:
461,101,240793,6,0,L|368:124,1,90,4|0,3:2|0:0,0:0:0:0:
109,166,241087,2,0,L|242:187,1,135,8|0,1:0|0:0,0:0:0:0:
512,230,241381,6,0,L|419:253,1,90,4|0,3:0|0:0,0:0:0:0:
101,343,241675,2,0,L|115:285,1,45,8|0,1:0|1:0,1:1:0:0:
186,267,241822,2,0,L|196:310,1,45,0|0,1:0|1:0,1:1:0:0:
315,384,241969,6,0,L|336:242,1,135,4|0,3:1|0:0,0:0:0:0:
322,223,242263,2,0,L|340:313,1,90,8|2,1:0|0:2,0:0:0:0:
398,99,242557,2,0,B|334:112|334:112|305:144|305:144|233:158,1,180,4|8,3:0|1:0,0:0:0:0:
121,191,242998,1,0,0:0:0:0:
103,21,243145,6,0,P|189:11|256:73,1,180,4|8,3:2|1:0,0:0:0:0:
321,255,243587,1,2,0:2:0:0:
391,191,243734,2,0,L|417:290,1,90,4|0,3:0|0:0,0:0:0:0:
98,278,244028,2,0,L|121:191,1,90,8|0,1:0|0:0,0:0:0:0:
247,21,244322,6,0,B|229:127|277:84|253:197,1,180,4|8,3:2|1:0,0:0:0:0:
253,311,244763,1,2,0:2:0:0:
454,193,244910,2,0,L|358:174,1,90,2|0,3:2|3:0,0:0:0:0:
64,100,245204,2,0,L|160:81,1,90,10|0,3:2|3:0,0:0:0:0:
399,76,245498,5,8,3:2:0:0:
277,124,245645,1,8,3:2:0:0:
68,188,245793,5,8,3:2:0:0:
236,239,245940,1,8,3:2:0:0:
430,339,246087,6,2,B|348:338|351:260|351:260|376:334|283:376,1,270,4|0,0:1|0:0,0:0:0:0:
214,338,246601,2,0,P|190:324|164:319,1,53.9999983520508,0|4,0:0|0:0,0:0:0:0:
256,192,246748,12,0,250645,0:0:0:0:
111,262,250793,5,8,3:2:0:0:
185,47,250940,1,8,3:2:0:0:
400,121,251087,1,8,3:2:0:0:
326,336,251234,1,8,3:2:0:0:
