osu file format v14

[General]
AudioFilename: audio.mp3
AudioLeadIn: 0
PreviewTime: 49485
Countdown: 0
SampleSet: Soft
StackLeniency: 0.7
Mode: 0
LetterboxInBreaks: 0
WidescreenStoryboard: 1

[Editor]
Bookmarks: 46705,47144
DistanceSpacing: 6
BeatDivisor: 4
GridSize: 4
TimelineZoom: 1.8

[Metadata]
Title:Independence
TitleUnicode:Independence
Artist:Kanzaki Elsa Starring ReoNa
ArtistUnicode:神崎エルザ Starring レオナ
Creator:Sparhten
Version:Insane
Source:ソードアート・オンライン オルタナティブ ガンゲイル・オンライン
Tags:SAO GGO sword art online alternative Cococolaco ImpurePug DaDa Nao Tomori naotoshi loli catgirl Gun Gale
BeatmapID:1809159
BeatmapSetID:863324

[Difficulty]
HPDrainRate:6
CircleSize:4
OverallDifficulty:7
ApproachRate:9
SliderMultiplier:1.7
SliderTickRate:2

[Events]
//Background and Video events
0,0,"mgOYd6c.jpg",0,0
//Break Periods
//Storyboard Layer 0 (Background)
//Storyboard Layer 1 (Fail)
//Storyboard Layer 2 (Pass)
//Storyboard Layer 3 (Foreground)
//Storyboard Sound Samples

[TimingPoints]
315,292.682926829268,4,2,1,50,1,0
315,-100,4,2,1,50,0,0
1997,-100,4,2,1,50,0,0
2217,-100,4,2,1,25,0,0
2363,-100,4,2,1,35,0,0
2656,-100,4,2,1,55,0,0
11875,-100,4,2,1,40,0,0
12022,-142.857142857143,4,2,1,50,0,0
21388,-111.111111111111,4,2,1,55,0,0
26071,-111.111111111111,4,2,1,45,0,0
30754,-142.857142857143,4,2,1,40,0,0
40119,-125,4,2,1,45,0,0
44802,-111.111111111111,4,2,1,50,0,0
47144,-111.111111111111,4,2,1,55,0,0
48022,-111.111111111111,4,2,1,60,0,0
49485,-90.9090909090909,4,2,1,60,0,1
65583,-100,4,2,1,65,0,0
65875,-66.6666666666667,4,2,1,65,0,1
66314,-66.6666666666667,4,2,1,65,0,0
66754,-66.6666666666667,4,2,1,65,0,1
67193,-66.6666666666667,4,2,1,65,0,0

[Colours]
Combo1 : 255,255,179
Combo2 : 238,238,238
Combo3 : 138,197,255

[HitObjects]
256,192,315,12,0,2071,0:0:0:0:
128,224,2217,5,0,1:2:0:0:
339,146,2363,1,8,0:0:0:0:
339,146,2656,6,0,L|329:249,1,85,12|0,1:2|0:0,0:0:0:0:
416,263,2949,2,0,B|325:245|340:338|234:296,1,170,0|0,1:2|1:0,0:0:0:0:
189,229,3388,1,0,1:0:0:0:
137,293,3534,1,8,2:0:0:0:
137,293,3680,1,0,0:0:0:0:
138,155,3827,6,0,P|218:145|232:149,1,85,0|0,1:0|1:0,0:0:0:0:
394,190,4119,1,8,2:0:0:0:
387,82,4266,2,0,P|324:138|293:219,1,170,0|0,2:2|1:2,0:0:0:0:
245,310,4705,2,0,P|285:305|330:305,1,85,8|0,0:0|0:0,0:0:0:0:
425,271,4997,5,0,1:0:0:0:
425,271,5144,1,0,1:0:0:0:
449,181,5290,2,0,B|387:179|387:179|355:206|355:206|263:200,1,170,8|0,0:0|0:0,0:0:0:0:
197,230,5729,1,0,1:0:0:0:
307,116,5875,1,8,0:0:0:0:
307,116,6022,1,0,0:0:0:0:
167,140,6168,6,0,P|194:198|202:232,1,85,0|0,1:0|1:0,0:0:0:0:
93,207,6461,1,8,0:0:0:0:
169,357,6607,1,0,1:0:0:0:
114,285,6754,1,0,1:0:0:0:
143,272,6827,1,0,1:0:0:0:
174,269,6900,1,0,1:0:0:0:
205,276,6973,1,0,1:0:0:0:
235,292,7046,2,0,P|279:299|328:285,1,85,12|0,1:2|0:0,0:0:0:0:
405,327,7339,6,0,L|411:243,1,85,0|0,1:0|0:0,0:0:0:0:
497,121,7632,2,0,P|451:188|370:180,1,170,0|0,1:0|0:0,0:0:0:0:
305,94,8071,1,0,1:2:0:0:
397,70,8217,1,8,0:0:0:0:
227,32,8363,1,0,1:0:0:0:
324,14,8510,5,0,1:0:0:0:
285,172,8656,1,0,1:2:0:0:
227,46,8802,1,8,0:0:0:0:
77,118,8949,2,0,P|153:130|198:219,1,170,0|0,1:2|1:0,0:0:0:0:
150,283,9388,2,0,P|196:294|242:288,1,85,0|0,1:0|1:0,0:0:0:0:
340,262,9680,5,8,0:0:0:0:
460,169,9827,1,0,1:0:0:0:
348,256,9973,5,8,0:0:0:0:
511,317,10119,1,0,1:0:0:0:
435,361,10266,2,0,L|432:268,1,85,8|0,0:0|1:0,0:0:0:0:
287,176,10558,5,8,0:0:0:0:
446,254,10705,1,0,1:0:0:0:
369,140,10851,2,0,L|363:232,1,85,8|0,0:0|1:0,0:0:0:0:
269,182,11144,5,0,1:0:0:0:
445,108,11290,1,8,0:0:0:0:
309,60,11436,2,0,P|302:24|297:8,4,42.5,0|0|0|0|8,1:0|1:0|1:0|1:0|1:2,0:0:0:0:
329,143,11875,5,2,0:0:0:0:
324,168,12022,2,0,P|255:179|195:200,1,118.999996368408,2|0,0:0|0:0,0:0:0:0:
95,161,12461,1,2,0:0:0:0:
118,172,12607,2,0,L|129:245,1,59.4999981842042,2|0,0:0|0:0,0:0:0:0:
35,310,13046,5,2,0:0:0:0:
46,334,13193,2,0,P|121:337|182:353,1,118.999996368408,2|2,0:0|0:0,0:0:0:0:
239,373,13632,2,0,L|256:255,1,118.999996368408,2|2,0:0|0:0,0:0:0:0:
363,114,14217,5,2,0:0:0:0:
351,138,14363,2,0,P|290:152|224:149,1,118.999996368408,2|0,0:0|0:0,0:0:0:0:
156,103,14802,1,2,0:0:0:0:
142,122,14949,2,0,L|153:195,1,59.4999981842042,2|0,0:0|0:0,0:0:0:0:
96,297,15388,5,2,0:0:0:0:
115,319,15534,2,0,P|143:318|190:309,1,59.4999981842042,2|0,0:0|0:0,0:0:0:0:
267,175,15827,1,2,0:0:0:0:
283,258,15973,2,0,P|255:257|208:248,1,59.4999981842042,2|0,0:0|0:0,0:0:0:0:
143,99,16266,2,0,P|171:98|218:89,1,59.4999981842042,2|0,0:0|0:0,0:0:0:0:
291,86,16558,2,0,B|175:85|196:199|67:177,1,237.999992736817,2|0,0:0|0:0,0:0:0:0:
295,187,17583,5,2,0:0:0:0:
302,206,17729,2,0,B|418:205|397:319|526:297,1,237.999992736817,2|0,0:0|0:0,0:0:0:0:
205,127,18754,5,2,0:0:0:0:
219,145,18900,2,0,P|208:183|214:263,1,118.999996368408,2|0,0:0|0:0,0:0:0:0:
112,315,19339,1,2,0:0:0:0:
119,338,19485,2,0,P|182:340|248:367,1,118.999996368408,2|2,0:0|0:0,0:0:0:0:
439,234,20071,6,0,B|384:256|384:256|323:238,1,118.999996368408,2|2,0:0|0:0,0:0:0:0:
271,153,20510,1,0,0:0:0:0:
320,226,20656,1,0,0:0:0:0:
271,138,20802,1,0,0:0:0:0:
179,216,20949,1,0,1:0:0:0:
31,138,21095,2,0,P|69:142|124:164,1,89.2499972763062,12|0,1:2|0:0,0:0:0:0:
117,160,21388,6,0,P|131:242|139:315,1,152.999995330811,6|8,1:2|0:0,0:0:0:0:
85,276,21827,1,2,0:0:0:0:
206,355,21973,2,0,P|272:350|319:352,1,76.4999976654053,2|0,0:0|1:0,0:0:0:0:
374,299,22266,1,8,0:0:0:0:
425,358,22412,1,2,0:0:0:0:
387,272,22558,6,0,P|339:277|302:263,1,76.4999976654053,2|0,1:2|1:0,0:0:0:0:
353,193,22851,1,10,0:0:0:0:
299,125,22997,2,0,P|343:110|433:162,1,152.999995330811,10|0,0:0|1:0,0:0:0:0:
463,265,23436,2,0,L|361:274,1,76.4999976654053,8|2,0:0|0:0,0:0:0:0:
246,304,23729,6,0,B|317:294|332:381|403:352,1,152.999995330811,2|8,1:2|0:0,0:0:0:0:
158,356,24168,1,2,0:0:0:0:
163,338,24314,2,0,L|148:237,1,76.4999976654053,2|0,0:0|1:0,0:0:0:0:
141,168,24607,1,8,0:0:0:0:
76,230,24754,1,2,0:0:0:0:
47,144,24900,6,0,P|88:151|127:151,1,76.4999976654053,2|0,1:2|1:0,0:0:0:0:
242,235,25193,1,10,0:0:0:0:
370,151,25339,2,0,P|290:168|237:228,1,152.999995330811,2|2,1:2|1:2,0:0:0:0:
338,250,25778,2,0,P|375:249|418:257,1,76.4999976654053,8|2,0:0|0:0,0:0:0:0:
265,311,26071,5,14,1:2:0:0:
265,311,26217,1,0,0:0:0:0:
216,210,26363,1,8,0:0:0:0:
216,210,26510,1,0,0:0:0:0:
163,338,26656,2,0,L|81:345,1,76.4999976654053,0|0,0:0|1:0,0:0:0:0:
46,210,26949,1,10,1:2:0:0:
56,230,27095,6,0,L|138:237,2,76.4999976654053,2|2|0,1:2|1:2|0:0,0:0:0:0:
108,137,27534,1,8,1:2:0:0:
108,137,27680,1,0,0:0:0:0:
80,49,27827,2,0,P|38:78|20:110,1,76.4999976654053,0|0,1:2|0:0,0:0:0:0:
167,50,28119,1,10,1:2:0:0:
169,67,28266,6,0,P|241:64|270:70,2,76.4999976654053,0|6|0,0:0|1:2|0:0,0:0:0:0:
208,147,28705,1,8,0:0:0:0:
207,238,28851,2,0,L|217:140,1,76.4999976654053,2|0,1:2|0:0,0:0:0:0:
126,184,29144,1,0,1:2:0:0:
317,191,29290,1,8,0:0:0:0:
299,208,29436,6,0,L|315:366,1,152.999995330811,2|2,1:2|1:2,0:0:0:0:
388,273,29875,1,8,0:0:0:0:
264,324,30022,1,0,1:0:0:0:
173,252,30168,2,0,L|149:345,1,76.4999976654053,8|0,0:0|0:0,0:0:0:0:
93,175,30461,2,0,L|38:254,1,76.4999976654053,0|0,0:0|1:2,0:0:0:0:
314,154,30754,6,0,P|372:170|445:165,1,118.999996368408,14|2,1:2|1:2,0:0:0:0:
285,76,31339,2,0,L|291:145,1,59.4999981842042,2|2,1:2|0:0,0:0:0:0:
384,84,31632,1,2,1:2:0:0:
202,110,31778,6,0,L|126:96,1,59.4999981842042,2|2,0:0|1:2,0:0:0:0:
85,197,32071,2,0,L|161:183,1,59.4999981842042,2|2,0:0|1:2,0:0:0:0:
197,287,32363,2,0,L|121:273,2,59.4999981842042,2|2|0,0:0|1:2|0:0,0:0:0:0:
281,248,32802,1,2,1:2:0:0:
281,248,32949,1,0,0:0:0:0:
375,202,33095,6,0,B|308:193|315:242|243:216,1,118.999996368408,2|0,1:2|1:0,0:0:0:0:
186,169,33534,2,0,P|177:197|171:242,1,59.4999981842042,2|0,0:2|1:0,0:0:0:0:
96,184,33827,2,0,P|91:154|81:126,1,59.4999981842042,2|0,0:0|1:0,0:0:0:0:
54,41,34119,1,2,0:0:0:0:
54,41,34266,6,0,P|117:42|167:97,1,118.999996368408,2|0,1:2|1:0,0:0:0:0:
249,47,34705,1,0,0:0:0:0:
279,129,34851,1,0,1:0:0:0:
247,37,34997,1,0,0:0:0:0:
273,149,35144,2,0,P|318:163|351:166,1,59.4999981842042,2|0,1:2|0:0,0:0:0:0:
435,106,35436,6,0,P|388:129|334:200,1,118.999996368408,6|0,1:2|1:0,0:0:0:0:
435,210,35875,1,0,0:0:0:0:
369,278,36022,2,0,L|289:285,1,59.4999981842042,2|0,1:2|0:0,0:0:0:0:
214,333,36314,1,2,1:2:0:0:
228,328,36461,6,0,P|216:294|218:255,1,59.4999981842042,2|0,0:0|1:0,0:0:0:0:
135,218,36754,2,0,L|115:288,1,59.4999981842042,2|0,0:0|1:0,0:0:0:0:
49,215,37046,2,0,L|38:152,1,59.4999981842042,2|0,0:0|1:0,0:0:0:0:
98,66,37339,1,0,0:0:0:0:
109,84,37485,2,0,P|158:95|207:95,1,89.2499972763062,2|0,1:2|0:0,0:0:0:0:
197,96,37778,6,0,P|252:115|278:188,1,118.999996368408,2|2,1:2|1:2,0:0:0:0:
365,223,38217,2,0,L|370:158,1,59.4999981842042,2|0,0:2|1:0,0:0:0:0:
448,122,38510,2,0,L|452:181,1,59.4999981842042,2|0,0:0|1:0,0:0:0:0:
278,166,38802,1,2,0:0:0:0:
277,182,38949,6,0,P|225:189|165:237,1,118.999996368408,2|2,1:2|1:2,0:0:0:0:
255,276,39388,1,0,0:0:0:0:
89,378,39534,1,0,1:0:0:0:
89,378,39680,1,0,0:0:0:0:
91,290,39827,2,0,P|150:312|170:353,1,89.2499972763062,0|0,1:0|0:0,0:0:0:0:
177,354,40119,6,0,L|245:361,1,68,6|2,1:2|0:0,0:0:0:0:
348,264,40412,2,0,L|270:273,1,68,2|0,1:2|0:0,0:0:0:0:
222,202,40705,1,2,1:2:0:0:
222,202,40851,1,2,0:0:0:0:
382,126,40997,1,0,1:2:0:0:
281,38,41144,1,2,0:0:0:0:
281,38,41217,1,2,0:0:0:0:
281,38,41290,5,2,1:2:0:0:
305,185,41436,2,0,L|296:117,1,68,2|0,0:0|1:2,0:0:0:0:
472,89,41729,2,0,L|463:156,2,68,2|0|0,0:2|1:0|0:0,0:0:0:0:
305,185,42168,1,2,1:2:0:0:
373,310,42314,1,0,0:0:0:0:
425,227,42461,6,0,B|360:229|372:289|286:273,1,136,2|2,1:2|1:2,0:0:0:0:
220,256,42900,2,0,P|178:253|144:264,1,68,0|0,0:2|1:0,0:0:0:0:
38,324,43193,2,0,P|71:331|105:329,1,68,2|0,0:2|1:0,0:0:0:0:
72,246,43485,1,2,0:0:0:0:
72,246,43558,1,0,0:0:0:0:
72,246,43632,6,0,P|65:170|45:88,1,136,2|0,1:2|1:0,0:0:0:0:
239,186,44071,1,0,0:0:0:0:
250,101,44217,2,0,L|241:169,1,68,0|0,1:0|0:0,0:0:0:0:
214,279,44510,2,0,L|225:321,2,34,2|0|0,1:2|0:0|0:0,0:0:0:0:
331,273,44802,6,0,P|368:266|405:257,1,76.4999976654053,10|0,0:0|1:0,0:0:0:0:
231,184,45095,2,0,P|193:190|156:199,1,76.4999976654053,8|0,0:0|1:0,0:0:0:0:
92,264,45388,1,10,0:2:0:0:
32,191,45534,1,0,1:0:0:0:
95,275,45680,1,10,0:0:0:0:
26,345,45827,6,2,L|22:384,2,38.2499988327027,2|2|10,1:2|1:2|1:2,0:0:0:0:
90,289,46119,2,0,P|127:297|165:302,1,76.4999976654053,2|8,1:2|0:0,0:0:0:0:
242,362,46412,2,0,P|247:324|255:286,1,76.4999976654053,2|0,1:2|1:0,0:0:0:0:
237,188,46705,5,2,1:2:0:0:
274,193,46778,1,0,1:0:0:0:
307,212,46851,1,2,1:2:0:0:
330,242,46924,1,0,1:0:0:0:
341,279,46997,1,2,1:2:0:0:
461,335,47144,2,0,P|465:293|478:255,2,76.4999976654053,14|0|0,1:2|1:0|1:0,0:0:0:0:
325,192,47583,2,0,P|321:150|308:112,2,76.4999976654053,14|0|0,1:2|1:0|1:0,0:0:0:0:
81,103,48022,6,0,P|131:98|204:174,1,152.999995330811,14|0,1:2|0:0,0:0:0:0:
113,192,48461,1,0,1:0:0:0:
215,156,48607,2,0,L|211:56,1,76.4999976654053,0|0,1:0|1:0,0:0:0:0:
333,145,48900,2,0,L|329:221,1,76.4999976654053,0|0,1:0|1:0,0:0:0:0:
303,342,49193,1,8,1:2:0:0:
125,305,49485,6,0,B|207:292|203:365|307:341,1,187.000005706787,14|10,1:2|1:2,0:0:0:0:
261,257,49924,1,0,0:0:0:0:
331,178,50071,2,0,P|357:243|366:282,1,93.5000028533936,2|0,1:2|1:0,0:0:0:0:
388,97,50363,2,0,P|311:136|237:120,1,140.25000428009,10|0,0:2|0:0,0:0:0:0:
226,140,50656,6,0,L|215:38,1,93.5000028533936,2|0,1:2|1:0,0:0:0:0:
304,41,50949,1,10,0:0:0:0:
131,115,51095,2,0,P|106:235|100:317,1,187.000005706787,2|0,1:2|1:0,0:0:0:0:
57,240,51534,1,8,0:0:0:0:
168,184,51680,1,2,0:0:0:0:
168,184,51754,1,2,0:0:0:0:
168,184,51827,6,0,P|217:189|272:200,1,93.5000028533936,2|0,1:2|0:0,0:0:0:0:
387,176,52119,2,0,P|318:206|284:320,1,187.000005706787,10|2,0:0|1:2,0:0:0:0:
379,277,52558,1,0,1:0:0:0:
217,376,52705,2,0,P|193:318|187:277,1,93.5000028533936,10|0,0:0|0:0,0:0:0:0:
208,177,52997,6,0,B|109:163|109:247|14:220,1,187.000005706787,2|8,1:2|0:0,0:0:0:0:
48,136,53436,2,0,L|31:41,1,93.5000028533936,2|0,1:2|0:0,0:0:0:0:
16,222,53729,2,0,L|0:314,1,93.5000028533936,2|8,1:2|0:0,0:0:0:0:
145,241,54022,1,2,0:0:0:0:
145,241,54095,1,2,0:0:0:0:
145,241,54168,6,0,B|246:214|246:294|342:259,1,187.000005706787,2|8,1:2|0:0,0:0:0:0:
341,249,54607,1,0,0:0:0:0:
428,162,54754,1,0,1:0:0:0:
342,241,54900,1,0,1:0:0:0:
279,143,55046,2,0,L|268:42,1,93.5000028533936,8|0,0:0|0:0,0:0:0:0:
32,107,55339,5,0,1:0:0:0:
118,28,55485,1,0,1:0:0:0:
181,126,55632,2,0,L|192:227,1,93.5000028533936,8|0,0:0|0:0,0:0:0:0:
91,312,55924,1,0,1:0:0:0:
189,232,56071,1,0,1:0:0:0:
25,205,56217,1,8,0:0:0:0:
189,232,56363,1,0,1:0:0:0:
100,329,56510,6,0,P|153:330|221:348,1,93.5000028533936,2|0,1:2|1:0,0:0:0:0:
295,344,56802,1,10,2:0:0:0:
381,140,56949,2,0,P|363:193|348:243,1,93.5000028533936,2|0,1:2|1:0,0:0:0:0:
193,307,57241,2,0,P|180:263|165:219,1,93.5000028533936,2|8,1:2|0:0,0:0:0:0:
409,134,57534,6,0,P|391:187|376:237,1,93.5000028533936,2|0,1:2|1:0,0:0:0:0:
203,278,57827,2,0,P|190:234|175:190,1,93.5000028533936,2|8,1:2|0:0,0:0:0:0:
97,287,58119,1,0,1:0:0:0:
221,110,58266,1,0,1:2:0:0:
221,110,58339,1,0,1:2:0:0:
221,110,58412,1,0,1:2:0:0:
221,110,58485,1,0,1:2:0:0:
221,110,58558,1,8,1:2:0:0:
392,53,58851,6,0,B|306:55|323:134|202:106,1,187.000005706787,14|2,1:2|1:2,0:0:0:0:
139,57,59290,1,0,0:0:0:0:
180,214,59436,2,0,P|230:214|284:224,1,93.5000028533936,2|0,1:2|1:0,0:0:0:0:
108,149,59729,2,0,P|56:152|-14:170,1,93.5000028533936,10|0,0:0|0:0,0:0:0:0:
72,254,60022,6,0,P|95:301|216:294,1,187.000005706787,2|10,1:2|1:2,0:0:0:0:
367,188,60461,1,2,0:0:0:0:
372,212,60534,1,2,0:0:0:0:
377,236,60607,1,2,1:2:0:0:
419,107,60754,2,0,P|371:100|315:100,1,93.5000028533936,2|8,0:0|0:0,0:0:0:0:
175,215,61046,1,2,0:0:0:0:
175,215,61119,1,2,0:0:0:0:
175,215,61193,6,0,P|249:216|304:319,1,187.000005706787,2|10,1:2|0:0,0:0:0:0:
305,304,61558,1,2,0:0:0:0:
305,304,61632,1,2,0:0:0:0:
203,314,61778,2,0,L|101:325,1,93.5000028533936,2|0,1:2|0:0,0:0:0:0:
317,218,62071,2,0,L|419:229,1,93.5000028533936,10|0,0:0|0:0,0:0:0:0:
355,126,62363,6,0,P|268:132|219:227,1,187.000005706787,2|10,1:2|0:2,0:0:0:0:
131,249,62802,2,0,L|125:142,1,93.5000028533936,2|0,0:0|1:0,0:0:0:0:
317,218,63095,1,2,0:0:0:0:
313,245,63168,1,2,0:0:0:0:
309,278,63241,1,10,0:0:0:0:
435,188,63388,6,0,L|455:85,1,93.5000028533936,2|0,0:0|1:0,0:0:0:0:
477,17,63680,1,0,0:0:0:0:
283,69,63827,1,8,0:0:0:0:
360,126,63973,1,0,0:0:0:0:
209,12,64119,2,0,L|185:113,1,93.5000028533936,0|0,1:2|0:0,0:0:0:0:
124,172,64412,2,0,P|59:179|21:173,1,93.5000028533936,10|2,0:0|0:0,0:0:0:0:
161,258,64705,6,0,P|232:264|290:363,1,187.000005706787,0|10,1:0|0:0,0:0:0:0:
193,352,65144,1,0,0:0:0:0:
302,255,65290,2,0,L|405:261,1,93.5000028533936,0|2,1:0|0:0,0:0:0:0:
445,333,65583,1,10,0:0:0:0:
354,175,65729,1,0,0:0:0:0:
224,315,65875,5,10,0:0:0:0:
157,150,66022,1,0,0:0:0:0:
157,150,66168,1,0,0:0:0:0:
88,365,66314,1,10,0:0:0:0:
289,94,66754,5,10,0:0:0:0:
356,259,66900,1,0,0:0:0:0:
356,259,67046,1,0,0:0:0:0:
425,44,67193,1,10,0:0:0:0:
383,152,67485,5,2,0:0:0:0:
383,152,67632,1,2,1:2:0:0:
383,152,67778,1,2,1:2:0:0:
255,265,67924,1,10,2:0:0:0:
97,52,68217,5,12,1:2:0:0:
