osu file format v14

[General]
AudioFilename: audio.mp3
AudioLeadIn: 0
PreviewTime: 131698
Countdown: 0
SampleSet: Soft
StackLeniency: 0.9
Mode: 2
LetterboxInBreaks: 0
WidescreenStoryboard: 1

[Editor]
Bookmarks: 4834,23295,32526,50987,69463,87924,97151,115612,134089,152550,161781,171012,189491,207952,226414,244875,254102,263332,272563,281794,291025,300255,309486
DistanceSpacing: 0.5
BeatDivisor: 16
GridSize: 16
TimelineZoom: 2.400005

[Metadata]
Title:Stronger
TitleUnicode:Stronger
Artist:Kanye West
ArtistUnicode:Kanye West
Creator:Secre
Version:Harder, Better, Faster
Source:
Tags:chickenbible english hiphop hip hop rap graduation ye daft punk electronic gigarobloxian [poke] poke xandeez nuts aranel
BeatmapID:4514464
BeatmapSetID:2144106

[Difficulty]
HPDrainRate:5
CircleSize:4.5
OverallDifficulty:8.5
ApproachRate:8.5
SliderMultiplier:3
SliderTickRate:1

[Events]
//Background and Video events
0,0,"ok but when are we getting holoen member who listens to kanye.jpg",0,0
//Break Periods
2,245118,251115
//Storyboard Layer 0 (Background)
//Storyboard Layer 1 (Fail)
//Storyboard Layer 2 (Pass)
//Storyboard Layer 3 (Foreground)
//Storyboard Layer 4 (Overlay)
//Storyboard Sound Samples

[TimingPoints]
219,600,4,2,2,40,1,0
1419,483.870967741935,4,2,2,40,1,0
1660,600,4,2,2,40,1,0
1960,666.666666666667,4,2,2,40,1,0
2536,576.923076923077,4,2,2,40,1,0
3689,-84.24599831508,4,2,2,40,0,0
4013,612.244897959184,4,2,2,40,1,0
4625,558.139534883721,4,2,2,40,1,0
4625,-100,4,2,2,40,0,0
4834,576.923076923077,4,2,2,50,1,0
10170,-100,4,2,2,50,0,0
14785,-100,4,2,2,50,0,0
23295,-100,4,2,1,80,0,0
23584,-100,4,2,1,80,0,0
25892,-100,4,2,1,80,0,0
27334,-100,4,2,1,80,0,0
27622,-100,4,2,1,80,0,0
28200,-100,4,2,1,80,0,0
28777,-100,4,2,1,80,0,0
32237,-100,4,2,1,80,0,0
32526,-100,4,2,1,65,0,0
38584,-100,4,2,1,65,0,0
39161,-100,4,2,1,65,0,0
43200,-100,4,2,1,65,0,0
46661,-100,4,2,1,65,0,0
50987,-100,4,2,1,65,0,0
51853,-100,4,2,1,65,0,0
52430,-100,4,2,1,65,0,0
53006,-100,4,2,1,65,0,0
53295,-100,4,2,1,65,0,0
53872,-100,4,2,1,65,0,0
54160,-100,4,2,1,65,0,0
55026,-100,4,2,1,65,0,0
55603,-100,4,2,1,65,0,0
56180,-100,4,2,1,65,0,0
57334,-100,4,2,1,65,0,0
57622,-100,4,2,1,65,0,0
57910,-100,4,2,1,65,0,0
58487,-100,4,2,1,65,0,0
59641,-100,4,2,1,65,0,0
59929,-100,4,2,1,65,0,0
60218,-100,4,2,1,65,0,0
60795,-100,4,2,1,65,0,0
61083,-100,4,2,1,65,0,0
62526,-100,4,2,1,65,0,0
62814,-100,4,2,1,65,0,0
64834,-100,4,2,1,65,0,0
65122,-100,4,2,1,65,0,0
67141,-100,4,2,1,60,0,0
68872,-100,4,2,1,60,0,0
69160,-100,4,2,1,60,0,0
69463,576.923076923077,4,2,2,70,1,0
69463,-100,4,2,2,70,0,0
70039,-100,4,2,2,70,0,0
70616,-100,4,2,2,70,0,0
71192,-100,4,2,2,70,0,0
71770,-100,4,2,2,70,0,0
72346,-100,4,2,2,70,0,0
72923,-100,4,2,2,70,0,0
73499,-100,4,2,2,70,0,0
74078,-100,4,2,2,70,0,0
74654,-100,4,2,2,70,0,0
75231,-100,4,2,2,70,0,0
75807,-100,4,2,2,70,0,0
76385,-100,4,2,2,70,0,0
76961,-100,4,2,2,70,0,0
77538,-100,4,2,2,70,0,0
78114,-100,4,2,2,70,0,0
78693,-100,4,2,2,70,0,0
79269,-100,4,2,2,70,0,0
79751,-100,4,2,2,70,0,0
80422,-100,4,2,2,70,0,0
80713,-100,4,2,2,70,0,0
81000,-100,4,2,2,70,0,0
81576,-100,4,2,2,70,0,0
82153,-100,4,2,2,70,0,0
82729,-100,4,2,2,70,0,0
83308,-100,4,2,2,70,0,0
83884,-100,4,2,2,70,0,0
84461,-100,4,2,2,70,0,0
85037,-100,4,2,2,70,0,0
85615,-100,4,2,2,70,0,0
86191,-100,4,2,2,70,0,0
86768,-100,4,2,2,70,0,0
87924,-100,4,2,1,80,0,0
88213,-100,4,2,1,80,0,0
90521,-100,4,2,1,80,0,0
91963,-100,4,2,1,80,0,0
92251,-100,4,2,1,80,0,0
92829,-100,4,2,1,80,0,0
93406,-100,4,2,1,80,0,0
97155,-100,4,2,1,65,0,0
100616,-100,4,2,1,65,0,0
100905,-100,4,2,1,65,0,0
101121,-100,4,2,1,65,0,0
102924,-100,4,2,1,65,0,0
104655,-100,4,2,1,65,0,0
105232,-100,4,2,1,65,0,0
110135,-100,4,2,1,65,0,0
113885,-100,4,2,1,65,0,0
114462,-100,4,2,1,65,0,0
115616,-100,4,2,2,55,0,0
131770,-100,4,2,2,55,0,0
133213,616.966580976864,4,2,2,60,1,0
134088,576.923076923077,4,2,2,70,1,0
134088,-100,4,2,2,70,0,0
134664,-100,4,2,2,70,0,0
135241,-100,4,2,2,70,0,0
135817,-100,4,2,2,70,0,0
136395,-100,4,2,2,70,0,0
136971,-100,4,2,2,70,0,0
137548,-100,4,2,2,70,0,0
138124,-100,4,2,2,70,0,0
138414,-100,4,2,2,70,0,0
138703,-100,4,2,2,70,0,0
139279,-100,4,2,2,70,0,0
139856,-100,4,2,2,70,0,0
140432,-100,4,2,2,70,0,0
140722,-100,4,2,2,70,0,0
141010,-100,4,2,2,70,0,0
141586,-100,4,2,2,70,0,0
141876,-100,4,2,2,70,0,0
142163,-100,4,2,2,70,0,0
142453,-100,4,2,2,70,0,0
142645,-100,4,2,2,70,0,0
142739,-100,4,2,2,70,0,0
143030,-100,4,2,2,70,0,0
143246,-100,4,2,2,70,0,0
143318,-100,4,2,2,70,0,0
143894,-100,4,2,2,70,0,0
144471,-100,4,2,2,70,0,0
145047,-100,4,2,2,70,0,0
145338,-100,4,2,2,70,0,0
145625,-100,4,2,2,70,0,0
146201,-100,4,2,2,70,0,0
146778,-100,4,2,2,70,0,0
147354,-100,4,2,2,70,0,0
147645,-100,4,2,2,70,0,0
147933,-100,4,2,2,70,0,0
148509,-100,4,2,2,70,0,0
149086,-100,4,2,2,70,0,0
149662,-100,4,2,2,70,0,0
150240,-100,4,2,2,70,0,0
150674,-100,4,2,2,70,0,0
150816,-100,4,2,2,70,0,0
151393,-100,4,2,1,70,0,0
152549,-100,4,2,1,80,0,0
152838,-100,4,2,1,80,0,0
155145,-100,4,2,1,80,0,0
156588,-100,4,2,1,80,0,0
156876,-100,4,2,1,80,0,0
157453,-100,4,2,1,80,0,0
158030,-100,4,2,1,80,0,0
161203,-100,4,2,1,80,0,0
161491,-100,4,2,1,80,0,0
168703,-100,4,2,1,80,0,0
169280,-100,4,2,1,80,0,0
171011,-100,4,2,1,60,0,0
187164,-100,4,2,1,50,0,0
187741,-100,4,2,1,50,0,0
188318,-100,4,2,1,50,0,0
188895,-100,4,2,1,50,0,0
189491,576.923076923077,4,2,2,70,1,0
189491,-100,4,2,2,70,0,0
190067,-100,4,2,2,70,0,0
190644,-100,4,2,2,70,0,0
191220,-100,4,2,2,70,0,0
191798,-100,4,2,2,70,0,0
192374,-100,4,2,2,70,0,0
192951,-100,4,2,2,70,0,0
193527,-100,4,2,2,70,0,0
194106,-100,4,2,2,70,0,0
194682,-100,4,2,2,70,0,0
195259,-100,4,2,2,70,0,0
195835,-100,4,2,2,70,0,0
196413,-100,4,2,2,70,0,0
196989,-100,4,2,2,70,0,0
197566,-100,4,2,2,70,0,0
198142,-100,4,2,2,70,0,0
198721,-100,4,2,2,70,0,0
199297,-100,4,2,2,70,0,0
199779,-100,4,2,2,70,0,0
200450,-100,4,2,2,70,0,0
201028,-100,4,2,2,70,0,0
201604,-100,4,2,2,70,0,0
202181,-100,4,2,2,70,0,0
202757,-100,4,2,2,70,0,0
203336,-100,4,2,2,70,0,0
203912,-100,4,2,2,70,0,0
204489,-100,4,2,2,70,0,0
205065,-100,4,2,2,70,0,0
205643,-100,4,2,2,70,0,0
206219,-100,4,2,2,70,0,0
206796,-100,4,2,2,70,0,0
207952,-100,4,2,1,85,0,0
208241,-100,4,2,1,85,0,0
210549,-100,4,2,1,85,0,0
211991,-100,4,2,1,85,0,0
212279,-100,4,2,1,85,0,0
212857,-100,4,2,1,85,0,0
213434,-100,4,2,1,85,0,0
216606,-100,4,2,1,85,0,0
216894,-100,4,2,1,85,0,0
217472,-100,4,2,1,85,0,0
219780,-100,4,2,1,85,0,0
221221,-100,4,2,1,85,0,0
221509,-100,4,2,1,85,0,0
222088,-100,4,2,1,85,0,0
222664,-100,4,2,1,85,0,0
225837,-100,4,2,1,85,0,0
226125,-100,4,2,1,85,0,0
244918,576.923076923077,4,2,1,60,1,0
248617,576.923076923077,4,2,1,50,1,0
254102,576.923076923077,4,2,1,65,1,0
254102,-100,4,2,1,65,0,0
258789,-100,4,2,1,65,0,0
261097,-100,4,2,1,65,0,0
263909,-100,4,2,1,65,0,0
274294,-100,4,2,1,65,0,0
280640,-100,4,2,1,65,0,0
281794,-100,4,2,1,65,0,0
283524,-100,4,2,1,65,0,0
284102,-100,4,2,1,65,0,0
289871,-100,4,2,1,65,0,0
291025,-100,4,2,1,65,0,0
309486,-100,4,2,2,60,0,0

[Colours]
Combo1 : 150,241,139
Combo2 : 221,164,221
Combo3 : 153,202,238
Combo4 : 227,173,113
Combo5 : 253,230,134

[HitObjects]
317,164,219,6,0,L|196:277,1,150,2|2,0:2|0:2,0:0:0:0:
344,114,819,2,0,L|152:113,1,150,2|2,0:2|0:2,0:0:0:0:
375,80,1419,6,0,L|377:247,1,150,2|2,0:2|0:2,0:0:0:0:
247,236,1960,2,0,L|421:233,1,150,2|2,0:2|0:2,0:0:0:0:
148,161,2536,6,0,L|145:-15,1,150,2|2,0:2|0:2,0:0:0:0:
276,41,3112,2,0,L|278:237,1,150,2|2,0:2|0:2,0:0:0:0:
406,198,3689,2,0,L|406:-2,1,200,2|2,0:2|0:2,0:0:0:0:
267,136,4319,2,0,L|444:127,1,150,2|2,0:2|0:2,0:0:0:0:
112,187,4834,5,0,1:2:0:0:
249,157,5122,2,0,L|129:133,1,100,2|2,0:0|0:2,0:0:0:0:
291,100,5603,1,0,0:0:0:0:
73,119,5891,1,0,0:0:0:0:
233,167,6180,2,0,L|142:171,1,50,0|2,0:0|0:2,0:0:0:0:
416,251,6564,2,0,L|422:57,1,150,2|2,1:2|0:2,0:0:0:0:
183,192,7141,6,0,L|379:189,1,150,2|0,1:2|0:0,0:0:0:0:
194,113,7622,1,0,0:0:0:0:
395,65,7718,2,0,L|400:236,1,150,2|2,1:2|0:2,0:0:0:0:
196,268,8295,2,0,L|361:263,1,150,2|2,1:2|0:2,0:0:0:0:
84,212,8872,2,0,P|53:151|121:88,1,150,2|2,1:2|0:2,0:0:0:0:
335,179,9449,6,0,L|173:175,1,150,0|0,1:2|0:0,0:0:0:0:
393,111,10026,1,0,0:0:0:0:
152,112,10314,1,0,0:0:0:0:
399,78,10603,2,0,L|404:160,1,75,0|2,0:0|0:2,0:0:0:0:
302,155,10891,1,2,0:2:0:0:
402,161,11035,1,2,0:2:0:0:
248,202,11180,1,2,1:2:0:0:
475,202,11468,1,2,0:2:0:0:
209,128,11757,6,0,L|369:125,1,150,0|0,1:2|0:0,0:0:0:0:
217,185,12237,1,0,0:0:0:0:
116,221,12334,2,0,L|113:58,1,150,2|2,1:2|0:2,0:0:0:0:
355,123,12910,2,0,L|195:123,1,150,2|2,1:2|0:2,0:0:0:0:
435,215,13487,2,0,L|275:215,1,150,2|2,1:2|0:2,0:0:0:0:
55,211,14064,6,0,P|28:162|87:92,1,150,0|2,1:2|0:2,0:0:0:0:
308,202,14641,2,0,L|186:197,1,100,0|2,0:0|0:2,0:0:0:0:
471,139,15122,1,0,0:0:0:0:
227,104,15398,2,0,L|325:86,1,82
139,223,15795,2,0,P|101:205|138:125,1,150,2|2,1:2|0:2,0:0:0:0:
390,127,16372,6,0,L|236:124,1,150,0|0,1:2|0:0,0:0:0:0:
380,51,16853,1,0,0:0:0:0:
192,201,16949,2,0,L|190:37,1,150,2|2,1:2|0:2,0:0:0:0:
442,145,17526,2,0,L|274:142,1,150,2|2,1:2|0:2,0:0:0:0:
56,167,18103,2,0,P|26:140|74:50,1,150,2|2,1:2|0:2,0:0:0:0:
305,214,18680,6,0,L|144:204,1,150,0|0,1:2|0:0,0:0:0:0:
390,142,19257,2,0,L|230:136,1,150,0|2,0:0|0:2,0:0:0:0:
478,206,19834,1,2,1:2:0:0:
241,204,20122,1,2,0:2:0:0:
478,206,20410,2,0,L|479:45,1,150,2|2,1:2|0:2,0:0:0:0:
69,137,20987,5,0,1:2:0:0:
256,192,21420,12,0,23007,0:0:0:0:
336,232,23295,6,0,P|375:189|324:127,1,150,6|2,1:2|0:2,0:0:0:0:
214,126,23728,1,0,1:2:0:0:
456,112,23872,2,0,L|461:265,1,150,10|2,1:2|1:2,0:0:0:0:
359,259,24305,1,0,1:2:0:0:
150,171,24449,6,0,L|238:171,2,75,2|0|2,0:2|1:2|1:2,0:0:0:0:
404,206,25026,2,0,P|452:186|402:115,1,150,10|2,1:2|0:2,0:0:0:0:
48,216,25603,6,0,L|213:216,1,150,2|2,1:2|0:2,0:0:0:0:
95,142,26035,1,0,1:2:0:0:
202,133,26180,2,0,L|204:44,1,75,10|2,1:2|0:0,0:0:0:0:
62,124,26468,2,0,L|143:116,1,75,0|2,1:2|1:2,0:0:0:0:
411,183,26757,6,0,L|323:175,2,75,0|2|2,0:2|1:2|1:2,0:0:0:0:
148,233,27334,2,0,P|109:206|163:131,1,150,10|2,1:2|1:2,0:0:0:0:
500,159,27910,6,0,L|338:153,1,150,2|2,1:2|0:2,0:0:0:0:
457,83,28343,1,0,1:2:0:0:
198,148,28487,2,0,L|353:136,1,150,10|2,1:2|1:2,0:0:0:0:
457,83,28920,1,0,1:2:0:0:
202,66,29064,6,0,L|122:64,1,75,2|0,0:2|1:2,0:0:0:0:
357,141,29353,2,0,L|433:142,1,75,2|0,1:2|0:0,0:0:0:0:
149,98,29641,2,0,P|96:93|47:175,1,150,10|2,1:2|0:2,0:0:0:0:
458,243,30218,6,0,L|290:241,1,150,2|2,1:2|0:2,0:0:0:0:
416,176,30651,1,0,1:2:0:0:
158,180,30795,1,10,1:2:0:0:
256,192,31084,12,0,31949,0:0:0:0:
86,209,32526,6,0,P|66:183|122:87,1,150,6|2,1:2|0:2,0:0:0:0:
210,85,32959,1,2,1:2:0:0:
417,128,33103,1,8,1:2:0:0:
210,85,33391,1,0,1:2:0:0:
417,128,33535,1,0,0:0:0:0:
301,107,33680,6,0,L|296:22,1,75,2|2,0:2|1:2,0:0:0:0:
505,45,33968,2,0,L|414:45,1,75,2|2,1:2|0:2,0:0:0:0:
177,237,34257,2,0,L|342:232,1,150,10|2,1:2|0:2,0:0:0:0:
101,199,34834,6,0,P|94:130|162:85,1,150,2|2,1:2|0:2,0:0:0:0:
243,89,35266,1,2,1:2:0:0:
463,103,35410,1,8,1:2:0:0:
243,89,35699,1,0,1:2:0:0:
44,74,35843,1,0,0:0:0:0:
143,76,35987,5,2,0:2:0:0:
243,89,36132,1,0,0:0:0:0:
44,74,36276,1,2,1:2:0:0:
143,76,36420,1,2,0:2:0:0:
372,92,36564,1,10,1:2:0:0:
475,97,36709,1,0,0:0:0:0:
372,92,36853,1,2,1:2:0:0:
475,97,36997,1,2,0:2:0:0:
239,121,37141,6,0,P|179:124|135:212,1,150,2|2,1:2|0:2,0:0:0:0:
239,199,37574,1,2,1:2:0:0:
30,210,37718,2,0,L|26:44,1,150,8|0,1:2|1:2,0:0:0:0:
129,46,38151,1,2,1:2:0:0:
371,131,38295,6,0,L|454:130,1,75,2|0,0:2|0:0,0:0:0:0:
180,81,38584,2,0,L|104:79,1,75,2|2,1:2|0:2,0:0:0:0:
316,66,38872,2,0,P|363:72|405:165,1,150,10|2,1:2|0:2,0:0:0:0:
290,155,39305,1,2,0:2:0:0:
503,223,39449,6,0,L|506:54,1,150,2|2,1:2|0:2,0:0:0:0:
396,39,39882,1,0,1:2:0:0:
159,56,40026,2,0,P|89:57|58:143,1,150,8|0,1:2|1:2,0:0:0:0:
161,148,40459,1,0,0:0:0:0:
378,236,40603,6,0,L|212:233,1,150,2|2,0:2|1:2,0:0:0:0:
127,179,41035,1,2,0:2:0:0:
378,236,41180,2,0,L|212:233,1,150,10|2,1:2|1:2,0:0:0:0:
127,179,41612,1,2,0:2:0:0:
396,212,41757,6,0,P|451:186|392:133,1,150,2|2,1:2|0:2,0:0:0:0:
310,104,42189,1,2,1:2:0:0:
89,208,42334,2,0,L|327:203,1,225,10|0,1:2|0:0,0:0:0:0:
88,64,42910,6,0,P|37:71|36:168,1,150,2|2,0:2|1:2,0:0:0:0:
125,160,43343,1,2,0:2:0:0:
357,178,43487,2,0,L|362:95,1,75,10|2,1:2|1:2,0:0:0:0:
232,72,43776,2,0,L|138:75,1,75,2|0,0:2|0:0,0:0:0:0:
384,54,44064,6,0,P|436:62|471:151,1,150,2|2,1:2|0:2,0:0:0:0:
370,144,44497,1,2,1:2:0:0:
154,223,44641,2,0,L|396:215,1,225,10|0,1:2|1:2,0:0:0:0:
141,147,45218,6,0,L|140:70,1,75,0|0,0:0|1:2,0:0:0:0:
390,77,45507,1,2,1:2:0:0:
162,42,45795,2,0,P|96:46|62:130,1,150,10|0,1:2|1:2,0:0:0:0:
158,129,46228,1,2,0:2:0:0:
406,170,46372,6,0,L|413:84,1,75,2|0,1:2|0:0,0:0:0:0:
307,106,46660,1,2,0:2:0:0:
412,95,46805,1,0,1:2:0:0:
166,52,46949,2,0,P|121:69|174:142,1,150,10|0,1:2|1:2,0:0:0:0:
253,154,47382,1,2,1:2:0:0:
52,137,47526,6,0,L|144:131,1,75,2|2,0:2|1:2,0:0:0:0:
359,120,47814,2,0,L|265:114,1,75,2|2,1:2|0:2,0:0:0:0:
491,93,48103,2,0,L|495:263,1,150,10|2,1:2|0:2,0:0:0:0:
127,264,48680,6,0,L|295:262,1,150,2|2,1:2|0:2,0:0:0:0:
381,180,49112,1,2,1:2:0:0:
117,78,49257,2,0,P|60:93|95:175,1,150,10|0,1:2|1:2,0:0:0:0:
167,178,49689,1,0,0:0:0:0:
402,265,49834,6,0,L|239:259,1,150,2|2,0:2|1:2,0:0:0:0:
355,202,50266,1,2,0:2:0:0:
148,86,50410,2,0,P|109:106|156:189,1,150,10|2,1:2|1:2,0:0:0:0:
358,184,50843,1,0,0:0:0:0:
61,235,50987,6,2,L|55:-12,1,225,2|2,1:1|1:2,0:1:0:0:
284,91,51564,2,0,L|190:88,1,75,8|0,1:2|0:0,0:0:0:0:
448,59,51853,2,0,L|450:143,1,75,0|2,1:2|1:2,0:0:0:0:
192,218,52141,6,0,L|358:221,1,150,2|2,0:2|1:2,0:0:0:0:
96,127,52718,2,0,L|256:123,1,150,10|2,1:2|0:2,0:0:0:0:
48,51,53151,1,2,0:2:0:0:
340,51,53295,6,2,L|343:292,1,225,2|0,1:1|1:2,0:1:0:0:
141,275,53872,2,0,L|226:274,1,75,8|0,1:2|0:0,0:0:0:0:
14,200,54160,2,0,L|11:106,1,75,0|0,1:2|0:0,0:0:0:0:
266,108,54449,5,2,0:2:0:0:
148,101,54593,1,2,1:2:0:0:
399,85,54737,2,0,L|410:174,1,75,2|0,1:2|0:0,0:0:0:0:
181,169,55026,1,10,1:2:0:0:
408,173,55170,1,0,0:0:0:0:
181,169,55314,1,2,1:2:0:0:
81,153,55459,1,0,0:0:0:0:
344,300,55603,6,2,L|178:295,1,150,2|0,1:1|0:0,0:1:0:0:
83,230,56035,1,0,1:2:0:0:
317,191,56180,2,0,L|321:95,1,75,8|0,1:2|0:0,0:0:0:0:
75,92,56468,2,0,L|160:92,1,75,2|2,1:2|1:2,0:0:0:0:
433,139,56757,6,0,L|347:137,2,75,2|2|2,0:2|1:2|1:2,0:0:0:0:
68,148,57334,1,10,1:2:0:0:
280,162,57622,1,2,0:2:0:0:
181,153,57766,1,2,0:2:0:0:
469,237,57910,6,2,L|474:75,1,150,2|0,1:0|0:0,0:1:0:0:
378,65,58343,1,0,1:2:0:0:
144,167,58487,2,0,L|227:163,1,75,8|0,1:2|0:0,0:0:0:0:
342,160,58776,1,2,1:2:0:0:
218,163,58920,1,2,1:2:0:0:
481,208,59064,6,0,L|491:40,1,150,2|2,0:2|1:2,0:0:0:0:
139,88,59641,1,10,1:2:0:0:
370,86,59930,1,2,1:2:0:0:
20,246,60218,6,2,L|17:75,1,150,2|0,1:1|0:0,0:1:0:0:
110,67,60651,1,0,1:2:0:0:
326,197,60795,2,0,L|163:196,1,150,8|2,1:2|1:2,0:0:0:0:
74,142,61228,1,2,1:2:0:0:
298,137,61372,6,0,L|302:56,1,75,2|2,0:2|1:2,0:0:0:0:
189,62,61660,2,0,L|186:-16,1,75,2|0,1:2|0:0,0:0:0:0:
407,212,61949,2,0,L|411:131,1,75,10|0,1:2|0:0,0:0:0:0:
298,137,62237,1,2,0:2:0:0:
410,137,62382,1,2,0:2:0:0:
91,215,62526,6,2,L|89:44,1,150,2|0,1:0|0:0,0:1:0:0:
191,52,62959,1,0,1:2:0:0:
403,258,63103,2,0,L|235:251,1,150,8|2,1:2|1:2,0:0:0:0:
361,182,63535,1,0,0:0:0:0:
47,166,63680,6,0,L|135:167,2,75,2|2|2,0:2|1:2|1:2,0:0:0:0:
395,242,64257,1,10,1:2:0:0:
137,134,64545,1,0,0:0:0:0:
485,261,64834,6,2,L|489:89,1,150,2|0,1:1|0:0,0:1:0:0:
223,163,65410,2,0,L|378:158,1,150,10|2,1:2|1:2,0:0:0:0:
481,112,65843,1,0,1:2:0:0:
256,89,65987,6,0,L|254:0,1,75,2|0,0:2|1:2,0:0:0:0:
363,39,66276,2,0,L|370:-41,1,75,2|2,1:2|0:2,0:0:0:0:
149,139,66564,2,0,L|147:50,1,75,10|0,1:2|0:0,0:0:0:0:
256,89,66853,2,0,L|263:9,1,75
51,189,67141,6,2,P|17:142|62:62,1,150,2|0,1:0|0:0,0:1:0:0:
201,43,67718,2,0,P|241:61|206:153,1,150,2|0,0:2|0:0,0:0:0:0:
91,182,68295,6,0,L|251:162,1,150
107,76,68872,2,0,P|67:84|27:182,1,150,2|0,0:2|0:0,0:0:0:0:
438,245,69463,5,4,1:2:0:0:
231,165,69751,2,0,L|345:155,1,100
118,66,70232,1,0,0:0:0:0:
383,66,70520,5,0,0:0:0:0:
137,216,70809,1,0,0:0:0:0:
223,217,70905,1,0,0:0:0:0:
35,206,71193,2,0,L|34:42,1,150,2|2,1:2|0:2,0:0:0:0:
438,157,71770,6,0,L|277:155,1,150,4|0,1:2|0:0,0:0:0:0:
424,94,72251,1,0,0:0:0:0:
228,75,72347,2,0,P|172:78|122:160,1,150,2|0,1:2|0:0,0:0:0:0:
379,201,72924,6,0,P|420:168|372:85,1,150,2|0,1:2|0:0,0:0:0:0:
127,47,73501,2,0,P|89:62|130:143,1,150,2|2,1:2|0:2,0:0:0:0:
481,230,74078,6,0,L|326:227,1,150,6|0,1:2|0:0,0:0:0:0:
83,214,74655,1,0,1:2:0:0:
366,236,74943,1,0,0:0:0:0:
20,147,75232,6,0,L|21:-12,1,150,0|0,1:2|0:0,0:0:0:0:
400,216,75809,2,0,L|399:57,1,150,2|2,1:2|0:2,0:0:0:0:
54,187,76386,6,0,L|215:182,1,150,4|0,1:2|0:0,0:0:0:0:
442,192,76963,2,0,P|468:165|431:70,1,150,2|0,1:2|0:0,0:0:0:0:
161,189,77539,6,0,L|331:185,1,150,2|0,1:2|0:0,0:0:0:0:
91,100,78116,1,2,1:2:0:0:
361,95,78405,1,2,0:2:0:0:
8,201,78693,6,0,L|11:35,1,150,4|0,1:2|0:0,0:0:0:0:
279,146,79270,2,0,L|168:137,1,100,0|2,1:2|0:2,0:0:0:0:
428,199,79751,5,2,0:2:0:0:
193,114,80027,2,0,L|287:107,1,82,0|0,0:2|0:0,0:0:0:0:
56,205,80424,2,0,L|54:45,1,150,2|2,1:2|0:2,0:0:0:0:
305,136,81001,6,0,L|135:131,1,150,4|0,1:2|0:0,0:0:0:0:
236,74,81434,1,0,0:0:0:0:
466,84,81578,2,0,L|467:249,1,150,2|0,1:2|0:0,0:0:0:0:
237,273,82155,6,0,L|403:263,1,150,2|0,1:2|0:0,0:0:0:0:
126,197,82732,2,0,P|89:177|136:92,1,150,2|2,1:2|0:2,0:0:0:0:
508,110,83309,6,0,L|337:87,1,150,4|0,1:2|0:0,0:0:0:0:
112,160,83886,2,0,L|267:132,1,150,0|0,1:2|0:0,0:0:0:0:
280,73,84318,1,0,0:0:0:0:
69,239,84463,6,0,P|24:215|80:146,1,150,2|0,1:2|0:0,0:0:0:0:
142,120,84895,1,0,0:0:0:0:
360,121,85039,2,0,L|196:108,1,150,2|2,1:2|0:2,0:0:0:0:
210,109,85472,1,0,0:0:0:0:
472,91,85616,5,0,1:2:0:0:
472,91,86049,1,0,0:0:0:0:
321,119,86338,2,0,L|388:77,1,75
155,58,86770,6,0,P|100:58|94:155,1,150
225,170,87347,2,0,L|65:135,1,150
481,79,87924,5,6,1:2:0:0:
277,54,88213,2,0,L|356:54,1,75,2|0,0:2|1:2,0:0:0:0:
130,147,88501,2,0,L|126:230,1,75,10|0,1:2|0:0,0:0:0:0:
222,294,88789,1,2,1:2:0:0:
126,221,88934,1,0,1:2:0:0:
335,214,89078,6,0,L|345:122,1,75,2|0,0:2|1:2,0:0:0:0:
225,118,89366,2,0,L|136:100,1,75,2|0,1:2|0:0,0:0:0:0:
424,184,89655,2,0,L|432:100,1,75,10|0,1:2|0:0,0:0:0:0:
320,83,89943,2,0,L|396:77,1,75,2|0,0:2|0:0,0:0:0:0:
175,83,90232,6,0,P|125:83|94:177,1,150,2|2,1:2|0:2,0:0:0:0:
176,184,90664,1,0,1:2:0:0:
412,207,90809,2,0,L|419:120,1,75,10|2,1:2|0:2,0:0:0:0:
291,99,91097,2,0,L|203:97,1,75,0|2,1:2|1:2,0:0:0:0:
439,93,91386,6,0,L|445:181,1,75,0|2,0:2|1:2,0:0:0:0:
175,249,91674,2,0,L|82:276,1,75,2|0,1:2|0:0,0:0:0:0:
347,204,91963,2,0,P|385:206|419:311,1,150,10|0,1:2|1:2,0:0:0:0:
47,173,92539,6,0,L|206:153,1,150,2|2,1:2|0:2,0:0:0:0:
121,96,92972,1,0,1:2:0:0:
341,115,93116,2,0,L|345:211,1,75,10|0,1:2|0:0,0:0:0:0:
141,272,93405,2,0,L|47:262,1,75,2|0,1:2|1:2,0:0:0:0:
294,190,93693,6,0,L|206:181,1,75,2|0,0:2|1:2,0:0:0:0:
455,165,93982,2,0,L|462:88,1,75,2|0,1:2|0:0,0:0:0:0:
208,109,94270,2,0,L|370:99,1,150,10|2,1:2|0:2,0:0:0:0:
357,99,94703,1,0,0:0:0:0:
95,208,94847,6,0,P|55:196|99:113,1,150,2|2,1:2|0:2,0:0:0:0:
179,77,95280,1,0,1:2:0:0:
421,88,95424,6,0,L|423:172,1,75,10|0,1:2|0:0,0:0:0:0:
256,192,95713,12,2,96866,0:2:0:0:
360,153,97155,5,4,1:2:0:0:
139,90,97443,2,0,L|214:86,1,75,2|2,0:0|1:2,0:0:0:0:
443,92,97732,2,0,L|281:76,1,150,10|2,1:2|1:2,0:0:0:0:
397,155,98164,1,0,0:0:0:0:
185,147,98309,6,0,L|173:233,1,75,2|0,0:2|0:0,0:0:0:0:
283,301,98597,1,2,1:2:0:0:
174,221,98741,1,2,0:2:0:0:
488,293,98886,2,0,L|501:114,1,150,10|2,1:2|0:2,0:0:0:0:
409,113,99318,1,2,0:2:0:0:
176,134,99463,6,0,L|338:109,1,150,0|0,1:2|0:0,0:0:0:0:
230,59,99895,1,0,0:0:0:0:
25,79,100039,2,0,L|11:170,1,75,8|0,1:2|0:0,0:0:0:0:
158,220,100328,2,0,L|76:206,1,75,2|0,1:2|0:0,0:0:0:0:
317,169,100616,5,2,0:2:0:0:
201,150,100760,1,0,0:0:0:0:
84,207,100904,1,2,1:2:0:0:
491,159,101193,2,0,L|491:337,1,150,10|2,1:2|1:2,0:0:0:0:
393,331,101626,1,2,0:2:0:0:
182,228,101770,6,0,L|261:217,1,75,0|0,1:2|0:0,0:0:0:0:
139,163,102059,2,0,L|49:143,1,75
297,148,102347,2,0,L|324:59,1,75,8|2,1:2|0:2,0:0:0:0:
443,61,102636,2,0,L|519:51,1,75,2|0,1:2|0:0,0:0:0:0:
281,70,102924,6,0,P|227:69|212:166,1,150,2|2,0:2|1:2,0:0:0:0:
307,193,103357,1,2,0:2:0:0:
82,200,103501,2,0,L|76:93,1,75,10|0,1:2|0:0,0:0:0:0:
200,90,103789,2,0,L|96:77,1,75,2|2,0:2|0:2,0:0:0:0:
346,81,104078,6,0,L|505:75,1,150,0|2,1:2|0:2,0:0:0:0:
502,70,104511,1,0,0:0:0:0:
255,237,104655,2,0,L|96:231,1,150,10|2,1:2|1:2,0:0:0:0:
99,226,105088,1,0,0:0:0:0:
366,149,105232,6,0,L|390:75,1,75,2|0,0:2|0:0,0:0:0:0:
276,74,105520,2,0,L|213:6,1,75,2|2,1:2|0:2,0:0:0:0:
471,47,105809,2,0,P|431:60|485:132,1,150,10|2,1:2|1:2,0:0:0:0:
91,290,106386,6,0,L|246:264,1,150,2|2,1:2|0:2,0:0:0:0:
331,196,106818,1,2,1:2:0:0:
78,135,106963,2,0,P|26:142|33:242,1,150,10|2,1:2|1:2,0:0:0:0:
119,245,107395,1,2,1:2:0:0:
371,207,107539,6,0,L|387:115,1,75,0|2,0:0|1:2,0:0:0:0:
259,99,107828,2,0,L|164:88,1,75,2|2,1:2|0:2,0:0:0:0:
418,74,108116,2,0,P|376:73|337:167,1,150,8|0,1:2|0:0,0:0:0:0:
437,200,108549,1,0,0:0:0:0:
204,154,108693,6,0,L|384:136,1,150,2|0,1:2|0:0,0:0:0:0:
377,75,109126,1,0,1:2:0:0:
68,141,109270,2,0,L|61:239,1,75,10|2,1:2|0:2,0:0:0:0:
218,258,109559,2,0,L|233:357,1,75,0|2,0:0|1:2,0:0:0:0:
466,332,109847,6,0,L|373:303,2,75,2|0|2,0:2|0:0|1:2,0:0:0:0:
208,191,110424,2,0,L|383:182,1,150,8|0,1:2|0:0,0:0:0:0:
380,131,110857,1,2,0:2:0:0:
112,110,111001,6,0,L|92:191,1,75,0|0,1:2|0:0,0:0:0:0:
227,218,111289,2,0,L|254:307,1,75,2|2,0:2|1:2,0:0:0:0:
46,252,111578,2,0,L|24:179,1,75,10|0,1:2|0:0,0:0:0:0:
238,144,111866,2,0,L|171:93,1,75,2|2,1:2|1:2,0:0:0:0:
397,79,112155,6,0,L|492:73,3,75,0|2|2|2,0:0|1:2|1:2|0:2,0:0:0:0:
233,167,112732,2,0,L|58:147,1,150,10|0,1:2|0:0,0:0:0:0:
475,141,113309,6,0,L|472:316,1,150,0|2,1:2|0:2,0:0:0:0:
367,327,113741,1,0,0:0:0:0:
157,225,113886,2,0,L|140:137,1,75,10|2,1:2|0:2,0:0:0:0:
262,99,114174,2,0,L|365:87,1,75,2|0,1:2|0:0,0:0:0:0:
71,113,114463,6,0,L|151:94,1,75,2|2,0:2|1:2,0:0:0:0:
39,170,114751,2,0,L|41:78,1,75,2|2,1:2|0:2,0:0:0:0:
287,162,115039,2,0,L|207:143,1,75,10|0,1:2|0:0,0:0:0:0:
319,219,115327,2,0,L|397:164,1,75,2|2,1:2|0:2,0:0:0:0:
67,145,115616,6,2,P|116:147|240:365,1,300,2|0,1:1|1:0,0:1:0:0:
146,273,116482,1,0,0:0:0:0:
413,193,116770,6,0,L|253:160,3,150,2|0|2|0,1:2|0:0|1:2|0:0,0:0:0:0:
266,162,117780,1,0,0:0:0:0:
486,124,117924,6,2,P|420:119|299:310,1,300,2|2,1:2|1:2,0:1:0:0:
423,273,118789,1,0,0:0:0:0:
193,201,119078,6,0,L|352:173,3,150,2|0|2|0,1:2|0:0|1:2|0:0,0:0:0:0:
340,174,120088,1,0,0:0:0:0:
44,160,120232,6,2,P|127:162|201:356,1,300,2|2,1:2|1:2,0:1:0:0:
66,243,121097,1,0,0:0:0:0:
328,167,121386,6,0,L|171:137,1,150,2|0,1:2|0:0,0:0:0:0:
180,138,121963,2,0,L|355:119,1,150,2|0,1:2|0:0,0:0:0:0:
329,121,122395,1,0,0:0:0:0:
106,187,122539,6,2,P|217:189|316:339,1,300,2|2,1:2|1:2,0:1:0:0:
184,290,123405,1,0,0:0:0:0:
446,170,123693,6,0,L|286:129,1,150,2|0,1:2|0:0,0:0:0:0:
300,132,124270,2,0,L|141:103,1,150,2|0,1:2|0:0,0:0:0:0:
152,105,124703,1,0,0:0:0:0:
403,125,124847,6,2,P|311:118|234:300,1,300,2|2,1:1|1:2,0:1:0:0:
356,258,125713,1,0,0:0:0:0:
123,169,126001,6,0,L|286:148,1,150,2|0,1:2|0:0,0:0:0:0:
271,149,126578,2,0,L|101:121,1,150,2|0,1:2|0:0,0:0:0:0:
122,124,127011,1,0,0:0:0:0:
386,122,127155,6,2,P|292:108|180:262,1,300,2|2,1:2|1:2,0:1:0:0:
303,247,128020,1,0,0:0:0:0:
90,168,128309,5,2,1:2:0:0:
84,93,128453,1,0,0:0:0:0:
78,18,128597,1,0,0:0:0:0:
220,64,128886,1,2,1:2:0:0:
148,40,129030,1,0,0:0:0:0:
77,17,129174,1,0,0:0:0:0:
466,133,129463,6,2,L|304:100,1,150,2|0,1:2|0:0,0:1:0:0:
319,103,130039,1,0,1:0:0:0:
392,89,130183,1,0,0:0:0:0:
466,74,130327,1,0,0:0:0:0:
196,164,130616,6,0,L|187:318,1,150,2|0,1:2|0:0,0:0:0:0:
434,276,131193,2,0,L|342:257,2,75,2|0|0,1:2|0:0|0:0,0:0:0:0:
47,173,131770,6,2,L|208:149,1,150,2|0,1:2|0:0,0:1:0:0:
195,150,132347,2,0,L|40:127,1,150,2|0,0:0|0:0,0:0:0:0:
465,173,132924,6,0,L|304:149,1,150
316,150,133521,1,0,0:0:0:0:
390,139,133675,1,0,0:0:0:0:
465,128,133829,1,2,0:1:0:0:
39,145,134088,6,0,L|34:245,1,75,4|0,1:2|0:0,0:0:0:0:
252,276,134376,1,0,0:0:0:0:
148,196,134520,1,0,0:0:0:0:
352,162,134664,1,0,1:2:0:0:
148,196,134809,2,0,L|141:97,1,75
352,162,135097,5,0,0:0:0:0:
252,123,135241,1,0,1:2:0:0:
381,91,135386,1,0,0:0:0:0:
237,132,135530,2,0,L|229:226,1,75
449,215,135818,2,0,P|488:234|439:323,1,150,2|2,1:2|0:1,0:0:0:0:
53,248,136395,6,0,L|226:229,1,150,4|0,1:2|0:0,0:0:0:0:
313,161,136828,1,0,0:0:0:0:
92,122,136972,2,0,P|48:121|32:222,1,150,2|0,1:2|0:0,0:0:0:0:
121,241,137405,1,0,0:0:0:0:
339,170,137549,6,0,L|157:157,1,150,2|0,1:2|0:0,0:0:0:0:
263,106,137982,1,0,0:0:0:0:
489,104,138126,2,0,L|398:96,2,75,2|0|2,1:2|0:0|0:1,0:0:0:0:
78,141,138703,6,0,L|251:131,1,150,6|0,1:2|0:0,0:0:0:0:
351,71,139136,1,0,0:0:0:0:
94,90,139280,2,0,P|159:93|186:172,1,150,0|0,1:2|0:0,0:0:0:0:
88,177,139713,1,0,0:0:0:0:
316,135,139857,6,0,L|234:123,1,75,0|0,1:2|0:0,0:0:0:0:
374,86,140145,2,0,L|452:80,1,75
218,90,140434,2,0,L|58:70,1,150,2|2,1:2|0:1,0:0:0:0:
467,123,141011,6,0,L|479:302,1,150,4|0,1:2|0:0,0:0:0:0:
378,303,141443,1,0,0:0:0:0:
163,214,141588,2,0,L|146:126,1,75,2|0,1:2|0:0,0:0:0:0:
289,111,141876,2,0,L|379:100,1,75,2|0,0:0|0:0,0:0:0:0:
107,102,142164,6,0,P|53:100|31:196,1,150,2|2,1:2|0:0,0:0:0:0:
296,249,142741,2,0,L|119:236,1,150,2|2,1:2|0:1,0:0:0:0:
252,173,143174,1,0,0:0:0:0:
485,155,143318,5,4,1:2:0:0:
279,93,143607,1,0,0:0:0:0:
391,63,143751,1,0,0:0:0:0:
182,159,143895,2,0,L|18:137,1,150,0|0,1:2|0:0,0:0:0:0:
106,88,144328,1,0,0:0:0:0:
313,131,144472,6,0,L|317:218,1,75,0|0,1:2|0:0,0:0:0:0:
102,226,144761,1,0,0:0:0:0:
223,161,144905,1,0,0:0:0:0:
19,104,145049,2,0,L|14:278,1,150,2|2,1:2|0:1,0:0:0:0:
230,308,145482,1,0,0:0:0:0:
459,183,145626,6,0,L|300:170,1,150,4|0,1:2|0:0,0:0:0:0:
201,127,146059,1,0,0:0:0:0:
478,87,146203,2,0,L|384:73,2,75,2|0|0,1:2|0:0|0:0,0:0:0:0:
212,220,146780,6,0,L|368:209,1,150,2|0,1:2|0:0,0:0:0:0:
84,114,147357,2,0,L|180:107,2,75,2|0|2,1:2|0:0|0:1,0:0:0:0:
488,110,147934,6,0,L|488:295,1,150,4|0,1:2|0:0,0:0:0:0:
382,291,148366,1,0,0:0:0:0:
129,210,148511,2,0,L|123:133,1,75,0|0,1:2|0:0,0:0:0:0:
343,91,148799,2,0,L|354:0,1,75
114,108,149088,6,0,L|202:104,2,75,2|0|0,1:2|0:0|0:0,0:0:0:0:
362,236,149664,1,2,1:2:0:0:
101,150,149953,1,2,0:0:0:0:
494,96,150241,5,0,1:2:0:0:
357,69,150674,1,2,0:0:0:0:
357,69,150963,1,2,0:0:0:0:
234,71,151107,1,2,0:0:0:0:
357,69,151395,5,2,0:0:0:0:
174,163,151684,1,2,0:0:0:0:
421,222,151972,2,0,P|440:172|413:76,1,150,2|2,0:0|0:0,0:0:0:0:
31,79,152549,5,6,1:2:0:0:
235,54,152838,2,0,L|156:54,1,75,2|0,0:2|1:2,0:0:0:0:
382,147,153126,2,0,L|386:230,1,75,10|0,1:2|0:0,0:0:0:0:
290,294,153414,1,2,1:2:0:0:
386,221,153559,1,0,1:2:0:0:
177,214,153703,6,0,L|167:122,1,75,2|0,0:2|1:2,0:0:0:0:
287,118,153991,2,0,L|376:100,1,75,2|0,1:2|0:0,0:0:0:0:
88,184,154280,2,0,L|80:100,1,75,10|0,1:2|0:0,0:0:0:0:
192,83,154568,2,0,L|116:77,1,75,2|0,0:2|0:0,0:0:0:0:
337,83,154857,6,0,P|387:83|418:177,1,150,6|2,1:2|0:2,0:0:0:0:
336,184,155289,1,0,1:2:0:0:
100,207,155434,2,0,L|93:120,1,75,10|2,1:2|0:0,0:0:0:0:
221,99,155722,2,0,L|309:97,1,75,0|2,1:2|1:2,0:0:0:0:
73,93,156011,6,0,L|67:181,1,75,0|2,0:2|1:2,0:0:0:0:
337,249,156299,2,0,L|430:276,1,75,2|0,1:2|0:0,0:0:0:0:
165,204,156588,2,0,P|127:206|93:311,1,150,10|2,1:2|1:2,0:0:0:0:
465,173,157164,6,0,L|306:153,1,150,6|2,1:2|0:2,0:0:0:0:
391,96,157597,1,0,1:2:0:0:
171,115,157741,2,0,L|167:211,1,75,10|0,1:2|0:0,0:0:0:0:
371,272,158030,2,0,L|465:262,1,75,2|0,1:2|1:2,0:0:0:0:
218,190,158318,6,0,L|306:181,1,75,2|0,0:2|1:2,0:0:0:0:
57,165,158607,2,0,L|50:88,1,75,2|0,1:2|0:0,0:0:0:0:
304,109,158895,2,0,L|142:99,1,150,10|2,1:2|0:2,0:0:0:0:
155,99,159328,1,0,0:0:0:0:
417,208,159472,6,0,P|457:196|413:113,1,150,6|2,1:2|0:2,0:0:0:0:
333,77,159905,1,0,1:2:0:0:
91,88,160049,2,0,L|89:172,1,75,10|2,1:2|0:2,0:0:0:0:
311,225,160338,1,0,1:2:0:0:
205,176,160482,1,2,1:2:0:0:
460,185,160626,6,0,L|482:90,1,75,4|2,0:0|1:2,0:0:0:0:
366,88,160914,2,0,L|340:6,1,75,2|0,1:2|0:0,0:0:0:0:
81,58,161203,2,0,L|-18:47,1,75,10|0,0:2|0:0,0:0:0:0:
119,98,161491,2,0,L|130:194,1,75,2|0,1:2|0:0,0:0:0:0:
381,190,161780,6,0,L|383:295,1,75,6|0,1:2|0:0,0:0:0:0:
154,319,162068,1,2,0:0:0:0:
267,237,162213,1,2,1:2:0:0:
50,189,162357,1,8,1:2:0:0:
169,146,162501,2,0,L|174:66,1,75,2|0,0:0|1:2,0:0:0:0:
406,56,162789,6,0,P|455:61|473:157,1,150,2|2,1:2|1:2,0:0:0:0:
242,175,163222,2,0,L|240:263,1,75,2|0,1:2|0:0,0:0:0:0:
481,291,163511,2,0,L|387:290,2,75,10|0|2,1:2|1:2|0:0,0:0:0:0:
96,202,164088,6,0,L|255:185,1,150,0|2,1:2|0:0,0:0:0:0:
32,94,164520,1,2,1:2:0:0:
257,171,164664,1,8,1:2:0:0:
163,98,164809,1,2,0:0:0:0:
307,139,164953,2,0,L|314:63,1,75,2|0,1:2|1:2,0:0:0:0:
96,74,165241,6,0,L|265:55,1,150,2|2,0:0|1:2,0:0:0:0:
149,141,165674,1,0,0:0:0:0:
373,129,165818,2,0,L|463:118,1,75,10|0,1:2|0:0,0:0:0:0:
226,232,166107,2,0,L|132:224,1,75,2|0,1:2|0:0,0:0:0:0:
396,215,166395,6,0,L|414:124,1,75,0|0,1:2|0:0,0:0:0:0:
203,124,166684,1,2,0:0:0:0:
407,127,166828,2,0,L|304:117,1,75,2|8,1:2|1:2,0:0:0:0:
128,136,167116,1,2,0:0:0:0:
330,118,167261,2,0,L|334:221,1,75,2|0,1:2|1:2,0:0:0:0:
93,235,167549,6,0,L|194:216,2,75,2|0|2,0:0|1:2|1:2,0:0:0:0:
342,146,168126,2,0,L|157:135,1,150,10|2,1:2|0:0,0:0:0:0:
92,112,168559,1,0,0:0:0:0:
416,102,168703,6,2,L|417:268,1,150,0|0,1:2|0:0,0:1:0:0:
292,275,169136,1,0,0:0:0:0:
292,275,169424,1,0,0:0:0:0:
416,211,169568,1,0,0:0:0:0:
245,163,169857,6,0,L|400:136,1,150
146,89,170434,2,0,P|89:94|76:188,1,150
487,199,171011,6,0,P|432:177|484:45,1,225,6|0,1:2|1:2,0:0:0:0:
227,108,171588,1,10,1:2:0:0:
227,108,171876,1,2,1:2:0:0:
344,55,172020,1,0,1:2:0:0:
73,129,172164,6,0,L|166:113,2,75,0|0|2,0:0|1:2|1:2,0:0:0:0:
73,129,172741,2,0,L|166:113,2,75,10|0|2,1:2|0:0|0:2,0:0:0:0:
487,188,173318,6,0,P|426:184|354:326,1,225,2|2,1:1|1:2,0:0:0:0:
118,309,173895,1,8,1:2:0:0:
268,218,174183,1,2,1:2:0:0:
159,150,174327,1,0,1:2:0:0:
439,129,174471,6,0,L|346:113,2,75,2|0|2,0:2|1:2|1:2,0:0:0:0:
73,129,175049,2,0,L|166:113,2,75,10|0|2,1:2|0:0|1:2,0:0:0:0:
491,158,175626,6,0,L|406:147,1,75,2|0,1:1|0:0,0:0:0:0:
296,123,175914,2,0,L|386:104,1,75,2|0,0:2|1:2,0:0:0:0:
127,94,176203,2,0,L|24:74,3,75,10|0|2|0,1:2|0:0|1:2|1:2,0:0:0:0:
299,151,176780,5,0,0:0:0:0:
224,145,176924,1,0,1:2:0:0:
74,140,177068,1,2,1:2:0:0:
299,151,177357,1,10,1:2:0:0:
224,145,177501,1,0,1:2:0:0:
74,140,177645,1,0,0:0:0:0:
482,104,177934,6,0,P|429:103|393:197,1,150,2|2,1:1|0:2,0:0:0:0:
479,232,178366,1,2,1:2:0:0:
247,182,178511,2,0,L|351:165,1,75,8|2,1:2|0:2,0:0:0:0:
449,137,178799,2,0,L|361:113,1,75,2|2,1:2|1:2,0:0:0:0:
121,121,179088,6,0,L|223:90,2,75,0|2|2,0:0|1:2|1:2,0:0:0:0:
490,100,179664,2,0,L|388:69,2,75,10|0|2,0:2|0:0|1:2,0:0:0:0:
126,214,180241,6,0,L|220:195,1,75,2|0,1:1|0:0,0:0:0:0:
324,158,180530,2,0,L|238:134,1,75,2|2,0:2|1:2,0:0:0:0:
480,113,180818,2,0,L|388:77,1,75,8|2,1:2|0:0,0:0:0:0:
301,77,181107,2,0,L|386:62,1,75,2|0,1:2|1:2,0:0:0:0:
139,161,181395,6,0,L|40:141,2,75,2|0|2,0:2|1:2|1:2,0:0:0:0:
495,133,181972,2,0,L|396:113,2,75,10|0|2,1:2|0:0|0:2,0:0:0:0:
90,218,182549,6,0,L|273:200,1,150,2|2,1:1|0:2,0:0:0:0:
367,142,182982,1,2,1:2:0:0:
119,122,183126,1,8,1:2:0:0:
239,87,183270,1,2,0:0:0:0:
119,122,183414,2,0,L|115:213,1,75,2|0,1:2|1:2,0:0:0:0:
336,206,183703,6,0,L|259:202,1,75,2|0,0:2|1:2,0:0:0:0:
398,125,183991,1,2,1:2:0:0:
179,111,184280,2,0,L|284:102,1,75,10|0,1:2|0:0,0:0:0:0:
113,186,184568,1,2,1:2:0:0:
480,147,184857,6,0,P|442:130|505:66,1,150,2|2,1:1|0:2,0:0:0:0:
372,54,185289,1,0,1:2:0:0:
119,175,185434,2,0,L|216:162,1,75,8|0,1:2|0:0,0:0:0:0:
74,116,185722,2,0,L|170:97,1,75,2|0,1:2|0:0,0:0:0:0:
390,132,186011,5,2,0:2:0:0:
266,94,186155,2,0,L|356:83,1,75,2|2,1:2|1:2,0:0:0:0:
228,158,186443,1,2,0:0:0:0:
475,78,186588,2,0,L|373:69,2,75,10|2|2,1:2|1:2|0:2,0:0:0:0:
190,211,187164,6,0,P|258:206|366:202,1,150,2|2,1:1|0:2,0:0:0:0:
101,146,187741,2,0,L|179:133,2,75,2|0|2,0:2|0:0|0:2,0:0:0:0:
357,221,188318,6,0,P|289:216|181:212,1,150,2|2,0:2|0:2,0:0:0:0:
458,142,188895,2,0,L|380:129,2,75,2|0|2,0:2|0:0|0:0,0:0:0:0:
74,245,189491,5,4,1:2:0:0:
281,165,189779,2,0,L|167:155,1,100
394,66,190260,1,0,0:0:0:0:
129,66,190548,5,0,0:0:0:0:
375,216,190837,1,0,0:0:0:0:
289,217,190933,1,0,0:0:0:0:
477,206,191221,2,0,L|478:42,1,150,2|2,1:2|0:2,0:0:0:0:
74,157,191798,6,0,L|235:155,1,150,4|0,1:2|0:0,0:0:0:0:
88,94,192279,1,0,0:0:0:0:
284,75,192375,2,0,P|340:78|390:160,1,150,2|0,1:2|0:0,0:0:0:0:
133,201,192952,6,0,P|92:168|140:85,1,150,2|0,1:2|0:0,0:0:0:0:
196,64,193385,1,0,0:0:0:0:
397,48,193529,2,0,P|435:63|394:144,1,150,2|0,1:2|0:0,0:0:0:0:
46,251,194106,6,0,P|20:182|69:125,1,150,6|0,1:2|0:0,0:0:0:0:
143,107,194539,1,0,0:0:0:0:
370,157,194683,1,0,1:2:0:0:
254,163,194827,1,0,0:0:0:0:
140,177,194971,1,0,0:0:0:0:
492,147,195260,6,0,L|491:-12,1,150,0|0,1:2|0:0,0:0:0:0:
400,20,195692,1,0,0:0:0:0:
164,82,195837,2,0,P|82:108|86:176,1,150,2|2,1:2|0:2,0:0:0:0:
458,187,196414,6,0,L|297:182,1,150,4|0,1:2|0:0,0:0:0:0:
387,112,196846,1,0,0:0:0:0:
124,199,196991,2,0,P|53:233|66:300,1,150,2|0,1:2|0:0,0:0:0:0:
135,307,197423,1,0,0:0:0:0:
351,189,197567,6,0,L|181:185,1,150,2|0,1:2|0:0,0:0:0:0:
421,100,198144,1,2,1:2:0:0:
151,95,198433,1,2,0:2:0:0:
504,201,198721,6,0,L|501:35,1,150,4|0,1:2|0:0,0:0:0:0:
233,146,199298,2,0,L|344:137,1,100,0|2,1:2|0:2,0:0:0:0:
84,199,199779,5,2,0:2:0:0:
319,114,200055,2,0,L|225:107,1,82,2|0,0:2|0:0,0:0:0:0:
456,205,200452,2,0,L|458:45,1,150,2|2,1:2|0:2,0:0:0:0:
207,136,201029,6,0,L|377:131,1,150,4|0,1:2|0:0,0:0:0:0:
276,74,201462,1,0,0:0:0:0:
46,84,201606,2,0,L|45:249,1,150,2|0,1:2|0:0,0:0:0:0:
275,273,202183,6,0,L|109:263,1,150,2|0,1:2|0:0,0:0:0:0:
200,215,202616,1,0,0:0:0:0:
409,199,202760,2,0,P|446:179|399:94,1,150,2|2,1:2|0:2,0:0:0:0:
4,110,203337,6,0,L|175:87,1,150,4|0,1:2|0:0,0:0:0:0:
399,159,203914,2,0,L|244:131,1,150,2|0,1:2|0:0,0:0:0:0:
232,73,204346,1,0,0:0:0:0:
443,239,204491,6,0,P|488:215|432:146,1,150,2|0,1:2|0:0,0:0:0:0:
370,120,204923,1,0,0:0:0:0:
152,121,205067,2,0,L|316:108,1,150,2|2,1:2|0:2,0:0:0:0:
302,109,205500,1,0,0:0:0:0:
40,91,205644,5,0,1:2:0:0:
40,91,206077,1,2,0:0:0:0:
191,119,206366,2,0,L|124:77,1,75
357,58,206798,6,0,P|412:58|418:155,1,150
287,170,207375,2,0,L|447:135,1,150
31,79,207952,5,6,1:2:0:0:
235,54,208241,2,0,L|156:54,1,75,2|0,0:2|1:2,0:0:0:0:
382,147,208529,2,0,L|386:230,1,75,10|0,1:2|0:0,0:0:0:0:
290,294,208817,1,2,1:2:0:0:
386,221,208962,1,0,1:2:0:0:
177,214,209106,6,0,L|167:122,1,75,2|0,0:2|1:2,0:0:0:0:
287,118,209394,2,0,L|376:100,1,75,2|0,1:2|0:0,0:0:0:0:
88,184,209683,2,0,L|80:100,1,75,10|0,1:2|0:0,0:0:0:0:
192,83,209971,2,0,L|116:77,1,75,2|0,0:2|0:0,0:0:0:0:
337,83,210260,6,0,P|387:83|418:177,1,150,6|2,1:2|0:2,0:0:0:0:
336,184,210692,1,0,1:2:0:0:
100,207,210837,2,0,L|93:120,1,75,10|2,1:2|0:0,0:0:0:0:
221,99,211125,2,0,L|309:97,1,75,0|2,1:2|1:2,0:0:0:0:
73,93,211414,6,0,L|67:181,1,75,0|2,0:2|1:2,0:0:0:0:
337,249,211702,2,0,L|430:276,1,75,2|0,1:2|0:0,0:0:0:0:
165,204,211991,2,0,P|127:206|93:311,1,150,10|2,1:2|1:2,0:0:0:0:
465,173,212567,6,0,L|306:153,1,150,6|2,1:2|0:2,0:0:0:0:
391,96,213000,1,0,1:2:0:0:
171,115,213144,2,0,L|167:211,1,75,10|0,1:2|0:0,0:0:0:0:
371,272,213433,2,0,L|465:262,1,75,2|0,1:2|1:2,0:0:0:0:
218,190,213721,6,0,L|306:181,1,75,2|0,0:2|1:2,0:0:0:0:
57,165,214010,2,0,L|50:88,1,75,2|0,1:2|0:0,0:0:0:0:
304,109,214298,2,0,L|142:99,1,150,10|2,1:2|0:2,0:0:0:0:
155,99,214731,1,0,0:0:0:0:
417,208,214875,6,0,P|457:196|413:113,1,150,6|2,1:2|0:2,0:0:0:0:
333,77,215308,1,0,1:2:0:0:
91,88,215452,2,0,L|89:172,1,75,10|2,1:2|0:2,0:0:0:0:
321,197,215741,2,0,L|414:185,1,75,0|2,1:2|1:2,0:0:0:0:
180,139,216029,6,0,L|289:129,1,75,4|2,0:0|1:2,0:0:0:0:
134,88,216317,2,0,L|51:76,1,75,2|0,1:2|0:0,0:0:0:0:
367,77,216606,2,0,L|500:65,1,75,10|0,0:2|0:0,0:0:0:0:
326,127,216894,2,0,L|311:219,1,75,2|0,1:2|0:0,0:0:0:0:
72,261,217183,6,0,L|250:238,1,150,6|2,1:2|0:2,0:0:0:0:
124,169,217616,1,0,1:2:0:0:
358,168,217760,2,0,L|368:264,1,75,10|0,1:2|0:0,0:0:0:0:
233,303,218048,2,0,L|135:287,1,75,2|0,1:2|1:2,0:0:0:0:
416,206,218337,6,0,L|331:186,1,75,2|0,0:2|1:2,0:0:0:0:
226,117,218625,2,0,L|343:99,1,75,2|0,1:2|0:0,0:0:0:0:
67,103,218914,2,0,L|181:93,1,75,10|0,1:2|0:0,0:0:0:0:
258,90,219202,2,0,L|133:73,1,75,2|0,0:2|0:0,0:0:0:0:
438,99,219491,6,0,L|452:251,1,150,6|2,1:2|0:2,0:0:0:0:
356,287,219923,1,0,1:2:0:0:
131,194,220067,2,0,L|122:104,1,75,10|2,1:2|0:0,0:0:0:0:
247,98,220356,2,0,L|143:85,1,75,0|2,1:2|1:2,0:0:0:0:
416,102,220644,6,0,L|433:231,1,75,0|2,0:2|1:2,0:0:0:0:
301,226,220933,2,0,L|286:319,1,75,2|0,1:2|0:0,0:0:0:0:
52,285,221221,2,0,P|17:177|81:119,1,150,10|2,1:2|1:2,0:0:0:0:
124,113,221654,1,0,0:0:0:0:
340,173,221798,6,0,L|177:161,1,150,6|2,1:2|0:2,0:0:0:0:
262,99,222231,1,0,1:2:0:0:
497,137,222375,2,0,L|498:235,1,75,10|0,1:2|0:0,0:0:0:0:
362,262,222664,2,0,L|468:253,1,75,2|0,1:2|1:2,0:0:0:0:
209,176,222952,6,0,L|322:170,1,75,2|0,0:2|1:2,0:0:0:0:
31,127,223241,2,0,L|21:34,1,75,2|0,1:2|0:0,0:0:0:0:
318,161,223529,1,10,1:2:0:0:
193,106,223673,1,0,1:2:0:0:
68,78,223817,1,2,0:2:0:0:
478,92,224106,6,0,L|283:80,1,150,6|2,1:2|0:2,0:0:0:0:
204,69,224539,1,0,1:2:0:0:
415,119,224683,2,0,L|419:229,1,75,10|2,1:2|0:2,0:0:0:0:
285,240,224971,2,0,L|373:230,1,75,0|2,1:2|1:2,0:0:0:0:
124,162,225260,6,0,L|22:147,2,75,4|2|2,0:0|1:2|1:2,0:0:0:0:
394,116,225837,2,0,L|311:104,1,75,10|0,0:2|0:0,0:0:0:0:
438,55,226125,1,2,1:2:0:0:
85,138,226414,5,6,1:2:0:0:
271,82,226702,1,2,0:0:0:0:
158,57,226846,1,2,1:2:0:0:
379,149,226991,1,8,1:2:0:0:
257,155,227135,2,0,L|253:253,1,75,2|0,0:0|1:2,0:0:0:0:
470,273,227423,6,0,L|313:254,1,150,2|2,1:2|1:2,0:0:0:0:
472,196,227856,2,0,L|394:190,1,75,2|0,1:2|0:0,0:0:0:0:
194,126,228144,1,10,1:2:0:0:
312,83,228289,1,0,1:2:0:0:
429,62,228433,1,2,0:0:0:0:
48,167,228721,5,4,1:2:0:0:
230,83,229010,1,2,0:0:0:0:
123,61,229154,1,2,1:2:0:0:
352,187,229298,1,8,1:2:0:0:
244,141,229442,1,2,0:0:0:0:
361,123,229587,2,0,L|367:37,1,75,2|0,1:2|1:2,0:0:0:0:
119,152,229875,6,0,L|204:140,2,75,2|0|2,0:0|1:2|1:2,0:0:0:0:
370,105,230452,1,10,1:2:0:0:
252,66,230596,1,0,0:0:0:0:
370,105,230741,1,2,1:2:0:0:
488,114,230885,1,0,0:0:0:0:
262,168,231029,6,0,L|243:264,1,75,4|0,1:2|0:0,0:0:0:0:
475,294,231317,2,0,L|365:275,1,75,2|2,0:0|1:2,0:0:0:0:
178,207,231606,2,0,L|304:195,1,75,8|2,1:2|0:0,0:0:0:0:
48,155,231894,2,0,L|31:59,1,75,2|0,1:2|1:2,0:0:0:0:
332,80,232183,6,0,L|238:73,1,75,2|0,0:0|1:2,0:0:0:0:
484,84,232471,2,0,L|404:81,1,75,2|0,1:2|0:0,0:0:0:0:
198,219,232760,1,10,1:2:0:0:
318,167,232904,1,0,1:2:0:0:
71,93,233048,1,2,0:2:0:0:
446,100,233337,5,4,1:2:0:0:
223,82,233625,1,2,0:0:0:0:
325,57,233769,1,2,1:2:0:0:
99,223,233914,1,8,0:2:0:0:
206,181,234058,1,2,0:0:0:0:
99,223,234202,2,0,L|95:139,1,75,2|0,1:2|1:2,0:0:0:0:
362,125,234491,6,0,L|271:112,2,75,6|0|2,0:0|1:2|1:2,0:0:0:0:
18,69,235067,1,10,0:2:0:0:
135,65,235212,1,0,0:0:0:0:
18,69,235356,1,2,1:2:0:0:
433,189,235644,6,0,L|340:229,1,75,4|0,1:2|0:0,0:0:0:0:
147,257,235933,1,2,0:0:0:0:
255,184,236077,1,2,1:2:0:0:
44,109,236221,1,8,1:2:0:0:
156,67,236366,2,0,L|56:47,1,75,2|0,0:0|1:2,0:0:0:0:
317,102,236654,6,0,L|109:87,1,150,2|2,1:2|1:2,0:0:0:0:
310,169,237087,2,0,L|209:153,1,75,2|0,1:2|0:0,0:0:0:0:
492,120,237375,2,0,L|386:101,1,75,14|0,1:2|1:2,0:0:0:0:
296,77,237664,2,0,L|421:67,1,75,2|0,0:0|0:0,0:0:0:0:
106,141,237952,6,0,L|83:234,1,75,4|0,1:2|0:0,0:0:0:0:
224,252,238241,2,0,L|246:334,1,75,2|2,0:0|1:2,0:0:0:0:
480,244,238529,2,0,L|353:230,1,75,8|2,1:2|0:0,0:0:0:0:
278,179,238817,2,0,L|395:165,1,75,2|0,1:2|1:2,0:0:0:0:
98,115,239106,6,0,L|189:103,1,75,2|0,0:0|1:2,0:0:0:0:
46,66,239394,2,0,L|25:-11,1,75,2|0,1:2|0:0,0:0:0:0:
314,112,239683,2,0,L|507:103,1,150,10|2,1:2|1:2,0:0:0:0:
61,153,240260,6,0,L|221:148,1,150,4|2,1:2|0:0,0:0:0:0:
134,94,240692,1,2,1:2:0:0:
374,95,240837,2,0,L|463:88,1,75,8|2,1:2|0:0,0:0:0:0:
206,201,241125,2,0,L|298:198,1,75,2|0,1:2|1:2,0:0:0:0:
28,111,241414,6,0,L|134:106,1,75,6|0,0:0|1:2,0:0:0:0:
337,103,241702,2,0,L|215:99,1,75,2|0,1:2|0:0,0:0:0:0:
488,113,241991,1,10,1:2:0:0:
492,187,242135,1,0,1:2:0:0:
496,262,242279,1,2,0:2:0:0:
66,276,242567,6,0,L|243:259,1,150,4|2,1:2|0:0,0:0:0:0:
324,188,243000,1,2,1:2:0:0:
121,167,243144,2,0,L|110:70,1,75,8|2,0:2|0:0,0:0:0:0:
233,76,243433,2,0,L|143:65,1,75,2|0,1:2|1:2,0:0:0:0:
410,59,243721,6,0,L|291:56,2,75,6|0|2,0:0|1:2|1:2,0:0:0:0:
410,59,244298,2,0,L|316:59,2,75,10|0|2,0:2|0:0|1:2,0:0:0:0:
109,119,244918,5,0,0:0:0:0:
256,192,251790,12,0,253809,0:0:0:0:
296,150,254102,6,0,P|383:154|435:300,1,225,6|0,1:1|1:2,0:0:0:0:
296,268,254678,2,0,L|289:165,1,75,10|0,1:2|0:0,0:0:0:0:
371,147,254967,1,2,1:2:0:0:
231,112,255111,1,0,1:2:0:0:
371,147,255255,6,0,L|285:144,2,75,0|0|2,0:0|1:2|1:2,0:0:0:0:
101,153,255832,2,0,L|187:150,2,75,10|0|2,1:2|0:0|0:2,0:0:0:0:
382,144,256409,6,0,P|295:148|243:294,1,225,2|0,1:1|1:2,0:0:0:0:
382,262,256986,2,0,L|389:159,1,75,10|0,1:2|0:0,0:0:0:0:
307,141,257275,1,2,1:2:0:0:
446,98,257419,1,0,1:2:0:0:
307,141,257563,6,0,L|393:138,2,75,0|0|2,0:0|1:2|1:2,0:0:0:0:
58,162,258140,2,0,L|144:159,2,75,10|0|2,1:2|0:0|1:2,0:0:0:0:
323,117,258717,6,0,B|142:131|142:131|136:215,1,225,2|0,1:1|0:0,0:0:0:0:
264,229,259294,2,0,L|277:136,1,75,10|0,1:2|0:0,0:0:0:0:
153,125,259582,2,0,L|246:116,1,75,2|0,1:2|1:2,0:0:0:0:
92,72,259871,6,0,L|179:66,2,75,0|0|2,0:0|1:2|1:2,0:0:0:0:
345,72,260448,2,0,L|258:66,2,75,10|0|2,1:2|0:0|0:2,0:0:0:0:
64,133,261025,6,0,B|245:147|245:147|251:231,1,225,2|0,1:1|0:0,0:0:0:0:
123,245,261602,2,0,L|110:152,1,75,10|0,1:2|0:0,0:0:0:0:
234,141,261890,2,0,L|141:132,1,75,2|2,1:2|1:2,0:0:0:0:
295,88,262179,6,0,L|208:82,2,75,0|2|2,0:0|1:2|1:2,0:0:0:0:
42,88,262756,2,0,L|129:82,2,75,10|0|2,1:2|0:0|1:2,0:0:0:0:
437,151,263332,6,0,L|350:148,1,75,2|0,1:1|0:0,0:0:0:0:
240,134,263621,2,0,L|410:114,1,150,2|10,0:2|1:2,0:0:0:0:
168,212,264053,2,0,L|166:107,1,75,0|2,0:0|1:2,0:0:0:0:
400,107,264342,6,0,L|217:101,1,150,0|0,1:2|1:2,0:0:0:0:
395,182,264775,2,0,L|319:179,1,75,2|0,1:2|0:0,0:0:0:0:
103,147,265063,1,10,1:2:0:0:
211,120,265207,2,0,L|220:38,1,75,0|0,1:2|0:0,0:0:0:0:
343,31,265496,1,0,0:0:0:0:
79,155,265640,6,0,P|191:171|219:291,1,225,2|0,1:1|1:2,0:0:0:0:
118,265,266217,1,0,0:0:0:0:
230,203,266361,2,0,L|240:107,1,75,0|2,0:0|1:2,0:0:0:0:
363,94,266650,6,0,L|523:76,1,150,0|0,1:2|1:2,0:0:0:0:
404,139,267082,2,0,L|397:234,1,75,2|0,1:2|0:0,0:0:0:0:
280,276,267371,1,2,1:2:0:0:
401,227,267515,2,0,L|230:210,1,150
480,137,267948,6,0,P|396:133|357:268,1,225,2|0,1:1|1:2,0:0:0:0:
442,293,268525,1,0,0:0:0:0:
326,218,268669,2,0,L|313:121,1,75,0|2,0:0|1:2,0:0:0:0:
195,125,268957,6,0,L|36:113,1,150,0|0,1:2|1:2,0:0:0:0:
160,63,269390,1,2,1:2:0:0:
40,160,269534,1,2,0:2:0:0:
38,122,269606,1,2,0:2:0:0:
36,85,269678,1,2,1:2:0:0:
264,99,269823,2,0,L|86:89,1,150,0|2,1:2|0:2,0:0:0:0:
389,103,270255,6,0,P|440:112|468:215,1,150,2|0,1:1|0:0,0:0:0:0:
386,230,270688,1,0,0:0:0:0:
146,160,270832,2,0,P|86:160|66:246,1,150
138,284,271265,1,0,0:0:0:0:
369,206,271409,6,0,L|206:194,1,150
341,132,271842,1,0,0:0:0:0:
125,208,271986,2,0,L|288:196,1,150,0|2,0:0|0:2,0:0:0:0:
153,134,272419,1,0,0:0:0:0:
400,168,272563,6,2,L|409:71,1,75,6|0,1:2|0:0,0:1:0:0:
180,66,272852,1,0,0:0:0:0:
302,49,272996,1,0,0:0:0:0:
54,169,273140,1,8,1:2:0:0:
165,150,273284,1,0,0:0:0:0:
54,169,273428,2,0,L|45:74,1,75
260,97,273717,6,0,L|164:86,1,75
413,93,274005,2,0,L|501:88,1,75
214,194,274294,1,10,1:2:0:0:
331,151,274438,1,0,0:0:0:0:
214,194,274582,2,0,L|209:113,1,75,2|0,0:2|0:0,0:0:0:0:
462,104,274871,6,0,L|306:85,1,150,6|2,1:2|0:2,0:0:0:0:
97,68,275303,1,0,1:2:0:0:
313,85,275448,2,0,L|469:66,1,150,10|2,1:2|1:2,0:0:0:0:
380,15,275880,1,0,1:2:0:0:
175,180,276025,6,0,L|279:167,1,75,0|0,0:0|1:2,0:0:0:0:
26,106,276313,2,0,L|16:24,1,75,2|0,1:2|0:0,0:0:0:0:
283,126,276602,2,0,L|117:113,1,150,10|2,1:2|1:2,0:0:0:0:
118,77,277034,1,0,0:0:0:0:
374,104,277178,6,0,L|385:198,1,75,6|0,1:2|0:0,0:0:0:0:
153,275,277467,2,0,L|70:269,1,75,2|0,0:2|1:2,0:0:0:0:
310,206,277755,2,0,L|224:204,1,75,10|0,1:2|0:0,0:0:0:0:
448,141,278044,2,0,L|460:233,1,75,2|0,1:2|1:2,0:0:0:0:
257,308,278332,6,0,L|349:302,1,75,0|0,0:0|1:2,0:0:0:0:
82,208,278621,2,0,L|162:201,1,75,2|0,1:2|0:0,0:0:0:0:
421,138,278909,2,0,L|341:127,1,75,10|0,1:2|0:0,0:0:0:0:
120,93,279198,1,2,0:2:0:0:
462,77,279486,6,2,P|399:75|324:134,1,150,6|0,1:2|0:0,0:1:0:0:
438,218,279919,1,0,0:0:0:0:
200,222,280063,2,0,L|111:216,1,75,8|0,1:2|0:0,0:0:0:0:
380,136,280352,2,0,L|381:240,1,75,2|2,1:2|1:2,0:0:0:0:
132,86,280640,6,2,L|215:78,2,75,4|0|0,0:0|0:0|0:0,0:1:0:0:
380,86,281217,2,0,L|297:78,2,75,10|0|0,0:2|0:0|0:0,0:0:0:0:
15,79,281794,6,2,L|100:68,1,75,6|0,1:2|0:0,0:1:0:0:
217,80,282082,2,0,L|128:60,1,75
391,84,282371,2,0,L|470:76,1,75,8|0,1:2|0:0,0:0:0:0:
231,159,282659,2,0,L|216:259,1,75
461,277,282948,6,0,L|352:266,1,75
271,220,283236,2,0,L|364:213,1,75
82,121,283525,1,10,1:2:0:0:
194,103,283669,1,0,0:0:0:0:
82,121,283813,1,0,0:0:0:0:
474,203,284102,6,0,L|305:177,1,150,6|2,1:2|0:2,0:0:0:0:
449,116,284534,1,0,1:2:0:0:
248,252,284678,2,0,L|79:226,1,150,10|2,1:2|1:2,0:0:0:0:
230,167,285110,1,0,1:2:0:0:
22,134,285255,6,0,L|123:111,2,75,0|0|2,0:0|1:2|1:2,0:0:0:0:
431,77,285832,1,10,1:2:0:0:
221,74,286121,2,0,L|316:66,1,75,2|0,1:2|0:0,0:0:0:0:
86,238,286409,6,0,P|43:217|92:142,1,150,6|2,1:2|0:2,0:0:0:0:
173,116,286842,1,0,1:2:0:0:
400,142,286986,2,0,L|403:232,1,75,10|0,1:2|0:0,0:0:0:0:
199,276,287275,2,0,L|111:264,1,75,2|0,1:2|1:2,0:0:0:0:
348,201,287563,6,0,L|265:190,1,75,0|0,0:0|1:2,0:0:0:0:
494,136,287852,2,0,L|400:123,1,75,2|0,1:2|0:0,0:0:0:0:
195,132,288140,1,10,1:2:0:0:
310,96,288284,1,0,0:0:0:0:
426,82,288428,1,2,0:2:0:0:
37,133,288717,6,2,L|200:102,1,150,6|0,1:2|0:0,0:1:0:0:
395,66,289150,1,0,0:0:0:0:
184,104,289294,2,0,L|21:73,1,150,8|2,1:2|1:2,0:0:0:0:
238,35,289727,1,2,1:2:0:0:
442,135,289871,6,2,L|365:118,2,75,4|0|0,0:0|0:0|0:0,0:1:0:0:
70,135,290448,2,0,L|147:118,2,75,10|0|0,0:2|0:0|0:0,0:0:0:0:
480,151,291025,6,2,L|397:144,1,75,6|0,1:2|0:0,0:1:0:0:
182,110,291313,1,0,0:0:0:0:
405,144,291457,1,0,0:0:0:0:
182,110,291602,2,0,L|174:203,1,75,8|0,1:2|0:0,0:0:0:0:
385,253,291890,2,0,L|484:244,1,75,0|0,0:0|1:2,0:0:0:0:
212,199,292178,6,0,L|309:187,1,75,2|0,0:2|0:0,0:0:0:0:
73,125,292467,2,0,L|-4:107,1,75,2|0,1:2|0:0,0:0:0:0:
294,133,292755,2,0,L|199:121,1,75,10|0,1:2|0:0,0:0:0:0:
18,70,293044,1,0,0:0:0:0:
417,181,293332,6,0,L|231:170,1,150,6|0,1:2|0:0,0:0:0:0:
58,122,293765,1,0,1:2:0:0:
267,172,293909,2,0,L|269:265,1,75,10|0,1:2|0:0,0:0:0:0:
409,279,294198,2,0,L|485:265,1,75,2|0,1:2|1:2,0:0:0:0:
190,170,294486,6,0,L|287:160,1,75,0|0,0:0|1:2,0:0:0:0:
476,119,294775,1,2,1:2:0:0:
46,89,295063,2,0,L|41:269,1,150,10|0,1:2|0:0,0:0:0:0:
444,267,295640,6,0,L|351:251,1,75,6|0,1:2|0:0,0:0:0:0:
148,176,295928,2,0,L|58:160,1,75,2|0,0:0|1:2,0:0:0:0:
319,128,296217,2,0,L|429:117,1,75,10|0,1:2|0:0,0:0:0:0:
118,85,296505,2,0,L|41:74,1,75,2|0,1:2|1:2,0:0:0:0:
281,149,296794,6,0,L|184:137,1,75,0|0,0:0|1:2,0:0:0:0:
415,88,297082,2,0,L|494:82,1,75,2|0,1:2|0:0,0:0:0:0:
199,204,297371,1,10,1:2:0:0:
316,201,297515,1,0,0:0:0:0:
59,139,297659,1,0,0:0:0:0:
438,141,297948,6,2,L|279:126,1,150,6|0,1:2|0:0,0:1:0:0:
488,68,298380,1,0,0:0:0:0:
288,126,298525,2,0,L|374:117,1,75,8|0,1:2|0:0,0:0:0:0:
135,192,298813,2,0,L|38:172,1,75,0|2,0:0|1:2,0:0:0:0:
291,136,299102,6,2,L|294:231,1,75,4|0,0:0|0:0,0:1:0:0:
66,259,299390,1,0,0:0:0:0:
307,179,299678,1,10,0:2:0:0:
53,133,299967,1,0,0:0:0:0:
476,96,300255,6,2,L|384:80,1,75,6|0,1:2|0:0,0:1:0:0:
164,85,300544,2,0,L|271:78,1,75
466,189,300832,2,0,L|315:172,1,150,8|0,1:2|0:0,0:0:0:0:
105,131,301265,1,0,1:2:0:0:
316,172,301409,6,0,L|398:159,1,75,2|0,0:2|0:0,0:0:0:0:
165,151,301698,2,0,L|75:133,1,75,2|0,1:2|0:0,0:0:0:0:
316,93,301986,2,0,L|326:184,1,75,10|0,1:2|0:0,0:0:0:0:
68,236,302275,1,0,0:0:0:0:
461,203,302563,6,0,L|282:198,1,150,6|0,1:2|0:0,0:0:0:0:
93,148,302996,1,0,1:2:0:0:
302,190,303140,2,0,L|214:185,1,75,10|0,1:2|0:0,0:0:0:0:
465,117,303428,2,0,L|466:217,1,75,2|0,1:2|1:2,0:0:0:0:
206,240,303717,5,2,0:2:0:0:
334,230,303861,1,0,0:0:0:0:
206,240,304005,1,2,1:2:0:0:
334,230,304150,1,0,0:0:0:0:
105,153,304294,1,10,1:2:0:0:
233,143,304438,1,0,0:0:0:0:
105,153,304582,1,0,0:0:0:0:
233,143,304727,1,0,0:0:0:0:
19,182,304871,6,0,L|11:88,1,75,6|0,1:2|0:0,0:0:0:0:
230,92,305159,2,0,L|126:77,1,75,0|0,0:0|1:2,0:0:0:0:
378,76,305448,2,0,L|457:71,1,75,10|0,1:2|0:0,0:0:0:0:
218,220,305736,2,0,L|205:298,1,75,2|0,1:2|1:2,0:0:0:0:
467,289,306025,6,0,L|368:271,1,75,0|0,0:0|1:2,0:0:0:0:
160,182,306313,2,0,L|260:173,1,75,2|0,1:2|0:0,0:0:0:0:
16,90,306602,1,10,1:2:0:0:
131,88,306746,1,0,0:0:0:0:
16,90,306890,1,0,0:0:0:0:
461,188,307178,6,0,L|286:162,1,150,6|2,1:2|0:2,0:0:0:0:
90,108,307611,1,0,1:2:0:0:
314,166,307755,2,0,L|319:245,1,75,10|0,1:2|0:0,0:0:0:0:
110,310,308044,2,0,L|36:297,1,75,2|0,1:2|0:0,0:0:0:0:
318,240,308332,6,0,L|223:229,1,75,4|0,0:0|0:0,0:0:0:0:
481,132,308621,1,2,1:2:0:0:
138,128,308909,1,10,0:2:0:0:
481,132,309198,1,0,1:2:0:0:
368,97,309342,1,0,0:0:0:0:
48,105,309486,5,6,1:2:0:0:
256,192,309630,12,2,310063,0:0:0:0:
