osu file format v14

[General]
AudioFilename: audio.mp3
AudioLeadIn: 0
PreviewTime: 131698
Countdown: 0
SampleSet: Soft
StackLeniency: 0.9
Mode: 0
LetterboxInBreaks: 0
WidescreenStoryboard: 1

[Editor]
Bookmarks: 4834,23295,32526,50987,69463,87924,97151,115612,134089,152550,161781,171012,189491,207952,226414,244875,254102,263332,272563,281794,291025,300255,309486
DistanceSpacing: 0.5
BeatDivisor: 6
GridSize: 16
TimelineZoom: 2.400005

[Metadata]
Title:Stronger
TitleUnicode:Stronger
Artist:Kanye West
ArtistUnicode:Kanye West
Creator:Aranel
Version:Don't act like I never told you...
Source:
Tags:english hiphop hip hop rap graduation ye Harder Better Faster daft punk electronic gigarobloxian [poke] poke xandeez nuts
BeatmapID:3467013
BeatmapSetID:1696918

[Difficulty]
HPDrainRate:5
CircleSize:4.5
OverallDifficulty:8
ApproachRate:8.5
SliderMultiplier:2
SliderTickRate:1

[Events]
//Background and Video events
0,0,"zyro-image.jpg",0,0
//Break Periods
2,249482,253427
//Storyboard Layer 0 (Background)
//Storyboard Layer 1 (Fail)
//Storyboard Layer 2 (Pass)
//Storyboard Layer 3 (Foreground)
//Storyboard Layer 4 (Overlay)
//Storyboard Sound Samples

[TimingPoints]
219,600,4,2,2,40,1,0
1419,483.870967741935,4,2,2,40,1,0
1660,600,4,2,2,40,1,0
1960,666.666666666667,4,2,2,40,1,0
2536,576.923076923077,4,2,2,40,1,0
4013,612.244897959184,4,2,2,40,1,0
4625,558.139534883721,4,2,2,40,1,0
4625,-88.8888888888889,4,2,2,40,0,0
4834,576.923076923077,4,2,2,50,1,0
10098,-100,4,2,2,5,0,0
10170,-100,4,2,2,50,0,0
14713,-100,4,2,2,5,0,0
14785,-100,4,2,2,50,0,0
23295,-74.0740740740741,4,2,1,80,0,0
23511,-74.0740740740741,4,2,1,5,0,0
23584,-74.0740740740741,4,2,1,80,0,0
25819,-74.0740740740741,4,2,1,5,0,0
25892,-74.0740740740741,4,2,1,80,0,0
27334,-66.6666666666667,4,2,1,80,0,0
27622,-74.0740740740741,4,2,1,80,0,0
28127,-74.0740740740741,4,2,1,5,0,0
28200,-74.0740740740741,4,2,1,80,0,0
28704,-74.0740740740741,4,2,1,5,0,0
28777,-74.0740740740741,4,2,1,80,0,0
32237,-74.0740740740741,4,2,1,80,0,0
32526,-83.3333333333333,4,2,1,65,0,0
38511,-83.3333333333333,4,2,1,5,0,0
38584,-83.3333333333333,4,2,1,65,0,0
39088,-83.3333333333333,4,2,1,5,0,0
39161,-83.3333333333333,4,2,1,65,0,0
43127,-83.3333333333333,4,2,1,5,0,0
43200,-83.3333333333333,4,2,1,65,0,0
46588,-83.3333333333333,4,2,1,5,0,0
46661,-83.3333333333333,4,2,1,65,0,0
50987,-60.6060606060606,4,2,1,65,0,0
51853,-83.3333333333333,4,2,1,65,0,0
52358,-83.3333333333333,4,2,1,5,0,0
52430,-83.3333333333333,4,2,1,65,0,0
52934,-83.3333333333333,4,2,1,5,0,0
53006,-83.3333333333333,4,2,1,65,0,0
53295,-64.5161290322581,4,2,1,65,0,0
53872,-83.3333333333333,4,2,1,65,0,0
54088,-83.3333333333333,4,2,1,5,0,0
54160,-83.3333333333333,4,2,1,65,0,0
54954,-83.3333333333333,4,2,1,5,0,0
55026,-83.3333333333333,4,2,1,65,0,0
55603,-66.6666666666667,4,2,1,65,0,0
56180,-83.3333333333333,4,2,1,65,0,0
57334,-66.6666666666667,4,2,1,65,0,0
57622,-83.3333333333333,4,2,1,65,0,0
57910,-58.8235294117647,4,2,1,65,0,0
58487,-83.3333333333333,4,2,1,65,0,0
59641,-66.6666666666667,4,2,1,65,0,0
59858,-66.6666666666667,4,2,1,5,0,0
59929,-83.3333333333333,4,2,1,65,0,0
60218,-58.8235294117647,4,2,1,65,0,0
60795,-83.3333333333333,4,2,1,65,0,0
61011,-83.3333333333333,4,2,1,5,0,0
61083,-83.3333333333333,4,2,1,65,0,0
62526,-57.1428571428571,4,2,1,65,0,0
62814,-83.3333333333333,4,2,1,65,0,0
64834,-57.1428571428571,4,2,1,65,0,0
65122,-83.3333333333333,4,2,1,65,0,0
67141,-500,4,2,1,60,0,0
68872,-1000,4,2,1,60,0,0
69160,-133.333333333333,4,2,1,60,0,0
69463,576.923076923077,4,2,2,70,1,0
69463,-66.6666666666667,4,2,2,70,0,0
69943,-66.6666666666667,4,2,2,5,0,0
70039,-142.857142857143,4,2,2,70,0,0
70520,-66.6666666666667,4,2,2,5,0,0
70616,-66.6666666666667,4,2,2,70,0,0
71097,-66.6666666666667,4,2,2,5,0,0
71192,-142.857142857143,4,2,2,70,0,0
71770,-66.6666666666667,4,2,2,70,0,0
72251,-66.6666666666667,4,2,2,5,0,0
72346,-142.857142857143,4,2,2,70,0,0
72828,-66.6666666666667,4,2,2,5,0,0
72923,-66.6666666666667,4,2,2,70,0,0
73405,-66.6666666666667,4,2,2,5,0,0
73499,-83.3333333333333,4,2,2,70,0,0
74078,-66.6666666666667,4,2,2,70,0,0
74559,-66.6666666666667,4,2,2,5,0,0
74654,-142.857142857143,4,2,2,70,0,0
75136,-66.6666666666667,4,2,2,5,0,0
75231,-66.6666666666667,4,2,2,70,0,0
75713,-66.6666666666667,4,2,2,5,0,0
75807,-142.857142857143,4,2,2,70,0,0
76385,-66.6666666666667,4,2,2,70,0,0
76866,-66.6666666666667,4,2,2,5,0,0
76961,-83.3333333333333,4,2,2,70,0,0
77443,-66.6666666666667,4,2,2,5,0,0
77538,-133.333333333333,4,2,2,70,0,0
78020,-66.6666666666667,4,2,2,5,0,0
78114,-83.3333333333333,4,2,2,70,0,0
78693,-66.6666666666667,4,2,2,70,0,0
79269,-142.857142857143,4,2,2,70,0,0
79751,-66.6666666666667,4,2,2,70,0,0
80422,-142.857142857143,4,2,2,70,0,0
80616,-66.6666666666667,4,2,2,5,0,0
80713,-66.6666666666667,4,2,2,70,0,0
81000,-66.6666666666667,4,2,2,70,0,0
81482,-66.6666666666667,4,2,2,5,0,0
81576,-142.857142857143,4,2,2,70,0,0
82059,-66.6666666666667,4,2,2,5,0,0
82153,-66.6666666666667,4,2,2,70,0,0
82636,-66.6666666666667,4,2,2,5,0,0
82729,-83.3333333333333,4,2,2,70,0,0
83308,-66.6666666666667,4,2,2,70,0,0
83789,-66.6666666666667,4,2,2,5,0,0
83884,-83.3333333333333,4,2,2,70,0,0
84366,-66.6666666666667,4,2,2,5,0,0
84461,-142.857142857143,4,2,2,70,0,0
84943,-66.6666666666667,4,2,2,5,0,0
85037,-142.857142857143,4,2,2,70,0,0
85615,-400,4,2,2,70,0,0
85833,-500,4,2,2,5,0,0
86191,-83.3333333333333,4,2,2,70,0,0
86768,-133.333333333333,4,2,2,70,0,0
87924,-74.0740740740741,4,2,1,80,0,0
88140,-74.0740740740741,4,2,1,5,0,0
88213,-74.0740740740741,4,2,1,80,0,0
90448,-74.0740740740741,4,2,1,5,0,0
90521,-74.0740740740741,4,2,1,80,0,0
91963,-66.6666666666667,4,2,1,80,0,0
92251,-74.0740740740741,4,2,1,80,0,0
92756,-74.0740740740741,4,2,1,5,0,0
92829,-74.0740740740741,4,2,1,80,0,0
93333,-74.0740740740741,4,2,1,5,0,0
93406,-74.0740740740741,4,2,1,80,0,0
97155,-83.3333333333333,4,2,1,65,0,0
100544,-83.3333333333333,4,2,1,5,0,0
100616,-83.3333333333333,4,2,1,65,0,0
100833,-83.3333333333333,4,2,1,5,0,0
100905,-83.3333333333333,4,2,1,65,0,0
101049,-83.3333333333333,4,2,1,5,0,0
101121,-83.3333333333333,4,2,1,65,0,0
102852,-83.3333333333333,4,2,1,5,0,0
102924,-83.3333333333333,4,2,1,65,0,0
104583,-83.3333333333333,4,2,1,5,0,0
104655,-83.3333333333333,4,2,1,65,0,0
105160,-83.3333333333333,4,2,1,5,0,0
105232,-83.3333333333333,4,2,1,65,0,0
110063,-83.3333333333333,4,2,1,5,0,0
110135,-83.3333333333333,4,2,1,65,0,0
113813,-83.3333333333333,4,2,1,5,0,0
113885,-83.3333333333333,4,2,1,65,0,0
114390,-83.3333333333333,4,2,1,5,0,0
114462,-83.3333333333333,4,2,1,65,0,0
115616,-133.333333333333,4,2,2,55,0,0
131770,-307.692307692308,4,2,2,55,0,0
133213,616.966580976864,4,2,2,60,1,0
134035,-66.6666666666667,4,2,2,5,0,0
134088,576.923076923077,4,2,2,70,1,0
134088,-66.6666666666667,4,2,2,70,0,0
134568,-66.6666666666667,4,2,2,5,0,0
134664,-142.857142857143,4,2,2,70,0,0
135145,-66.6666666666667,4,2,2,5,0,0
135241,-66.6666666666667,4,2,2,70,0,0
135722,-66.6666666666667,4,2,2,5,0,0
135817,-55.5555555555556,4,2,2,70,0,0
136323,-66.6666666666667,4,2,2,5,0,0
136395,-76.9230769230769,4,2,2,70,0,0
136876,-66.6666666666667,4,2,2,5,0,0
136971,-142.857142857143,4,2,2,70,0,0
137453,-66.6666666666667,4,2,2,5,0,0
137548,-66.6666666666667,4,2,2,70,0,0
138030,-66.6666666666667,4,2,2,5,0,0
138124,-83.3333333333333,4,2,2,70,0,0
138318,-66.6666666666667,4,2,2,5,0,0
138414,-52.9100529100529,4,2,2,70,0,0
138631,-66.6666666666667,4,2,2,5,0,0
138703,-66.6666666666667,4,2,2,70,0,0
139184,-66.6666666666667,4,2,2,5,0,0
139279,-142.857142857143,4,2,2,70,0,0
139761,-66.6666666666667,4,2,2,5,0,0
139856,-83.3333333333333,4,2,2,70,0,0
140338,-66.6666666666667,4,2,2,5,0,0
140432,-142.857142857143,4,2,2,70,0,0
140626,-66.6666666666667,4,2,2,5,0,0
140722,-55.5555555555556,4,2,2,70,0,0
140939,-66.6666666666667,4,2,2,5,0,0
141010,-66.6666666666667,4,2,2,70,0,0
141491,-66.6666666666667,4,2,2,5,0,0
141586,-83.3333333333333,4,2,2,70,0,0
141780,-83.3333333333333,4,2,2,5,0,0
141876,-83.3333333333333,4,2,2,70,0,0
142163,-66.6666666666667,4,2,2,70,0,0
142357,-66.6666666666667,4,2,2,5,0,0
142453,-66.6666666666667,4,2,2,70,0,0
142645,-52.6315789473684,4,2,2,70,0,0
142739,-52.6315789473684,4,2,2,70,0,0
142934,-52.6315789473684,4,2,2,5,0,0
143030,-50,4,2,2,70,0,0
143246,-52.6315789473684,4,2,2,70,0,0
143318,-66.6666666666667,4,2,2,70,0,0
143799,-66.6666666666667,4,2,2,5,0,0
143894,-142.857142857143,4,2,2,70,0,0
144376,-66.6666666666667,4,2,2,5,0,0
144471,-66.6666666666667,4,2,2,70,0,0
144953,-66.6666666666667,4,2,2,5,0,0
145047,-142.857142857143,4,2,2,70,0,0
145241,-66.6666666666667,4,2,2,5,0,0
145338,-47.6190476190476,4,2,2,70,0,0
145554,-66.6666666666667,4,2,2,5,0,0
145625,-66.6666666666667,4,2,2,70,0,0
146107,-66.6666666666667,4,2,2,5,0,0
146201,-142.857142857143,4,2,2,70,0,0
146684,-66.6666666666667,4,2,2,5,0,0
146778,-66.6666666666667,4,2,2,70,0,0
147261,-66.6666666666667,4,2,2,5,0,0
147354,-125,4,2,2,70,0,0
147549,-66.6666666666667,4,2,2,5,0,0
147645,-47.6190476190476,4,2,2,70,0,0
147862,-66.6666666666667,4,2,2,5,0,0
147933,-66.6666666666667,4,2,2,70,0,0
148414,-66.6666666666667,4,2,2,5,0,0
148509,-83.3333333333333,4,2,2,70,0,0
148991,-66.6666666666667,4,2,2,5,0,0
149086,-142.857142857143,4,2,2,70,0,0
149568,-66.6666666666667,4,2,2,5,0,0
149662,-142.857142857143,4,2,2,70,0,0
150169,-66.6666666666667,4,2,2,5,0,0
150240,-333.333333333333,4,2,2,70,0,0
150530,-333.333333333333,4,2,2,5,0,0
150674,-333.333333333333,4,2,2,70,0,0
150816,-83.3333333333333,4,2,2,70,0,0
151393,-133.333333333333,4,2,1,70,0,0
152549,-74.0740740740741,4,2,1,80,0,0
152765,-74.0740740740741,4,2,1,5,0,0
152838,-74.0740740740741,4,2,1,80,0,0
155073,-74.0740740740741,4,2,1,5,0,0
155145,-74.0740740740741,4,2,1,80,0,0
156588,-66.6666666666667,4,2,1,80,0,0
156876,-74.0740740740741,4,2,1,80,0,0
157381,-74.0740740740741,4,2,1,5,0,0
157453,-74.0740740740741,4,2,1,80,0,0
157958,-74.0740740740741,4,2,1,5,0,0
158030,-74.0740740740741,4,2,1,80,0,0
161203,-66.6666666666667,4,2,1,80,0,0
161491,-74.0740740740741,4,2,1,80,0,0
168703,-296.296296296296,4,2,1,80,0,0
169208,-74.0740740740741,4,2,1,5,0,0
169280,-74.0740740740741,4,2,1,80,0,0
171011,-76.9230769230769,4,2,1,60,0,0
187164,-100,4,2,1,50,0,0
187741,-100,4,2,1,50,0,0
188318,-117.647058823529,4,2,1,50,0,0
188895,-133.333333333333,4,2,1,50,0,0
189491,576.923076923077,4,2,2,70,1,0
189491,-66.6666666666667,4,2,2,70,0,0
189971,-66.6666666666667,4,2,2,5,0,0
190067,-142.857142857143,4,2,2,70,0,0
190548,-66.6666666666667,4,2,2,5,0,0
190644,-66.6666666666667,4,2,2,70,0,0
191125,-66.6666666666667,4,2,2,5,0,0
191220,-142.857142857143,4,2,2,70,0,0
191798,-66.6666666666667,4,2,2,70,0,0
192279,-66.6666666666667,4,2,2,5,0,0
192374,-153.846153846154,4,2,2,70,0,0
192856,-66.6666666666667,4,2,2,5,0,0
192951,-66.6666666666667,4,2,2,70,0,0
193433,-66.6666666666667,4,2,2,5,0,0
193527,-66.6666666666667,4,2,2,70,0,0
194010,-66.6666666666667,4,2,2,5,0,0
194106,-66.6666666666667,4,2,2,70,0,0
194587,-66.6666666666667,4,2,2,5,0,0
194682,-142.857142857143,4,2,2,70,0,0
195164,-66.6666666666667,4,2,2,5,0,0
195259,-66.6666666666667,4,2,2,70,0,0
195741,-66.6666666666667,4,2,2,5,0,0
195835,-142.857142857143,4,2,2,70,0,0
196413,-66.6666666666667,4,2,2,70,0,0
196894,-66.6666666666667,4,2,2,5,0,0
196989,-83.3333333333333,4,2,2,70,0,0
197471,-66.6666666666667,4,2,2,5,0,0
197566,-133.333333333333,4,2,2,70,0,0
198048,-66.6666666666667,4,2,2,5,0,0
198142,-83.3333333333333,4,2,2,70,0,0
198721,-66.6666666666667,4,2,2,70,0,0
199297,-142.857142857143,4,2,2,70,0,0
199779,-66.6666666666667,4,2,2,70,0,0
200450,-62.5,4,2,2,70,0,0
201028,-66.6666666666667,4,2,2,70,0,0
201510,-66.6666666666667,4,2,2,5,0,0
201604,-142.857142857143,4,2,2,70,0,0
202087,-66.6666666666667,4,2,2,5,0,0
202181,-66.6666666666667,4,2,2,70,0,0
202664,-66.6666666666667,4,2,2,5,0,0
202757,-83.3333333333333,4,2,2,70,0,0
203336,-66.6666666666667,4,2,2,70,0,0
203817,-66.6666666666667,4,2,2,5,0,0
203912,-83.3333333333333,4,2,2,70,0,0
204394,-66.6666666666667,4,2,2,5,0,0
204489,-142.857142857143,4,2,2,70,0,0
204971,-66.6666666666667,4,2,2,5,0,0
205065,-142.857142857143,4,2,2,70,0,0
205643,-500,4,2,2,70,0,0
206219,-83.3333333333333,4,2,2,70,0,0
206796,-80,4,2,2,70,0,0
207952,-74.0740740740741,4,2,1,85,0,0
208168,-74.0740740740741,4,2,1,5,0,0
208241,-74.0740740740741,4,2,1,85,0,0
210476,-74.0740740740741,4,2,1,5,0,0
210549,-74.0740740740741,4,2,1,85,0,0
211991,-66.6666666666667,4,2,1,85,0,0
212279,-74.0740740740741,4,2,1,85,0,0
212784,-74.0740740740741,4,2,1,5,0,0
212857,-74.0740740740741,4,2,1,85,0,0
213361,-74.0740740740741,4,2,1,5,0,0
213434,-74.0740740740741,4,2,1,85,0,0
216606,-66.6666666666667,4,2,1,85,0,0
216894,-74.0740740740741,4,2,1,85,0,0
217399,-74.0740740740741,4,2,1,5,0,0
217472,-74.0740740740741,4,2,1,85,0,0
219707,-74.0740740740741,4,2,1,5,0,0
219780,-74.0740740740741,4,2,1,85,0,0
221221,-66.6666666666667,4,2,1,85,0,0
221509,-74.0740740740741,4,2,1,85,0,0
222015,-74.0740740740741,4,2,1,5,0,0
222088,-74.0740740740741,4,2,1,85,0,0
222591,-74.0740740740741,4,2,1,5,0,0
222664,-74.0740740740741,4,2,1,85,0,0
225837,-66.6666666666667,4,2,1,85,0,0
226125,-74.0740740740741,4,2,1,85,0,0
244918,576.923076923077,4,2,1,60,1,0
248617,576.923076923077,4,2,1,50,1,0
254102,576.923076923077,4,2,1,65,1,0
254102,-83.3333333333333,4,2,1,65,0,0
258753,-83.3333333333333,4,2,1,5,0,0
258789,-83.3333333333333,4,2,1,65,0,0
261061,-83.3333333333333,4,2,1,5,0,0
261097,-83.3333333333333,4,2,1,65,0,0
263837,-83.3333333333333,4,2,1,5,0,0
263909,-83.3333333333333,4,2,1,65,0,0
274222,-83.3333333333333,4,2,1,5,0,0
274294,-83.3333333333333,4,2,1,65,0,0
280640,-166.666666666667,4,2,1,65,0,0
281794,-100,4,2,1,65,0,0
283452,-83.3333333333333,4,2,1,5,0,0
283524,-100,4,2,1,65,0,0
284102,-83.3333333333333,4,2,1,65,0,0
289871,-166.666666666667,4,2,1,65,0,0
291025,-100,4,2,1,65,0,0
309486,-166.666666666667,4,2,2,60,0,0

[Colours]
Combo1 : 150,241,139
Combo2 : 221,164,221
Combo3 : 153,202,238
Combo4 : 227,173,113
Combo5 : 253,230,134

[HitObjects]
389,223,219,6,0,L|408:111,1,100,2|2,0:2|0:2,0:0:0:0:
479,139,819,2,0,L|462:238,1,100,2|2,0:2|0:2,0:0:0:0:
247,127,1419,2,0,L|227:11,1,100,2|2,0:2|0:2,0:0:0:0:
307,16,1960,2,0,L|325:122,1,100,2|2,0:2|0:2,0:0:0:0:
227,275,2536,6,0,P|178:302|116:295,1,100,2|2,0:2|0:2,0:0:0:0:
115,221,3113,2,0,P|164:194|226:201,1,100,2|2,0:2|0:2,0:0:0:0:
289,219,3690,1,2,0:2:0:0:
289,219,4013,1,2,0:2:0:0:
59,280,4319,1,2,0:2:0:0:
59,280,4625,2,0,B|41:288|39:301|22:299|22:299|27:282|40:288|59:280,1,84.3750032186509,2|0,0:2|1:2,0:0:0:0:
190,24,5122,6,0,P|215:45|258:55,1,66.6666666666667,2|2,0:0|0:2,0:0:0:0:
260,53,5410,1,2,1:2:0:0:
310,112,5555,2,0,P|343:104|370:80,1,50,2|0,0:2|0:0,0:0:0:0:
432,91,5843,2,0,P|450:62|387:0,1,100,2|2,0:2|0:2,0:0:0:0:
349,10,6276,2,0,P|331:39|394:101,2,100,2|2|2,0:2|1:2|0:2,0:0:0:0:
402,167,7141,1,2,1:2:0:0:
204,307,7574,5,2,0:2:0:0:
204,307,7718,2,0,P|175:325|140:327,1,50,2|0,1:2|0:0,0:0:0:0:
80,350,8007,2,0,P|78:315|94:284,1,50,2|0,0:2|0:0,0:0:0:0:
104,222,8295,2,0,P|134:238|153:267,1,50,2|0,1:2|0:0,0:0:0:0:
204,307,8584,1,2,0:2:0:0:
80,350,8872,1,2,1:2:0:0:
104,222,9160,1,2,0:2:0:0:
204,307,9449,1,0,1:2:0:0:
488,187,9882,6,0,L|476:261,1,75,2|0,0:2|0:0,0:0:0:0:
486,275,10170,1,2,0:2:0:0:
354,131,10459,2,0,L|370:234,1,100,2|2,0:2|0:2,0:0:0:0:
358,309,10891,2,0,P|383:310|407:302,1,50,2|2,0:2|0:2,0:0:0:0:
298,256,11180,2,0,B|230:255|269:281|195:282,2,100,2|2|0,1:2|0:2|1:2,0:0:0:0:
122,28,12189,5,2,0:2:0:0:
122,28,12334,2,0,P|99:58|95:84,1,50,2|0,1:2|0:0,0:0:0:0:
54,173,12622,2,0,P|44:150|44:126,1,50,2|0,0:2|0:0,0:0:0:0:
171,93,12910,2,0,P|194:123|198:149,1,50,2|0,1:2|0:0,0:0:0:0:
217,240,13199,2,0,P|230:203|220:141,2,100,2|2|2,0:2|1:2|0:2,0:0:0:0:
217,240,14064,1,0,1:2:0:0:
19,324,14353,5,2,0:2:0:0:
19,324,14545,2,0,P|51:282|90:273,1,66.6666666666667,2|0,0:2|0:0,0:0:0:0:
77,274,14834,1,2,0:2:0:0:
174,251,15074,6,0,P|226:260|262:310,1,100,2|2,0:2|0:2,0:0:0:0:
221,366,15507,2,0,P|168:356|132:306,2,100,2|2|2,0:2|1:2|0:2,0:0:0:0:
221,366,16372,1,0,1:2:0:0:
291,83,16805,5,2,0:2:0:0:
291,83,16949,2,0,P|320:72|350:80,1,50,2|0,1:2|0:0,0:0:0:0:
410,47,17237,2,0,P|432:68|437:99,1,50,2|0,0:2|0:0,0:0:0:0:
494,141,17526,2,0,P|478:187|438:216,1,100,2|2,1:2|0:2,0:0:0:0:
264,213,18103,2,0,P|312:202|357:222,1,100,2|2,1:2|0:2,0:0:0:0:
357,222,18680,1,0,1:2:0:0:
17,346,19112,6,0,B|72:360|56:324|114:336,1,100,2|2,0:2|0:2,0:0:0:0:
185,358,19545,1,2,0:2:0:0:
333,287,19834,2,0,P|293:301|250:302,1,66.6666666666667,2|2,1:2|0:2,0:0:0:0:
252,312,20122,2,0,P|258:262|264:212,2,100,2|2|2,0:2|1:2|0:2,0:0:0:0:
252,312,20987,1,0,1:2:0:0:
83,350,23295,6,0,P|79:307|68:236,1,101.250000386238,6|0,1:2|0:0,0:0:0:0:
72,225,23584,2,0,B|61:208|62:191|62:191|54:206|39:211,1,67.5000002574921,2|0,0:2|1:2,0:0:0:0:
155,276,23872,2,0,B|170:281|178:296|178:296|177:279|188:262,1,67.5000002574921,10|0,1:2|0:0,0:0:0:0:
304,170,24160,1,2,1:2:0:0:
304,170,24305,1,0,1:2:0:0:
304,170,24449,2,0,B|270:179|270:179|298:204,1,67.5000002574921,2|0,0:2|1:2,0:0:0:0:
412,241,24737,2,0,B|446:232|446:232|418:207,1,67.5000002574921,2|0,1:2|0:0,0:0:0:0:
298,283,25026,2,0,B|323:307|314:347|314:347|332:311|370:310,1,135.000000514984,10|2,1:2|0:2,0:0:0:0:
511,71,25603,6,0,P|461:61|412:48,1,101.250000386238,2|0,1:2|0:0,0:0:0:0:
391,38,25892,2,0,P|398:84|398:110,1,67.5000002574921,2|0,0:2|1:2,0:0:0:0:
270,51,26180,1,10,1:2:0:0:
270,51,26324,2,0,P|271:84|277:117,1,67.5000002574921,2|0,0:0|1:2,0:0:0:0:
397,183,26612,2,0,L|482:174,1,67.5000002574921,2|0,1:2|0:2,0:0:0:0:
305,197,26901,1,2,1:2:0:0:
305,197,27045,2,0,L|220:206,1,67.5000002574921,2|0,1:2|0:0,0:0:0:0:
302,323,27334,2,0,P|376:293|447:302,1,150.000005722046,10|2,1:2|1:2,0:0:0:0:
216,372,27910,6,0,B|169:362|169:362|160:367|160:367|112:357,1,101.250000386238,2|0,1:2|0:0,0:0:0:0:
94,356,28199,2,0,L|79:277,1,67.5000002574921,2|0,0:2|1:2,0:0:0:0:
0,189,28487,2,0,B|47:179|47:179|56:184|56:184|104:174,1,101.250000386238,10|0,1:2|0:0,0:0:0:0:
135,177,28776,1,2,1:2:0:0:
135,177,28920,1,0,1:2:0:0:
135,177,29064,2,0,L|150:98,1,67.5000002574921,2|0,0:2|1:2,0:0:0:0:
305,153,29353,2,0,L|290:232,1,67.5000002574921,2|0,1:2|0:0,0:0:0:0:
209,73,29641,2,0,P|246:76|285:98,1,67.5000002574921,10|0,1:2|1:2,0:0:0:0:
231,257,29930,2,0,P|194:254|155:232,1,67.5000002574921,2|0,0:2|0:0,0:0:0:0:
188,3,30218,6,0,P|256:3|317:30,1,135.000000514984,2|2,1:2|0:2,0:0:0:0:
224,150,30651,1,0,1:2:0:0:
188,3,30795,1,10,1:2:0:0:
256,192,30939,12,2,32237,0:2:0:0:
24,265,32526,6,0,B|108:256|57:230|134:227,1,119.999996337891,6|2,1:2|0:2,0:0:0:0:
134,226,32959,1,2,1:2:0:0:
107,315,33103,2,0,P|80:261|39:186,1,119.999996337891,8|0,1:2|1:2,0:0:0:0:
185,359,33680,6,0,P|221:348|259:343,1,59.9999981689454,2|2,0:2|1:2,0:0:0:0:
288,224,33968,2,0,L|303:282,1,59.9999981689454,2|2,1:2|0:2,0:0:0:0:
443,294,34257,2,0,P|412:298|384:309,1,59.9999981689454,10|0,1:2|1:2,0:0:0:0:
330,384,34545,1,2,0:2:0:0:
215,181,34834,6,0,P|262:146|321:148,1,119.999996337891,2|2,1:2|0:2,0:0:0:0:
321,148,35267,1,2,1:2:0:0:
241,264,35410,2,0,P|299:266|347:231,1,119.999996337891,8|0,1:2|1:2,0:0:0:0:
144,86,35987,6,0,L|127:216,1,119.999996337891,2|2,0:2|1:2,0:0:0:0:
128,205,36420,1,2,0:2:0:0:
60,99,36564,2,0,L|44:206,1,79.9999975585938,10|2,1:2|0:0,0:0:0:0:
31,192,36853,2,0,L|22:251,1,59.9999981689454,2|2,1:2|0:2,0:0:0:0:
122,378,37141,6,0,P|179:382|229:350,1,119.999996337891,2|2,1:2|0:2,0:0:0:0:
229,349,37574,1,2,1:2:0:0:
100,292,37718,2,0,P|148:258|207:264,1,119.999996337891,8|0,1:2|1:2,0:0:0:0:
311,352,38151,5,2,1:2:0:0:
311,352,38295,2,0,L|328:247,1,89.9999972534181,2|0,0:2|0:0,0:0:0:0:
343,247,38584,2,0,L|414:234,1,59.9999981689454,2|2,1:2|0:2,0:0:0:0:
483,130,38872,2,0,L|372:111,1,89.9999972534181,10|0,1:2|0:0,0:0:0:0:
381,99,39160,2,0,L|300:113,1,59.9999981689454,2|2,0:2|0:2,0:0:0:0:
228,167,39449,6,0,L|244:45,1,119.999996337891,2|2,1:2|0:2,0:0:0:0:
243,48,39882,1,0,1:2:0:0:
150,158,40026,2,0,L|165:36,1,119.999996337891,8|0,1:2|1:2,0:0:0:0:
5,215,40603,6,0,B|63:215|52:252|122:277,1,119.999996337891,2|2,0:2|1:2,0:0:0:0:
107,271,41035,1,2,0:2:0:0:
164,364,41180,2,0,B|218:342|207:305|265:305,1,119.999996337891,10|2,1:2|1:2,0:0:0:0:
264,305,41612,1,2,0:2:0:0:
391,228,41757,6,0,P|344:268|355:339,1,119.999996337891,2|2,1:2|0:2,0:0:0:0:
418,352,42189,1,2,1:2:0:0:
485,258,42334,2,0,P|445:211|375:210,1,119.999996337891,10|0,1:2|1:2,0:0:0:0:
203,272,42910,6,0,L|220:157,1,89.9999972534181,2|0,0:2|0:0,0:0:0:0:
235,172,43199,2,0,L|223:100,1,59.9999981689454,2|2,1:2|0:2,0:0:0:0:
100,49,43487,2,0,L|88:121,1,59.9999981689454,10|2,1:2|1:2,0:0:0:0:
208,20,43776,1,2,0:2:0:0:
416,146,44064,6,0,P|463:105|454:46,1,119.999996337891,2|2,1:2|0:2,0:0:0:0:
388,20,44496,1,2,1:2:0:0:
320,115,44641,2,0,P|360:162|429:162,1,119.999996337891,10|0,1:2|1:2,0:0:0:0:
415,167,45074,1,0,1:2:0:0:
290,0,45362,1,0,1:2:0:0:
290,0,45507,1,2,1:2:0:0:
243,205,45795,2,0,B|181:216|195:173|129:184,1,119.999996337891,10|0,1:2|1:2,0:0:0:0:
36,148,46228,5,2,0:2:0:0:
36,148,46372,2,0,P|23:175|36:251,1,89.9999972534181,2|0,1:2|0:0,0:0:0:0:
43,256,46660,2,0,L|115:272,1,59.9999981689454,2|0,0:2|1:2,0:0:0:0:
143,364,46949,2,0,L|18:336,1,119.999996337891,10|0,1:2|1:2,0:0:0:0:
25,337,47382,1,2,1:2:0:0:
101,269,47526,2,0,L|173:285,1,59.9999981689454,2|2,0:2|1:2,0:0:0:0:
200,377,47814,2,0,L|142:364,1,59.9999981689454,2|2,1:2|0:2,0:0:0:0:
233,300,48103,2,0,L|350:326,1,119.999996337891,10|2,1:2|0:2,0:0:0:0:
499,238,48680,6,0,P|505:173|457:130,1,119.999996337891,2|2,1:2|0:2,0:0:0:0:
470,135,49112,1,2,1:2:0:0:
422,259,49257,2,0,P|385:213|393:156,1,119.999996337891,10|0,1:2|1:2,0:0:0:0:
187,107,49834,6,0,P|181:42|229:-1,1,119.999996337891,2|2,0:2|1:2,0:0:0:0:
216,4,50266,1,2,0:2:0:0:
292,25,50411,2,0,P|300:82|264:128,1,119.999996337891,10|2,1:2|1:2,0:0:0:0:
163,191,50891,5,2,0:0:0:0:
163,191,50987,6,2,B|111:198|69:169|97:151|55:114|2:131|2:131|23:178|62:168,1,247.500002360344,2|2,1:1|1:2,0:1:0:0:
145,117,51564,1,8,1:2:0:0:
101,307,51853,2,0,P|92:269|76:232,1,59.9999981689454,0|2,1:2|1:2,0:0:0:0:
177,271,52141,2,0,P|187:314|203:356,1,89.9999972534181,2|0,0:2|0:0,0:0:0:0:
224,375,52430,2,0,P|252:366|281:359,1,59.9999981689454,2|0,1:2|0:0,0:0:0:0:
330,220,52718,2,0,P|345:262|356:305,1,89.9999972534181,10|0,1:2|0:0,0:0:0:0:
356,331,53007,1,2,0:2:0:0:
420,249,53151,1,2,0:2:0:0:
255,208,53295,6,2,B|220:192|225:130|299:79|395:101|371:158,1,232.500001773834,2|0,1:1|1:2,0:1:0:0:
356,305,53872,2,0,P|345:262|330:220,1,89.9999972534181,8|0,1:2|0:0,0:0:0:0:
321,204,54160,1,0,1:2:0:0:
99,46,54449,6,0,P|130:56|162:60,1,59.9999981689454,2|2,0:2|1:2,0:0:0:0:
156,148,54737,2,0,P|127:137|62:128,1,89.9999972534181,2|0,1:2|0:0,0:0:0:0:
46,135,55026,1,10,1:2:0:0:
126,293,55218,5,2,0:0:0:0:
126,293,55314,6,0,P|86:287|48:274,1,79.9999975585938,2|2,1:2|0:0,0:0:0:0:
4,207,55603,6,2,P|78:262|146:392,1,225.000008583069,2|0,1:1|1:2,0:1:0:0:
142,376,56180,1,8,1:2:0:0:
256,319,56372,5,2,0:0:0:0:
256,319,56468,6,0,P|291:337|345:331,1,59.9999981689454,2|2,1:2|1:2,0:0:0:0:
379,383,56757,2,0,P|412:361|432:312,1,59.9999981689454,2|2,0:2|1:2,0:0:0:0:
491,310,57045,1,2,1:2:0:0:
328,113,57334,6,0,B|315:187|315:187|319:192|319:192|308:261,1,150.000005722046,10|2,1:2|0:2,0:0:0:0:
308,259,57766,1,2,0:2:0:0:
203,186,57910,6,2,B|231:140|317:168|320:213|408:232|436:188,1,255.000004863739,2|0,1:0|1:2,0:1:0:0:
332,92,58487,1,8,1:2:0:0:
203,186,58680,5,2,0:0:0:0:
203,186,58776,6,0,P|168:168|114:174,1,59.9999981689454,2|2,1:2|1:2,0:0:0:0:
84,244,59065,2,0,P|91:168|143:139,1,119.999996337891,2|2,0:2|1:2,0:0:0:0:
219,353,59641,2,0,P|156:337|84:332,1,112.500004291535,10|0,1:2|0:0,0:0:0:0:
83,335,59930,1,2,1:2:0:0:
298,247,60218,6,2,B|344:199|323:133|323:133|344:199|426:209,1,255.000004863739,2|0,1:1|1:2,0:1:0:0:
403,382,60795,2,0,P|397:340|380:289,1,89.9999972534181,8|0,1:2|0:0,0:0:0:0:
371,275,61084,1,2,1:2:0:0:
471,325,61228,1,2,1:2:0:0:
325,384,61372,2,0,P|295:377|266:373,1,59.9999981689454,2|2,0:2|1:2,0:0:0:0:
167,287,61660,2,0,P|196:293|225:297,1,59.9999981689454,2|0,1:2|0:0,0:0:0:0:
92,334,61949,2,0,P|77:273|127:203,1,119.999996337891,10|2,1:2|0:2,0:0:0:0:
99,223,62382,1,2,0:2:0:0:
234,204,62526,6,2,B|204:174|211:120|211:120|190:218|166:286,1,262.500002503395,2|0,1:0|1:2,0:1:0:0:
294,145,63103,1,8,1:2:0:0:
53,57,63391,2,0,B|66:43|63:18|63:18|72:63|83:94,1,119.999996337891,2|2,1:2|0:2,0:0:0:0:
0,143,63824,2,0,B|6:149|5:162|5:162|9:139|15:124,1,59.9999981689454,2|2,1:2|1:2,0:0:0:0:
192,5,64257,2,0,P|283:32|282:106,1,179.999994506836,10|0,1:2|0:0,0:0:0:0:
377,132,64834,6,2,P|306:122|252:292,1,262.500002503395,2|0,1:1|1:2,0:1:0:0:
345,356,65410,2,0,B|403:342,1,59.9999981689454,10|0,1:2|0:0,0:0:0:0:
444,213,65699,2,0,B|457:271,1,59.9999981689454,2|0,1:2|1:2,0:0:0:0:
341,375,65987,2,0,B|399:361,1,59.9999981689454,2|0,0:2|1:2,0:0:0:0:
512,330,66276,1,2,1:2:0:0:
512,330,66420,1,2,0:2:0:0:
438,267,66564,2,0,B|404:122,1,119.999996337891,10|0,1:2|0:0,0:0:0:0:
494,30,67045,5,2,0:0:0:0:
494,30,67141,6,2,B|497:40|497:40|483:69,1,40,2|2,1:0|0:2,0:1:0:0:
87,115,68872,6,0,B|91:118|95:111|95:106|90:104,1,17.5,2|0,0:2|0:0,0:0:0:0:
48,15,69463,6,0,P|96:115|92:263,1,250.000009536744,4|0,1:2|0:0,0:0:0:0:
95,251,70039,6,0,P|130:212|206:199,1,116.666663106283,0|0,1:2|0:0,0:0:0:0:
190,196,70616,6,0,B|319:215|255:297|413:313,1,250.000009536744,0|0,1:2|0:0,0:0:0:0:
402,311,71193,5,2,1:2:0:0:
193,199,71482,1,2,0:2:0:0:
403,6,71770,6,0,P|346:106|359:248,1,250.000009536744,4|0,1:2|0:0,0:0:0:0:
434,196,72347,6,0,P|392:148|338:137,1,116.666663106283,2|0,1:2|0:0,0:0:0:0:
278,87,72924,6,0,P|178:112|105:254,1,250.000009536744,2|0,1:2|0:0,0:0:0:0:
191,249,73501,6,0,P|200:181|182:113,1,119.999996337891,2|2,1:2|0:2,0:0:0:0:
11,302,74078,6,0,P|138:321|246:378,1,250.000009536744,6|0,1:2|0:0,0:0:0:0:
244,376,74655,6,0,P|292:344|348:329,1,116.666663106283,0|0,1:2|0:0,0:0:0:0:
348,328,75232,6,0,B|317:248|380:181|464:233|448:320,1,250.000009536744,0|0,1:2|0:0,0:0:0:0:
448,320,75809,5,2,1:2:0:0:
262,263,76097,1,2,0:2:0:0:
67,127,76386,6,0,B|61:198|132:253|127:205|193:249|192:331,1,250.000009536744,4|0,1:2|0:0,0:0:0:0:
107,301,76963,6,0,B|85:240|125:191|132:228|171:171|150:118,1,199.999993896485,2|0,1:2|0:0,0:0:0:0:
108,60,77539,6,0,B|90:36|101:0|101:0|118:32|108:59,1,125.000004768372,2|0,1:2|0:0,0:0:0:0:
67,127,78116,5,2,1:2:0:0:
285,19,78405,5,2,0:2:0:0:
285,19,78501,5,2,0:0:0:0:
285,19,78597,5,2,0:0:0:0:
285,19,78693,6,0,B|356:13|410:83|362:78|405:144|486:143,1,250.000009536744,4|0,1:2|0:0,0:0:0:0:
497,132,79270,6,0,P|462:122|437:127,1,46.6666652425131,0|2,1:2|0:2,0:0:0:0:
419,123,79559,6,0,P|410:131|406:142,1,23.3333326212565,2|0,0:2|0:2,0:0:0:0:
384,158,79751,6,0,P|381:182|388:206,1,50.0000019073487,2|0,0:2|1:2,0:0:0:0:
377,244,79943,6,0,P|393:262|456:283,1,50.0000019073487,2|0,0:2|0:2,0:0:0:0:
453,293,80136,5,2,0:2:0:0:
453,293,80424,6,0,P|420:296|394:315,1,46.6666652425131,2|0,1:2|0:0,0:0:0:0:
397,316,80713,5,2,0:2:0:0:
149,349,81001,6,0,B|186:356|205:385|205:385|186:206,1,250.000009536744,4|0,1:2|0:0,0:0:0:0:
185,204,81578,6,0,P|136:184|71:224,1,116.666663106283,2|0,1:2|0:0,0:0:0:0:
81,209,82155,6,0,P|158:127|116:10,1,250.000009536744,2|0,1:2|0:0,0:0:0:0:
115,9,82732,5,2,1:2:0:0:
81,209,83020,1,2,0:2:0:0:
301,17,83309,6,0,P|388:8|458:159,1,250.000009536744,4|0,1:2|0:0,0:0:0:0:
474,152,83886,6,0,P|428:139|365:253,1,199.999993896485,0|0,1:2|0:0,0:0:0:0:
356,262,84463,6,0,P|406:269|430:328,1,116.666663106283,2|0,1:2|0:0,0:0:0:0:
433,338,85039,5,2,1:2:0:0:
283,225,85328,1,2,0:2:0:0:
438,23,85616,2,0,B|441:18|440:12|440:12|439:16|435:19,1,18.75,0|0,1:2|0:0,0:0:0:0:
394,376,87924,6,0,P|396:332|405:261,1,101.250000386238,6|0,1:2|0:0,0:0:0:0:
411,256,88213,2,0,B|414:236|406:220|406:220|420:231|435:230,1,67.5000002574921,2|0,0:2|1:2,0:0:0:0:
284,280,88501,2,0,B|300:268|306:252|306:252|307:269|319:279,1,67.5000002574921,10|0,1:2|0:0,0:0:0:0:
175,204,88789,1,2,1:2:0:0:
175,204,88934,1,0,1:2:0:0:
175,204,89078,2,0,B|194:207|210:199|210:199|199:213|200:228,1,67.5000002574921,2|0,0:2|1:2,0:0:0:0:
70,257,89366,2,0,B|63:237|48:228|48:228|65:231|78:222,1,67.5000002574921,2|0,1:2|0:0,0:0:0:0:
187,323,89655,2,0,B|160:354|158:388|158:388|146:356|117:342,1,135.000000514984,10|2,1:2|0:2,0:0:0:0:
293,197,90232,6,0,P|343:187|392:174,1,101.250000386238,2|0,1:2|0:0,0:0:0:0:
406,166,90521,2,0,P|413:212|413:238,1,67.5000002574921,2|0,0:2|1:2,0:0:0:0:
308,114,90809,1,10,1:2:0:0:
308,114,90953,2,0,P|309:81|315:48,1,67.5000002574921,2|0,0:2|1:2,0:0:0:0:
415,5,91241,2,0,P|421:38|422:71,1,67.5000002574921,2|0,1:2|0:2,0:0:0:0:
292,196,91530,1,2,1:2:0:0:
292,196,91674,2,0,P|285:229|284:262,1,67.5000002574921,2|0,1:2|0:0,0:0:0:0:
444,340,91963,2,0,P|364:338|301:372,1,150.000005722046,10|0,1:2|1:2,0:0:0:0:
154,116,92539,6,0,B|170:172|139:220,1,101.250000386238,2|0,1:2|0:0,0:0:0:0:
125,228,92828,2,0,L|39:212,1,67.5000002574921,2|0,0:2|1:2,0:0:0:0:
221,257,93116,2,0,B|208:316|239:364,1,101.250000386238,10|0,1:2|0:0,0:0:0:0:
258,381,93405,1,2,1:2:0:0:
258,381,93549,1,0,1:2:0:0:
258,381,93693,2,0,L|324:368,1,67.5000002574921,2|0,0:2|1:2,0:0:0:0:
478,339,93982,2,0,L|411:351,1,67.5000002574921,2|0,1:2|0:0,0:0:0:0:
221,257,94270,2,0,P|253:269|280:289,1,67.5000002574921,10|0,1:2|1:2,0:0:0:0:
464,210,94559,2,0,P|439:233|421:262,1,67.5000002574921,2|0,0:2|0:0,0:0:0:0:
265,174,94847,6,0,P|330:132|398:149,1,135.000000514984,2|2,1:2|0:2,0:0:0:0:
356,299,95280,1,0,1:2:0:0:
265,174,95424,1,10,1:2:0:0:
256,192,95568,12,2,96866,0:2:0:0:
471,44,97155,6,0,B|394:49|446:73|362:85,1,119.999996337891,4|2,1:2|0:0,0:0:0:0:
362,85,97588,1,2,1:2:0:0:
296,157,97732,2,0,B|219:151|271:127|187:115,1,119.999996337891,10|2,1:2|1:2,0:0:0:0:
27,0,98309,2,0,P|3:62|11:126,1,119.999996337891,2|2,0:2|1:2,0:0:0:0:
7,114,98741,1,2,0:2:0:0:
112,17,98886,2,0,P|115:76|92:131,1,119.999996337891,10|2,1:2|0:2,0:0:0:0:
91,131,99318,1,2,0:2:0:0:
7,114,99463,2,0,P|4:54|26:0,2,119.999996337891,0|0|8,1:2|0:0|1:2,0:0:0:0:
137,224,100328,6,0,P|165:193|227:179,1,89.9999972534181,2|0,1:2|0:0,0:0:0:0:
236,154,100616,2,0,P|282:160|322:203,1,89.9999972534181,2|0,0:2|0:0,0:0:0:0:
349,194,100905,2,0,P|358:222|358:252,1,59.9999981689454,2|0,1:2|0:0,0:0:0:0:
396,325,101193,2,0,P|378:349|274:370,1,119.999996337891,10|2,1:2|1:2,0:0:0:0:
295,375,101626,1,2,0:2:0:0:
358,252,101770,2,0,P|300:262|259:304,2,119.999996337891,0|0|8,1:2|0:0|1:2,0:0:0:0:
396,325,102491,5,2,0:2:0:0:
396,325,102636,2,0,P|450:312|499:303,1,89.9999972534181,2|0,1:2|0:0,0:0:0:0:
512,305,102924,2,0,P|501:277|482:254,1,59.9999981689454,2|2,0:2|1:2,0:0:0:0:
405,167,103212,2,0,P|435:164|464:172,1,59.9999981689454,2|2,1:2|0:2,0:0:0:0:
329,136,103501,2,0,P|306:155|283:248,1,119.999996337891,10|2,1:2|0:2,0:0:0:0:
257,323,103934,1,2,0:2:0:0:
340,302,104078,1,0,1:2:0:0:
172,146,104366,6,0,P|128:158|84:164,1,89.9999972534181,2|0,0:2|0:0,0:0:0:0:
62,161,104655,2,0,P|69:191|71:221,1,59.9999981689454,10|2,1:2|0:2,0:0:0:0:
60,316,104943,2,0,P|103:303|147:297,1,89.9999972534181,2|0,1:2|0:0,0:0:0:0:
168,299,105232,2,0,P|159:240|159:180,1,119.999996337891,2|2,0:2|1:2,0:0:0:0:
159,179,105664,1,2,0:2:0:0:
254,292,105809,2,0,P|254:232|244:172,1,119.999996337891,10|2,1:2|1:2,0:0:0:0:
244,172,106241,1,2,0:2:0:0:
168,299,106386,1,2,1:2:0:0:
361,384,106674,6,0,P|400:372|418:348,1,59.9999981689454,2|2,0:2|1:2,0:0:0:0:
424,248,106963,2,0,P|451:300|443:359,1,119.999996337891,10|2,1:2|1:2,0:0:0:0:
361,384,107395,2,0,P|333:331|341:272,1,119.999996337891,2|2,1:2|1:2,0:0:0:0:
400,166,107828,2,0,P|429:162|464:172,1,59.9999981689454,2|2,1:2|0:2,0:0:0:0:
274,211,108116,2,0,P|286:184|331:152,2,79.9999975585938,8|2|2,1:2|0:2|0:2,0:0:0:0:
195,305,108693,6,0,B|118:310|170:334|86:346,1,119.999996337891,0|0,1:2|0:0,0:0:0:0:
85,346,109126,1,0,1:2:0:0:
14,294,109270,1,10,1:2:0:0:
14,294,109414,2,0,P|14:235|55:185,1,119.999996337891,2|2,0:2|1:2,0:0:0:0:
122,126,109847,6,0,B|188:130|143:151|223:164,1,89.9999972534181,2|0,0:2|0:0,0:0:0:0:
223,158,110136,2,0,L|215:82,1,59.9999981689454,2|2,1:2|0:2,0:0:0:0:
321,11,110424,2,0,L|310:116,2,89.9999972534181,8|2|2,1:2|0:2|0:2,0:0:0:0:
321,11,111001,1,0,1:2:0:0:
422,206,111289,5,2,0:2:0:0:
422,206,111434,1,2,1:2:0:0:
422,206,111578,2,0,L|436:344,1,119.999996337891,10|2,1:2|1:2,0:0:0:0:
358,335,112011,2,0,L|345:215,1,119.999996337891,2|2,1:2|1:2,0:0:0:0:
431,125,112444,2,0,P|466:137|495:164,1,59.9999981689454,2|2,1:2|0:2,0:0:0:0:
329,129,112732,2,0,P|289:149|267:188,2,79.9999975585938,10|2|2,1:2|0:2|0:2,0:0:0:0:
329,129,113309,1,0,1:2:0:0:
133,2,113597,6,0,P|177:35|181:86,1,89.9999972534181,2|0,0:2|0:0,0:0:0:0:
197,87,113886,2,0,P|183:125|143:139,1,59.9999981689454,10|2,1:2|0:2,0:0:0:0:
83,199,114174,6,0,P|116:155|167:151,1,89.9999972534181,2|0,1:2|0:0,0:0:0:0:
167,135,114463,2,0,P|205:148|219:188,1,59.9999981689454,2|2,0:2|1:2,0:0:0:0:
257,287,114751,2,0,P|249:247|277:214,1,59.9999981689454,2|2,1:2|0:2,0:0:0:0:
393,104,115039,2,0,P|361:142|280:154,1,119.999996337891,10|2,1:2|1:2,0:0:0:0:
294,157,115472,1,2,0:2:0:0:
367,23,115616,6,2,P|293:28|242:81,1,150.000005722046,2|0,1:1|1:0,0:1:0:0:
242,80,116770,1,2,1:2:0:0:
242,80,117347,1,2,1:2:0:0:
144,360,117924,6,2,P|217:355|269:303,1,150.000005722046,2|2,1:2|1:2,0:1:0:0:
269,302,119078,1,2,1:2:0:0:
269,302,119655,1,2,1:2:0:0:
86,80,120232,6,2,P|91:153|143:205,1,150.000005722046,2|2,1:2|1:2,0:1:0:0:
143,205,121386,1,2,1:2:0:0:
143,205,121963,1,2,1:2:0:0:
424,303,122539,6,2,P|419:229|367:177,1,150.000005722046,2|2,1:2|1:2,0:1:0:0:
367,177,123694,1,2,1:2:0:0:
367,177,124271,1,2,1:2:0:0:
125,110,124847,6,2,B|136:36|136:36|186:93,1,150.000005722046,2|2,1:1|1:2,0:1:0:0:
185,92,126001,1,2,1:2:0:0:
185,92,126578,1,2,1:2:0:0:
221,289,127155,6,2,B|210:363|210:363|160:306,1,150.000005722046,2|2,1:2|1:2,0:1:0:0:
160,306,128309,1,2,1:2:0:0:
160,306,128886,1,2,1:2:0:0:
262,152,129463,6,2,B|336:163|336:163|279:212,1,150.000005722046,2|0,1:2|1:0,0:1:0:0:
278,212,130617,1,2,1:2:0:0:
278,212,131194,1,2,1:2:0:0:
87,228,131770,6,2,B|55:223|55:223|79:202,1,64.9999970245363,2|2,1:2|0:0,0:1:0:0:
355,20,133829,6,0,P|397:30|428:26,1,66.6666666666667,2|0,0:1|0:0,0:0:0:0:
419,28,134088,6,0,P|364:121|362:273,1,250.000009536744,4|0,1:2|0:0,0:0:0:0:
358,260,134664,6,0,P|410:223|469:230,1,116.666663106283,0|0,1:2|0:0,0:0:0:0:
460,226,135241,6,0,P|437:133|342:12,1,250.000009536744,0|0,1:2|0:0,0:0:0:0:
343,13,135818,5,2,1:2:0:0:
477,245,136107,6,2,P|463:319|417:376,1,134.999995880127,2|0,0:1|0:0,0:1:0:0:
428,366,136395,6,0,P|339:301|217:304,1,216.666656748454,4|0,1:2|0:0,0:0:0:0:
258,382,136972,6,0,P|329:351|357:306,1,116.666663106283,2|0,1:2|0:0,0:0:0:0:
411,256,137549,6,0,P|410:134|325:42,1,250.000009536744,2|0,1:2|0:0,0:0:0:0:
250,0,138126,6,0,L|229:90,1,79.9999975585938,2|0,1:2|0:0,0:0:0:0:
169,145,138414,6,2,L|201:317,1,141.749999080753,2|0,0:1|0:0,0:1:0:0:
236,382,138703,6,0,B|152:366|152:366|94:310|94:310|12:293,1,250.000009536744,6|0,1:2|0:0,0:0:0:0:
11,292,139280,6,0,P|33:232|80:223,1,116.666663106283,0|0,1:2|0:0,0:0:0:0:
79,222,139857,6,0,L|279:261,1,199.999993896485,0|0,1:2|0:0,0:0:0:0:
275,260,140434,6,0,P|307:248|318:228,1,46.6666652425131,2|0,1:2|0:0,0:0:0:0:
313,238,140722,6,2,P|311:302|360:346,1,134.999995880127,2|0,0:1|0:0,0:1:0:0:
370,366,141011,6,0,P|434:367|460:203,1,250.000009536744,4|0,1:2|0:0,0:0:0:0:
411,186,141588,6,0,P|397:137|426:94,1,79.9999975585938,2|0,1:2|0:0,0:0:0:0:
412,86,141876,2,0,P|451:53|494:63,1,79.9999975585938,2|0,0:0|0:0,0:0:0:0:
351,248,142164,6,0,P|295:216|286:148,1,100.000003814697,2|0,1:2|0:0,0:0:0:0:
261,164,142452,2,0,P|266:100|308:69,1,100.000003814697,2|0,0:0|0:0,0:0:0:0:
376,360,142741,6,0,P|314:377|236:329,1,126.666663284302,2|0,1:2|0:0,0:0:0:0:
170,333,143030,2,2,P|137:285|140:174,1,150,2|0,0:1|0:0,0:1:0:0:
111,97,143318,6,0,B|113:18|216:-16|259:83|205:146,1,250.000009536744,4|0,1:2|0:0,0:0:0:0:
131,195,143895,6,0,B|103:213|65:200|85:189|52:175|20:195,1,116.666663106283,0|0,1:2|0:0,0:0:0:0:
206,144,144472,6,0,B|275:132|335:198|286:197|336:260|417:253,1,250.000009536744,0|0,1:2|0:0,0:0:0:0:
492,276,145049,6,0,L|479:209,1,46.6666652425131,2|0,1:2|0:0,0:0:0:0:
512,160,145338,6,2,L|466:333,1,157.499995193482,2|0,0:1|0:0,0:1:0:0:
444,384,145626,6,0,B|450:351|476:334|476:334|281:355,1,250.000009536744,4|0,1:2|0:0,0:0:0:0:
268,371,146203,6,0,P|247:329|270:255,1,116.666663106283,2|0,1:2|0:0,0:0:0:0:
281,271,146780,6,0,P|316:165|242:50,1,250.000009536744,2|0,1:2|0:0,0:0:0:0:
232,66,147357,6,0,P|217:22|221:-1,1,53.3333333333333,2|0,1:2|0:0,0:0:0:0:
229,0,147645,6,2,P|186:64|112:82,1,157.499995193482,2|0,0:1|0:0,0:1:0:0:
49,46,147934,6,0,B|74:151|74:151|78:152|78:152|109:288,1,250.000009536744,4|0,1:2|0:0,0:0:0:0:
116,307,148511,6,0,B|203:285|203:285|204:282|204:282|318:256,1,199.999993896485,0|0,1:2|0:0,0:0:0:0:
326,253,149088,6,0,B|312:198|312:198|309:198|309:198|295:127,1,116.666663106283,2|0,1:2|0:0,0:0:0:0:
293,129,149664,5,2,1:2:0:0:
168,213,149953,1,2,0:0:0:0:
383,382,150241,2,0,B|386:372|379:365|379:365|377:375|383:382,1,29.9999990844727,0|0,1:2|0:0,0:0:0:0:
383,382,150674,5,2,0:0:0:0:
256,320,150963,1,2,0:0:0:0:
256,320,151107,1,2,0:0:0:0:
146,373,151395,1,2,0:0:0:0:
256,320,151684,1,2,0:0:0:0:
347,368,151972,1,2,0:0:0:0:
256,320,152261,1,2,0:0:0:0:
50,32,152549,6,0,P|58:74|67:145,1,101.250000386238,6|0,1:2|0:0,0:0:0:0:
77,151,152838,2,0,L|-1:168,1,67.5000002574921,2|0,0:2|1:2,0:0:0:0:
187,229,153126,2,0,L|109:212,1,67.5000002574921,10|0,1:2|0:0,0:0:0:0:
310,154,153414,1,2,1:2:0:0:
310,154,153559,1,0,1:2:0:0:
310,154,153703,2,0,L|232:171,1,67.5000002574921,2|0,0:2|1:2,0:0:0:0:
425,261,153991,2,0,L|347:244,1,67.5000002574921,2|0,1:2|0:0,0:0:0:0:
512,79,154280,2,0,P|500:131|488:220,1,135.000000514984,10|2,1:2|0:2,0:0:0:0:
275,384,154857,6,0,P|284:339|294:264,1,101.250000386238,6|0,1:2|0:0,0:0:0:0:
293,263,155146,2,0,P|247:274|222:277,1,67.5000002574921,2|0,0:2|1:2,0:0:0:0:
267,144,155434,1,10,1:2:0:0:
267,144,155578,2,0,P|234:148|202:157,1,67.5000002574921,2|0,0:0|1:2,0:0:0:0:
149,284,155866,2,0,L|166:367,1,67.5000002574921,2|0,1:2|0:2,0:0:0:0:
125,194,156155,1,2,1:2:0:0:
125,194,156299,2,0,L|107:110,1,67.5000002574921,2|0,1:2|0:0,0:0:0:0:
0,204,156588,2,0,P|37:274|36:346,1,150.000005722046,10|2,1:2|1:2,0:0:0:0:
87,52,157164,6,0,B|135:33|152:75|192:53,1,101.250000386238,6|0,1:2|0:0,0:0:0:0:
205,50,157453,2,0,L|187:133,1,67.5000002574921,2|0,0:2|1:2,0:0:0:0:
262,221,157741,2,0,B|310:239|327:197|367:219,1,101.250000386238,10|0,1:2|0:0,0:0:0:0:
390,229,158030,1,2,1:2:0:0:
390,229,158174,1,0,1:2:0:0:
390,229,158318,2,0,L|373:150,1,67.5000002574921,2|0,0:2|1:2,0:0:0:0:
386,76,158607,2,0,P|352:78|322:93,1,67.5000002574921,2|0,1:2|0:0,0:0:0:0:
237,216,158895,2,0,L|223:282,1,67.5000002574921,10|0,1:2|1:2,0:0:0:0:
233,368,159184,2,0,P|199:366|169:351,1,67.5000002574921,2|0,0:2|0:0,0:0:0:0:
5,284,159472,6,0,B|144:257,1,135.000000514984,6|2,1:2|0:2,0:0:0:0:
137,258,159905,1,0,1:2:0:0:
233,368,160049,1,10,1:2:0:0:
233,368,160193,2,0,P|199:365|169:350,1,67.5000002574921,2|0,0:2|1:2,0:0:0:0:
312,294,160482,2,0,P|345:296|375:311,1,67.5000002574921,2|4,1:2|0:0,0:0:0:0:
204,151,160770,1,2,1:2:0:0:
204,151,160914,2,0,P|170:148|140:133,1,67.5000002574921,2|0,1:2|0:0,0:0:0:0:
373,59,161203,2,0,P|420:60|516:120,2,150.000005722046,10|2|6,0:2|1:2|1:2,0:0:0:0:
45,157,162068,5,2,0:0:0:0:
45,157,162213,2,0,L|52:224,1,67.5000002574921,2|8,1:2|1:2,0:0:0:0:
133,281,162501,2,0,L|142:201,1,67.5000002574921,2|0,0:0|1:2,0:0:0:0:
219,110,162789,2,0,L|237:246,1,135.000000514984,2|2,1:2|1:2,0:0:0:0:
335,354,163222,2,0,L|344:285,1,67.5000002574921,2|0,1:2|0:0,0:0:0:0:
364,139,163511,2,0,L|355:205,1,67.5000002574921,10|0,1:2|1:2,0:0:0:0:
335,354,163799,1,2,0:0:0:0:
219,110,164088,1,0,1:2:0:0:
433,50,164376,5,2,0:0:0:0:
433,50,164520,2,0,L|440:117,1,67.5000002574921,2|8,1:2|1:2,0:0:0:0:
339,212,164809,1,2,0:0:0:0:
339,212,164953,2,0,L|347:145,1,67.5000002574921,2|0,1:2|1:2,0:0:0:0:
210,43,165241,2,0,L|219:111,1,67.5000002574921,2|0,0:0|1:2,0:0:0:0:
241,270,165530,2,0,L|232:201,1,67.5000002574921,2|0,1:2|0:0,0:0:0:0:
77,9,165818,2,0,L|68:77,1,67.5000002574921,10|0,1:2|0:0,0:0:0:0:
46,236,166107,2,0,L|55:167,1,67.5000002574921,2|0,1:2|0:0,0:0:0:0:
210,43,166395,1,0,1:2:0:0:
402,327,166684,5,2,0:0:0:0:
402,327,166828,2,0,P|470:298|476:231,1,135.000000514984,2|2,1:2|0:0,0:0:0:0:
417,159,167261,2,0,L|350:167,1,67.5000002574921,2|0,1:2|1:2,0:0:0:0:
247,264,167549,2,0,L|313:272,1,67.5000002574921,2|0,0:0|1:2,0:0:0:0:
216,118,167838,2,0,L|149:126,1,67.5000002574921,2|0,1:2|0:0,0:0:0:0:
11,275,168126,2,0,L|164:295,1,135.000000514984,10|2,1:2|0:0,0:0:0:0:
407,160,168703,6,2,L|349:167,1,59.0625002253056,0|0,1:2|0:0,0:1:0:0:
349,167,171011,6,0,L|335:300,1,129.999994049073,6|2,1:2|0:2,0:0:0:0:
335,296,171443,1,0,1:2:0:0:
411,308,171588,2,0,L|425:175,1,129.999994049073,10|2,1:2|1:2,0:0:0:0:
465,108,172020,2,0,P|407:78|343:83,1,129.999994049073,0|0,1:2|1:2,0:0:0:0:
264,52,172453,2,0,P|210:87|183:145,2,129.999994049073,2|10|2,1:2|1:2|0:2,0:0:0:0:
25,15,173318,6,0,P|81:45|114:100,1,129.999994049073,2|2,1:1|0:2,0:0:0:0:
183,145,173751,2,0,P|187:209|158:266,1,129.999994049073,2|2,1:2|0:0,0:0:0:0:
104,335,174184,2,0,P|74:346|42:341,2,64.9999970245363,2|0|2,1:2|1:2|0:2,0:0:0:0:
158,266,174616,1,0,1:2:0:0:
158,266,174761,1,2,1:2:0:0:
286,68,175049,2,0,P|281:132|310:189,1,129.999994049073,10|2,1:2|1:2,0:0:0:0:
494,301,175626,6,0,P|447:257|384:243,1,129.999994049073,2|2,1:1|0:2,0:0:0:0:
311,189,176059,1,0,1:2:0:0:
311,189,176203,2,0,P|249:206|205:253,1,129.999994049073,10|2,1:2|1:2,0:0:0:0:
123,260,176636,2,0,P|107:322|126:383,1,129.999994049073,0|0,1:2|1:2,0:0:0:0:
225,375,177068,2,0,P|231:311|204:252,1,129.999994049073,2|10,1:2|1:2,0:0:0:0:
204,252,177501,1,0,1:2:0:0:
25,15,177934,6,0,P|81:45|114:100,1,129.999994049073,2|2,1:1|0:2,0:0:0:0:
183,145,178367,2,0,P|187:209|158:266,1,129.999994049073,2|2,1:2|0:2,0:0:0:0:
104,335,178800,2,0,P|74:346|42:341,2,64.9999970245363,2|2|0,1:2|1:2|0:0,0:0:0:0:
158,266,179232,1,2,1:2:0:0:
158,266,179377,1,2,1:2:0:0:
286,68,179665,2,0,P|281:132|310:189,2,129.999994049073,10|2|2,0:2|1:2|1:1,0:0:0:0:
183,145,180530,5,2,0:2:0:0:
183,145,180674,2,0,P|187:209|158:266,1,129.999994049073,2|2,1:2|0:0,0:0:0:0:
104,335,181107,2,0,P|74:346|42:341,2,64.9999970245363,2|0|2,1:2|1:2|0:2,0:0:0:0:
158,266,181539,1,0,1:2:0:0:
158,266,181684,1,2,1:2:0:0:
286,68,181972,2,0,P|281:132|310:189,2,129.999994049073,10|2|2,1:2|0:2|1:1,0:0:0:0:
183,145,182838,5,2,0:2:0:0:
183,145,182982,2,0,P|187:209|158:266,1,129.999994049073,2|2,1:2|0:0,0:0:0:0:
104,335,183415,2,0,P|74:346|42:341,2,64.9999970245363,2|0|2,1:2|1:2|0:2,0:0:0:0:
158,266,183847,1,0,1:2:0:0:
158,266,183992,1,2,1:2:0:0:
286,68,184280,2,0,P|281:132|310:189,1,129.999994049073,10|2,1:2|1:2,0:0:0:0:
512,332,184857,6,0,P|456:299|392:300,1,129.999994049073,2|2,1:1|0:2,0:0:0:0:
315,359,185289,2,0,P|250:360|195:327,1,129.999994049073,0|0,1:2|0:0,0:0:0:0:
108,236,185722,2,0,B|191:253|191:253|162:254|143:276,1,129.999994049073,2|2,1:2|0:2,0:0:0:0:
68,333,186155,1,2,1:2:0:0:
18,242,186299,2,0,P|19:208|42:174,1,64.9999970245363,2|2,1:2|0:0,0:0:0:0:
166,145,186588,2,0,P|136:161|95:158,2,64.9999970245363,10|2|2,1:2|1:2|0:2,0:0:0:0:
268,0,187164,6,0,B|264:44|264:44|260:46|260:46|255:97,1,100,2|2,1:1|0:2,0:0:0:0:
353,109,187741,2,0,B|307:105|307:105|305:101|305:101|256:97,1,100,2|2,0:2|0:2,0:0:0:0:
245,179,188318,2,0,B|248:140|248:140|252:138|252:138|256:97,1,85.0000016212464,2|2,0:2|0:2,0:0:0:0:
182,86,188895,2,0,B|218:90|218:90|220:92|220:92|256:97,1,75.0000028610231,2|2,0:2|0:0,0:0:0:0:
512,322,189491,6,0,B|372:349|411:235|280:257,1,250.000009536744,4|0,1:2|0:0,0:0:0:0:
283,257,190067,6,0,P|318:296|383:299,1,116.666663106283,0|0,1:2|0:0,0:0:0:0:
379,300,190644,6,0,P|385:196|277:107,1,250.000009536744,0|0,1:2|0:0,0:0:0:0:
280,107,191221,5,2,1:2:0:0:
467,192,191510,1,2,0:2:0:0:
263,18,191798,6,0,P|139:99|141:208,1,250.000009536744,4|0,1:2|0:0,0:0:0:0:
217,171,192375,6,0,P|185:128|132:111,1,108.333328374227,2|0,1:2|0:0,0:0:0:0:
57,156,192952,6,0,P|160:190|272:107,1,250.000009536744,2|0,1:2|0:0,0:0:0:0:
221,27,193529,6,0,P|140:100|155:262,1,250.000009536744,2|0,1:2|0:0,0:0:0:0:
273,324,194106,6,0,P|152:285|27:276,1,250.000009536744,6|0,1:2|0:0,0:0:0:0:
29,276,194683,6,0,P|24:221|-2:165,1,116.666663106283,0|0,1:2|0:0,0:0:0:0:
0,165,195260,6,0,B|-30:83|35:26|141:35|153:114|114:143,1,250.000009536744,0|0,1:2|0:0,0:0:0:0:
129,119,195837,5,2,1:2:0:0:
5,0,196125,1,2,0:2:0:0:
256,152,196414,6,0,B|231:264|145:191|89:296|125:367|152:376,1,250.000009536744,4|0,1:2|0:0,0:0:0:0:
216,373,196991,6,0,P|196:273|99:208,1,199.999993896485,2|0,1:2|0:0,0:0:0:0:
68,172,197567,6,0,B|45:186|7:177|7:177|46:195|58:220,1,125.000004768372,2|0,1:2|0:0,0:0:0:0:
122,214,198144,5,2,1:2:0:0:
409,143,198433,5,2,0:2:0:0:
409,143,198529,5,2,0:0:0:0:
409,143,198625,5,2,0:0:0:0:
409,143,198721,6,0,P|434:330|389:362,1,250.000009536744,4|0,1:2|0:0,0:0:0:0:
402,371,199298,6,0,P|360:384|343:380,1,46.6666652425131,0|2,1:2|0:2,0:0:0:0:
328,384,199587,6,0,P|316:379|309:369,1,23.3333326212565,2|0,0:2|0:2,0:0:0:0:
279,356,199779,6,0,P|271:333|273:308,3,50.0000019073487,2|0|0|2,0:2|1:2|0:2|0:2,0:0:0:0:
254,237,200164,6,0,P|275:217|305:207,2,50.0000019073487,2|0|0,0:2|0:2|0:2,0:0:0:0:
342,147,200452,6,0,P|371:148|399:162,2,53.3333333333333,2|0|0,1:2|0:2|0:2,0:0:0:0:
342,147,200741,5,2,0:2:0:0:
510,66,201029,6,0,B|468:36|415:48|415:48|392:35|392:35|363:41|363:41|316:5|274:24,1,250.000009536744,4|0,1:2|0:0,0:0:0:0:
275,23,201606,6,0,P|268:88|218:123,1,116.666663106283,2|0,1:2|0:0,0:0:0:0:
230,119,202183,6,0,P|158:201|191:336,1,250.000009536744,2|0,1:2|0:0,0:0:0:0:
185,329,202760,5,2,1:2:0:0:
312,266,203048,1,2,0:2:0:0:
160,55,203337,6,0,P|76:50|14:205,1,250.000009536744,4|0,1:2|0:0,0:0:0:0:
0,203,203914,6,0,P|42:188|115:300,1,199.999993896485,2|0,1:2|0:0,0:0:0:0:
123,312,204491,6,0,P|66:315|44:370,1,116.666663106283,2|0,1:2|0:0,0:0:0:0:
38,373,205067,5,2,1:2:0:0:
198,279,205356,1,2,0:2:0:0:
74,23,205644,2,0,B|66:15|69:6|69:6|71:11|77:16,1,30,0|2,1:2|0:0,0:0:0:0:
118,376,207952,6,0,P|176:362|236:358,1,101.250000386238,6|0,1:2|0:0,0:0:0:0:
243,371,208241,2,0,L|226:287,1,67.5000002574921,2|0,0:2|1:2,0:0:0:0:
363,302,208529,2,0,L|291:254,1,67.5000002574921,10|0,1:2|0:0,0:0:0:0:
399,168,208817,1,2,1:2:0:0:
399,168,208962,1,0,1:2:0:0:
399,168,209106,2,0,L|315:185,1,67.5000002574921,2|0,0:2|1:2,0:0:0:0:
330,48,209394,2,0,L|282:119,1,67.5000002574921,2|0,1:2|0:0,0:0:0:0:
171,0,209683,2,0,L|198:136,1,135.000000514984,10|2,1:2|0:2,0:0:0:0:
363,302,210260,6,0,P|408:293|483:283,1,101.250000386238,6|0,1:2|0:0,0:0:0:0:
487,282,210549,2,0,P|498:328|501:353,1,67.5000002574921,2|0,0:2|1:2,0:0:0:0:
382,219,210837,1,10,1:2:0:0:
382,219,210981,2,0,P|387:185|395:153,1,67.5000002574921,2|0,0:0|1:2,0:0:0:0:
266,297,211269,2,0,P|271:330|279:362,1,67.5000002574921,2|0,1:2|0:2,0:0:0:0:
157,200,211558,1,2,1:2:0:0:
157,200,211702,2,0,P|162:166|170:134,1,67.5000002574921,2|0,1:2|0:0,0:0:0:0:
16,237,211991,2,0,P|30:304|41:386,1,150.000005722046,10|2,1:2|1:2,0:0:0:0:
188,122,212567,6,0,B|236:103|253:145|293:123,1,101.250000386238,6|0,1:2|0:0,0:0:0:0:
312,118,212856,2,0,L|306:48,1,67.5000002574921,2|0,0:2|1:2,0:0:0:0:
192,12,213144,2,0,B|144:31|127:-11|87:11,1,101.250000386238,10|0,1:2|0:0,0:0:0:0:
68,16,213433,1,2,1:2:0:0:
68,16,213577,1,0,1:2:0:0:
68,16,213721,2,0,L|74:86,1,67.5000002574921,2|0,0:2|1:2,0:0:0:0:
13,178,214010,2,0,L|19:248,1,67.5000002574921,2|0,1:2|0:0,0:0:0:0:
239,373,214298,2,0,L|245:303,1,67.5000002574921,10|0,1:2|1:2,0:0:0:0:
182,189,214587,2,0,L|188:119,1,67.5000002574921,2|0,0:2|0:0,0:0:0:0:
373,28,214875,6,0,P|429:48|437:130,1,135.000000514984,6|2,1:2|0:2,0:0:0:0:
443,116,215308,1,0,1:2:0:0:
349,22,215452,1,10,1:2:0:0:
349,22,215596,2,0,P|314:20|284:7,1,67.5000002574921,2|0,0:2|1:2,0:0:0:0:
151,122,215885,2,0,P|185:120|215:107,1,67.5000002574921,2|4,1:2|0:0,0:0:0:0:
396,217,216173,1,2,1:2:0:0:
396,217,216317,2,0,P|361:215|331:202,1,67.5000002574921,2|0,1:2|0:0,0:0:0:0:
74,342,216606,2,0,P|145:331|216:288,1,150.000005722046,10|2,0:2|1:2,0:0:0:0:
393,3,217183,6,0,P|342:-1|293:16,1,101.250000386238,6|0,1:2|0:0,0:0:0:0:
272,29,217471,2,0,L|310:105,1,67.5000002574921,2|0,0:2|1:2,0:0:0:0:
174,126,217759,2,0,L|255:153,1,67.5000002574921,10|0,1:2|0:0,0:0:0:0:
175,264,218047,1,2,1:2:0:0:
175,264,218192,1,0,1:2:0:0:
175,264,218336,2,0,L|251:225,1,67.5000002574921,2|0,0:2|1:2,0:0:0:0:
272,362,218624,2,0,L|299:280,1,67.5000002574921,2|0,1:2|0:0,0:0:0:0:
438,368,218913,2,0,L|376:243,1,135.000000514984,10|2,1:2|0:2,0:0:0:0:
168,34,219491,6,0,B|120:42|61:59,1,101.250000386238,6|0,1:2|0:0,0:0:0:0:
54,67,219780,2,0,P|43:113|40:138,1,67.5000002574921,2|0,0:2|1:2,0:0:0:0:
256,166,220068,1,10,1:2:0:0:
256,166,220212,2,0,P|264:133|269:100,1,67.5000002574921,2|0,0:0|1:2,0:0:0:0:
95,222,220500,2,0,P|141:233|166:236,1,67.5000002574921,2|0,1:2|0:2,0:0:0:0:
194,20,220789,1,2,1:2:0:0:
194,20,220933,2,0,P|161:11|128:6,1,67.5000002574921,2|0,1:2|0:0,0:0:0:0:
249,256,221222,2,0,P|315:266|396:294,1,150.000005722046,10|2,1:2|1:2,0:0:0:0:
509,70,221798,6,0,B|499:117|499:117|502:123|502:123|494:169,1,101.250000386238,6|0,1:2|0:0,0:0:0:0:
486,185,222087,2,0,P|453:193|419:197,1,67.5000002574921,2|0,0:2|1:2,0:0:0:0:
302,263,222375,6,0,B|292:215|292:215|295:209|295:209|287:163,1,101.250000386238,10|0,1:2|0:0,0:0:0:0:
279,148,222664,1,2,1:2:0:0:
279,148,222808,1,0,1:2:0:0:
279,148,222952,2,0,P|246:139|212:135,1,67.5000002574921,2|0,0:2|1:2,0:0:0:0:
86,243,223241,2,0,P|119:239|152:230,1,67.5000002574921,2|0,1:2|0:0,0:0:0:0:
357,121,223529,2,0,P|324:129|290:133,1,67.5000002574921,10|0,1:2|1:2,0:0:0:0:
7,250,223817,2,0,P|40:253|73:262,1,67.5000002574921,2|0,0:2|0:0,0:0:0:0:
401,354,224106,6,0,P|338:374|267:381,1,135.000000514984,6|2,1:2|0:2,0:0:0:0:
270,380,224539,1,0,1:2:0:0:
349,277,224683,1,10,1:2:0:0:
349,277,224827,2,0,P|317:286|284:291,1,67.5000002574921,2|0,0:2|1:2,0:0:0:0:
411,131,225115,2,0,P|420:164|425:197,1,67.5000002574921,2|4,1:2|0:0,0:0:0:0:
210,229,225404,1,2,1:2:0:0:
210,229,225548,2,0,P|202:197|197:164,1,67.5000002574921,2|0,1:2|0:0,0:0:0:0:
354,16,225837,2,0,P|279:21|209:47,2,150.000005722046,10|2|6,0:2|1:2|1:2,0:0:0:0:
493,268,226702,5,2,0:0:0:0:
493,268,226847,2,0,P|502:235|500:201,1,67.5000002574921,2|8,1:2|1:2,0:0:0:0:
405,87,227135,2,0,P|434:102|458:126,1,67.5000002574921,2|0,0:0|1:2,0:0:0:0:
444,331,227423,2,0,P|387:367|322:384,1,135.000000514984,2|2,1:2|1:2,0:0:0:0:
191,314,227856,2,0,P|215:338|245:353,1,67.5000002574921,2|0,1:2|0:0,0:0:0:0:
161,176,228144,2,0,P|151:208|154:243,1,67.5000002574921,10|0,1:2|1:2,0:0:0:0:
244,353,228433,1,2,0:0:0:0:
405,87,228722,1,4,1:2:0:0:
173,3,229010,5,2,0:0:0:0:
173,3,229155,2,0,P|138:4|107:17,1,67.5000002574921,2|8,1:2|1:2,0:0:0:0:
28,142,229442,1,2,0:0:0:0:
28,142,229587,2,0,P|33:108|48:78,1,67.5000002574921,2|0,1:2|1:2,0:0:0:0:
94,272,229875,2,0,P|67:250|49:222,1,67.5000002574921,2|0,0:0|1:2,0:0:0:0:
239,279,230164,2,0,P|207:291|174:292,1,67.5000002574921,2|0,1:2|0:0,0:0:0:0:
318,153,230452,2,0,P|312:186|297:216,1,67.5000002574921,10|0,1:2|0:0,0:0:0:0:
252,22,230741,2,0,P|278:43|296:71,1,67.5000002574921,2|0,1:2|0:0,0:0:0:0:
297,216,231029,1,4,1:2:0:0:
512,0,231318,5,2,0:0:0:0:
512,0,231462,2,0,P|465:60|459:142,1,135.000000514984,2|2,1:2|0:0,0:0:0:0:
512,248,231894,2,0,P|506:214|491:184,1,67.5000002574921,2|0,1:2|1:2,0:0:0:0:
241,285,232183,2,0,P|260:256|286:235,1,67.5000002574921,2|0,0:0|1:2,0:0:0:0:
402,177,232471,2,0,P|371:165|338:163,1,67.5000002574921,2|0,1:2|0:0,0:0:0:0:
228,300,232760,2,0,P|220:267|224:233,1,67.5000002574921,10|0,1:2|1:2,0:0:0:0:
302,74,233048,2,0,P|271:87|246:110,1,67.5000002574921,2|0,0:2|0:0,0:0:0:0:
215,329,233337,6,0,P|152:296|112:241,1,135.000000514984,4|2,1:2|0:0,0:0:0:0:
53,106,233769,2,0,P|45:140|45:173,1,67.5000002574921,2|8,1:2|0:2,0:0:0:0:
133,46,234058,1,2,0:0:0:0:
133,46,234202,2,0,P|107:22|78:6,1,67.5000002574921,2|0,1:2|1:2,0:0:0:0:
145,146,234491,2,0,P|178:135|206:118,2,67.5000002574921,6|0|2,0:0|1:2|1:2,0:0:0:0:
375,365,235067,2,0,P|313:328|250:314,2,135.000000514984,10|2|4,0:2|1:2|1:2,0:0:0:0:
19,268,235933,5,2,0:0:0:0:
19,268,236078,2,0,P|10:235|12:201,1,67.5000002574921,2|8,1:2|1:2,0:0:0:0:
107,87,236366,2,0,P|77:102|53:126,1,67.5000002574921,2|0,0:0|1:2,0:0:0:0:
68,331,236654,2,0,P|124:367|189:384,1,135.000000514984,2|2,1:2|1:2,0:0:0:0:
321,314,237087,2,0,P|296:338|266:353,1,67.5000002574921,2|0,1:2|0:0,0:0:0:0:
351,176,237375,2,0,P|360:208|358:243,1,67.5000002574921,14|0,1:2|1:2,0:0:0:0:
266,352,237664,1,2,0:0:0:0:
107,87,237953,1,4,1:2:0:0:
339,3,238241,5,2,0:0:0:0:
339,3,238386,2,0,P|373:4|404:17,1,67.5000002574921,2|8,1:2|1:2,0:0:0:0:
484,142,238673,1,2,0:0:0:0:
484,142,238818,2,0,P|478:108|463:78,1,67.5000002574921,2|0,1:2|1:2,0:0:0:0:
418,272,239106,2,0,P|444:250|462:222,1,67.5000002574921,2|0,0:0|1:2,0:0:0:0:
273,279,239395,2,0,P|304:291|337:292,1,67.5000002574921,2|0,1:2|0:0,0:0:0:0:
194,153,239683,2,0,P|199:186|214:216,1,67.5000002574921,10|0,1:2|0:0,0:0:0:0:
260,22,239972,2,0,P|233:43|215:71,1,67.5000002574921,2|0,1:2|0:0,0:0:0:0:
214,216,240260,1,4,1:2:0:0:
0,0,240549,5,2,0:0:0:0:
0,0,240693,2,0,P|47:60|53:142,1,135.000000514984,2|2,1:2|0:0,0:0:0:0:
0,248,241125,2,0,P|5:214|20:184,1,67.5000002574921,2|0,1:2|1:2,0:0:0:0:
270,285,241414,2,0,P|251:256|225:235,1,67.5000002574921,6|0,0:0|1:2,0:0:0:0:
109,177,241702,2,0,P|140:165|174:163,1,67.5000002574921,2|0,1:2|0:0,0:0:0:0:
284,300,241991,2,0,P|291:267|287:233,1,67.5000002574921,10|0,1:2|1:2,0:0:0:0:
210,74,242279,2,0,P|240:87|265:110,1,67.5000002574921,2|0,0:2|0:0,0:0:0:0:
297,329,242568,6,0,P|360:296|400:241,1,135.000000514984,4|2,1:2|0:0,0:0:0:0:
459,106,243000,2,0,P|467:140|466:173,1,67.5000002574921,2|8,1:2|0:2,0:0:0:0:
379,46,243289,1,2,0:0:0:0:
379,46,243433,2,0,P|404:22|433:6,1,67.5000002574921,2|0,1:2|1:2,0:0:0:0:
367,146,243722,2,0,P|333:135|305:118,2,67.5000002574921,6|0|2,0:0|1:2|1:2,0:0:0:0:
90,294,244298,2,0,P|151:257|214:243,1,135.000000514984,10|2,0:2|1:2,0:0:0:0:
256,192,244918,12,4,248905,0:0:0:0:
289,0,254102,6,0,P|320:78|282:172,1,179.999994506836,6|0,1:1|1:2,0:0:0:0:
200,183,254678,2,0,P|259:191|314:214,1,119.999996337891,10|2,1:2|1:2,0:0:0:0:
378,270,255111,2,0,P|369:329|346:384,1,119.999996337891,0|0,1:2|1:2,0:0:0:0:
346,384,255544,1,2,1:2:0:0:
512,203,255832,2,0,P|450:175|395:198,1,119.999996337891,10|2,1:2|0:2,0:0:0:0:
235,358,256409,6,0,B|175:345|175:345|143:302|143:302|79:287,1,179.999994506836,2|0,1:1|1:2,0:0:0:0:
7,327,256986,2,0,P|-2:265|38:212,1,119.999996337891,10|2,1:2|1:2,0:0:0:0:
63,133,257419,2,0,P|113:95|178:107,1,119.999996337891,0|0,1:2|1:2,0:0:0:0:
136,187,257851,1,2,1:2:0:0:
337,168,258140,2,0,P|313:115|260:91,1,119.999996337891,10|2,1:2|1:2,0:0:0:0:
136,187,258717,6,0,L|139:209,1,14.9999995422363,2|0,1:1|0:0,0:0:0:0:
329,384,259294,6,0,P|390:374|429:320,1,119.999996337891,10|2,1:2|1:2,0:0:0:0:
497,273,259728,2,0,P|517:213|487:154,1,119.999996337891,0|0,1:2|1:2,0:0:0:0:
424,219,260160,1,2,1:2:0:0:
382,23,260449,2,0,P|440:30|478:74,1,119.999996337891,10|2,1:2|0:2,0:0:0:0:
424,219,261026,6,0,L|402:222,1,14.9999995422363,2|0,1:1|0:0,0:0:0:0:
208,93,261602,6,0,L|73:61,1,119.999996337891,10|2,1:2|1:2,0:0:0:0:
36,0,262034,2,0,P|7:50|19:108,1,119.999996337891,2|2,1:2|1:2,0:0:0:0:
18,107,262467,1,2,1:2:0:0:
204,182,262755,2,0,L|88:155,1,119.999996337891,10|2,0:2|1:2,0:0:0:0:
300,346,263332,6,0,L|358:332,1,59.9999981689454,2|0,1:1|0:0,0:0:0:0:
440,198,263621,2,0,L|425:290,1,89.9999972534181,2|0,0:2|0:0,0:0:0:0:
432,304,263909,1,10,1:2:0:0:
353,240,264053,2,0,L|365:164,1,59.9999981689454,0|2,0:0|1:2,0:0:0:0:
477,121,264342,2,0,P|425:95|365:97,1,119.999996337891,0|0,1:2|1:2,0:0:0:0:
281,125,264775,2,0,P|221:127|168:100,1,119.999996337891,2|10,1:2|1:2,0:0:0:0:
112,32,265207,2,0,P|59:5|0:8,1,119.999996337891,0|0,1:2|0:0,0:0:0:0:
168,100,265640,6,0,P|171:134|123:228,1,119.999996337891,2|2,1:1|0:2,0:0:0:0:
139,212,266073,1,0,1:2:0:0:
168,100,266505,1,2,1:2:0:0:
168,100,266650,1,0,1:2:0:0:
139,212,266938,1,0,1:2:0:0:
139,212,267082,1,2,1:2:0:0:
168,100,267371,1,2,1:2:0:0:
168,100,267515,2,0,P|220:126|280:124,1,119.999996337891
365,97,267948,6,0,P|425:95|477:121,1,119.999996337891,2|2,1:1|0:2,0:0:0:0:
477,121,268381,1,0,1:2:0:0:
365,97,268813,1,2,1:2:0:0:
365,97,268957,1,0,1:2:0:0:
477,121,269246,1,0,1:2:0:0:
477,121,269390,1,2,1:2:0:0:
410,179,269534,2,0,L|406:210,2,29.9999990844727,2|2|2,0:2|0:2|1:2,0:0:0:0:
364,96,269823,2,0,P|424:94|477:121,1,119.999996337891,0|2,1:2|0:2,0:0:0:0:
394,286,270255,5,2,1:1:0:0:
256,192,270400,12,2,272275,0:2:0:0:
13,78,272563,6,2,B|-31:-33|147:-69|220:-23|150:233|162:281|290:380|375:356|428:292|385:215,1,689.999978942872,6|0,1:2|0:0,0:1:0:0:
385,225,274294,2,0,P|373:263|402:352,1,119.999996337891,10|2,1:2|0:2,0:0:0:0:
501,215,274871,6,0,P|520:271|508:329,1,119.999996337891,6|2,1:2|0:2,0:0:0:0:
508,328,275303,1,0,1:2:0:0:
391,338,275448,2,0,P|372:282|385:225,1,119.999996337891,10|2,1:2|1:2,0:0:0:0:
501,215,275880,2,0,P|513:157|494:101,1,119.999996337891,0|0,1:2|1:2,0:0:0:0:
378,111,276313,2,0,P|365:168|384:224,2,119.999996337891,2|10|2,1:2|1:2|1:2,0:0:0:0:
252,8,277178,6,0,B|199:1|199:1|185:8|185:8|127:1,1,119.999996337891,6|2,1:2|0:2,0:0:0:0:
134,1,277610,1,0,1:2:0:0:
268,83,277755,2,0,B|215:76|215:76|201:83|201:83|143:76,1,119.999996337891,10|2,1:2|1:2,0:0:0:0:
69,149,278188,6,0,B|119:155|119:155|133:148|133:148|186:155,1,119.999996337891,0|0,1:2|1:2,0:0:0:0:
202,230,278621,2,0,B|149:223|149:223|135:230|135:230|77:223,2,119.999996337891,2|10|2,1:2|1:2|0:2,0:0:0:0:
371,358,279486,6,2,P|517:286|449:137,1,359.999989013672,6|2,1:2|1:2,0:1:0:0:
450,137,280496,1,2,1:2:0:0:
377,207,280640,2,2,P|433:198|456:145,1,119.999996337891,4|10,0:0|0:2,0:1:0:0:
146,16,281794,6,2,P|57:103|305:340,1,575,6|0,1:2|0:0,0:1:0:0:
313,329,283525,2,0,P|229:310|160:348,1,150,10|0,1:2|0:0,0:0:0:0:
174,355,284102,6,0,P|193:298|179:237,1,119.999996337891,6|2,1:2|0:2,0:0:0:0:
180,240,284534,1,0,1:2:0:0:
70,224,284678,2,0,P|50:280|65:342,1,119.999996337891,10|2,1:2|1:2,0:0:0:0:
180,240,285111,2,0,P|199:183|185:122,1,119.999996337891,0|0,1:2|1:2,0:0:0:0:
77,109,285544,2,0,P|57:165|70:224,2,119.999996337891,2|10|2,1:2|1:2|1:2,0:0:0:0:
207,6,286409,6,0,L|333:27,1,119.999996337891,6|2,1:2|0:2,0:0:0:0:
325,25,286841,1,0,1:2:0:0:
200,84,286986,2,0,L|326:105,1,119.999996337891,10|2,1:2|1:2,0:0:0:0:
406,184,287419,6,0,L|280:205,1,119.999996337891,0|0,1:2|1:2,0:0:0:0:
287,203,287851,1,2,1:2:0:0:
413,262,288140,2,0,L|287:283,1,119.999996337891,10|2,1:2|0:2,0:0:0:0:
155,360,288717,6,2,P|83:360|97:134,1,359.999989013672,6|2,1:2|1:2,0:1:0:0:
76,140,289727,1,2,1:2:0:0:
161,208,289871,2,2,P|104:200|82:147,1,119.999996337891,4|10,0:0|0:2,0:1:0:0:
391,36,291025,6,2,B|422:38|436:79|440:120|405:155|331:137|269:139|236:184|239:246|285:272|307:266,1,350,6|0,1:2|1:2,0:1:0:0:
315,268,292178,2,0,B|333:230|306:180|277:160,1,100,2|2,0:2|1:2,0:0:0:0:
163,68,292755,1,10,1:2:0:0:
135,362,293332,6,0,B|87:378|34:318|56:267,1,150,6|0,1:2|1:2,0:0:0:0:
46,187,293909,2,0,B|54:159|83:130|126:140,1,100,10|2,1:2|1:2,0:0:0:0:
202,109,294342,2,0,B|230:102|269:114|281:157,1,100,0|0,1:2|1:2,0:0:0:0:
295,241,294775,1,2,1:2:0:0:
123,139,295063,1,10,1:2:0:0:
377,22,295640,6,0,B|424:5|477:65|455:116,1,150,6|0,1:2|1:2,0:0:0:0:
466,197,296217,2,0,B|458:225|429:254|386:244,1,100,10|2,1:2|1:2,0:0:0:0:
310,275,296650,2,0,B|281:281|242:269|230:226,1,100,0|0,1:2|1:2,0:0:0:0:
207,142,297083,1,2,1:2:0:0:
389,245,297371,1,10,1:2:0:0:
87,360,297948,6,2,B|66:335|87:313|134:307|124:256|99:209|89:240|60:220|61:153|82:127|131:117|139:147|164:74|139:37,1,350,6|2,1:2|1:2,0:1:0:0:
64,16,299102,2,2,B|49:53|85:111|103:92|130:82|165:116|169:158|162:183,1,200,4|10,0:0|0:2,0:1:0:0:
320,377,300255,6,2,P|437:316|319:192,1,350,6|0,1:2|1:2,0:1:0:0:
314,199,301409,2,0,B|307:231|339:260|325:313,1,100,2|2,0:2|1:2,0:0:0:0:
192,128,301985,1,10,1:2:0:0:
192,128,302563,6,0,B|175:80|235:27|286:49,1,150,6|0,1:2|1:2,0:0:0:0:
361,39,303139,2,0,B|401:29|430:58|438:86,1,100,10|2,1:2|1:2,0:0:0:0:
438,86,303573,1,0,1:2:0:0:
494,150,303717,2,0,B|523:179|514:219|494:240,1,100,2|2,0:2|1:2,0:0:0:0:
361,39,304293,1,10,1:2:0:0:
258,345,304870,6,0,B|226:384|149:363|140:308,1,150,6|0,1:2|1:2,0:0:0:0:
69,277,305447,2,0,B|51:253|45:213|79:184,1,100,10|2,1:2|1:2,0:0:0:0:
94,113,305880,2,0,B|101:85|131:55|173:66,1,100,0|0,1:2|1:2,0:0:0:0:
246,37,306313,1,2,1:2:0:0:
77,186,306601,1,10,1:2:0:0:
461,318,307178,6,0,B|477:291|476:251|437:222,1,100,6|2,1:2|0:2,0:0:0:0:
429,143,307611,1,0,1:2:0:0:
429,143,307755,2,0,B|414:118|385:92|337:103,1,100,10|2,1:2|1:2,0:0:0:0:
267,205,308332,2,0,B|309:225|352:204|365:169,1,100,4|2,0:0|1:2,0:0:0:0:
429,143,308765,1,0,0:0:0:0:
429,143,308909,2,0,B|444:121|469:99|448:45,1,100,10|0,0:2|1:2,0:0:0:0:
260,18,309486,6,2,B|234:5|234:27|245:40|267:44|267:44|286:25|290:-1|267:0|259:18,1,119.999996337891,6|2,1:2|0:0,0:1:0:0:
