osu file format v14

[General]
AudioFilename: audio.mp3
AudioLeadIn: 0
PreviewTime: 37221
Countdown: 1
SampleSet: Soft
StackLeniency: 0.5
Mode: 0
LetterboxInBreaks: 0
WidescreenStoryboard: 1

[Editor]
DistanceSpacing: 1.4
BeatDivisor: 12
GridSize: 32
TimelineZoom: 1.7

[Metadata]
Title:Runaway feat. Pusha T (Cut Ver.)
TitleUnicode:Runaway feat. Pusha T (Cut Ver.)
Artist:Kanye West
ArtistUnicode:Kanye West
Creator:Sytho
Version:Run away as fast as you can
Source:
Tags:mbdtf progressive english ye rap my beautiful dark twisted fantasy hip hop 2010 2009 mtv
BeatmapID:3476385
BeatmapSetID:1701358

[Difficulty]
HPDrainRate:4.5
CircleSize:3.9
OverallDifficulty:7
ApproachRate:8.1
SliderMultiplier:1.6
SliderTickRate:1

[Events]
//Background and Video events
0,0,"run bitc.jpg",0,0
//Break Periods
//Storyboard Layer 0 (Background)
//Storyboard Layer 1 (Fail)
//Storyboard Layer 2 (Pass)
//Storyboard Layer 3 (Foreground)
//Storyboard Layer 4 (Overlay)
//Storyboard Sound Samples

[TimingPoints]
75,1379.31034482759,4,2,1,55,1,0
75,-100,4,2,1,55,0,0
5592,-100,4,2,1,85,0,0
38006,689.655172413793,4,2,1,55,1,0
38006,-58.8235294117647,4,2,1,85,0,0
102833,-76.9230769230769,4,2,1,85,0,0
104212,-58.8235294117647,4,2,1,85,0,0
169040,-76.9230769230769,4,2,1,85,0,0
170419,-58.8235294117647,4,2,1,85,0,1
192488,-58.8235294117647,4,2,1,85,0,0
194557,-76.9230769230769,4,2,1,85,0,0
213178,-58.8235294117647,4,2,1,85,0,0
347661,1379.31034482759,4,2,1,55,1,0
348350,-100,4,2,1,55,0,0
351799,-100,4,2,1,55,0,0
352488,-100,4,2,1,35,0,0
353178,-100,4,2,1,20,0,0
353868,-100,4,2,1,5,0,0

[Colours]
Combo1 : 151,255,151
Combo2 : 230,0,0
Combo3 : 255,131,6
Combo4 : 237,193,18
SliderBorder : 240,230,140
SliderTrackOverride : 10,0,23

[HitObjects]
152,85,75,6,0,B|44:54|86:128|-6:101,3,160,2|2|2|2,0:2|0:2|0:2|0:2,0:0:0:0:
131,187,5592,2,0,B|155:227|155:227|126:352,3,160,2|2|2|2,0:2|0:2|0:2|0:2,0:0:0:0:
245,300,11109,2,0,P|296:287|377:352,3,160,2|2|2|2,0:2|0:2|0:2|0:2,0:0:0:0:
342,180,16626,2,0,B|325:133|325:133|343:8,2,160,2|2|2,0:2|0:2|0:2,0:0:0:0:
394,280,20764,1,2,3:2:0:0:
228,374,22143,6,0,P|189:318|210:227,1,160,2|2,0:2|0:2,0:0:0:0:
235,30,24902,2,0,P|274:86|253:177,1,160,2|2,0:2|3:2,0:0:0:0:
109,352,27661,6,0,P|48:342|31:248,2,160,2|2|2,0:2|0:2|0:2,0:0:0:0:
307,227,31799,1,2,3:2:0:0:
441,350,33178,6,0,B|338:318|377:391|287:361,1,160,2|2,0:0|0:0,0:0:0:0:
189,322,35937,1,2,0:0:0:0:
155,193,37316,5,2,0:0:0:0:
155,193,38006,6,0,L|145:111,2,68.0000012969971,0|0|0,1:0|3:0|0:0,0:0:0:0:
170,275,38523,1,0,1:0:0:0:
232,220,38695,2,0,L|379:230,1,136.000002593994,10|0,0:0|3:0,0:0:0:0:
367,229,39212,1,0,0:0:0:0:
448,265,39385,2,0,L|459:351,2,68.0000012969971,0|0|0,3:0|3:2|1:0,0:0:0:0:
436,181,39902,1,0,3:0:0:0:
419,97,40074,2,0,P|386:55|289:67,1,136.000002593994,10|2,0:0|0:0,0:0:0:0:
308,52,40592,1,0,3:0:0:0:
218,116,40764,6,0,P|129:130|77:127,1,136.000002593994,2|2,1:2|1:2,0:0:0:0:
15,328,41454,2,0,L|24:235,1,68.0000012969971,8|0,0:0|0:0,0:0:0:0:
96,217,41799,2,0,L|189:226,1,68.0000012969971,0|0,3:0|0:0,0:0:0:0:
225,283,42143,2,0,L|309:274,2,68.0000012969971,0|0|0,3:0|3:0|1:0,0:0:0:0:
318,357,42661,1,0,0:0:0:0:
318,357,42833,2,0,P|360:325|364:282,1,68.0000012969971,10|0,0:0|0:0,0:0:0:0:
360,224,43178,2,0,L|346:142,1,68.0000012969971,0|0,3:0|1:0,0:0:0:0:
289,25,43523,6,0,B|267:47|267:47|258:177,1,136.000002593994,0|0,1:0|0:0,0:0:0:0:
195,200,44040,1,0,1:0:0:0:
144,137,44212,2,0,L|5:148,1,136.000002593994,10|0,0:0|3:0,0:0:0:0:
23,354,44902,2,0,L|36:276,1,68.0000012969971,0|0,3:0|3:0,0:0:0:0:
110,348,45247,2,0,L|181:341,1,68.0000012969971,0|0,1:0|3:0,0:0:0:0:
293,295,45592,2,0,B|211:301|254:250|150:261,1,136.000002593994,10|2,0:0|0:0,0:0:0:0:
122,192,46109,1,0,3:0:0:0:
171,127,46281,6,0,L|319:137,1,136.000002593994,2|2,1:2|1:2,0:0:0:0:
471,102,46971,2,0,L|460:25,1,68.0000012969971,8|0,0:0|0:0,0:0:0:0:
380,53,47316,2,0,L|389:120,1,68.0000012969971,0|0,3:0|3:0,0:0:0:0:
451,182,47661,1,0,3:0:0:0:
451,182,47833,1,0,3:0:0:0:
414,255,48006,2,0,L|325:247,1,68.0000012969971,0|0,1:0|0:0,0:0:0:0:
293,339,48350,2,0,P|245:305|164:321,1,136.000002593994,10|0,0:0|3:0,0:0:0:0:
84,363,48868,1,0,1:0:0:0:
84,363,49040,6,0,P|95:288|99:212,1,136.000002593994,0|0,1:0|0:0,0:0:0:0:
51,163,49557,1,0,1:0:0:0:
51,163,49730,2,0,B|88:106|88:106|144:164,1,136.000002593994,10|0,0:0|3:0,0:0:0:0:
294,43,50419,2,0,L|365:35,2,68.0000012969971,0|0|0,3:0|3:0|1:0,0:0:0:0:
209,61,50937,1,0,3:0:0:0:
271,123,51109,2,0,L|262:204,1,68.0000012969971,10|0,0:0|0:0,0:0:0:0:
256,278,51454,1,2,0:0:0:0:
256,278,51626,1,0,3:0:0:0:
331,236,51799,6,0,B|362:226|362:226|489:219,1,136.000002593994,2|2,1:2|1:2,0:0:0:0:
336,368,52488,2,0,L|258:361,1,68.0000012969971,8|0,0:0|0:0,0:0:0:0:
194,328,52833,2,0,L|120:333,1,68.0000012969971,0|0,3:0|3:0,0:0:0:0:
45,343,53178,1,0,3:0:0:0:
45,343,53350,1,0,3:0:0:0:
88,258,53523,2,0,L|91:179,1,68.0000012969971,0|0,1:0|0:0,0:0:0:0:
145,119,53868,2,0,B|197:103|212:127|210:129|223:158|293:133,1,136.000002593994,10|0,0:0|3:0,0:0:0:0:
337,100,54385,1,0,1:0:0:0:
311,25,54557,5,0,1:0:0:0:
311,25,54730,2,0,L|231:29,2,68.0000012969971,0|0|0,3:0|0:0|1:0,0:0:0:0:
472,47,55247,2,0,B|461:71|461:71|473:185,1,136.000002593994,10|0,0:0|3:0,0:0:0:0:
487,261,55764,1,0,0:0:0:0:
488,339,55937,2,0,P|463:367|410:369,2,68.0000012969971,0|0|0,3:0|0:0|1:0,0:0:0:0:
415,295,56454,1,0,3:0:0:0:
415,295,56626,2,0,L|326:288,1,68.0000012969971,10|0,0:0|0:0,0:0:0:0:
284,338,56971,2,0,L|188:343,1,68.0000012969971,2|0,0:0|3:0,0:0:0:0:
128,253,57316,6,0,B|158:263|158:263|277:257,1,136.000002593994,2|2,1:2|1:2,0:0:0:0:
210,18,58006,2,0,L|203:108,1,68.0000012969971,8|0,0:0|0:0,0:0:0:0:
280,107,58350,2,0,L|285:39,1,68.0000012969971,2|0,3:2|0:0,0:0:0:0:
130,83,58695,2,0,P|156:150|221:162,1,136.000002593994,2|0,3:2|1:0,0:0:0:0:
204,85,59212,1,2,0:0:0:0:
117,7,59385,2,0,P|73:24|54:64,1,68.0000012969971,8|0,0:0|0:0,0:0:0:0:
34,144,59730,2,0,L|47:227,1,68.0000012969971,0|0,3:0|1:0,0:0:0:0:
55,309,60074,6,0,L|44:376,2,68.0000012969971,0|0|0,1:0|3:0|0:0,0:0:0:0:
132,242,60592,1,0,1:0:0:0:
132,242,60764,2,0,B|217:236|177:286|270:281,1,136.000002593994,10|0,0:0|3:0,0:0:0:0:
304,347,61281,1,0,0:0:0:0:
304,347,61454,2,0,P|272:362|227:348,2,68.0000012969971,0|0|0,3:0|3:2|1:0,0:0:0:0:
465,297,62143,2,0,L|458:207,1,68.0000012969971,10|2,0:0|0:0,0:0:0:0:
401,170,62488,1,2,0:0:0:0:
354,242,62661,6,0,B|282:265|297:216|222:237,1,136.000002593994,2|2,3:2|0:0,0:0:0:0:
145,334,63178,1,0,1:2:0:0:
145,334,63350,2,0,B|154:301|154:301|143:258,1,68.0000012969971,2|8,0:0|0:0,0:0:0:0:
33,275,63695,2,0,B|24:307|24:307|33:340,1,68.0000012969971,2|0,0:0|3:0,0:0:0:0:
91,198,64040,2,0,B|97:133|97:133|99:137|99:137|106:63,1,136.000002593994,2|2,0:0|3:2,0:0:0:0:
193,127,64557,1,0,1:0:0:0:
193,127,64730,2,0,L|275:115,1,68.0000012969971,2|8,0:0|0:0,0:0:0:0:
338,67,65074,2,0,L|477:83,1,136.000002593994,2|2,0:0|1:2,0:0:0:0:
487,166,65592,5,2,1:2:0:0:
448,246,65764,2,0,L|291:255,1,136.000002593994,2|0,3:2|1:0,0:0:0:0:
222,226,66281,2,0,L|210:293,1,68.0000012969971,10|0,0:0|0:0,0:0:0:0:
128,274,66626,2,0,L|141:208,1,68.0000012969971,0|0,3:0|0:0,0:0:0:0:
55,191,66971,2,0,L|42:257,2,68.0000012969971,0|0|0,3:0|3:0|1:0,0:0:0:0:
141,45,67661,2,0,B|173:27|173:27|285:43,1,136.000002593994,10|2,0:0|0:2,0:0:0:0:
364,53,68178,1,2,3:2:0:0:
455,61,68350,6,0,P|473:34|500:-4,2,68.0000012969971,2|2|2,1:2|0:0|1:2,0:0:0:0:
367,148,68868,2,0,P|319:143|280:130,1,68.0000012969971,2|8,0:0|0:0,0:0:0:0:
433,203,69212,2,0,P|481:208|520:221,1,68.0000012969971,2|0,0:0|3:0,0:0:0:0:
344,239,69557,2,0,P|296:234|257:221,1,68.0000012969971,2|0,3:2|3:0,0:0:0:0:
410,294,69901,2,0,P|458:299|497:312,1,68.0000012969971,2|0,3:2|1:0,0:0:0:0:
320,357,70247,2,0,B|229:328|262:390|179:354,1,136.000002593994,2|0,0:0|0:0,0:0:0:0:
138,281,70764,1,2,3:2:0:0:
138,281,70937,1,2,1:2:0:0:
152,187,71109,6,0,B|164:78|164:78|137:113,1,136.000002593994,0|0,1:0|0:0,0:0:0:0:
78,220,71626,1,0,1:0:0:0:
210,237,71799,2,0,B|261:230|261:230|288:245|288:245|365:233,1,136.000002593994,10|0,0:0|3:0,0:0:0:0:
393,176,72316,1,0,0:0:0:0:
393,176,72488,2,0,L|401:90,2,68.0000012969971,0|0|0,3:0|3:0|1:0,0:0:0:0:
418,255,73006,1,0,3:0:0:0:
367,316,73178,2,0,L|373:389,2,68.0000012969971,10|0|2,0:0|0:0|0:0,0:0:0:0:
321,107,73868,6,0,P|286:137|226:125,1,90.6666683959961,2|2,1:2|0:0,0:0:0:0:
229,125,74212,1,2,1:2:0:0:
107,143,74385,2,0,P|120:187|123:230,1,68.0000012969971,2|8,0:0|0:0,0:0:0:0:
196,285,74730,2,0,P|201:251|211:219,1,68.0000012969971,2|0,0:0|3:0,0:0:0:0:
114,297,75074,1,2,3:2:0:0:
176,365,75247,2,0,P|213:366|273:282,1,136.000002593994,2|2,3:2|1:2,0:0:0:0:
315,122,75937,2,0,P|347:64|412:53,1,136.000002593994,10|2,0:0|3:2,0:0:0:0:
374,178,76454,6,0,P|330:207|292:199,1,68.0000012969971,2|2,1:2|1:2,0:0:0:0:
221,189,76799,1,2,3:2:0:0:
221,189,76971,2,0,L|229:121,1,68.0000012969971,0|0,0:0|1:0,0:0:0:0:
188,39,77316,2,0,B|123:17|123:17|37:59,1,136.000002593994,10|0,0:0|3:0,0:0:0:0:
15,125,77833,1,0,0:0:0:0:
15,125,78006,2,0,L|108:136,2,68.0000012969971,0|0|0,3:0|0:0|1:0,0:0:0:0:
26,268,78695,2,0,B|92:262|92:262|90:265|90:265|187:258,1,136.000002593994,10|2,0:0|0:0,0:0:0:0:
199,184,79212,1,0,3:0:0:0:
271,243,79385,6,0,P|310:260|358:243,2,68.0000012969971,2|0|2,1:2|0:0|1:2,0:0:0:0:
322,172,79902,1,0,0:0:0:0:
322,172,80074,2,0,B|350:165|350:165|485:176,1,136.000002593994,8|0,0:0|3:0,0:0:0:0:
501,251,80592,1,2,0:2:0:0:
469,331,80764,2,0,B|379:308|425:380|310:342,1,136.000002593994,2|0,3:2|1:0,0:0:0:0:
243,357,81281,1,2,0:0:0:0:
243,357,81454,2,0,B|258:252|258:252|260:269|279:287,1,136.000002593994,10|0,0:0|3:0,0:0:0:0:
341,351,81971,1,2,1:2:0:0:
369,262,82143,1,2,1:2:0:0:
227,130,82488,6,0,P|208:167|212:206,1,68.0000012969971,0|0,0:0|1:0,0:0:0:0:
270,278,82833,2,0,L|133:264,1,136.000002593994,14|0,0:0|3:0,0:0:0:0:
45,250,83350,1,0,0:0:0:0:
45,250,83523,2,0,L|56:153,1,68.0000012969971,0|0,3:0|3:2,0:0:0:0:
66,88,83868,1,0,1:0:0:0:
66,88,84040,1,0,3:0:0:0:
141,144,84212,2,0,B|252:119|252:119|197:100,1,136.000002593994,14|2,0:0|0:0,0:0:0:0:
169,48,84730,1,0,3:0:0:0:
241,7,84902,6,0,L|396:17,1,136.000002593994,2|2,1:2|1:2,0:0:0:0:
372,211,85592,2,0,P|325:156|362:77,1,136.000002593994,12|0,0:0|3:0,0:0:0:0:
431,84,86109,1,0,0:0:0:0:
431,84,86281,2,0,L|424:173,1,68.0000012969971,0|0,3:0|3:0,0:0:0:0:
426,285,86626,1,0,1:0:0:0:
426,285,86799,1,0,0:0:0:0:
376,358,86971,2,0,P|345:315|351:266,1,68.0000012969971,14|0,0:0|0:0,0:0:0:0:
509,302,87316,2,0,P|499:334|476:358,1,68.0000012969971,0|0,3:0|1:0,0:0:0:0:
426,285,87661,6,0,B|401:197|455:236|417:122,1,136.000002593994,0|0,1:0|0:0,0:0:0:0:
356,101,88178,1,0,1:0:0:0:
286,144,88350,2,0,P|226:130|182:129,1,68.0000012969971,14|0,0:0|0:0,0:0:0:0:
132,127,88695,1,0,3:0:0:0:
132,127,88868,1,0,0:0:0:0:
55,165,89040,2,0,P|102:211|193:185,1,136.000002593994,0|0,3:0|1:0,0:0:0:0:
234,253,89557,1,0,3:0:0:0:
183,327,89730,2,0,L|288:341,1,68.0000012969971,14|0,0:0|0:0,0:0:0:0:
318,278,90074,2,0,L|423:264,1,68.0000012969971,2|0,0:0|3:0,0:0:0:0:
507,324,90419,6,0,P|459:255|487:172,1,136.000002593994,2|2,1:2|1:2,0:0:0:0:
454,10,91109,2,0,B|483:75|483:75|435:151,1,136.000002593994,12|0,0:0|3:0,0:0:0:0:
389,184,91626,1,0,3:0:0:0:
327,132,91799,2,0,L|225:137,2,68.0000012969971,0|0|0,3:0|3:0|1:0,0:0:0:0:
201,78,92316,1,0,0:0:0:0:
186,162,92488,2,0,P|220:204|268:206,1,68.0000012969971,14|0,0:0|0:0,0:0:0:0:
319,286,92833,2,0,L|220:295,1,68.0000012969971,0|0,3:0|1:0,0:0:0:0:
178,346,93178,5,0,1:0:0:0:
178,346,93350,2,0,L|100:338,2,68.0000012969971,0|0|0,3:0|0:0|1:0,0:0:0:0:
111,258,93868,2,0,B|44:264|44:264|16:345,1,136.000002593994,14|0,0:0|3:0,0:0:0:0:
69,181,94385,1,0,0:0:0:0:
69,181,94557,2,0,L|76:93,1,68.0000012969971,0|0,3:0|3:0,0:0:0:0:
85,20,94902,1,0,1:0:0:0:
85,20,95074,1,0,3:0:0:0:
163,74,95247,2,0,L|252:66,1,68.0000012969971,14|0,0:0|0:0,0:0:0:0:
296,130,95592,2,0,L|385:122,1,68.0000012969971,2|0,0:0|3:0,0:0:0:0:
495,4,95937,6,0,P|442:57|465:130,1,136.000002593994,2|2,1:2|1:2,0:0:0:0:
465,243,96626,2,0,B|453:341|453:341|425:300,1,136.000002593994,12|0,0:0|3:0,0:0:0:0:
384,217,97143,1,0,3:0:0:0:
384,217,97316,2,0,L|291:211,2,68.0000012969971,0|0|0,3:0|3:0|1:0,0:0:0:0:
128,217,98006,2,0,L|221:211,1,68.0000012969971,14|0,0:0|0:0,0:0:0:0:
138,307,98350,2,0,P|73:284|55:247,1,68.0000012969971,0|0,3:0|1:0,0:0:0:0:
96,105,98695,6,0,B|201:116|201:116|156:144,1,136.000002593994,0|0,1:0|0:0,0:0:0:0:
16,150,99212,1,0,1:0:0:0:
16,150,99385,2,0,L|9:62,2,68.0000012969971,14|0|0,0:0|0:0|3:0,0:0:0:0:
91,349,100074,2,0,P|144:359|207:269,1,136.000002593994,0|0,3:0|1:0,0:0:0:0:
256,246,100592,1,0,3:0:0:0:
308,309,100764,2,0,P|355:355|421:349,1,136.000002593994,14|2,0:0|0:0,0:0:0:0:
401,109,101454,6,0,L|316:120,1,68.0000012969971,2|0,0:2|0:0,0:0:0:0:
256,162,101799,1,2,0:2:0:0:
257,83,102143,1,2,0:2:0:0:
257,83,102488,1,2,0:2:0:0:
170,227,102833,2,0,B|230:221|256:272|256:272|291:219|342:227,1,207.999990478516,2|2,0:2|0:2,0:0:0:0:
342,227,104212,6,0,B|348:260|348:260|329:320,2,68.0000012969971,0|0|0,1:0|3:0|0:0,0:0:0:0:
271,343,104730,1,0,1:0:0:0:
351,377,104902,2,0,L|436:364,1,68.0000012969971,10|0,0:0|0:0,0:0:0:0:
271,343,105247,2,0,L|203:353,1,68.0000012969971,0|0,3:0|0:0,0:0:0:0:
143,292,105592,1,0,3:0:0:0:
55,320,105764,1,0,3:2:0:0:
12,224,105937,2,0,L|84:232,1,68.0000012969971,0|0,1:0|3:0,0:0:0:0:
152,286,106281,2,0,P|231:247|222:152,1,136.000002593994,10|2,0:0|0:0,0:0:0:0:
156,68,106799,1,0,3:0:0:0:
156,68,106971,6,0,B|141:109|141:109|163:216,1,136.000002593994,2|2,1:2|1:2,0:0:0:0:
250,82,107661,2,0,L|348:69,1,68.0000012969971,8|0,0:0|0:0,0:0:0:0:
388,124,108006,1,0,3:0:0:0:
388,124,108178,1,0,0:0:0:0:
355,199,108350,2,0,P|347:249|351:290,1,68.0000012969971,0|0,3:0|3:0,0:0:0:0:
430,286,108695,2,0,P|438:236|434:195,1,68.0000012969971,0|0,1:0|0:0,0:0:0:0:
375,360,109040,1,10,0:0:0:0:
375,360,109212,1,0,0:0:0:0:
290,325,109385,2,0,B|190:327|190:327|188:332|188:332|187:323|187:323|185:328|185:328|138:328,1,136.000002593994,0|0,3:0|1:0,0:0:0:0:
98,359,109902,5,0,3:0:0:0:
98,359,110074,2,0,P|98:295|118:274,1,68.0000012969971,0|0,0:0|1:0,0:0:0:0:
160,240,110419,2,0,L|150:90,1,136.000002593994,10|0,0:0|3:0,0:0:0:0:
137,26,110937,1,0,0:0:0:0:
137,26,111109,2,0,P|86:51|76:86,2,68.0000012969971,0|0|0,3:0|3:0|1:0,0:0:0:0:
217,53,111626,1,0,3:0:0:0:
230,130,111799,2,0,L|238:238,1,68.0000012969971,10|0,0:0|0:0,0:0:0:0:
246,281,112143,1,2,0:0:0:0:
246,281,112316,1,0,3:0:0:0:
304,341,112488,6,0,B|390:362|335:296|480:338,1,136.000002593994,2|2,1:2|1:2,0:0:0:0:
482,186,113178,2,0,B|490:153|490:153|486:118,1,68.0000012969971,8|0,0:0|0:0,0:0:0:0:
461,37,113523,1,0,3:0:0:0:
461,37,113695,1,0,3:0:0:0:
402,101,113868,2,0,L|309:96,2,68.0000012969971,0|0|0,3:0|3:0|1:0,0:0:0:0:
321,17,114385,1,0,0:0:0:0:
249,65,114557,2,0,B|238:109|238:109|256:213,1,136.000002593994,10|0,0:0|3:0,0:0:0:0:
276,289,115074,1,0,1:0:0:0:
184,323,115247,6,0,L|173:240,2,68.0000012969971,0|0|0,1:0|3:0|0:0,0:0:0:0:
86,352,115764,1,0,1:0:0:0:
86,352,115937,2,0,L|73:211,1,136.000002593994,10|0,0:0|3:0,0:0:0:0:
63,125,116454,1,0,0:0:0:0:
63,125,116626,2,0,B|160:113|107:160|209:148,1,136.000002593994,0|0,3:0|1:0,0:0:0:0:
281,183,117143,1,0,3:0:0:0:
281,183,117316,2,0,L|365:175,1,68.0000012969971,10|0,0:0|0:0,0:0:0:0:
441,123,117661,2,0,L|454:216,1,68.0000012969971,2|0,0:0|3:0,0:0:0:0:
490,278,118006,6,0,B|400:269|446:323|352:315,1,136.000002593994,2|2,1:2|1:2,0:0:0:0:
193,370,118695,2,0,P|200:265|200:193,1,136.000002593994,8|0,0:0|3:0,0:0:0:0:
150,167,119212,1,0,3:0:0:0:
150,167,119385,2,0,P|101:153|51:169,1,68.0000012969971,0|0,3:0|3:0,0:0:0:0:
0,220,119730,2,0,P|29:236|50:263,1,68.0000012969971,0|0,1:0|0:0,0:0:0:0:
12,120,120074,1,10,0:0:0:0:
126,249,120419,1,0,3:0:0:0:
190,89,120764,5,0,1:0:0:0:
190,89,120937,2,0,L|178:12,2,68.0000012969971,0|0|0,3:0|0:0|1:0,0:0:0:0:
232,160,121454,2,0,P|281:167|320:131,1,68.0000012969971,10|0,0:0|0:0,0:0:0:0:
340,91,121799,1,0,3:0:0:0:
340,91,121971,1,0,0:0:0:0:
443,158,122143,2,0,L|342:169,1,68.0000012969971,0|0,3:0|0:0,0:0:0:0:
304,255,122488,2,0,L|371:247,1,68.0000012969971,0|0,1:0|3:0,0:0:0:0:
421,326,122833,1,10,0:0:0:0:
421,326,123006,1,0,0:0:0:0:
341,376,123178,2,0,P|261:343|174:348,1,136.000002593994,2|2,0:0|1:2,0:0:0:0:
18,350,123868,6,0,L|8:262,1,68.0000012969971,2|0,1:2|0:0,0:0:0:0:
74,186,124212,2,0,B|113:224|113:224|89:337,1,136.000002593994,8|0,0:0|3:0,0:0:0:0:
2,155,124730,1,0,0:0:0:0:
2,155,124902,2,0,L|12:74,1,68.0000012969971,0|0,3:0|3:0,0:0:0:0:
29,3,125247,1,0,1:0:0:0:
29,3,125419,1,0,0:0:0:0:
96,66,125592,2,0,L|177:54,1,68.0000012969971,10|0,0:0|0:0,0:0:0:0:
208,127,125937,2,0,L|279:132,1,68.0000012969971,0|0,3:0|1:0,0:0:0:0:
395,156,126281,5,0,1:0:0:0:
395,156,126454,2,0,P|364:203|369:239,2,68.0000012969971,0|0|0,3:0|0:0|1:0,0:0:0:0:
511,215,126971,2,0,L|434:221,1,68.0000012969971,10|2,0:0|0:2,0:0:0:0:
443,220,127316,1,2,3:2:0:0:
337,294,127488,2,0,B|358:307|358:307|487:301,1,136.000002593994,2|2,0:3|3:2,0:0:0:0:
284,233,128178,2,0,P|254:289|262:323,1,68.0000012969971,2|10,3:0|0:0,0:0:0:0:
203,360,128523,2,0,P|173:304|181:270,1,68.0000012969971,2|2,0:2|0:0,0:0:0:0:
187,157,128868,6,0,L|196:257,1,68.0000012969971,2|0,3:0|1:2,0:0:0:0:
87,304,129212,2,0,L|96:204,1,68.0000012969971,2|0,0:0|1:2,0:0:0:0:
107,111,129557,1,2,0:0:0:0:
288,179,129902,2,0,P|348:173|365:151,1,68.0000012969971,2|0,0:0|3:0,0:0:0:0:
463,128,130247,6,0,B|433:158|433:158|452:268,1,136.000002593994,2|2,0:0|3:2,0:0:0:0:
392,329,130764,1,0,1:0:0:0:
316,284,130937,2,0,L|235:278,1,68.0000012969971,2|8,0:0|0:0,0:0:0:0:
167,330,131281,2,0,L|81:338,1,68.0000012969971,2|0,0:0|3:0,0:0:0:0:
9,367,131626,1,0,1:0:0:0:
23,282,131799,5,2,1:2:0:0:
23,282,131971,2,0,L|35:121,1,136.000002593994,0|0,3:0|1:0,0:0:0:0:
155,86,132488,2,0,P|169:133|62:181,1,136.000002593994,10|0,0:0|3:0,0:0:0:0:
75,80,133006,1,0,0:0:0:0:
75,80,133178,2,0,P|111:19|143:12,2,68.0000012969971,0|0|0,3:0|3:0|1:0,0:0:0:0:
219,156,133868,2,0,L|298:146,1,68.0000012969971,10|0,0:0|0:0,0:0:0:0:
374,108,134212,1,2,0:0:0:0:
374,108,134385,1,0,3:0:0:0:
358,201,134557,6,0,P|313:234|267:219,2,68.0000012969971,2|2|2,1:2|0:2|1:2,0:0:0:0:
487,314,135074,2,0,L|406:306,1,68.0000012969971,2|8,0:2|0:0,0:0:0:0:
349,353,135419,2,0,L|268:345,1,68.0000012969971,2|0,0:0|3:0,0:0:0:0:
136,303,135764,2,0,L|217:295,1,68.0000012969971,2|0,3:2|3:0,0:0:0:0:
90,223,136109,2,0,L|22:229,1,68.0000012969971,2|0,3:2|1:0,0:0:0:0:
28,339,136454,2,0,B|39:321|39:321|60:127,1,204.000003890991,2|2,0:2|3:2,0:0:0:0:
99,52,137143,1,2,1:2:0:0:
161,122,137316,6,0,B|277:112|277:112|235:72,1,136.000002593994,0|0,1:0|0:0,0:0:0:0:
190,34,137833,1,0,1:0:0:0:
99,52,138006,2,0,P|64:112|97:187,1,136.000002593994,10|0,0:0|3:0,0:0:0:0:
139,239,138523,1,0,0:0:0:0:
139,239,138695,2,0,L|152:351,2,68.0000012969971,0|0|0,3:0|3:0|1:0,0:0:0:0:
230,336,139385,2,0,P|273:346|320:316,1,68.0000012969971,10|0,0:0|0:0,0:0:0:0:
373,292,139730,2,0,L|366:212,1,68.0000012969971,2|0,0:0|3:0,0:0:0:0:
328,117,140074,6,0,P|371:148|424:134,1,90.6666683959961,2|2,1:2|0:0,0:0:0:0:
421,134,140419,1,2,1:2:0:0:
356,40,140592,2,0,L|263:45,1,68.0000012969971,0|8,0:0|0:0,0:0:0:0:
199,107,140937,2,0,L|131:103,1,68.0000012969971,0|0,0:0|3:0,0:0:0:0:
66,195,141281,1,0,3:0:0:0:
66,195,141454,2,0,L|222:185,1,136.000002593994,0|0,3:0|1:0,0:0:0:0:
217,370,142143,2,0,L|81:361,1,136.000002593994,10|0,0:0|3:0,0:0:0:0:
10,321,142661,6,0,L|4:237,1,68.0000012969971,0|0,1:0|1:0,0:0:0:0:
66,195,143006,2,0,L|55:54,1,136.000002593994,0|0,3:0|1:0,0:0:0:0:
155,83,143523,2,0,B|236:108|198:45|306:85,1,136.000002593994,10|0,0:0|3:0,0:0:0:0:
338,152,144040,1,0,0:0:0:0:
338,152,144212,2,0,B|347:184|347:184|329:229,2,68.0000012969971,0|0|0,3:0|0:0|1:0,0:0:0:0:
252,252,144902,2,0,P|301:305|380:290,1,136.000002593994,10|2,0:0|0:0,0:0:0:0:
426,247,145419,1,0,3:0:0:0:
458,171,145592,6,0,P|459:126|455:91,2,68.0000012969971,2|0|2,1:2|0:0|1:2,0:0:0:0:
389,58,146109,2,0,P|418:29|460:27,1,68.0000012969971,0|8,0:0|0:0,0:0:0:0:
380,138,146454,1,0,0:0:0:0:
380,138,146626,2,0,L|289:127,1,68.0000012969971,0|0,3:0|0:0,0:0:0:0:
159,127,146971,2,0,B|138:157|138:157|159:264,1,136.000002593994,0|0,3:0|1:0,0:0:0:0:
139,331,147488,1,0,0:0:0:0:
60,332,147661,2,0,L|70:180,1,136.000002593994,10|0,0:0|3:0,0:0:0:0:
73,90,148178,1,0,1:0:0:0:
159,127,148350,1,0,1:0:0:0:
343,149,148695,6,0,P|384:135|406:96,1,68.0000012969971,0|0,0:0|1:0,0:0:0:0:
286,90,149040,2,0,B|252:145|252:145|292:237,1,136.000002593994,14|0,0:0|3:0,0:0:0:0:
316,283,149557,1,0,0:0:0:0:
397,305,149730,2,0,L|471:293,1,68.0000012969971,0|0,3:0|3:2,0:0:0:0:
489,215,150074,1,0,1:0:0:0:
489,215,150247,1,0,3:0:0:0:
471,127,150419,2,0,L|460:55,1,68.0000012969971,14|0,0:0|0:0,0:0:0:0:
367,134,150764,2,0,L|377:201,1,68.0000012969971,2|0,0:0|3:0,0:0:0:0:
397,305,151109,6,0,L|262:326,1,136.000002593994,2|2,1:2|1:2,0:0:0:0:
161,355,151626,1,0,0:0:0:0:
161,355,151799,2,0,L|171:276,1,68.0000012969971,12|0,0:0|0:0,0:0:0:0:
181,189,152143,1,0,3:0:0:0:
181,189,152316,1,0,0:0:0:0:
98,238,152488,2,0,P|39:227|18:143,1,136.000002593994,0|0,3:0|1:0,0:0:0:0:
12,63,153006,1,0,0:0:0:0:
99,88,153178,2,0,L|88:174,1,68.0000012969971,14|0,0:0|0:0,0:0:0:0:
98,238,153523,2,0,L|87:324,1,68.0000012969971,0|0,3:0|1:0,0:0:0:0:
26,364,153868,5,0,1:0:0:0:
26,364,154040,2,0,P|3:321|11:282,2,68.0000012969971,0|0|0,3:0|0:0|1:0,0:0:0:0:
157,364,154557,2,0,B|231:366|196:320|294:327,1,136.000002593994,14|0,0:0|3:0,0:0:0:0:
377,358,155074,1,0,0:0:0:0:
457,309,155247,2,0,L|450:218,1,68.0000012969971,0|0,3:0|3:0,0:0:0:0:
439,144,155592,1,0,1:0:0:0:
439,144,155764,1,0,3:0:0:0:
354,202,155937,2,0,P|315:175|301:134,1,68.0000012969971,14|0,0:0|0:0,0:0:0:0:
253,75,156281,1,2,0:0:0:0:
163,97,156454,1,0,3:0:0:0:
157,196,156626,6,0,B|138:301|138:301|116:258,1,136.000002593994,2|2,1:2|1:2,0:0:0:0:
28,115,157316,2,0,L|190:93,1,136.000002593994,12|0,0:0|3:0,0:0:0:0:
253,76,157833,1,0,3:0:0:0:
336,62,158006,2,0,L|431:46,2,68.0000012969971,0|0|0,3:0|3:0|1:0,0:0:0:0:
298,147,158523,1,0,0:0:0:0:
306,231,158695,2,0,P|366:198|377:133,1,136.000002593994,14|0,0:0|3:0,0:0:0:0:
403,50,159212,1,0,1:0:0:0:
468,114,159385,6,0,L|476:208,1,68.0000012969971,0|0,1:0|3:0,0:0:0:0:
485,267,159730,1,0,0:0:0:0:
485,267,159902,1,0,1:0:0:0:
496,350,160074,2,0,B|444:343|444:343|407:357|407:357|356:351,1,136.000002593994,14|0,0:0|3:0,0:0:0:0:
301,293,160592,1,0,0:0:0:0:
237,350,160764,2,0,L|154:357,1,68.0000012969971,0|0,3:0|3:0,0:0:0:0:
101,302,161109,1,0,1:0:0:0:
101,302,161281,1,0,3:0:0:0:
57,372,161454,2,0,P|17:319|44:238,1,136.000002593994,14|2,0:0|0:0,0:0:0:0:
83,156,161971,1,0,3:0:0:0:
83,156,162143,6,0,B|186:158|186:158|158:199,1,136.000002593994,2|2,1:2|1:2,0:0:0:0:
243,347,162833,2,0,B|241:281|241:281|238:286|238:286|235:203,1,136.000002593994,12|0,0:0|3:0,0:0:0:0:
284,156,163350,1,0,3:0:0:0:
351,200,163523,2,0,L|431:204,2,68.0000012969971,0|0|0,3:0|3:0|1:0,0:0:0:0:
192,99,164212,2,0,L|124:102,1,68.0000012969971,14|0,0:0|0:0,0:0:0:0:
31,127,164557,2,0,L|23:194,1,68.0000012969971,0|0,3:0|1:0,0:0:0:0:
56,286,164902,5,0,1:0:0:0:
56,286,165074,2,0,P|82:328|118:336,2,68.0000012969971,0|0|0,3:0|0:0|1:0,0:0:0:0:
121,189,165592,2,0,L|189:186,1,68.0000012969971,14|0,0:0|0:0,0:0:0:0:
256,235,165937,2,0,L|323:231,1,68.0000012969971,0|0,3:0|0:0,0:0:0:0:
439,291,166281,2,0,B|350:271|393:339|287:313,1,136.000002593994,0|0,3:0|1:0,0:0:0:0:
371,115,166971,1,14,0:0:0:0:
81,163,167661,6,0,L|75:88,2,68.0000012969971,2|0|2,0:2|0:0|0:2,0:0:0:0:
91,343,168350,1,2,0:2:0:0:
151,208,168695,1,2,0:2:0:0:
207,349,169040,2,0,B|267:383|326:322|326:322|300:285|253:287,1,207.999990478516,2|2,0:2|0:2,0:0:0:0:
263,288,170419,5,2,1:2:0:0:
249,192,170592,1,8,0:0:0:0:
342,230,170764,2,0,L|418:220,1,68.0000012969971,0|0,0:0|1:0,0:0:0:0:
447,115,171109,2,0,B|454:79|454:79|455:83|455:83|460:43,2,68.0000012969971,14|2|2,0:0|0:0|3:2,0:0:0:0:
334,136,171626,2,0,P|306:100|310:53,1,68.0000012969971,2|0,0:0|3:0,0:0:0:0:
268,7,171971,2,0,P|240:25|226:56,1,68.0000012969971,8|0,0:0|1:0,0:0:0:0:
234,142,172316,1,0,3:0:0:0:
234,142,172488,2,0,P|152:127|86:136,1,136.000002593994,14|2,0:0|0:0,0:0:0:0:
32,190,173006,1,0,3:0:0:0:
32,190,173178,6,0,P|16:235|12:277,1,68.0000012969971,2|0,1:2|0:0,0:0:0:0:
91,284,173523,2,0,P|95:343|109:373,1,68.0000012969971,2|0,1:2|0:0,0:0:0:0:
197,347,173868,2,0,P|193:288|179:258,1,68.0000012969971,12|0,0:0|0:0,0:0:0:0:
254,231,174212,2,0,P|247:198|235:167,1,68.0000012969971,0|8,3:0|0:0,0:0:0:0:
186,88,174557,1,2,3:2:0:0:
186,88,174730,1,8,0:0:0:0:
129,147,174902,2,0,L|140:237,1,68.0000012969971,0|0,1:0|0:0,0:0:0:0:
62,90,175247,1,14,0:2:0:0:
62,90,175419,1,2,0:2:0:0:
45,168,175592,2,0,L|34:258,1,68.0000012969971,2|0,3:2|1:0,0:0:0:0:
26,332,175937,5,0,1:3:0:0:
100,297,176109,1,8,0:0:0:0:
114,375,176281,2,0,L|193:369,1,68.0000012969971,0|0,0:0|1:0,0:0:0:0:
297,313,176626,2,0,B|322:334|322:334|328:375,2,68.0000012969971,14|2|0,0:0|0:0|3:0,0:0:0:0:
207,244,177143,2,0,L|199:157,1,68.0000012969971,2|0,0:0|3:0,0:0:0:0:
262,101,177488,2,0,L|254:14,1,68.0000012969971,10|0,0:0|1:0,0:0:0:0:
255,33,177833,1,2,3:2:0:0:
163,13,178006,2,0,L|169:80,1,68.0000012969971,14|0,0:2|0:0,0:0:0:0:
279,176,178350,2,0,L|285:243,1,68.0000012969971,2|0,0:0|3:0,0:0:0:0:
381,337,178695,1,2,1:2:0:0:
492,191,179040,5,2,1:2:0:0:
492,191,179212,2,0,B|470:157|470:157|362:164,1,136.000002593994,2|2,0:0|0:0,0:0:0:0:
383,76,179730,1,2,3:2:0:0:
383,76,179902,2,0,B|343:67|343:67|271:148,1,136.000002593994,10|10,0:0|0:0,0:0:0:0:
226,72,180419,2,0,B|192:93|192:93|199:202,1,136.000002593994,2|14,1:2|0:0,0:0:0:0:
149,250,180937,1,2,0:0:0:0:
211,330,181109,2,0,B|122:313|167:367|65:349,1,136.000002593994,2|0,3:2|1:0,0:0:0:0:
33,284,181626,5,8,0:0:0:0:
33,284,181799,2,0,P|24:231|35:191,1,68.0000012969971,0|0,0:0|1:0,0:0:0:0:
45,90,182143,2,0,L|116:96,2,68.0000012969971,14|2|0,0:0|0:0|3:0,0:0:0:0:
113,186,182661,2,0,P|167:171|183:145,1,68.0000012969971,2|0,0:0|3:0,0:0:0:0:
200,77,183006,1,10,0:0:0:0:
200,77,183178,2,0,L|283:81,1,68.0000012969971,2|0,1:2|0:0,0:0:0:0:
369,81,183523,2,0,B|396:103|428:113|428:113|399:187|395:274,1,204.000003890991,14|2,0:0|0:0,0:0:0:0:
328,305,184212,6,0,L|239:296,1,68.0000012969971,2|0,1:2|0:0,0:0:0:0:
233,379,184557,1,2,1:2:0:0:
163,334,184730,2,0,B|181:295|181:295|163:174,1,136.000002593994
145,126,185247,1,0,3:0:0:0:
80,185,185419,2,0,B|62:146|62:146|80:25,1,136.000002593994,8|8,0:0|0:0,0:0:0:0:
145,126,185937,2,0,L|235:113,1,68.0000012969971,2|0,1:2|0:0,0:0:0:0:
318,104,186281,1,14,0:2:0:0:
318,104,186454,1,2,0:2:0:0:
283,188,186626,2,0,P|271:232|279:269,1,68.0000012969971,2|0,3:2|1:0,0:0:0:0:
323,336,186971,5,0,1:0:0:0:
323,336,187143,2,0,L|405:330,2,68.0000012969971,8|0|0,0:0|0:0|1:0,0:0:0:0:
189,336,187661,2,0,L|107:330,1,68.0000012969971,14|0,0:0|0:0,0:0:0:0:
256,212,188006,2,0,L|256:292,1,68.0000012969971,2|0,3:2|0:0,0:0:0:0:
175,152,188350,2,0,B|228:156|255:102|255:102|278:156|337:148,1,204.000003890991,2|2,3:2|3:2,0:0:0:0:
287,33,189040,2,0,P|255:25|214:37,1,68.0000012969971,14|0,0:0|0:0,0:0:0:0:
148,73,189385,1,2,0:0:0:0:
148,73,189557,1,0,3:0:0:0:
58,45,189730,6,0,L|69:141,1,68.0000012969971,2|2,1:2|0:2,0:0:0:0:
136,164,190074,2,0,L|125:260,1,68.0000012969971,2|2,1:2|0:2,0:0:0:0:
103,357,190419,1,14,0:0:0:0:
290,340,190764,2,0,L|215:348,1,68.0000012969971,2|8,3:2|0:0,0:0:0:0:
94,358,191109,2,0,P|45:301|59:235,1,136.000002593994,2|0,3:2|1:0,0:0:0:0:
170,24,191799,2,0,B|228:182|100:137|171:288,1,272.000005187988,14|0,0:0|0:0,0:0:0:0:
458,378,193350,6,0,P|488:339|489:295,1,68.0000012969971,2|0,0:0|0:0,0:0:0:0:
411,304,193695,2,0,P|417:271|407:239,1,68.0000012969971,2|0,0:0|0:0,0:0:0:0:
336,276,194040,2,0,P|323:307|298:330,1,68.0000012969971,2|0,0:0|0:0,0:0:0:0:
258,254,194385,1,2,0:0:0:0:
258,254,194557,2,0,P|303:201|352:200,1,103.999995239258,2|2,0:0|0:0,0:0:0:0:
421,51,197316,5,2,0:0:0:0:
362,107,197488,1,2,0:0:0:0:
301,58,197661,2,0,B|217:72|217:72|206:103,1,103.999995239258,2|0,0:0|0:0,0:0:0:0:
215,276,198868,6,0,L|282:261,1,51.999997619629,2|0,0:0|0:0,0:0:0:0:
128,216,199212,2,0,L|195:201,1,51.999997619629,2|0,0:0|0:0,0:0:0:0:
63,310,199557,2,0,L|130:295,1,51.999997619629,2|0,0:0|0:0,0:0:0:0:
48,227,199902,1,2,0:0:0:0:
48,227,200074,2,0,P|58:158|59:100,1,103.999995239258,2|2,0:0|0:0,0:0:0:0:
205,64,201109,6,0,P|215:111|210:133,1,51.999997619629,2|2,0:0|0:0,0:0:0:0:
297,120,201454,2,0,P|287:167|292:189,1,51.999997619629,2|2,0:0|0:0,0:0:0:0:
371,73,201799,2,0,P|381:120|376:142,1,51.999997619629,2|2,0:0|0:0,0:0:0:0:
463,129,202144,2,0,P|453:176|458:198,1,51.999997619629,2|2,0:0|0:0,0:0:0:0:
486,261,202488,1,2,0:0:0:0:
486,261,202661,1,2,0:0:0:0:
461,343,202833,6,0,L|400:341,1,51.999997619629,2|2,0:0|0:0,0:0:0:0:
326,311,203178,2,0,L|212:320,1,103.999995239258,2|0,0:0|0:0,0:0:0:0:
28,316,204385,6,0,P|47:292|52:266,1,51.999997619629,2|0,0:0|0:0,0:0:0:0:
51,186,204730,2,0,L|42:117,1,51.999997619629,2|0,0:0|0:0,0:0:0:0:
90,67,205074,1,2,0:0:0:0:
90,67,205247,2,0,L|161:68,1,51.999997619629,2|0,0:0|0:0,0:0:0:0:
205,122,205592,2,0,L|329:109,1,121.333327779134,2|2,0:0|0:0,0:0:0:0:
418,313,206799,5,2,0:0:0:0:
418,313,206971,2,0,P|367:342|310:323,1,103.999995239258,2|2,0:0|0:0,0:0:0:0:
187,283,207661,2,0,P|136:275|93:303,1,103.999995239258,2|2,0:0|0:0,0:0:0:0:
159,367,208350,2,0,L|222:363,2,51.999997619629,2|2|2,0:0|0:0|0:0,0:0:0:0:
54,178,209730,6,0,P|59:150|84:124,2,51.999997619629,2|2|2,0:0|0:0|0:0,0:0:0:0:
135,192,210419,1,2,0:0:0:0:
135,192,210764,1,2,0:0:0:0:
209,170,211109,1,2,0:0:0:0:
209,170,211799,6,0,L|267:174,2,51.999997619629,2|2|2,0:0|0:0|0:0,0:0:0:0:
265,253,212316,1,2,0:0:0:0:
265,253,212488,2,0,P|316:233|335:177,1,103.999995239258,2|2,0:0|0:0,0:0:0:0:
344,67,213178,6,0,P|391:16|483:147,1,272.000005187988,2|8,0:0|0:0,0:0:0:0:
394,244,214212,1,0,3:0:0:0:
243,262,214557,6,0,L|164:270,2,68.0000012969971,2|0|0,1:2|3:0|0:0,0:0:0:0:
298,195,215074,1,0,1:0:0:0:
298,195,215247,2,0,P|318:129|278:68,1,136.000002593994,10|0,0:0|3:0,0:0:0:0:
206,47,215764,1,0,0:0:0:0:
206,47,215937,2,0,P|140:60|75:52,2,113.333335494995,2|0|0,3:2|0:0|3:2,0:0:0:0:
286,74,216626,2,0,P|358:59|441:76,1,136.000002593994,10|2,0:0|0:0,0:0:0:0:
419,67,217143,1,0,3:0:0:0:
479,138,217316,6,0,P|427:158|390:138,1,68.0000012969971,2|0,1:2|0:0,0:0:0:0:
349,205,217661,2,0,P|371:230|404:239,1,68.0000012969971,2|0,1:2|0:0,0:0:0:0:
488,227,218006,2,0,L|473:392,1,136.000002593994,10|0,0:0|3:0,0:0:0:0:
391,336,218523,1,0,0:0:0:0:
391,336,218695,2,0,L|309:328,1,68.0000012969971,0|0,3:0|3:0,0:0:0:0:
256,288,219040,1,0,1:0:0:0:
188,329,219212,2,0,L|121:336,1,68.0000012969971,0|10,0:0|0:0,0:0:0:0:
36,345,219557,2,0,L|43:278,1,68.0000012969971,0|0,3:0|0:0,0:0:0:0:
55,196,219902,6,0,B|149:181|99:234|204:213,1,136.000002593994,0|0,1:0|0:0,0:0:0:0:
251,265,220419,2,0,L|337:261,1,68.0000012969971,0|0,3:0|1:0,0:0:0:0:
388,316,220764,1,10,0:2:0:0:
459,268,220937,2,0,L|455:182,1,68.0000012969971,0|0,0:0|3:0,0:0:0:0:
510,135,221281,2,0,L|506:49,1,68.0000012969971,0|0,0:0|3:0,0:0:0:0:
412,7,221626,2,0,B|378:39|378:39|403:128,1,136.000002593994
322,140,222143,1,10,0:0:0:0:
251,101,222316,2,0,B|158:87|206:146|102:125,1,136.000002593994,0|0,0:0|3:0,0:0:0:0:
57,82,222833,6,0,P|40:128|57:171,2,68.0000012969971,2|0|2,1:2|0:0|1:2,0:0:0:0:
122,128,223350,2,0,L|131:223,1,68.0000012969971,0|8,0:0|0:0,0:0:0:0:
127,274,223695,2,0,P|72:252|63:230,1,68.0000012969971,0|0,0:0|3:0,0:0:0:0:
198,233,224040,2,0,P|273:243|352:243,1,136.000002593994,0|0,3:0|3:0,0:0:0:0:
398,301,224557,2,0,P|444:294|480:271,1,68.0000012969971,0|0,1:0|0:0,0:0:0:0:
491,205,224902,1,10,0:0:0:0:
491,205,225074,1,0,0:0:0:0:
400,197,225247,2,0,L|390:113,1,68.0000012969971,0|0,3:0|1:0,0:0:0:0:
459,81,225592,5,0,1:0:0:0:
459,81,225764,1,0,3:0:0:0:
415,0,225937,2,0,L|334:6,1,68.0000012969971,0|0,0:0|1:0,0:0:0:0:
283,63,226281,2,0,P|210:46|135:46,1,136.000002593994,10|0,0:0|3:0,0:0:0:0:
71,91,226799,1,0,0:0:0:0:
164,132,226971,1,0,3:0:0:0:
164,132,227143,1,0,3:0:0:0:
82,176,227316,2,0,P|48:204|30:239,1,68.0000012969971,0|0,1:0|3:0,0:0:0:0:
107,316,227661,2,0,P|106:282|117:250,1,68.0000012969971,10|0,0:0|0:0,0:0:0:0:
190,296,228006,2,0,P|196:329|213:358,1,68.0000012969971,2|0,0:0|3:0,0:0:0:0:
252,237,228350,6,0,L|100:251,1,136.000002593994,2|2,1:2|1:2,0:0:0:0:
100,161,228868,1,0,0:0:0:0:
100,161,229040,2,0,B|147:118|147:118|235:148,1,136.000002593994,8|0,0:0|3:0,0:0:0:0:
364,237,229730,2,0,P|416:240|466:163,1,136.000002593994,0|0,3:0|1:0,0:0:0:0:
429,111,230247,1,0,0:0:0:0:
429,111,230419,2,0,P|391:153|391:192,1,68.0000012969971,10|0,0:0|0:0,0:0:0:0:
412,305,230764,1,0,3:0:0:0:
364,237,230937,6,0,B|327:226|327:226|268:242|268:242|226:233,1,136.000002593994,0|0,1:0|3:0,0:0:0:0:
162,283,231454,1,0,0:0:0:0:
162,283,231626,1,0,1:0:0:0:
77,274,231799,2,0,L|65:190,1,68.0000012969971,10|0,0:0|0:0,0:0:0:0:
119,145,232143,1,0,3:0:0:0:
119,145,232316,2,0,P|139:80|83:21,1,136.000002593994,0|0,0:0|0:0,0:0:0:0:
11,57,232833,2,0,P|40:89|81:94,1,68.0000012969971,0|0,1:0|3:0,0:0:0:0:
207,36,233178,2,0,B|274:34|274:34|270:38|270:38|342:36,1,136.000002593994,10|2,0:0|0:0,0:0:0:0:
420,33,233695,1,0,3:0:0:0:
482,93,233868,6,0,B|480:189|480:189|445:224,1,136.000002593994,2|2,1:2|1:2,0:0:0:0:
373,250,234385,1,0,0:0:0:0:
398,334,234557,2,0,P|434:351|501:325,2,102.000001945496,8|0|0,0:0|0:0|0:0,0:0:0:0:
313,306,235247,2,0,L|216:316,1,68.0000012969971,2|0,3:2|3:0,0:0:0:0:
164,323,235592,1,0,1:0:0:0:
164,323,235764,1,0,0:0:0:0:
92,368,235937,2,0,P|76:328|86:291,1,68.0000012969971,8|0,0:0|0:0,0:0:0:0:
130,233,236281,2,0,L|120:150,1,68.0000012969971,0|0,3:0|1:0,0:0:0:0:
110,68,236626,6,0,B|157:64|157:64|190:81|190:81|270:76,1,136.000002593994,0|0,1:0|0:0,0:0:0:0:
414,49,237316,2,0,L|427:145,1,68.0000012969971,10|0,0:2|0:0,0:0:0:0:
445,200,237661,1,0,3:0:0:0:
445,200,237833,1,0,0:0:0:0:
402,283,238006,2,0,P|349:241|254:253,1,136.000002593994,0|0,3:0|1:0,0:0:0:0:
226,306,238523,1,0,3:0:0:0:
165,366,238695,2,0,P|115:363|85:340,1,68.0000012969971,10|0,0:0|0:0,0:0:0:0:
145,287,239040,1,2,0:0:0:0:
145,287,239212,1,0,3:0:0:0:
226,306,239385,6,0,L|324:315,1,68.0000012969971,2|0,1:2|0:0,0:0:0:0:
363,371,239730,2,0,B|390:311|390:311|349:242,1,136.000002593994,2|8,1:2|0:0,0:0:0:0:
299,183,240247,1,0,0:0:0:0:
299,183,240419,2,0,L|317:87,1,68.0000012969971,0|0,3:0|0:0,0:0:0:0:
332,34,240764,1,0,3:0:0:0:
251,56,240937,1,0,3:0:0:0:
179,13,241109,2,0,L|93:24,1,68.0000012969971,0|0,1:0|0:0,0:0:0:0:
48,88,241454,2,0,P|65:121|71:169,1,68.0000012969971,10|0,0:0|0:0,0:0:0:0:
55,237,241799,1,0,3:0:0:0:
55,237,241971,1,0,1:0:0:0:
1,298,242143,6,0,P|63:319|126:255,1,136.000002593994,0|0,1:0|0:0,0:0:0:0:
165,211,242661,1,0,1:0:0:0:
201,285,242833,2,0,L|291:297,1,68.0000012969971,10|0,0:0|0:0,0:0:0:0:
359,278,243178,1,0,3:0:0:0:
359,278,243350,1,0,0:0:0:0:
313,189,243523,2,0,L|219:199,1,68.0000012969971,0|0,3:0|3:0,0:0:0:0:
165,211,243868,1,0,1:0:0:0:
194,130,244040,1,0,3:0:0:0:
106,154,244212,2,0,P|61:148|36:114,1,68.0000012969971,10|0,0:0|0:0,0:0:0:0:
88,8,244557,2,0,L|96:92,2,68.0000012969971,2|0|2,0:0|3:0|1:2,0:0:0:0:
334,21,245247,6,0,L|326:105,1,68.0000012969971,2|0,1:2|0:0,0:0:0:0:
320,173,245592,1,8,0:0:0:0:
320,173,245764,1,0,0:0:0:0:
398,137,245937,2,0,L|493:130,1,68.0000012969971,0|0,3:0|3:0,0:0:0:0:
512,226,246281,2,0,B|424:199|456:263|365:230,1,136.000002593994,0|0,3:0|1:0,0:0:0:0:
327,303,246799,1,0,0:0:0:0:
260,250,246971,2,0,P|219:233|168:235,1,68.0000012969971,10|0,0:0|0:0,0:0:0:0:
202,316,247316,2,0,P|228:336|248:364,1,68.0000012969971,0|0,3:0|1:0,0:0:0:0:
125,352,247661,1,0,1:0:0:0:
44,229,248006,6,0,L|56:152,1,68.0000012969971,0|0,0:0|1:0,0:0:0:0:
73,57,248350,2,0,B|145:89|116:35|227:79,1,136.000002593994,10|0,0:0|3:0,0:0:0:0:
262,142,248868,1,0,0:0:0:0:
326,72,249040,1,0,3:0:0:0:
326,72,249212,1,0,3:0:0:0:
373,153,249385,2,0,L|369:239,1,68.0000012969971,0|0,1:0|3:0,0:0:0:0:
452,87,249730,1,10,0:0:0:0:
411,289,250074,2,0,P|359:300|323:279,1,68.0000012969971,2|0,0:0|3:0,0:0:0:0:
237,226,250419,1,2,1:2:0:0:
237,226,250764,6,0,L|232:305,1,68.0000012969971,2|0,1:2|0:0,0:0:0:0:
172,346,251109,2,0,B|120:334|120:334|86:347|86:347|34:338,1,136.000002593994,8|0,0:0|3:0,0:0:0:0:
6,258,251626,1,0,3:0:0:0:
6,258,251799,2,0,L|86:251,1,68.0000012969971,0|0,3:0|3:0,0:0:0:0:
131,183,252143,1,0,1:0:0:0:
131,183,252316,1,0,0:0:0:0:
75,111,252488,2,0,L|7:105,1,68.0000012969971,10|0,0:0|0:0,0:0:0:0:
185,117,252833,2,0,L|252:122,1,68.0000012969971,0|0,3:0|1:0,0:0:0:0:
374,86,253178,6,0,P|332:138|353:207,1,136.000002593994,0|0,1:0|0:0,0:0:0:0:
397,272,253695,1,0,1:0:0:0:
467,230,253868,1,10,0:0:0:0:
467,230,254040,2,0,L|473:141,1,68.0000012969971,0|0,0:0|3:0,0:0:0:0:
463,320,254385,1,0,0:0:0:0:
397,272,254557,2,0,P|336:262|235:265,1,136.000002593994,0|0,3:0|1:0,0:0:0:0:
211,330,255074,1,0,3:0:0:0:
129,338,255247,2,0,P|86:313|75:276,1,68.0000012969971,10|0,0:0|0:0,0:0:0:0:
134,211,255592,2,0,P|177:236|188:273,1,68.0000012969971,2|0,0:0|3:0,0:0:0:0:
51,220,255937,1,2,1:2:0:0:
51,220,256281,6,0,L|68:132,1,68.0000012969971,2|0,1:2|0:0,0:0:0:0:
86,53,256626,2,0,B|155:79|133:22|246:65,1,136.000002593994,8|2,0:0|3:2,0:0:0:0:
276,111,257143,1,0,0:0:0:0:
276,111,257316,2,0,P|324:114|371:102,1,68.0000012969971,2|0,3:2|3:0,0:0:0:0:
419,91,257661,2,0,P|399:170|335:190,1,136.000002593994,0|8,1:0|0:0,0:0:0:0:
244,197,258178,1,0,0:0:0:0:
305,278,258350,6,0,B|340:287|340:287|402:283|402:283|462:297,1,136.000002593994,0|0,3:0|1:0,0:0:0:0:
486,361,258868,1,0,3:0:0:0:
398,374,259040,2,0,L|317:366,1,68.0000012969971,0|0,0:0|1:0,0:0:0:0:
181,367,259385,6,0,L|114:374,2,68.0000012969971,10|0|0,0:0|0:0|3:0,0:0:0:0:
215,288,259902,1,0,0:0:0:0:
161,223,260074,2,0,P|111:212|72:231,1,68.0000012969971,0|0,3:0|3:2,0:0:0:0:
39,276,260419,1,0,1:0:0:0:
39,276,260592,1,0,3:0:0:0:
4,195,260764,2,0,P|-4:121|42:69,1,136.000002593994,10|2,0:0|0:0,0:0:0:0:
108,35,261281,1,0,3:0:0:0:
190,49,261454,2,0,B|222:78|222:78|208:191,1,136.000002593994,2|2,1:2|1:2,0:0:0:0:
134,269,262143,6,0,L|33:277,1,68.0000012969971,8|0,0:0|0:0,0:0:0:0:
50,358,262488,1,0,3:0:0:0:
134,351,262661,2,0,L|201:344,1,68.0000012969971,0|0,0:0|3:0,0:0:0:0:
234,263,263006,1,0,3:0:0:0:
284,328,263178,2,0,L|351:321,1,68.0000012969971,0|0,1:0|0:0,0:0:0:0:
429,373,263523,1,10,0:0:0:0:
429,373,263695,1,0,0:0:0:0:
430,286,263868,6,0,L|434:142,1,136.000002593994,0|0,3:0|1:0,0:0:0:0:
438,0,264385,1,0,3:0:0:0:
438,0,264557,2,0,L|436:67,1,68.0000012969971,0|0,0:0|1:0,0:0:0:0:
360,113,264902,2,0,L|292:111,1,68.0000012969971,10|0,0:0|0:0,0:0:0:0:
203,105,265247,1,0,3:0:0:0:
203,105,265419,1,0,0:0:0:0:
249,179,265592,2,0,L|256:262,1,68.0000012969971,0|0,3:0|3:0,0:0:0:0:
183,295,265937,2,0,L|190:378,1,68.0000012969971,0|0,1:0|3:0,0:0:0:0:
98,345,266281,2,0,L|92:277,1,68.0000012969971,10|0,0:0|0:0,0:0:0:0:
13,253,266626,2,0,L|7:185,1,68.0000012969971,2|0,0:0|3:0,0:0:0:0:
0,95,266971,6,0,B|47:91|47:91|80:108|80:108|160:103,1,136.000002593994,2|2,1:2|1:2,0:0:0:0:
289,96,267661,2,0,L|375:91,2,68.0000012969971,8|0|0,0:0|0:0|3:0,0:0:0:0:
210,91,268178,2,0,P|223:147|257:166,1,68.0000012969971,0|0,3:0|3:0,0:0:0:0:
339,188,268523,2,0,P|416:170|439:99,1,136.000002593994,0|0,3:0|0:0,0:0:0:0:
418,38,269040,1,10,0:0:0:0:
418,38,269212,1,0,0:0:0:0:
326,12,269385,2,0,L|189:23,1,136.000002593994,0|0,3:0|1:0,0:0:0:0:
108,32,269902,1,0,3:0:0:0:
108,32,270074,2,0,L|11:45,1,68.0000012969971,0|0,0:0|1:0,0:0:0:0:
16,162,270419,6,0,B|91:187|68:133|164:164,1,136.000002593994,10|0,0:0|3:0,0:0:0:0:
192,229,270937,1,0,0:0:0:0:
168,311,271109,2,0,P|132:334|97:328,1,68.0000012969971,0|0,3:0|3:0,0:0:0:0:
43,251,271454,2,0,L|128:256,1,68.0000012969971,0|0,1:0|3:0,0:0:0:0:
252,290,271799,1,10,0:0:0:0:
252,290,272143,1,2,0:0:0:0:
421,360,272488,6,0,B|457:331|457:331|440:229,1,136.000002593994,2|2,1:2|1:2,0:0:0:0:
377,201,273006,1,0,0:0:0:0:
377,201,273178,2,0,L|385:125,2,68.0000012969971,8|0|0,0:0|0:0|3:0,0:0:0:0:
323,62,273868,2,0,P|393:37|461:80,1,136.000002593994,0|0,3:0|1:0,0:0:0:0:
462,190,274557,1,10,0:0:0:0:
462,190,274730,1,0,0:0:0:0:
377,201,274902,2,0,B|300:214|331:164|229:182,1,136.000002593994,0|0,3:0|1:0,0:0:0:0:
171,217,275419,5,0,3:0:0:0:
87,207,275592,2,0,P|66:174|57:139,1,68.0000012969971,0|0,0:0|1:0,0:0:0:0:
128,16,275937,2,0,B|158:67|158:67|139:143,1,136.000002593994,10|0,0:0|3:0,0:0:0:0:
26,315,276626,2,0,L|20:243,2,68.0000012969971,0|0|0,3:0|0:0|1:0,0:0:0:0:
95,365,277143,1,0,3:0:0:0:
95,365,277316,2,0,L|176:369,1,68.0000012969971,10|0,0:0|0:0,0:0:0:0:
233,324,277661,2,0,L|314:328,1,68.0000012969971,2|0,0:0|3:0,0:0:0:0:
413,334,278006,5,2,1:2:0:0:
413,334,278350,1,2,1:2:0:0:
361,139,278695,2,0,P|326:173|346:259,1,136.000002593994,8|2,0:0|3:2,0:0:0:0:
487,220,279385,2,0,B|500:184|500:184|478:65,1,136.000002593994,2|0,3:2|1:0,0:0:0:0:
421,19,279902,1,0,0:0:0:0:
352,66,280074,1,8,0:0:0:0:
352,66,280247,1,0,0:0:0:0:
271,32,280419,2,0,L|184:31,1,68.0000012969971,0|0,3:0|1:0,0:0:0:0:
92,92,280764,6,0,P|76:137|85:175,1,68.0000012969971,0|0,1:0|3:0,0:0:0:0:
157,146,281109,2,0,P|159:179|177:208,1,68.0000012969971,0|0,0:0|1:0,0:0:0:0:
241,160,281454,2,0,P|293:187|372:166,1,136.000002593994,10|0,0:0|3:0,0:0:0:0:
419,106,281971,1,0,0:0:0:0:
419,106,282143,2,0,P|431:54|424:19,2,68.0000012969971,0|0|0,3:0|3:2|1:0,0:0:0:0:
281,265,282833,2,0,L|293:356,1,68.0000012969971,10|2,0:0|0:0,0:0:0:0:
204,302,283178,1,2,0:0:0:0:
204,302,283350,6,0,P|135:284|56:283,1,136.000002593994,2|2,3:2|0:0,0:0:0:0:
8,219,283868,1,0,1:2:0:0:
8,219,284040,2,0,P|46:195|83:198,1,68.0000012969971,2|8,0:0|0:0,0:0:0:0:
137,137,284385,2,0,P|99:113|62:116,1,68.0000012969971,2|0,0:0|3:0,0:0:0:0:
0,67,284730,2,0,P|59:29|136:42,1,136.000002593994,2|2,0:0|3:2,0:0:0:0:
194,80,285247,1,0,1:0:0:0:
276,104,285419,2,0,L|366:91,1,68.0000012969971,2|8,0:0|0:0,0:0:0:0:
425,116,285764,2,0,L|519:99,1,68.0000012969971,2|0,0:0|3:0,0:0:0:0:
400,36,286109,1,2,1:2:0:0:
400,36,286281,5,2,1:2:0:0:
343,94,286454,2,0,P|354:171|403:198,1,136.000002593994,2|0,3:2|1:0,0:0:0:0:
502,269,286971,2,0,B|409:266|456:321|365:316,1,136.000002593994,10|0,0:0|3:0,0:0:0:0:
308,362,287488,1,0,0:0:0:0:
244,307,287661,2,0,P|196:293|158:293,2,68.0000012969971,0|0|0,3:0|3:0|1:0,0:0:0:0:
117,352,288350,2,0,B|88:294|88:294|125:221,1,136.000002593994,10|2,0:0|0:2,0:0:0:0:
153,136,288868,1,2,3:2:0:0:
44,121,289040,6,0,L|56:195,2,68.0000012969971,2|2|2,1:2|0:0|1:2,0:0:0:0:
153,136,289557,2,0,P|201:132|226:106,1,68.0000012969971,2|8,0:0|0:0,0:0:0:0:
182,0,289902,2,0,P|161:43|171:78,1,68.0000012969971,2|0,0:0|3:0,0:0:0:0:
288,93,290247,2,0,P|260:53|225:44,1,68.0000012969971,2|0,3:2|3:0,0:0:0:0:
154,143,290592,2,0,P|202:139|227:113,1,68.0000012969971,2|0,3:2|1:0,0:0:0:0:
297,215,290937,2,0,B|203:193|249:253|152:224,1,136.000002593994,2|0,0:0|0:0,0:0:0:0:
108,304,291454,1,2,3:2:0:0:
108,304,291626,1,2,1:2:0:0:
179,362,291799,6,0,L|255:350,1,68.0000012969971,0|0,1:0|3:0,0:0:0:0:
327,374,292143,2,0,L|403:362,1,68.0000012969971,0|0,0:0|1:0,0:0:0:0:
467,284,292488,2,0,L|320:268,1,136.000002593994,10|0,0:0|3:0,0:0:0:0:
315,183,293006,1,0,0:0:0:0:
315,183,293178,2,0,L|225:173,2,68.0000012969971,0|0|0,3:0|3:0|1:0,0:0:0:0:
372,121,293695,1,0,3:0:0:0:
354,45,293868,2,0,B|317:32|317:32|205:38,1,136.000002593994,10|2,0:0|0:0,0:0:0:0:
17,127,294557,6,0,P|49:157|105:147,1,90.6666683959961,2|2,1:2|0:0,0:0:0:0:
107,144,294902,1,2,1:2:0:0:
182,197,295074,2,0,P|191:251|182:287,1,68.0000012969971,2|8,0:0|0:0,0:0:0:0:
116,309,295419,2,0,P|107:255|116:219,1,68.0000012969971,2|0,0:0|3:0,0:0:0:0:
186,116,295764,1,2,3:2:0:0:
186,116,295937,2,0,L|266:120,1,68.0000012969971,2|0,3:2|3:0,0:0:0:0:
318,186,296281,2,0,L|385:182,1,68.0000012969971,2|0,1:2|0:0,0:0:0:0:
463,139,296626,2,0,B|495:222|432:205|474:292,1,136.000002593994,10|2,0:0|3:2,0:0:0:0:
497,369,297143,6,0,P|451:350|415:345,1,68.0000012969971,2|2,1:2|1:2,0:0:0:0:
354,310,297488,1,2,3:2:0:0:
354,310,297661,2,0,B|340:340|340:340|350:383,1,68.0000012969971,0|0,0:0|1:0,0:0:0:0:
393,240,298006,2,0,P|329:227|276:279,1,136.000002593994,10|0,0:0|3:0,0:0:0:0:
224,342,298523,1,0,0:0:0:0:
139,323,298695,1,0,3:0:0:0:
139,323,298868,2,0,P|85:309|58:306,1,68.0000012969971,0|0,0:0|1:0,0:0:0:0:
97,225,299212,1,0,3:0:0:0:
2,261,299385,2,0,B|15:230|15:230|35:122,1,136.000002593994,10|2,0:0|0:0,0:0:0:0:
75,39,299902,1,0,3:0:0:0:
156,86,300074,5,2,1:2:0:0:
156,86,300247,2,0,L|236:91,1,68.0000012969971,0|2,0:0|1:2,0:0:0:0:
281,156,300592,1,0,0:0:0:0:
230,224,300764,2,0,P|201:189|201:146,1,68.0000012969971,8|0,0:0|0:0,0:0:0:0:
231,7,301109,2,0,L|298:2,1,68.0000012969971,0|2,3:0|0:2,0:0:0:0:
433,62,301454,2,0,B|335:38|379:103|283:78,1,136.000002593994,2|0,3:2|1:0,0:0:0:0:
222,91,301971,1,2,0:0:0:0:
281,156,302143,2,0,B|286:261|286:261|272:297,1,136.000002593994,10|0,0:0|3:0,0:0:0:0:
143,339,302661,1,2,1:2:0:0:
161,223,302833,1,2,1:2:0:0:
20,276,303178,6,0,L|9:190,1,68.0000012969971,0|0,0:0|1:0,0:0:0:0:
0,94,303523,2,0,B|109:93|109:93|80:138,1,136.000002593994,14|0,0:0|3:0,0:0:0:0:
90,192,304040,1,0,0:0:0:0:
161,223,304212,2,0,L|240:210,1,68.0000012969971,0|0,3:0|3:2,0:0:0:0:
328,190,304557,1,0,1:0:0:0:
328,190,304730,1,0,3:0:0:0:
286,274,304902,2,0,L|297:341,1,68.0000012969971,14|0,0:0|0:0,0:0:0:0:
427,317,305247,2,0,L|438:384,1,68.0000012969971,2|0,0:0|3:0,0:0:0:0:
364,268,305592,6,0,L|377:121,1,136.000002593994,2|2,1:2|1:2,0:0:0:0:
255,16,306281,2,0,P|242:83|158:103,1,136.000002593994,12|0,0:0|3:0,0:0:0:0:
107,79,306799,1,0,0:0:0:0:
35,123,306971,2,0,P|21:159|22:201,1,68.0000012969971,0|0,3:0|3:0,0:0:0:0:
67,262,307316,1,0,1:0:0:0:
67,262,307488,1,0,0:0:0:0:
142,297,307661,2,0,L|225:292,1,68.0000012969971,14|0,0:0|0:0,0:0:0:0:
275,346,308006,2,0,L|358:341,1,68.0000012969971,0|0,3:0|1:0,0:0:0:0:
422,302,308350,5,0,1:0:0:0:
422,302,308523,2,0,B|435:333|435:333|415:390,2,68.0000012969971,0|0|0,3:0|0:0|1:0,0:0:0:0:
344,259,309040,2,0,B|336:223|336:223|359:94,1,136.000002593994,14|0,0:0|3:0,0:0:0:0:
299,42,309557,1,0,0:0:0:0:
212,82,309730,2,0,L|220:172,1,68.0000012969971,0|0,3:0|3:0,0:0:0:0:
145,217,310074,1,0,1:0:0:0:
47,180,310247,1,0,3:0:0:0:
7,270,310419,2,0,P|56:319|127:297,1,136.000002593994,14|2,0:0|0:0,0:0:0:0:
198,289,310937,1,0,3:0:0:0:
198,289,311109,6,0,L|336:299,1,136.000002593994,2|2,1:2|1:2,0:0:0:0:
456,135,311799,2,0,B|357:110|410:174|307:147,1,136.000002593994,12|0,0:0|3:0,0:0:0:0:
253,109,312316,1,0,3:0:0:0:
215,184,312488,2,0,P|155:197|127:184,1,68.0000012969971,0|0,3:0|3:0,0:0:0:0:
75,133,312833,1,0,1:0:0:0:
75,133,313006,1,0,0:0:0:0:
56,223,313178,2,0,L|48:304,1,68.0000012969971,14|0,0:0|0:0,0:0:0:0:
134,314,313523,2,0,L|126:395,1,68.0000012969971,0|0,3:0|1:0,0:0:0:0:
230,310,313868,5,0,1:0:0:0:
230,310,314040,2,0,L|307:300,2,68.0000012969971,0|0|0,3:0|0:0|1:0,0:0:0:0:
268,219,314557,2,0,B|314:216|314:216|430:229,1,136.000002593994,14|0,0:0|3:0,0:0:0:0:
496,240,315074,1,0,0:0:0:0:
496,240,315247,2,0,L|504:153,1,68.0000012969971,0|0,3:0|3:0,0:0:0:0:
501,80,315592,1,0,1:0:0:0:
501,80,315764,1,0,3:0:0:0:
423,132,315937,2,0,L|348:125,1,68.0000012969971,14|0,0:0|0:0,0:0:0:0:
291,66,316281,2,0,L|216:59,1,68.0000012969971,2|0,0:0|3:0,0:0:0:0:
126,136,316626,6,0,P|168:174|250:137,1,136.000002593994,2|2,1:2|1:2,0:0:0:0:
129,55,317316,2,0,B|59:67|59:67|35:153,1,136.000002593994,12|0,0:0|3:0,0:0:0:0:
19,229,317833,1,0,3:0:0:0:
61,315,318006,2,0,P|90:341|125:350,1,68.0000012969971,0|0,3:0|3:0,0:0:0:0:
131,270,318350,2,0,P|108:244|99:212,1,68.0000012969971,0|0,1:0|0:0,0:0:0:0:
179,135,318695,2,0,P|170:167|177:200,1,68.0000012969971,14|0,0:0|0:0,0:0:0:0:
264,220,319040,2,0,P|272:187|265:154,1,68.0000012969971,0|0,3:0|1:0,0:0:0:0:
224,62,319385,5,0,1:0:0:0:
224,62,319557,2,0,L|300:65,1,68.0000012969971,0|0,3:0|0:0,0:0:0:0:
357,121,319902,1,0,1:0:0:0:
437,89,320074,1,14,0:0:0:0:
437,89,320247,1,0,0:0:0:0:
500,142,320419,2,0,P|462:171|419:162,1,68.0000012969971,0|0,3:0|0:0,0:0:0:0:
332,221,320764,2,0,P|401:248|403:330,1,136.000002593994,0|0,3:0|1:0,0:0:0:0:
358,365,321281,1,0,3:0:0:0:
276,340,321454,2,0,P|227:328|131:325,1,136.000002593994,14|2,0:0|0:0,0:0:0:0:
75,268,321971,1,0,3:0:0:0:
75,268,322143,6,0,L|65:198,2,68.0000012969971,2|0|2,1:2|0:0|1:2,0:0:0:0:
209,136,322833,2,0,L|124:124,1,68.0000012969971,12|0,0:0|0:0,0:0:0:0:
82,54,323178,2,0,L|167:42,1,68.0000012969971,0|0,3:0|3:0,0:0:0:0:
273,89,323523,2,0,P|228:148|235:219,1,136.000002593994,0|0,3:0|1:0,0:0:0:0:
374,287,324212,2,0,P|419:228|412:157,1,136.000002593994,14|0,0:0|3:0,0:0:0:0:
273,89,324902,6,0,L|194:94,2,68.0000012969971,2|0|0,1:2|3:0|0:0,0:0:0:0:
184,171,325419,1,0,1:0:0:0:
184,171,325592,2,0,P|131:127|134:62,1,136.000002593994,14|0,0:0|3:0,0:0:0:0:
265,187,326281,2,0,L|257:261,1,68.0000012969971,0|0,3:0|3:2,0:0:0:0:
343,256,326626,2,0,L|351:330,1,68.0000012969971,0|0,1:0|3:0,0:0:0:0:
440,361,326971,2,0,L|459:213,1,136.000002593994,14|2,0:0|0:0,0:0:0:0:
466,132,327488,1,0,3:0:0:0:
401,72,327661,6,0,B|372:99|372:99|394:223,1,136.000002593994,2|2,1:2|1:2,0:0:0:0:
319,37,328350,2,0,L|235:29,1,68.0000012969971,12|0,0:0|0:0,0:0:0:0:
184,91,328695,2,0,L|100:83,1,68.0000012969971,0|0,3:0|0:0,0:0:0:0:
39,63,329040,1,0,3:0:0:0:
39,63,329212,1,0,3:0:0:0:
0,161,329385,2,0,L|84:153,1,68.0000012969971,0|0,1:0|0:0,0:0:0:0:
136,220,329730,2,0,L|270:207,1,136.000002593994,14|0,0:0|3:0,0:0:0:0:
357,247,330247,1,0,1:0:0:0:
357,247,330419,6,0,L|365:326,2,68.0000012969971,0|0|0,1:0|3:0|0:0,0:0:0:0:
338,160,330937,1,0,1:0:0:0:
326,76,331109,2,0,P|419:86|482:82,1,136.000002593994,14|0,0:0|3:0,0:0:0:0:
485,163,331626,1,0,0:0:0:0:
485,163,331799,2,0,P|466:192|463:238,1,68.0000012969971,0|0,3:0|3:0,0:0:0:0:
467,307,332143,1,0,1:0:0:0:
319,365,332488,2,0,P|281:302|197:291,1,136.000002593994,14|2,0:0|0:0,0:0:0:0:
157,326,333006,1,0,3:0:0:0:
80,316,333178,6,0,B|56:278|56:278|82:163,1,136.000002593994,2|2,1:2|1:2,0:0:0:0:
200,11,333868,2,0,P|228:56|226:96,1,68.0000012969971,12|0,0:0|0:0,0:0:0:0:
152,78,334212,2,0,P|157:111|148:143,1,68.0000012969971,0|0,3:0|3:0,0:0:0:0:
75,103,334557,1,0,3:0:0:0:
75,103,334730,1,0,3:0:0:0:
6,156,334902,2,0,L|15:233,1,68.0000012969971,0|0,1:0|0:0,0:0:0:0:
33,315,335247,2,0,B|79:310|79:310|121:294|121:294|185:287,1,136.000002593994,14|0,0:0|3:0,0:0:0:0:
244,334,335764,1,0,1:0:0:0:
244,334,335937,6,0,L|325:339,2,68.0000012969971,0|0|0,1:0|3:0|0:0,0:0:0:0:
290,254,336454,1,0,1:0:0:0:
371,287,336626,2,0,P|421:288|490:220,1,136.000002593994,14|0,0:0|3:0,0:0:0:0:
506,158,337143,1,0,0:0:0:0:
506,158,337316,2,0,P|501:104|485:78,1,68.0000012969971,0|0,3:0|3:0,0:0:0:0:
431,44,337661,1,0,1:0:0:0:
431,44,337833,1,0,3:0:0:0:
364,92,338006,2,0,B|338:101|338:101|207:88,1,136.000002593994,14|2,0:0|0:0,0:0:0:0:
160,124,338523,1,0,3:0:0:0:
111,189,338695,6,0,P|172:208|236:150,1,136.000002593994,2|2,1:2|1:2,0:0:0:0:
51,264,339385,2,0,L|37:347,1,68.0000012969971,12|0,0:0|0:0,0:0:0:0:
122,321,339730,2,0,L|131:393,1,68.0000012969971,0|0,3:0|3:0,0:0:0:0:
201,288,340074,1,0,3:0:0:0:
201,288,340247,1,0,3:0:0:0:
265,336,340419,2,0,L|346:343,1,68.0000012969971,0|0,1:0|0:0,0:0:0:0:
426,274,340764,2,0,B|398:265|398:265|280:254,1,136.000002593994,14|0,0:0|3:0,0:0:0:0:
228,197,341281,1,0,1:0:0:0:
228,197,341454,6,0,L|225:113,1,68.0000012969971,0|0,1:0|3:0,0:0:0:0:
223,48,341799,1,0,0:0:0:0:
223,48,341971,1,0,1:0:0:0:
299,88,342143,2,0,B|377:99|337:45|446:67,1,136.000002593994,14|0,0:0|3:0,0:0:0:0:
483,127,342661,1,0,0:0:0:0:
483,127,342833,2,0,P|494:183|491:219,1,68.0000012969971,0|0,3:0|0:0,0:0:0:0:
474,273,343178,1,0,1:0:0:0:
375,368,343523,2,0,P|330:316|241:321,1,136.000002593994,14|2,0:0|0:0,0:0:0:0:
193,353,344040,1,0,3:0:0:0:
143,291,344212,2,0,B|111:272|111:272|-17:290,1,136.000002593994,2|2,1:2|1:2,0:0:0:0:
36,63,344902,6,0,L|189:71,1,136.000002593994,12|0,0:0|3:0,0:0:0:0:
235,121,345419,1,0,3:0:0:0:
246,201,345592,2,0,P|237:240|207:270,1,68.0000012969971,0|0,3:0|3:0,0:0:0:0:
98,199,345937,2,0,L|179:195,1,68.0000012969971,0|0,1:0|0:0,0:0:0:0:
175,334,346281,2,0,L|256:338,1,68.0000012969971,14|0,0:0|0:0,0:0:0:0:
322,283,346626,1,0,3:0:0:0:
322,283,346799,1,0,1:0:0:0:
485,118,347661,5,2,0:0:0:0:
306,96,349040,1,2,0:0:0:0:
120,160,350419,1,2,0:0:0:0:
36,56,351799,6,0,B|150:92|132:28|217:4|268:56|268:56|210:44|162:89,1,360,2|0,0:2|0:0,0:0:0:0:
