osu file format v14

[General]
AudioFilename: audio.mp3
AudioLeadIn: 0
PreviewTime: 119910
Countdown: 0
SampleSet: Soft
StackLeniency: 0.7
Mode: 0
LetterboxInBreaks: 0
WidescreenStoryboard: 1

[Editor]
Bookmarks: 50764,52967,68387,74995,94271,99773,108576,112428,115179,119855
DistanceSpacing: 1
BeatDivisor: 8
GridSize: 16
TimelineZoom: 3.299999

[Metadata]
Title:On Sight
TitleUnicode:On Sight
Artist:Kanye West
ArtistUnicode:Kanye West
Creator:1103
Version:YEEZUS
Source:
Tags:apollo english hip hop yeezus Washedup player smokeman sparxo mrowswares apo11o trailmix
BeatmapID:3152012
BeatmapSetID:1541997

[Difficulty]
HPDrainRate:6
CircleSize:4
OverallDifficulty:8
ApproachRate:9.5
SliderMultiplier:2.35
SliderTickRate:1

[Events]
//Background and Video events
0,0,"fatass.png",0,0
//Break Periods
//Storyboard Layer 0 (Background)
//Storyboard Layer 1 (Fail)
//Storyboard Layer 2 (Pass)
//Storyboard Layer 3 (Foreground)
//Storyboard Layer 4 (Overlay)
//Storyboard Sound Samples

[TimingPoints]
15587,550.711335474988,4,2,1,60,1,0
16550,-50,4,2,1,60,0,0
17239,-100,4,2,1,60,0,0
17652,-50,4,2,1,60,0,0
18340,-100,4,2,1,60,0,0
18753,-50,4,2,1,60,0,0
19441,-100,4,2,1,60,0,0
19992,-33.3333333333333,4,2,1,60,0,0
20543,-100,4,2,1,60,0,0
21094,-33.3333333333333,4,2,1,60,0,0
21644,-100,4,2,1,60,0,0
22195,-33.3333333333333,4,2,1,60,0,0
24398,-133.333333333333,4,2,1,60,0,0
34724,-100,4,2,1,60,0,0
34861,-66.6666666666667,4,2,1,60,0,0
35412,-100,4,2,1,60,0,0
35963,-50,4,2,1,60,0,0
37615,-33.3333333333333,4,2,1,60,0,0
42021,-66.6666666666667,4,2,1,60,0,0
42640,-33.3333333333333,4,2,1,60,0,0
42847,-66.6666666666667,4,2,1,60,0,0
44843,-33.3333333333333,4,2,1,60,0,0
45050,-66.6666666666667,4,2,1,60,0,0
45876,-90.9090909090909,4,2,1,60,0,0
46518,-66.6666666666667,4,2,1,60,0,0
47149,-66.6666666666667,4,2,1,60,0,0
47356,-66.6666666666667,4,2,1,60,0,0
49249,-33.3333333333333,4,2,1,60,0,0
49455,-66.6666666666667,4,2,1,60,0,0
50832,-33.3333333333333,4,2,1,60,0,0
51933,-66.6666666666667,4,2,1,60,0,0
53035,-33.3333333333333,4,2,1,60,0,0
55238,-66.6666666666667,4,2,1,60,0,0
59643,-33.3333333333333,4,2,1,60,0,0
64049,-33.3333333333333,4,2,1,70,0,0
69005,-66.6666666666667,4,2,1,70,0,0
69556,-33.3333333333333,4,2,1,70,0,0
70106,-66.6666666666667,4,2,1,70,0,0
70658,-33.3333333333333,4,2,1,70,0,0
71208,-66.6666666666667,4,2,1,70,0,0
71759,-33.3333333333333,4,2,1,70,0,0
72310,-66.6666666666667,4,2,1,70,0,0
72860,-33.3333333333333,4,2,1,70,0,0
73962,-33.3333333333333,4,2,1,70,0,0
77232,907.578278626531,4,2,1,70,1,0
78139,861.945122827179,4,2,1,70,1,0
81620,852.757248436612,4,2,1,70,1,0
84178,873.743993010048,4,2,1,70,1,0
85051,865.051903114187,4,2,1,70,1,0
87649,852.757248436612,4,2,1,70,1,0
91038,550.206327372765,4,2,1,65,1,0
91038,-33.3333333333333,4,2,1,65,0,0
91313,-66.6666666666667,4,2,1,65,0,0
91588,-33.3333333333333,4,2,1,65,0,0
91863,-66.6666666666667,4,2,1,65,0,0
92138,-66.6666666666667,4,2,1,65,0,0
92688,-33.3333333333333,4,2,1,65,0,0
92963,-33.3333333333333,4,2,1,65,0,0
93238,-33.3333333333333,4,2,1,65,0,0
93513,-66.6666666666667,4,2,1,65,0,0
93789,-33.3333333333333,4,2,1,65,0,0
94064,-66.6666666666667,4,2,1,60,0,0
101216,-33.3333333333333,4,2,1,60,0,0
101491,-66.6666666666667,4,2,1,60,0,0
102592,-33.3333333333333,4,2,1,60,0,0
102867,-66.6666666666667,4,2,1,60,0,0
115247,-33.3333333333333,4,2,1,70,0,0
119910,550.206327372765,4,2,1,65,1,0
119910,-33.3333333333333,4,2,1,50,0,0
141815,-33.3333333333333,4,2,1,5,0,0
141849,-33.3333333333333,4,2,1,50,0,0
142365,-33.3333333333333,4,2,1,5,0,0
142399,-33.3333333333333,4,2,1,50,0,0
142777,-33.3333333333333,4,2,1,5,0,0
142811,-33.3333333333333,4,2,1,50,0,0
143053,-33.3333333333333,4,2,1,5,0,0
143087,-33.3333333333333,4,2,1,50,0,0

[Colours]
Combo1 : 216,198,124
Combo2 : 205,205,205
Combo3 : 145,145,145
Combo4 : 216,124,131

[HitObjects]
64,358,15587,5,0,2:2:0:0:
141,337,15724,1,0,2:2:0:0:
3,260,15862,1,0,2:2:0:0:
80,280,15999,1,0,2:2:0:0:
171,228,16137,2,0,L|162:262,1,29.375,8|0,2:2|0:0,0:0:0:0:
172,260,16275,2,0,L|179:231,1,29.375,0|0,2:2|0:0,0:0:0:0:
197,158,16413,1,0,2:2:0:0:
67,103,16550,2,0,B|27:137|70:199|111:206|111:206|87:178|113:215|151:225|176:187|162:208|162:208|223:196|204:136,1,293.75,0|0,3:3|0:0,0:0:0:0:
207,156,16963,5,0,2:2:0:0:
281,125,17101,1,0,2:2:0:0:
356,88,17239,2,0,L|365:138,1,29.375,8|0,2:2|0:0,0:0:0:0:
374,114,17377,2,0,L|368:85,1,29.375,0|0,2:2|0:0,0:0:0:0:
290,117,17514,1,0,2:2:0:0:
415,7,17652,2,0,B|384:15|377:38|377:38|271:17|292:157|365:148|373:249,1,293.75,0|0,3:3|0:0,0:0:0:0:
369,227,18065,37,0,2:2:0:0:
436,172,18202,1,0,2:2:0:0:
481,242,18340,2,0,L|470:284,1,29.375,8|0,2:2|0:0,0:0:0:0:
484,273,18478,2,0,L|490:244,1,29.375,0|0,2:2|0:0,0:0:0:0:
450,350,18615,1,0,2:2:0:0:
471,241,18753,2,0,B|423:214|382:238|406:367|261:386|297:306|170:329,1,293.75,0|0,3:3|0:0,0:0:0:0:
214,321,19166,5,0,2:2:0:0:
275,257,19304,1,0,2:2:0:0:
179,215,19441,2,0,L|184:252,1,29.375,8|0,2:2|0:0,0:0:0:0:
173,245,19579,2,0,L|168:215,1,29.375,0|0,2:2|0:0,0:0:0:0:
96,240,19717,1,0,2:2:0:0:
135,79,19855,1,0,3:3:0:0:
10,68,19992,38,0,B|19:146|100:126|100:126|285:68,1,264.375010085106,4|0,3:2|0:0,0:0:0:0:
246,79,20268,2,0,B|277:69|277:69|305:61|318:93|318:93|330:128|307:135|307:135|107:201,1,264.375010085106,0|0,2:2|0:0,0:0:0:0:
171,179,20543,2,0,P|129:205|95:334,1,176.25,8|0,2:2|3:3,0:0:0:0:
33,372,21094,6,0,B|12:367|12:367|-17:362|-3:327|-3:327|3:293|38:300|38:300|67:306|176:326,1,264.375,4|0,3:2|0:0,0:0:0:0:
186,330,21369,2,0,B|288:348|317:355|317:355|352:361|359:328|359:328|373:292|343:288|343:288|323:283,1,264.375,0|0,2:2|0:0,0:0:0:0:
314,282,21644,2,0,P|278:267|266:129,1,176.25,8|0,2:2|3:3,0:0:0:0:
330,139,22195,38,0,B|280:123|220:104|220:104|182:93|195:55|195:55|207:22|264:41|264:41|329:64,1,264.375010085106,4|0,3:2|0:0,0:0:0:0:
294,49,22470,2,0,B|343:64|403:83|403:83|441:94|429:133|429:133|416:165|359:146|359:146|295:124,1,264.375010085106,0|0,2:2|0:0,0:0:0:0:
410,46,22746,2,0,P|460:75|439:189,1,176.250006723404,8|0,2:2|2:2,0:0:0:0:
148,84,23021,2,0,P|188:10|271:17,1,176.250006723404,0|0,2:2|3:3,0:0:0:0:
127,333,23296,6,0,B|176:317|236:298|236:298|274:287|262:249|262:249|249:216|192:235|192:235|128:258,1,264.375010085106,4|0,3:2|0:0,0:0:0:0:
163,243,23571,2,0,B|113:258|53:277|53:277|15:288|28:327|28:327|40:359|97:340|97:340|162:318,1,264.375010085106,0|0,2:2|0:0,0:0:0:0:
47,240,23847,2,0,P|-3:269|18:383,1,176.250006723404,8|0,2:2|2:2,0:0:0:0:
309,278,24122,2,0,P|268:204|185:211,1,176.250006723404,0|0,2:2|3:3,0:0:0:0:
386,305,24398,38,0,P|423:285|450:286,1,66.0937525212766,4|0,3:2|0:0,0:0:0:0:
469,360,24673,2,0,P|441:377|408:379,1,66.0937525212766,0|0,2:2|0:0,0:0:0:0:
379,308,24949,1,8,2:2:0:0:
392,216,25086,1,0,2:2:0:0:
256,384,25362,1,0,3:3:0:0:
126,305,25499,6,0,P|88:285|61:286,1,66.0937525212766,4|0,3:2|0:0,0:0:0:0:
43,360,25774,2,0,P|70:377|103:379,1,66.0937525212766,0|0,2:2|0:0,0:0:0:0:
133,308,26050,1,8,2:2:0:0:
120,216,26187,1,0,2:2:0:0:
256,384,26463,1,0,3:3:0:0:
312,192,26601,38,0,P|316:148|300:116,1,66.0937525212766,4|0,3:2|0:0,0:0:0:0:
203,128,26876,2,0,P|194:159|200:192,1,66.0937525212766,0|0,2:2|0:0,0:0:0:0:
256,248,27151,1,0,2:2:0:0:
256,248,27289,1,0,2:2:0:0:
256,68,27564,1,0,3:3:0:0:
312,192,27702,2,0,P|316:148|300:116,1,66.0937525212766,4|0,3:2|0:0,0:0:0:0:
203,128,27977,2,0,P|194:159|200:192,1,66.0937525212766,0|0,2:2|0:0,0:0:0:0:
256,248,28252,1,0,2:2:0:0:
256,248,28390,1,0,2:2:0:0:
256,68,28666,1,0,3:3:0:0:
312,192,28804,2,0,P|316:148|300:116,1,66.0937525212766,4|0,3:2|0:0,0:0:0:0:
203,128,29079,2,0,P|194:159|200:192,1,66.0937525212766,0|0,2:2|0:0,0:0:0:0:
256,248,29354,1,0,2:2:0:0:
256,248,29492,1,0,2:2:0:0:
256,68,29767,1,0,3:3:0:0:
312,192,29905,2,0,P|316:148|300:116,1,66.0937525212766,4|0,3:2|0:0,0:0:0:0:
203,128,30180,2,0,P|194:159|200:192,1,66.0937525212766
256,248,30455,1,0,2:2:0:0:
256,248,30593,1,0,0:0:0:0:
256,68,30869,1,0,3:3:0:0:
312,192,31007,2,0,P|316:148|300:116,1,66.0937525212766,4|0,3:2|0:0,0:0:0:0:
203,128,31282,2,0,P|194:159|200:192,1,66.0937525212766
256,248,31557,1,0,2:2:0:0:
256,248,31695,1,0,0:0:0:0:
256,68,31970,1,0,3:3:0:0:
312,192,32108,2,0,P|316:148|300:116,1,66.0937525212766,4|0,3:2|0:0,0:0:0:0:
203,128,32383,2,0,P|194:159|200:192,1,66.0937525212766
128,92,32659,2,0,L|128:48,1,44.062501680851,8|0,0:0|0:0,0:0:0:0:
383,240,33072,1,0,2:2:0:0:
312,328,33209,5,0,2:2:0:0:
312,328,33347,1,0,0:0:0:0:
200,360,33485,1,0,2:2:0:0:
203,370,33622,1,0,0:0:0:0:
223,376,33760,1,8,2:2:0:0:
107,314,33897,1,0,0:0:0:0:
104,320,34035,1,0,2:2:0:0:
52,228,34173,1,0,0:0:0:0:
44,104,34311,38,0,P|92:96|124:100,1,66.0937525212766,0|0,2:2|0:0,0:0:0:0:
116,105,34586,6,0,P|135:128|143:147,1,44.062501680851,0|0,2:2|0:0,0:0:0:0:
237,67,34861,38,0,P|201:42|160:28,1,88.1250033617021,8|0,2:2|0:0,0:0:0:0:
159,27,35068,6,0,P|193:72|268:94,1,132.187505042553
408,32,35412,38,0,P|360:40|328:36,1,58.75,0|0,2:2|0:0,0:0:0:0:
504,44,35687,6,0,P|486:89|467:115,1,58.75,0|0,2:2|0:0,0:0:0:0:
332,252,35963,38,0,P|348:195|376:144,1,117.5,8|0,2:2|0:0,0:0:0:0:
264,300,36238,5,0,2:2:0:0:
244,296,36376,38,0,P|230:238|228:180,1,117.5,0|0,0:0|2:2,0:0:0:0:
344,272,36651,5,0,0:0:0:0:
332,252,36789,38,0,P|348:195|376:144,1,117.5,0|0,2:2|0:0,0:0:0:0:
212,368,37064,5,8,2:2:0:0:
192,374,37202,38,0,P|151:331|121:281,1,117.5,0|0,0:0|2:2,0:0:0:0:
152,212,37477,5,0,0:0:0:0:
216,158,37615,38,0,L|186:-19,1,176.250006723404,4|0,3:2|2:2,0:0:0:0:
74,180,37890,2,0,L|44:2,1,176.250006723404,0|0,2:2|2:2,0:0:0:0:
216,158,38166,2,0,L|186:-19,1,176.250006723404,8|0,2:2|2:2,0:0:0:0:
74,180,38441,2,0,L|59:91,1,88.1250033617021,0|0,2:2|0:0,0:0:0:0:
45,6,38579,1,0,2:2:0:0:
312,207,38716,2,0,L|341:29,1,176.250006723404,4|0,3:2|2:2,0:0:0:0:
454,229,38991,2,0,L|483:51,1,176.250006723404,0|0,2:2|2:2,0:0:0:0:
312,207,39267,2,0,L|341:29,1,176.250006723404,8|0,2:2|2:2,0:0:0:0:
454,229,39542,2,0,L|468:140,1,88.1250033617021,0|0,2:2|0:0,0:0:0:0:
483,55,39680,1,0,2:2:0:0:
217,264,39818,2,0,L|187:86,1,176.250006723404,4|0,3:2|2:2,0:0:0:0:
75,286,40093,2,0,L|45:108,1,176.250006723404,0|0,2:2|2:2,0:0:0:0:
217,264,40369,2,0,L|187:86,1,176.250006723404,8|0,2:2|2:2,0:0:0:0:
75,286,40644,2,0,L|60:197,1,88.1250033617021,0|0,2:2|0:0,0:0:0:0:
46,112,40782,1,0,2:2:0:0:
306,306,40919,2,0,L|335:128,1,176.250006723404,4|0,3:2|2:2,0:0:0:0:
448,328,41194,2,0,L|477:150,1,176.250006723404,0|0,2:2|2:2,0:0:0:0:
306,306,41470,2,0,L|335:128,1,176.250006723404,8|0,2:2|2:2,0:0:0:0:
448,328,41745,2,0,L|462:239,1,88.1250033617021,0|0,2:2|0:0,0:0:0:0:
477,154,41883,1,0,2:2:0:0:
448,341,42021,6,0,P|395:359|350:392,1,88.1250033617021,0|0,2:2|0:0,0:0:0:0:
252,240,42296,38,0,P|227:290|218:345,1,88.1250033617021,0|0,2:2|0:0,0:0:0:0:
100,305,42571,5,8,2:2:0:0:
96,315,42640,2,0,P|127:361|170:396,1,88.1250033617021
287,155,42847,38,0,P|231:158|179:178,1,88.1250033617021,0|0,2:2|0:0,0:0:0:0:
0,0,43122,6,0,P|56:33|119:52,1,132.187505042553,0|0,2:2|0:0,0:0:0:0:
193,86,43397,1,0,2:2:0:0:
0,0,43673,38,0,P|63:19|119:52,1,132.187505042553,8|0,2:2|0:0,0:0:0:0:
193,86,43948,1,0,2:2:0:0:
23,107,44086,5,0,0:0:0:0:
276,90,44223,38,0,P|317:77|355:55,1,88.1250033617021,0|0,2:2|0:0,0:0:0:0:
363,244,44499,6,0,P|383:205|394:163,1,88.1250033617021,0|0,2:2|0:0,0:0:0:0:
504,366,44774,37,8,2:2:0:0:
501,354,44843,2,0,P|477:316|446:286,1,88.1250033617021
274,348,45050,6,0,P|317:346|359:334,1,88.1250033617021,0|0,2:2|0:0,0:0:0:0:
110,149,45325,38,0,P|141:207|158:272,1,132.187505042553,0|0,2:2|0:0,0:0:0:0:
192,342,45600,1,0,2:2:0:0:
110,149,45876,6,0,P|126:212|157:270,1,129.250003944397,8|0,2:2|2:2,0:0:0:0:
45,236,46289,37,0,0:0:0:0:
145,18,46518,6,0,P|197:32|256:69,1,117.500004482269,0|0,0:0|2:2,0:0:0:0:
329,16,46839,38,0,P|350:55|364:111,1,88.1250033617021,0|8,0:0|2:2,0:0:0:0:
361,111,47069,1,0,0:0:0:0:
361,123,47161,2,0,P|327:144|313:172,1,58.7500022411347
272,226,47344,6,0,P|286:282|313:334,1,88.1250033617021,0|0,0:0|2:2,0:0:0:0:
200,202,47620,38,0,P|156:186|113:180,1,88.1250033617021,0|0,0:0|0:2,0:0:0:0:
47,333,47895,1,0,0:0:0:0:
190,280,48078,6,0,P|101:256|16:263,1,176.250006723404,8|0,2:2|2:2,0:0:0:0:
345,384,48492,1,0,0:0:0:0:
345,384,48629,38,0,P|336:340|318:300,1,88.1250033617021,0|0,2:2|0:0,0:0:0:0:
412,308,48905,6,0,P|426:269|471:210,1,88.1250033617021,0|0,2:2|0:0,0:0:0:0:
231,122,49180,1,8,2:2:0:0:
244,132,49249,38,0,P|268:168|284:209,1,88.1250033617021
512,56,49455,6,0,P|478:85|452:120,1,88.1250033617021,0|0,2:2|0:0,0:0:0:0:
216,113,49731,38,0,P|188:69|180:11,1,88.1250033617021,0|0,2:2|0:0,0:0:0:0:
77,166,50006,6,0,P|129:163|183:185,1,88.1250033617021,0|0,2:2|0:0,0:0:0:0:
92,24,50281,38,0,P|67:70|21:106,1,88.1250033617021,8|0,2:2|0:0,0:0:0:0:
9,18,50557,5,0,2:2:0:0:
13,13,50694,37,0,0:0:0:0:
116,260,50832,6,0,L|321:244,1,176.250006723404,4|0,3:2|2:2,0:0:0:0:
45,373,51107,2,0,L|250:357,1,176.250006723404,0|0,2:2|2:2,0:0:0:0:
116,260,51383,2,0,L|218:251,1,88.1250033617021,8|0,2:2|0:0,0:0:0:0:
291,246,51520,1,0,2:2:0:0:
18,267,51796,1,0,3:3:0:0:
442,363,51933,38,0,P|451:320|446:276,1,88.1250033617021,0|0,2:2|0:0,0:0:0:0:
353,355,52209,2,0,P|351:311|364:269,1,88.1250033617021,0|0,2:2|0:0,0:0:0:0:
442,363,52484,2,0,P|451:320|446:276,1,88.1250033617021,8|0,2:2|0:0,0:0:0:0:
353,355,52760,2,0,P|351:311|364:269,1,88.1250033617021,0|0,2:2|0:0,0:0:0:0:
396,124,53035,6,0,L|191:140,1,176.250006723404,4|0,3:2|2:2,0:0:0:0:
467,11,53310,2,0,L|262:27,1,176.250006723404,0|0,2:2|2:2,0:0:0:0:
396,124,53586,2,0,L|293:132,1,88.1250033617021,8|0,2:2|0:0,0:0:0:0:
221,138,53723,1,0,2:2:0:0:
494,117,53999,1,0,3:3:0:0:
116,260,54136,2,0,L|321:244,1,176.250006723404,4|0,3:2|2:2,0:0:0:0:
45,373,54411,2,0,L|250:357,1,176.250006723404,0|0,2:2|2:2,0:0:0:0:
116,260,54687,2,0,L|218:251,1,88.1250033617021,8|0,2:2|0:0,0:0:0:0:
291,246,54824,1,0,2:2:0:0:
18,267,55100,1,0,3:3:0:0:
70,21,55238,38,0,P|60:63|65:107,1,88.1250033617021,0|0,2:2|0:0,0:0:0:0:
159,29,55514,2,0,P|160:72|147:114,1,88.1250033617021,0|0,2:2|0:0,0:0:0:0:
70,21,55789,2,0,P|60:63|65:107,1,88.1250033617021,8|0,2:2|0:0,0:0:0:0:
159,29,56065,2,0,P|160:72|147:114,1,88.1250033617021,0|0,2:2|0:0,0:0:0:0:
442,21,56339,2,0,P|451:63|446:107,1,88.1250033617021,0|0,2:2|0:0,0:0:0:0:
353,29,56615,2,0,P|351:72|364:114,1,88.1250033617021,0|0,2:2|0:0,0:0:0:0:
442,21,56890,2,0,P|451:63|446:107,1,88.1250033617021,8|0,2:2|0:0,0:0:0:0:
353,29,57166,2,0,P|351:72|364:114,1,88.1250033617021,0|0,2:2|0:0,0:0:0:0:
208,368,57441,2,0,P|192:320|192:256,1,88.1250033617021,0|0,2:2|0:0,0:0:0:0:
304,368,57716,2,0,P|320:320|320:256,1,88.1250033617021,0|0,2:2|0:0,0:0:0:0:
208,368,57991,2,0,P|180:325|163:263,1,88.1250033617021,8|0,2:2|0:0,0:0:0:0:
304,368,58267,2,0,P|331:325|348:263,1,88.1250033617021,0|0,2:2|0:0,0:0:0:0:
208,368,58542,2,0,P|170:334|138:279,1,88.1250033617021,0|0,2:2|0:0,0:0:0:0:
304,368,58817,2,0,P|341:334|373:279,1,88.1250033617021,0|0,2:2|0:0,0:0:0:0:
123,217,59093,2,0,P|85:250|53:305,1,88.1250033617021,8|0,2:2|0:0,0:0:0:0:
389,217,59368,2,0,P|426:250|458:305,1,88.1250033617021,0|0,2:2|0:0,0:0:0:0:
396,124,59643,6,0,L|191:140,1,176.250006723404,4|0,3:2|2:2,0:0:0:0:
467,11,59918,2,0,L|262:27,1,176.250006723404,0|0,2:2|2:2,0:0:0:0:
396,124,60194,2,0,L|293:132,1,88.1250033617021,8|0,2:2|0:0,0:0:0:0:
221,138,60331,1,0,2:2:0:0:
494,117,60607,1,0,3:3:0:0:
116,260,60745,2,0,L|321:244,1,176.250006723404,4|0,3:2|2:2,0:0:0:0:
45,373,61020,2,0,L|250:357,1,176.250006723404,0|0,2:2|2:2,0:0:0:0:
116,260,61296,2,0,L|218:251,1,88.1250033617021,8|0,2:2|0:0,0:0:0:0:
291,246,61433,1,0,2:2:0:0:
18,267,61709,1,0,3:3:0:0:
396,124,61846,2,0,L|191:140,1,176.250006723404,4|0,3:2|2:2,0:0:0:0:
467,11,62121,2,0,L|262:27,1,176.250006723404,0|0,2:2|2:2,0:0:0:0:
396,124,62397,2,0,L|293:132,1,88.1250033617021,8|0,2:2|0:0,0:0:0:0:
221,138,62534,1,0,2:2:0:0:
494,117,62810,1,0,3:3:0:0:
116,260,62948,2,0,L|321:244,1,176.250006723404,4|0,3:2|2:2,0:0:0:0:
220,359,63223,2,0,L|45:373,1,176.250006723404,0|0,2:2|2:2,0:0:0:0:
116,260,63499,2,0,L|218:251,1,88.1250033617021,8|0,2:2|0:0,0:0:0:0:
291,246,63636,1,0,2:2:0:0:
18,267,63912,1,0,3:3:0:0:
64,0,64049,38,0,L|48:205,1,176.250006723404,4|0,3:2|2:2,0:0:0:0:
201,77,64324,2,0,L|185:282,1,176.250006723404,0|0,2:2|2:2,0:0:0:0:
64,0,64600,2,0,L|57:87,1,88.1250033617021,8|0,2:2|0:0,0:0:0:0:
50,175,64737,1,0,2:2:0:0:
311,77,64875,1,0,2:2:0:0:
256,320,65013,1,0,2:2:0:0:
448,0,65151,2,0,L|464:205,1,176.250006723404,4|0,3:2|2:2,0:0:0:0:
311,77,65426,2,0,L|327:282,1,176.250006723404,0|0,2:2|2:2,0:0:0:0:
448,0,65702,2,0,L|454:87,1,88.1250033617021,8|0,2:2|0:0,0:0:0:0:
462,175,65839,1,0,2:2:0:0:
201,77,65977,1,0,2:2:0:0:
256,320,66115,1,0,2:2:0:0:
64,0,66252,2,0,L|48:205,1,176.250006723404,4|0,3:2|2:2,0:0:0:0:
201,77,66527,2,0,L|185:282,1,176.250006723404,0|0,2:2|2:2,0:0:0:0:
64,0,66803,2,0,L|57:87,1,88.1250033617021,8|0,2:2|0:0,0:0:0:0:
50,175,66940,1,0,2:2:0:0:
311,77,67078,1,0,2:2:0:0:
256,320,67216,1,0,2:2:0:0:
448,0,67354,2,0,L|464:205,1,176.250006723404,4|0,3:2|2:2,0:0:0:0:
311,77,67629,2,0,L|327:282,1,176.250006723404,0|0,2:2|2:2,0:0:0:0:
448,0,67905,2,0,L|454:87,1,88.1250033617021,8|0,2:2|0:0,0:0:0:0:
462,175,68042,1,0,2:2:0:0:
201,77,68180,1,0,2:2:0:0:
256,320,68318,1,0,2:2:0:0:
64,0,68455,6,0,P|56:44|55:102,1,88.1250033617021,4|0,3:2|0:0,0:0:0:0:
151,5,68592,1,0,2:2:0:0:
0,239,68730,38,0,P|78:198|160:167,1,176.250006723404,0|0,2:2|2:2,0:0:0:0:
116,311,69005,6,0,P|120:289|122:267,1,44.062501680851,8|0,2:2|0:0,0:0:0:0:
109,264,69143,2,0,P|104:285|102:307,1,44.062501680851,0|0,2:2|0:0,0:0:0:0:
91,382,69281,1,0,2:2:0:0:
256,112,69419,37,0,2:2:0:0:
448,384,69556,6,0,P|456:340|457:282,1,88.1250033617021,4|0,3:2|0:0,0:0:0:0:
361,379,69693,1,0,2:2:0:0:
512,145,69831,38,0,P|433:185|351:216,1,176.250006723404,0|0,2:2|2:2,0:0:0:0:
396,73,70107,6,0,P|391:94|389:116,1,44.062501680851,8|0,2:2|0:0,0:0:0:0:
403,120,70245,2,0,P|407:98|409:76,1,44.062501680851,0|0,2:2|0:0,0:0:0:0:
421,2,70382,1,0,2:2:0:0:
256,272,70520,37,0,2:2:0:0:
64,0,70658,6,0,P|56:44|55:102,1,88.1250033617021,4|0,3:2|0:0,0:0:0:0:
151,5,70795,1,0,2:2:0:0:
0,239,70933,38,0,P|78:198|160:167,1,176.250006723404,0|0,2:2|2:2,0:0:0:0:
116,311,71208,6,0,P|120:289|122:267,1,44.062501680851,8|0,2:2|0:0,0:0:0:0:
109,264,71346,2,0,P|104:285|102:307,1,44.062501680851,0|0,2:2|0:0,0:0:0:0:
91,382,71484,1,0,2:2:0:0:
256,112,71622,37,0,2:2:0:0:
448,384,71759,6,0,P|456:340|457:282,1,88.1250033617021,4|0,3:2|0:0,0:0:0:0:
361,379,71896,1,0,2:2:0:0:
512,145,72034,38,0,P|433:185|351:216,1,176.250006723404,0|0,2:2|2:2,0:0:0:0:
396,73,72310,6,0,P|391:94|389:116,1,44.062501680851,8|0,2:2|0:0,0:0:0:0:
403,120,72447,2,0,P|407:98|409:76,1,44.062501680851,0|0,2:2|0:0,0:0:0:0:
421,2,72585,1,0,2:2:0:0:
255,272,72723,37,0,2:2:0:0:
64,0,72860,6,0,P|56:44|55:102,1,88.1250033617021,4|0,3:2|0:0,0:0:0:0:
151,5,72998,1,0,2:2:0:0:
0,239,73136,38,0,P|78:198|160:167,1,176.250006723404,0|0,2:2|2:2,0:0:0:0:
448,383,73411,6,0,P|456:339|457:281,1,88.1250033617021,12|0,3:2|0:0,0:0:0:0:
361,379,73549,1,0,2:2:0:0:
512,145,73687,38,0,P|434:186|352:217,1,176.250006723404,0|0,2:2|2:2,0:0:0:0:
64,384,73962,6,0,P|56:340|55:282,1,88.1250033617021,4|0,3:2|0:0,0:0:0:0:
151,379,74100,1,0,2:2:0:0:
0,145,74238,38,0,P|78:186|160:217,1,176.250006723404,0|0,2:2|2:2,0:0:0:0:
448,0,74513,6,0,P|456:44|457:102,1,88.1250033617021,12|0,3:2|0:0,0:0:0:0:
361,5,74651,1,0,2:2:0:0:
512,239,74788,37,0,0:0:0:0:
256,272,74926,5,0,2:2:0:0:
33,68,77232,22,0,B|84:45|164:85|112:118|189:158|251:129,1,235,0|0,0:0|0:0,2:0:0:0:
442,0,78785,1,0,0:0:0:0:
385,60,79000,2,0,P|401:99|406:126,1,58.75,2|0,2:0|0:0,0:0:0:0:
401,127,79431,1,0,0:0:0:0:
512,126,79647,2,0,P|461:192|444:227,1,117.5,2|0,2:0|0:0,0:0:0:0:
482,294,80293,1,0,0:0:0:0:
440,218,80509,2,0,P|372:250|247:276,1,176.25,2|0,2:0|0:0,0:0:0:0:
185,222,81371,1,0,0:0:0:0:
283,278,81620,38,0,L|299:346,1,58.75,8|0,1:0|2:0,2:0:0:0:
325,172,82046,2,0,L|315:114,1,58.75,8|0,1:0|2:0,2:0:0:0:
206,13,82472,2,0,L|228:137,1,117.5,8|0,1:0|2:0,2:0:0:0:
100,198,83112,2,0,L|70:54,1,137.083333333333,8|0,1:0|2:0,2:0:0:0:
186,232,83751,2,0,L|197:297,1,58.75,8|0,1:0|2:0,2:0:0:0:
0,384,84178,5,0,0:0:0:0:
78,343,84833,1,0,0:0:0:0:
73,350,85051,1,0,0:0:0:0:
82,122,85699,1,0,0:0:0:0:
0,153,85916,2,0,P|30:188|50:223,1,73.4375,2|0,2:0|0:0,0:0:0:0:
215,24,86564,2,0,P|191:89|162:138,1,117.5,2|0,2:0|0:0,0:0:0:0:
111,72,87213,2,0,P|128:40|139:12,1,58.75,2|0,2:0|0:0,0:0:0:0:
230,186,87649,2,0,P|314:170|416:169,1,176.25,2|0,2:0|0:0,0:0:0:0:
482,168,88501,1,0,0:0:0:0:
408,37,89141,37,0,0:0:0:0:
337,60,89354,1,0,0:0:0:0:
450,234,89780,1,0,0:0:0:0:
398,294,90207,1,0,0:0:0:0:
464,352,90420,1,0,0:0:0:0:
336,240,90633,1,0,0:0:0:0:
38,24,91038,22,0,P|94:89|140:201,1,176.25,4|0,3:2|2:2,0:0:0:0:
233,14,91313,2,0,P|218:54|181:102,1,88.1250033617021,0|0,2:2|2:2,0:0:0:0:
0,174,91588,2,0,P|116:194|247:297,1,264.375010085106,8|0,2:2|0:0,0:0:0:0:
241,281,91863,6,0,P|237:318|232:340,1,44.062501680851,0|0,2:2|0:0,0:0:0:0:
220,322,92000,38,0,P|221:300|225:278,1,44.062501680851,0|0,2:2|0:0,0:0:0:0:
293,168,92138,6,0,P|339:225|348:259,1,88.1250033617021,4|0,3:2|2:2,0:0:0:0:
245,19,92413,38,0,P|318:7|352:17,1,88.1250033617021,0|0,2:2|2:2,0:0:0:0:
486,194,92688,6,0,P|375:135|331:2,1,264.375010085106,8|0,2:2|0:0,0:0:0:0:
330,10,92963,2,0,P|441:69|485:202,1,264.375010085106,0|0,2:2|0:0,0:0:0:0:
471,183,93238,38,0,P|406:239|294:285,1,176.25,4|0,3:2|2:2,0:0:0:0:
481,378,93513,2,0,P|440:363|392:326,1,88.1250033617021,0|0,2:2|2:2,0:0:0:0:
321,145,93789,2,0,P|301:261|198:392,1,264.375010085106,8|0,2:2|0:0,0:0:0:0:
199,384,94064,6,0,P|168:380|142:368,1,44.062501680851,0|0,2:2|0:0,0:0:0:0:
156,364,94201,38,0,P|186:367|212:379,1,44.062501680851,0|0,2:2|0:0,0:0:0:0:
107,215,94339,6,0,P|58:178|24:130,1,88.1250033617021,0|0,3:3|2:2,0:0:0:0:
145,86,94614,38,0,P|152:25|176:-27,1,88.1250033617021,0|0,2:2|2:2,0:0:0:0:
321,50,94889,6,0,P|381:68|443:36,1,132.187505042553,8|0,2:2|0:0,0:0:0:0:
440,38,95164,2,0,P|379:19|317:51,1,132.187505042553,0|0,2:2|0:0,0:0:0:0:
239,57,95439,1,0,3:3:0:0:
233,70,95577,37,0,2:2:0:0:
289,130,95714,1,0,2:2:0:0:
479,168,96127,1,0,2:2:0:0:
501,246,96402,6,0,P|448:275|440:286,1,44.062501680851,0|0,2:2|0:0,0:0:0:0:
501,336,96540,2,0,P|452:293|383:281,1,132.187505042553,4|0,3:2|0:0,0:0:0:0:
373,258,96815,2,0,P|324:298|300:335,1,88.1250033617021,0|0,2:2|2:2,0:0:0:0:
206,248,97090,38,0,P|199:310|208:354,1,88.1250033617021,8|0,2:2|2:2,0:0:0:0:
386,361,97502,5,0,2:2:0:0:
122,285,97640,1,4,3:2:0:0:
83,361,97915,1,0,2:2:0:0:
284,201,98328,38,0,P|232:164|190:150,1,88.1250033617021,0|0,2:2|2:2,0:0:0:0:
484,71,98603,6,0,P|382:87|317:120,1,176.250006723404,0|0,2:2|2:2,0:0:0:0:
452,238,99015,38,0,P|458:175|449:131,1,88.1250033617021,0|0,2:2|2:2,0:0:0:0:
282,1,99291,6,0,P|221:84|210:163,1,176.250006723404,8|0,2:2|0:0,0:0:0:0:
284,201,99703,37,0,0:0:0:0:
129,11,99841,1,0,2:2:0:0:
80,77,100116,1,0,2:2:0:0:
0,249,100666,6,0,P|65:237|94:236,1,88.1250033617021,0|0,2:2|0:0,0:0:0:0:
141,350,100941,38,0,P|178:295|198:274,1,88.1250033617021,0|0,2:2|0:0,0:0:0:0:
320,381,101216,1,0,2:2:0:0:
311,384,101285,6,0,P|282:324|274:296,1,88.1250033617021
52,152,101491,38,0,P|117:157|146:163,1,88.1250033617021,8|0,2:2|0:0,0:0:0:0:
141,350,101767,6,0,P|75:344|46:338,1,88.1250033617021,0|0,2:2|0:0,0:0:0:0:
211,92,102042,38,0,P|239:151|247:179,1,88.1250033617021,0|0,2:2|0:0,0:0:0:0:
356,142,102317,6,0,P|333:204|320:229,1,88.1250033617021,0|0,2:2|0:0,0:0:0:0:
369,284,102592,1,8,2:2:0:0:
362,290,102661,38,0,P|297:302|268:303,1,88.1250033617021
447,373,102867,6,0,P|469:310|482:285,1,88.1250033617021,0|0,2:2|0:0,0:0:0:0:
468,119,103142,2,0,P|463:162|438:198,1,88.1250033617021,0|0,2:2|0:0,0:0:0:0:
438,197,103348,2,0,P|443:154|469:119,1,88.1250033617021
495,43,103555,1,0,0:0:0:0:
356,142,103692,38,0,P|326:109|301:73,1,88.1250033617021,8|0,2:2|0:0,0:0:0:0:
246,172,103967,6,0,P|206:192|165:207,1,88.1250033617021,0|0,2:2|0:0,0:0:0:0:
150,0,104242,38,0,P|191:15|230:34,1,88.1250033617021,0|0,2:2|0:0,0:0:0:0:
132,125,104518,6,0,P|150:164|164:206,1,88.1250033617021,0|0,2:2|0:0,0:0:0:0:
73,214,104793,38,0,P|47:250|18:282,1,88.1250033617021,8|0,2:2|0:0,0:0:0:0:
246,172,105068,6,0,P|289:175|332:184,1,88.1250033617021,0|0,2:2|0:0,0:0:0:0:
373,97,105343,38,0,P|401:130|425:167,1,88.1250033617021,0|0,2:2|0:0,0:0:0:0:
512,2,105618,6,0,P|496:43|477:82,1,88.1250033617021,0|0,2:2|0:0,0:0:0:0:
425,167,105893,38,0,P|397:134|373:97,1,88.1250033617021,8|0,2:2|0:0,0:0:0:0:
512,2,106168,6,0,P|496:43|477:82,1,88.1250033617021,0|0,2:2|0:0,0:0:0:0:
493,242,106443,38,0,P|452:259|411:273,3,88.1250033617021,0|0|0|0,2:2|0:0|0:0|0:0,0:0:0:0:
416,367,106993,6,0,P|374:351|336:331,3,88.1250033617021,8|0|0|0,2:2|0:0|0:0|0:0,0:0:0:0:
276,383,107544,38,0,P|258:342|244:301,3,88.1250033617021,0|0|0|0,2:2|0:0|0:0|0:0,0:0:0:0:
118,304,108094,6,0,P|135:263|149:222,3,88.1250033617021,8|0|0|0,2:2|0:0|0:0|0:0,0:0:0:0:
61,233,108644,37,0,2:2:0:0:
143,384,109194,5,8,2:2:0:0:
387,276,109745,37,0,2:2:0:0:
347,197,110295,5,8,2:2:0:0:
17,318,110845,37,0,2:2:0:0:
424,155,111395,5,8,2:2:0:0:
318,30,111945,37,0,2:2:0:0:
296,109,112220,5,0,2:2:0:0:
32,64,112496,37,8,2:2:0:0:
48,144,112633,1,0,2:2:0:0:
240,48,112908,1,0,2:2:0:0:
176,0,113046,1,0,2:2:0:0:
192,192,113321,5,0,2:2:0:0:
32,320,113596,1,8,2:2:0:0:
48,240,113733,1,0,2:2:0:0:
240,336,114008,1,0,2:2:0:0:
176,384,114146,1,0,2:2:0:0:
192,192,114421,37,0,2:2:0:0:
480,64,114696,5,8,2:2:0:0:
464,144,114833,37,0,2:2:0:0:
272,48,114971,5,0,2:2:0:0:
336,0,115109,37,0,2:2:0:0:
398,64,115247,6,0,L|414:288,1,176.250006723404,4|0,3:2|2:2,0:0:0:0:
32,0,115522,2,0,L|19:175,1,176.250006723404,0|0,2:2|2:2,0:0:0:0:
386,69,115797,2,0,L|394:181,1,88.1250033617021,8|0,2:2|0:0,0:0:0:0:
398,245,115934,1,0,2:2:0:0:
43,6,116072,2,0,L|30:181,1,176.250006723404,0|0,2:2|2:2,0:0:0:0:
500,315,116347,2,0,L|516:91,1,176.250006723404,4|0,3:2|2:2,0:0:0:0:
160,288,116622,2,0,L|147:112,1,176.250006723404,0|0,2:2|2:2,0:0:0:0:
488,310,116897,2,0,L|496:198,1,88.1250033617021,8|0,2:2|0:0,0:0:0:0:
500,135,117034,1,0,2:2:0:0:
171,282,117172,2,0,L|158:106,1,176.250006723404,0|0,2:2|2:2,0:0:0:0:
480,16,117447,2,0,L|256:32,1,176.250006723404,4|0,3:2|2:2,0:0:0:0:
418,378,117723,2,0,L|243:366,1,176.250006723404,0|0,2:2|2:2,0:0:0:0:
475,4,117997,2,0,L|363:12,1,88.1250033617021,8|0,2:2|0:0,0:0:0:0:
300,16,118134,1,0,2:2:0:0:
424,367,118273,2,0,L|249:355,1,176.250006723404,0|0,2:2|2:2,0:0:0:0:
101,97,118548,2,0,L|117:321,1,176.250006723404,4|0,3:2|2:2,0:0:0:0:
501,137,118823,2,0,L|488:312,1,176.250006723404,0|0,2:2|2:2,0:0:0:0:
89,102,119098,2,0,L|97:214,1,88.1250033617021,8|0,2:2|0:0,0:0:0:0:
101,277,119235,1,0,2:2:0:0:
512,143,119373,38,0,L|499:318,1,176.250006723404,0|0,2:2|2:2,0:0:0:0:
80,110,119910,1,0,3:3:0:0:
159,116,120322,1,0,3:3:0:0:
207,121,120597,1,0,3:3:0:0:
96,302,121009,1,0,3:3:0:0:
141,236,121422,1,0,3:3:0:0:
169,197,121697,1,0,3:3:0:0:
271,384,122110,1,0,3:3:0:0:
236,312,122523,1,0,3:3:0:0:
216,268,122798,1,0,3:3:0:0:
429,274,123210,1,0,3:3:0:0:
349,268,123623,1,0,3:3:0:0:
301,263,123898,1,0,3:3:0:0:
412,81,124311,1,0,3:3:0:0:
367,147,124724,1,0,3:3:0:0:
339,187,124999,1,0,3:3:0:0:
236,0,125411,1,0,3:3:0:0:
271,71,125824,1,0,3:3:0:0:
291,115,126099,1,0,3:3:0:0:
80,110,126512,1,0,3:3:0:0:
159,116,126925,1,0,3:3:0:0:
207,121,127200,1,0,3:3:0:0:
96,302,127612,1,0,3:3:0:0:
62,229,127887,1,8,2:2:0:0:
141,236,128025,1,0,3:3:0:0:
169,197,128300,1,0,3:3:0:0:
271,384,128713,1,0,3:3:0:0:
191,375,128988,1,8,2:2:0:0:
236,312,129126,1,0,3:3:0:0:
216,268,129401,1,0,3:3:0:0:
429,274,129813,1,0,3:3:0:0:
385,340,130088,1,8,2:2:0:0:
349,268,130226,1,0,3:3:0:0:
301,263,130501,1,0,3:3:0:0:
412,81,130914,1,0,3:3:0:0:
446,154,131189,1,8,2:2:0:0:
367,147,131327,1,0,3:3:0:0:
339,187,131602,1,0,3:3:0:0:
236,0,132014,1,0,3:3:0:0:
230,71,132289,1,8,2:2:0:0:
254,71,132358,1,0,2:2:0:0:
271,71,132427,1,0,3:3:0:0:
291,115,132702,1,0,3:3:0:0:
80,110,133114,1,0,3:3:0:0:
166,165,133389,1,8,2:2:0:0:
160,130,133458,1,0,2:2:0:0:
153,98,133527,1,0,3:3:0:0:
207,121,133802,1,0,3:3:0:0:
96,302,134214,1,0,3:3:0:0:
62,229,134489,1,8,2:2:0:0:
111,232,134559,1,0,2:2:0:0:
157,235,134627,1,0,3:3:0:0:
169,197,134902,1,0,3:3:0:0:
271,384,135315,1,0,3:3:0:0:
191,375,135590,1,8,2:2:0:0:
228,328,135659,1,0,2:2:0:0:
262,287,135728,1,0,3:3:0:0:
216,268,136003,1,0,3:3:0:0:
304,304,136140,1,0,2:2:0:0:
320,384,136278,1,0,2:2:0:0:
429,274,136415,1,0,3:3:0:0:
385,340,136690,1,8,2:2:0:0:
358,284,136759,1,0,2:2:0:0:
330,231,136828,1,0,3:3:0:0:
301,263,137103,1,0,3:3:0:0:
304,176,137241,1,0,2:2:0:0:
240,112,137378,1,0,2:2:0:0:
412,81,137516,1,0,3:3:0:0:
446,154,137791,1,8,2:2:0:0:
366,143,137860,1,0,2:2:0:0:
292,132,137929,1,0,3:3:0:0:
339,187,138204,1,0,3:3:0:0:
272,128,138341,1,0,2:2:0:0:
384,64,138479,1,0,2:2:0:0:
236,0,138616,1,0,3:3:0:0:
233,10,138685,1,0,2:2:0:0:
195,67,138891,1,8,2:2:0:0:
246,70,138960,1,0,2:2:0:0:
298,71,139029,1,0,3:3:0:0:
291,115,139304,1,0,3:3:0:0:
208,176,139442,1,0,2:2:0:0:
128,16,139579,1,0,2:2:0:0:
80,110,139717,1,0,3:3:0:0:
165,158,139992,1,8,2:2:0:0:
160,122,140061,1,0,2:2:0:0:
153,82,140130,1,0,3:3:0:0:
207,121,140405,1,0,3:3:0:0:
256,240,140542,1,0,2:2:0:0:
288,160,140680,1,0,2:2:0:0:
96,302,140817,1,0,3:3:0:0:
62,229,141092,1,8,2:2:0:0:
91,231,141162,1,0,2:2:0:0:
118,233,141230,1,0,3:3:0:0:
169,197,141505,1,0,3:3:0:0:
32,368,141642,1,4,3:2:0:0:
139,380,141780,2,0,L|125:326,1,44.062501680851,0|0,2:2|0:0,0:0:0:0:
271,384,141918,1,0,3:3:0:0:
191,375,142193,1,4,3:2:0:0:
213,342,142262,1,0,2:2:0:0:
236,312,142330,2,0,L|240:256,1,44.062501680851,0|0,3:3|0:0,0:0:0:0:
224,253,142606,1,0,3:3:0:0:
304,304,142743,2,0,L|304:256,1,44.062501680851,4|0,3:2|0:0,0:0:0:0:
320,384,142881,1,0,2:2:0:0:
429,274,143018,2,0,L|448:208,1,44.062501680851,0|0,3:3|0:0,0:0:0:0:
349,268,143293,1,0,3:3:0:0:
376,322,143362,1,0,2:2:0:0:
406,371,143431,1,4,3:2:0:0:
301,263,143706,1,0,3:3:0:0:
304,176,143844,1,0,2:2:0:0:
240,112,143981,1,0,2:2:0:0:
412,81,144118,1,0,3:3:0:0:
446,154,144394,1,8,2:2:0:0:
420,151,144463,1,0,2:2:0:0:
396,151,144532,1,0,3:3:0:0:
339,187,144807,1,0,3:3:0:0:
384,64,145082,1,0,2:2:0:0:
236,0,145219,1,0,3:3:0:0:
195,67,145494,1,8,2:2:0:0:
260,69,145563,1,0,2:2:0:0:
332,69,145632,1,0,3:3:0:0:
291,115,145907,1,0,3:3:0:0:
236,0,146319,1,0,3:3:0:0:
217,70,146594,1,8,2:2:0:0:
232,69,146663,1,0,2:2:0:0:
247,71,146732,1,0,2:2:0:0:
263,69,146801,1,0,2:2:0:0:
291,115,147007,1,8,2:2:0:0:
80,110,147419,1,0,3:3:0:0:
165,158,147694,1,8,2:2:0:0:
161,134,147763,1,0,2:2:0:0:
159,116,147832,1,0,2:2:0:0:
153,101,147901,1,0,2:2:0:0:
207,121,148107,1,8,2:2:0:0:
96,302,148519,1,0,3:3:0:0:
62,229,148795,2,0,L|42:189,1,44.062501680851,4|0,2:2|0:0,0:0:0:0:
102,226,148864,2,0,L|94:269,1,44.062501680851,0|0,2:2|0:0,0:0:0:0:
160,197,148933,2,0,L|141:236,1,44.062501680851,0|0,2:2|0:0,0:0:0:0:
174,218,149001,2,0,L|174:262,1,44.062501680851,0|0,2:2|0:0,0:0:0:0:
86,150,149207,1,8,2:2:0:0:
271,384,149620,1,0,3:3:0:0:
191,375,149896,2,0,L|147:375,1,44.062501680851,4|0,2:2|0:0,0:0:0:0:
177,344,149964,2,0,L|215:370,1,44.062501680851,0|0,2:2|0:0,0:0:0:0:
207,346,150033,2,0,L|189:305,1,44.062501680851,0|0,2:2|0:0,0:0:0:0:
228,333,150102,2,0,L|255:277,1,44.062501680851,0|0,2:2|0:0,0:0:0:0:
192,228,150308,1,8,2:2:0:0:
429,274,150720,1,0,3:3:0:0:
385,340,150996,2,0,L|437:359,1,44.062501680851,4|0,2:2|0:0,0:0:0:0:
361,310,151065,2,0,L|364:366,1,44.062501680851,0|0,2:2|0:0,0:0:0:0:
386,231,151134,2,0,L|371:284,1,44.062501680851,0|0,2:2|0:0,0:0:0:0:
385,213,151202,2,0,L|403:272,1,44.062501680851,0|0,2:2|0:0,0:0:0:0:
468,194,151408,1,8,2:2:0:0:
301,234,151546,2,0,L|249:265,1,44.062501680851,4|0,2:2|0:0,0:0:0:0:
270,208,151615,2,0,L|319:220,1,44.062501680851,0|0,2:2|0:0,0:0:0:0:
270,177,151684,2,0,L|258:231,1,44.062501680851,0|0,2:2|0:0,0:0:0:0:
240,128,151753,2,0,L|261:201,1,44.062501680851
305,88,151821,1,0,3:0:0:0:
386,153,152096,2,0,L|376:198,1,44.062501680851,4|0,2:2|0:0,0:0:0:0:
446,154,152165,2,0,L|444:211,1,44.062501680851,0|0,2:2|0:0,0:0:0:0:
479,135,152234,2,0,L|463:183,1,44.062501680851,0|0,2:2|0:0,0:0:0:0:
499,136,152303,2,0,L|508:196,1,44.062501680851
492,55,152509,1,8,2:2:0:0:
251,175,152646,1,4,2:2:0:0:
273,118,152715,1,0,2:2:0:0:
306,105,152784,1,0,2:2:0:0:
323,105,152853,1,0,2:2:0:0:
334,118,152922,2,0,L|357:162,1,44.062501680851,0|0,3:3|0:0,0:0:0:0:
208,69,153196,1,4,2:2:0:0:
237,57,153265,1,0,2:2:0:0:
261,80,153334,1,0,2:2:0:0:
320,52,153403,1,0,2:2:0:0:
398,73,153472,1,0,3:3:0:0:
397,268,153609,1,8,2:2:0:0:
246,177,153747,1,4,2:2:0:0:
196,163,153816,1,0,2:2:0:0:
164,180,153885,1,0,2:2:0:0:
153,200,153953,1,0,2:2:0:0:
148,218,154022,2,0,L|165:272,1,44.062501680851,0|0,3:3|0:0,0:0:0:0:
165,158,154297,1,4,2:2:0:0:
167,137,154366,1,0,2:2:0:0:
135,111,154435,1,0,2:2:0:0:
162,47,154504,1,0,2:2:0:0:
105,4,154572,1,0,3:3:0:0:
184,336,154710,1,8,2:2:0:0:
256,240,154847,2,0,P|297:226|299:229,1,44.062501680851
96,302,155122,1,0,3:3:0:0:
141,236,155535,1,0,3:3:0:0:
169,197,155810,1,0,3:3:0:0:
