osu file format v14

[General]
AudioFilename: audio.mp3
AudioLeadIn: 0
PreviewTime: 119910
Countdown: 0
SampleSet: Soft
StackLeniency: 0.7
Mode: 0
LetterboxInBreaks: 0
WidescreenStoryboard: 1

[Editor]
Bookmarks: 24743,50764,52967,68387,74995,94271,99773,108576,112428,115179,119855
DistanceSpacing: 1
BeatDivisor: 8
GridSize: 16
TimelineZoom: 3.299999

[Metadata]
Title:On Sight
TitleUnicode:On Sight
Artist:Kanye West
ArtistUnicode:Kanye West
Creator:1103
Version:WashedUp's NORMMMAL
Source:
Tags:apollo english hip hop yeezus Washedup player smokeman sparxo mrowswares apo11o trailmix
BeatmapID:3400442
BeatmapSetID:1541997

[Difficulty]
HPDrainRate:3
CircleSize:3
OverallDifficulty:5
ApproachRate:6
SliderMultiplier:1.95
SliderTickRate:1

[Events]
//Background and Video events
0,0,"fatass.png",0,0
//Break Periods
//Storyboard Layer 0 (Background)
//Storyboard Layer 1 (Fail)
//Storyboard Layer 2 (Pass)
//Storyboard Layer 3 (Foreground)
//Storyboard Layer 4 (Overlay)
//Storyboard Sound Samples

[TimingPoints]
15587,550.711335474988,4,2,1,60,1,0
15658,-100,4,2,1,60,0,0
64049,-100,4,2,1,70,0,0
75063,-100,4,2,1,70,0,0
77232,907.578278626531,4,2,1,70,1,0
78139,861.945122827179,4,2,1,70,1,0
81620,852.757248436612,4,2,1,70,1,0
84178,873.743993010048,4,2,1,70,1,0
85051,865.051903114187,4,2,1,70,1,0
87649,852.757248436612,4,2,1,70,1,0
91038,550.206327372765,4,2,1,65,1,0
94064,-100,4,2,1,60,0,0
115247,-100,4,2,1,70,0,0
119910,550.206327372765,4,2,1,65,1,0
119910,-100,4,2,1,50,0,0

[Colours]
Combo1 : 216,198,124
Combo2 : 205,205,205
Combo3 : 145,145,145
Combo4 : 216,124,131

[HitObjects]
81,40,15587,5,0,2:2:0:0:
81,40,15724,1,0,2:2:0:0:
81,40,15862,2,0,P|111:79|97:139,1,97.5,0|8,2:2|2:2,0:0:0:0:
75,162,16275,2,0,P|45:201|59:261,1,97.5,0|0,2:2|3:3,0:0:0:0:
126,315,16826,1,0,0:0:0:0:
126,315,16963,2,0,B|161:285|161:285|225:281,1,97.5,0|8,2:2|2:2,0:0:0:0:
256,303,17376,2,0,L|358:308,1,97.5,0|0,2:2|3:3,0:0:0:0:
442,266,17927,5,0,0:0:0:0:
442,266,18065,2,0,P|433:220|444:163,1,97.5,0|8,2:2|2:2,0:0:0:0:
413,130,18478,2,0,P|422:82|413:34,1,97.5,0|0,2:2|3:3,0:0:0:0:
318,17,19028,1,0,0:0:0:0:
318,17,19166,2,0,L|216:20,1,97.5,0|8,2:2|2:2,0:0:0:0:
174,36,19579,2,0,L|72:33,1,97.5,0|0,2:2|3:3,0:0:0:0:
34,58,19992,38,0,B|24:95|24:95|46:131|46:131|36:191,2,97.5,4|0|8,3:2|2:2|2:2,0:0:0:0:
157,137,20956,1,0,3:3:0:0:
157,137,21094,2,0,B|167:174|167:174|145:210|145:210|155:270,2,97.5,4|0|8,3:2|2:2|2:2,0:0:0:0:
34,216,22057,1,0,3:3:0:0:
34,216,22195,2,0,B|24:253|24:253|46:289|46:289|36:349,2,97.5,4|0|8,3:2|2:2|2:2,0:0:0:0:
171,277,23159,1,0,3:3:0:0:
171,277,23296,2,0,B|181:314|181:314|159:350|159:350|169:410,2,97.5,4|0|8,3:2|2:2|2:2,0:0:0:0:
256,192,24260,5,0,3:3:0:0:
256,192,24398,2,0,P|307:204|364:190,1,97.5,4|0,3:2|2:2,0:0:0:0:
352,102,24949,1,8,2:2:0:0:
352,102,25086,2,0,P|304:93|254:103,1,97.5,0|0,2:2|3:3,0:0:0:0:
212,123,25499,2,0,L|89:112,1,97.5,4|0,3:2|2:2,0:0:0:0:
26,150,26050,1,8,2:2:0:0:
26,150,26188,2,0,L|40:9,1,97.5,0|0,2:2|3:3,0:0:0:0:
67,16,26601,38,0,L|181:24,1,97.5,4|0,3:2|2:2,0:0:0:0:
261,32,27151,2,0,L|309:35,1,48.75,0|0,2:2|2:2,0:0:0:0:
300,181,27702,2,0,L|186:173,1,97.5,4|0,3:2|2:2,0:0:0:0:
105,163,28253,2,0,L|56:159,1,48.75,0|0,2:2|2:2,0:0:0:0:
67,16,28804,6,0,L|181:24,1,97.5,4|0,3:2|2:2,0:0:0:0:
261,32,29354,2,0,L|309:35,1,48.75,0|0,2:2|2:2,0:0:0:0:
300,181,29905,2,0,L|186:173,1,97.5,4|0,3:2|2:2,0:0:0:0:
105,163,30456,2,0,L|56:159,1,48.75,0|0,2:2|2:2,0:0:0:0:
67,16,31006,38,0,L|181:24,1,97.5,4|0,3:2|2:2,0:0:0:0:
261,32,31557,2,0,L|309:35,1,48.75,0|0,2:2|2:2,0:0:0:0:
300,181,32107,2,0,L|186:173,1,97.5,4|0,3:2|2:2,0:0:0:0:
105,163,32658,2,0,L|56:159,1,48.75,0|0,2:2|2:2,0:0:0:0:
9,303,33209,5,0,2:2:0:0:
9,303,33347,1,0,0:0:0:0:
9,303,33485,2,0,P|63:312|84:354,1,97.5,0|8,2:2|2:2,0:0:0:0:
130,332,33898,2,0,P|185:355|254:326,1,97.5
248,308,34311,2,0,L|349:303,1,97.5,0|0,2:2|2:2,0:0:0:0:
388,325,34724,1,0,0:0:0:0:
487,310,34999,1,0,0:0:0:0:
487,310,35137,1,0,0:0:0:0:
465,216,35412,2,0,L|473:112,1,97.5,0|0,2:2|2:2,0:0:0:0:
375,107,35963,38,0,L|367:204,1,97.5,8|0,2:2|2:2,0:0:0:0:
361,252,36376,1,0,0:0:0:0:
294,322,36651,1,0,0:0:0:0:
294,322,36789,2,0,L|193:317,1,97.5,0|8,2:2|2:2,0:0:0:0:
151,335,37202,2,0,L|52:344,1,97.5
5,351,37615,5,4,3:2:0:0:
0,253,37890,1,0,2:2:0:0:
72,187,38166,1,8,2:2:0:0:
77,89,38441,1,0,2:2:0:0:
77,89,38579,2,0,L|176:84,1,97.5,0|0,2:2|2:2,0:0:0:0:
209,118,38992,2,0,L|308:123,1,97.5,0|8,2:2|2:2,0:0:0:0:
350,102,39405,1,0,2:2:0:0:
450,96,39680,1,0,2:2:0:0:
450,96,39818,38,0,P|455:144|438:189,1,97.5,4|0,3:2|2:2,0:0:0:0:
353,238,40369,2,0,P|370:283|365:331,1,97.5,8|0,2:2|2:2,0:0:0:0:
328,364,40782,2,0,L|228:360,1,97.5,0|0,2:2|2:2,0:0:0:0:
201,320,41195,2,0,L|101:324,1,97.5,0|8,2:2|2:2,0:0:0:0:
63,351,41608,1,0,2:2:0:0:
154,236,42021,6,0,L|210:234,2,48.75,0|0|0,2:2|0:0|2:2,0:0:0:0:
205,153,42571,2,0,P|262:176|284:212,2,97.5,8|0|0,2:2|2:2|2:2,0:0:0:0:
107,164,43397,1,0,2:2:0:0:
139,71,43673,2,0,L|262:65,1,97.5,8|0,2:2|2:2,0:0:0:0:
271,101,44086,1,0,0:0:0:0:
389,17,44499,37,0,0:0:0:0:
490,24,44774,1,8,2:2:0:0:
490,24,44912,1,0,0:0:0:0:
455,115,45187,1,0,0:0:0:0:
504,252,45600,1,0,2:2:0:0:
415,288,45876,1,0,0:0:0:0:
415,288,46013,2,0,P|402:341|407:398,1,97.5,0|0,0:2|0:2,0:0:0:0:
257,381,46702,5,0,0:0:0:0:
166,363,46977,1,0,0:0:0:0:
166,363,47115,1,0,0:0:0:0:
171,267,47390,2,0,P|150:212|148:171,1,97.5,0|0,2:2|2:2,0:0:0:0:
164,126,47803,1,0,0:2:0:0:
228,53,48078,1,0,0:0:0:0:
228,53,48216,1,0,0:0:0:0:
324,70,48492,38,0,L|424:65,1,97.5,0|0,2:2|0:0,0:0:0:0:
464,86,48905,2,0,P|482:153|481:186,1,97.5,0|0,0:2|2:2,0:0:0:0:
436,200,49318,1,0,0:0:0:0:
358,259,49593,1,0,0:0:0:0:
212,252,50006,1,0,0:2:0:0:
138,197,50281,1,0,0:0:0:0:
138,197,50419,1,0,0:0:0:0:
52,163,50694,1,0,0:0:0:0:
52,163,50832,6,0,B|43:202|43:202|52:225|52:225|47:270,2,97.5,4|0|8,3:2|2:2|2:2,0:0:0:0:
17,129,51520,2,0,L|12:29,1,97.5,0|0,2:2|3:3,0:0:0:0:
158,23,52209,1,0,2:2:0:0:
243,80,52484,1,8,2:2:0:0:
243,80,52622,2,0,L|341:75,1,97.5
385,93,53035,38,0,B|393:53|393:53|384:30|384:30|389:-14,2,97.5,4|0|8,3:2|2:2|2:2,0:0:0:0:
424,121,53723,2,0,L|429:219,1,97.5,0|0,2:2|3:3,0:0:0:0:
400,258,54136,2,0,B|408:297|408:297|399:320|399:320|404:365,2,97.5,4|0|8,3:2|2:2|2:2,0:0:0:0:
354,239,54825,2,0,L|256:234,1,97.5,0|0,2:2|3:3,0:0:0:0:
123,297,55513,5,0,2:2:0:0:
38,248,55788,1,8,2:2:0:0:
38,248,55926,2,0,L|33:150,1,97.5
107,24,56614,1,0,2:2:0:0:
192,73,56890,1,8,2:2:0:0:
192,73,57028,2,0,L|197:171,1,97.5
123,297,57716,37,0,2:2:0:0:
193,364,57991,1,8,2:2:0:0:
193,364,58129,2,0,L|291:359,1,97.5
413,279,58817,1,0,2:2:0:0:
343,212,59093,1,8,2:2:0:0:
343,212,59230,2,0,L|245:217,1,97.5
206,187,59643,6,0,B|197:147|197:147|206:124|206:124|202:92,2,97.5,4|0|8,3:2|2:2|2:2,0:0:0:0:
170,220,60332,2,0,L|72:225,1,97.5,0|0,2:2|3:3,0:0:0:0:
42,263,60745,2,0,B|50:302|50:302|41:325|41:325|45:357,2,97.5,4|0|8,3:2|2:2|2:2,0:0:0:0:
12,224,61433,1,0,0:0:0:0:
44,134,61709,1,0,0:0:0:0:
44,134,61846,38,0,B|35:94|35:94|44:71|44:71|40:40,2,97.5,4|0|8,3:2|2:2|2:2,0:0:0:0:
91,146,62535,2,0,L|189:141,1,97.5,0|0,2:2|3:3,0:0:0:0:
216,100,62948,1,4,3:2:0:0:
313,95,63223,1,0,2:2:0:0:
405,125,63498,2,0,P|389:181|393:228,1,97.5,8|0,2:2|0:0,0:0:0:0:
417,313,64049,6,0,L|306:309,1,97.5,4|0,3:2|2:2,0:0:0:0:
235,355,64600,1,8,2:2:0:0:
235,355,64737,1,0,2:2:0:0:
157,305,65013,1,0,2:2:0:0:
157,305,65151,2,0,L|161:194,1,97.5,4|0,3:2|2:2,0:0:0:0:
115,127,65701,1,8,2:2:0:0:
115,127,65839,1,0,2:2:0:0:
168,54,66114,1,0,2:2:0:0:
168,54,66252,38,0,L|279:58,1,97.5,4|0,3:2|2:2,0:0:0:0:
351,9,66803,1,8,2:2:0:0:
351,9,66940,1,0,2:2:0:0:
424,62,67216,1,0,2:2:0:0:
424,62,67353,2,0,L|420:173,1,97.5,4|0,3:2|2:2,0:0:0:0:
484,240,67904,1,8,2:2:0:0:
484,240,68042,1,0,2:2:0:0:
418,310,68317,1,0,2:2:0:0:
418,310,68455,6,0,L|311:306,1,97.5,4|0,3:2|2:2,0:0:0:0:
235,354,69005,2,0,L|158:359,2,48.75,8|0|0,2:2|2:2|2:2,0:0:0:0:
232,256,69556,2,0,L|228:152,1,97.5,4|0,3:2|2:2,0:0:0:0:
173,84,70107,1,8,2:2:0:0:
173,84,70245,2,0,L|67:79,1,97.5,0|0,2:2|2:2,0:0:0:0:
30,99,70658,38,0,L|34:203,1,97.5,4|0,3:2|2:2,0:0:0:0:
87,277,71208,1,8,2:2:0:0:
87,277,71346,1,0,2:2:0:0:
218,340,71759,2,0,L|319:333,2,97.5,4|0|8,3:2|2:2|2:2,0:0:0:0:
187,378,72447,2,0,L|89:371,1,97.5,0|0,2:2|2:2,0:0:0:0:
41,366,72860,5,4,3:2:0:0:
87,277,73136,1,0,2:2:0:0:
31,197,73411,1,4,3:2:0:0:
31,197,73549,2,0,L|28:100,1,97.5,0|0,2:2|2:2,0:0:0:0:
59,61,73962,1,4,3:2:0:0:
148,107,74237,1,0,2:2:0:0:
228,51,74513,1,4,3:2:0:0:
228,51,74650,2,0,L|325:48,1,97.5,0|0,2:2|2:2,0:0:0:0:
478,82,77232,6,0,P|397:119|393:239,1,195
357,360,78785,1,0,0:0:0:0:
357,360,79000,2,0,P|302:326|247:325,1,97.5,2|0,2:0|0:0,0:0:0:0:
227,345,79647,1,2,2:0:0:0:
87,323,80293,1,0,0:0:0:0:
87,323,80509,2,0,B|55:281|59:209|104:235|113:182|68:122,1,195,2|0,2:0|0:0,0:0:0:0:
101,86,81620,6,0,L|188:81,1,48.75,8|0,1:0|0:0,0:0:0:0:
191,108,82046,2,0,L|278:113,1,48.75,8|0,1:0|1:0,0:0:0:0:
286,97,82472,1,8,1:0:0:0:
379,123,82899,1,8,1:0:0:0:
469,87,83325,1,0,0:0:0:0:
463,184,83751,1,8,1:0:0:0:
457,281,84178,38,0,B|410:312|351:287|382:270|321:246|272:276,1,195
157,360,85699,1,0,0:0:0:0:
157,360,85916,1,2,2:0:0:0:
157,360,86132,2,0,P|162:305|147:236,1,97.5,0|2,0:0|2:0,0:0:0:0:
91,198,86997,1,0,0:0:0:0:
91,198,87213,1,2,2:0:0:0:
152,119,87649,6,0,B|201:89|263:109|232:132|285:152|336:133,1,195,2|0,2:0|0:0,0:0:0:0:
481,118,89141,1,0,0:0:0:0:
481,118,89354,2,0,P|449:184|453:217,1,97.5
391,284,90207,2,0,P|414:332|411:357,2,48.75
256,333,91038,6,0,L|144:337,1,97.5
72,291,91588,1,8,2:2:0:0:
72,291,91725,2,0,L|68:179,1,97.5,0|0,0:0|2:2,0:0:0:0:
98,154,92138,2,0,P|134:108|183:103,1,97.5,4|0,3:2|2:2,0:0:0:0:
252,153,92688,1,8,2:2:0:0:
252,153,92826,2,0,P|322:173|376:168,1,97.5
394,174,93238,5,4,3:2:0:0:
440,88,93513,1,0,2:2:0:0:
387,9,93789,1,8,2:2:0:0:
387,9,93926,2,0,L|283:6,1,97.5,0|0,0:0|2:2,0:0:0:0:
240,3,94339,1,0,3:3:0:0:
159,57,94614,2,0,P|172:115|167:154,1,97.5,0|8,2:2|2:2,0:0:0:0:
126,178,95026,2,0,P|113:236|118:275,1,97.5
141,315,95439,1,0,3:3:0:0:
228,358,95714,38,0,L|344:352,1,97.5,0|0,2:2|0:0,0:0:0:0:
374,351,96127,1,0,2:2:0:0:
471,344,96402,1,0,2:2:0:0:
471,344,96540,2,0,L|465:228,1,97.5,4|0,3:2|2:2,0:0:0:0:
464,198,96952,1,0,2:2:0:0:
457,101,97227,1,0,2:2:0:0:
450,4,97502,1,0,2:2:0:0:
450,4,97640,6,0,L|334:10,1,97.5,4|0,3:2|2:2,0:0:0:0:
304,11,98053,1,0,0:0:0:0:
207,18,98328,1,0,2:2:0:0:
110,25,98603,1,0,2:2:0:0:
110,25,98740,2,0,P|124:93|121:137,1,97.5,0|0,0:0|2:2,0:0:0:0:
60,195,99291,1,8,2:2:0:0:
60,195,99428,1,0,0:0:0:0:
45,340,99841,38,0,P|113:354|157:351,1,97.5,0|0,2:2|2:2,0:0:0:0:
236,323,100391,1,8,2:0:0:0:
236,323,100529,2,0,P|294:305|365:314,1,97.5
372,330,100941,1,0,2:2:0:0:
469,322,101216,1,0,2:2:0:0:
505,231,101491,1,8,2:2:0:0:
505,231,101629,2,0,P|503:170|479:124,1,97.5
460,97,102042,6,0,L|341:86,1,97.5,0|0,2:2|2:2,0:0:0:0:
293,156,102592,1,8,2:2:0:0:
293,156,102729,2,0,L|174:167,1,97.5
148,152,103142,1,0,2:2:0:0:
56,119,103417,1,0,0:0:0:0:
12,206,103692,1,8,2:2:0:0:
12,206,103830,2,0,P|40:261|35:299,1,97.5
70,329,104242,38,0,P|122:296|174:299,1,97.5,0|0,2:2|2:2,0:0:0:0:
254,294,104793,1,8,2:2:0:0:
254,294,104930,2,0,P|306:327|358:324,1,97.5
388,319,105343,2,0,P|355:267|358:215,1,97.5,0|0,2:2|2:2,0:0:0:0:
353,135,105893,1,8,2:2:0:0:
353,135,106031,2,0,P|386:83|383:31,1,97.5
376,1,106443,5,0,2:2:0:0:
282,29,106718,1,0,0:0:0:0:
188,1,106993,1,8,2:2:0:0:
188,1,107131,1,0,0:0:0:0:
93,24,107406,1,0,0:0:0:0:
14,147,107819,2,0,P|54:203|58:239,1,97.5,0|8,0:0|2:2,0:0:0:0:
61,278,108231,1,0,0:0:0:0:
10,363,108507,1,0,0:0:0:0:
152,332,108919,37,0,0:0:0:0:
246,306,109194,1,8,2:2:0:0:
246,306,109332,1,0,0:0:0:0:
335,343,109607,1,0,0:0:0:0:
471,291,110020,2,0,L|481:193,1,97.5,0|8,0:0|2:2,0:0:0:0:
487,145,110432,1,0,0:0:0:0:
501,48,110707,1,0,0:0:0:0:
368,110,111120,6,0,L|378:208,1,97.5,0|8,0:0|2:2,0:0:0:0:
384,256,111533,1,0,0:0:0:0:
398,353,111808,1,0,0:0:0:0:
265,291,112220,2,0,L|275:193,1,97.5,0|8,2:2|2:2,0:0:0:0:
281,145,112633,1,0,2:2:0:0:
295,48,112908,1,0,2:2:0:0:
162,110,113321,38,0,L|172:208,1,97.5,0|8,2:2|2:2,0:0:0:0:
178,256,113734,1,0,2:2:0:0:
192,353,114009,1,0,2:2:0:0:
59,291,114421,2,0,L|69:193,1,97.5,0|8,2:2|2:2,0:0:0:0:
75,145,114834,1,0,2:2:0:0:
89,48,115109,1,0,2:2:0:0:
89,48,115247,6,0,P|146:41|197:44,1,97.5,4|0,3:2|2:2,0:0:0:0:
271,88,115797,1,8,2:2:0:0:
271,88,115934,2,0,P|338:97|395:88,1,97.5,0|0,2:2|2:2,0:0:0:0:
414,80,116347,2,0,P|416:128|407:176,1,97.5,4|0,3:2|2:2,0:0:0:0:
328,231,116897,1,8,2:2:0:0:
328,231,117035,2,0,P|325:279|334:327,1,97.5,0|0,2:2|2:2,0:0:0:0:
307,367,117447,38,0,P|247:350|204:350,1,97.5,4|0,3:2|2:2,0:0:0:0:
115,366,117998,1,8,2:2:0:0:
115,366,118135,2,0,P|55:383|12:383,1,97.5,0|0,2:2|2:2,0:0:0:0:
0,338,118548,2,0,L|-5:220,1,97.5,4|0,3:2|2:2,0:0:0:0:
56,164,119098,1,8,2:2:0:0:
56,164,119236,2,0,L|61:46,1,97.5,0|0,2:2|2:2,0:0:0:0:
202,32,119910,6,0,B|269:41|347:31|347:31|313:68|314:133,1,243.75,0|0,3:3|3:3,0:0:0:0:
196,209,121010,2,0,B|129:200|51:210|51:210|85:173|84:108,1,243.75,0|0,3:3|3:3,0:0:0:0:
202,32,122110,38,0,B|269:41|347:31|347:31|313:68|314:133,1,243.75,0|0,3:3|3:3,0:0:0:0:
196,209,123211,2,0,B|129:200|51:210|51:210|85:173|84:108,1,243.75,0|0,3:3|3:3,0:0:0:0:
202,32,124311,6,0,B|269:41|347:31|347:31|313:68|314:133,1,243.75,0|0,3:3|3:3,0:0:0:0:
196,209,125411,2,0,B|129:200|51:210|51:210|85:173|84:108,1,243.75,0|0,3:3|3:3,0:0:0:0:
202,32,126512,38,0,B|269:41|347:31|347:31|313:68|314:133,1,243.75,0|0,3:3|3:3,0:0:0:0:
196,209,127612,2,0,B|100:232|100:232|57:211|57:211|88:175|84:108,1,243.75,0|0,3:3|3:3,0:0:0:0:
202,32,128713,6,0,B|298:9|298:9|341:30|341:30|310:66|314:133,1,243.75,0|0,3:3|3:3,0:0:0:0:
196,209,129813,2,0,B|100:232|100:232|57:211|57:211|88:175|84:108,1,243.75,0|0,3:3|3:3,0:0:0:0:
202,32,130913,38,0,B|298:9|298:9|341:30|341:30|310:66|314:133,1,243.75,0|0,3:3|3:3,0:0:0:0:
196,209,132014,2,0,B|100:232|100:232|92:227|92:227|84:229|84:229|79:221|79:221|67:222|67:222|57:211|57:211|88:175|84:108,1,243.75,0|0,3:3|3:3,0:0:0:0:
202,32,133114,6,0,B|298:9|298:9|306:14|306:14|314:12|314:12|319:20|319:20|331:19|331:19|341:30|341:30|310:66|314:133,1,243.75,0|0,3:3|3:3,0:0:0:0:
196,209,134215,2,0,B|100:232|100:232|92:227|92:227|84:229|84:229|79:221|79:221|67:222|67:222|57:211|57:211|88:175|84:108,1,243.75,0|0,3:3|3:3,0:0:0:0:
202,32,135315,38,0,B|298:9|298:9|306:14|306:14|314:12|314:12|319:20|319:20|331:19|331:19|341:30|341:30|310:66|314:133,1,243.75,0|0,3:3|3:3,0:0:0:0:
434,197,136416,2,0,B|416:302|416:302|403:303|403:303|400:294|400:294|395:289|395:289|386:294|386:294|380:287|380:287|314:363,1,243.75,0|0,3:3|3:3,0:0:0:0:
283,371,137241,5,0,2:2:0:0:
283,371,137378,1,0,2:2:0:0:
283,371,137516,2,0,L|186:360,1,97.5,0|8,3:3|2:2,0:0:0:0:
137,354,137929,1,0,3:3:0:0:
81,273,138204,1,0,3:3:0:0:
53,233,138341,2,0,L|62:165,1,48.75,0|0,2:2|2:2,0:0:0:0:
56,135,138616,2,0,B|54:109|54:109|124:116|124:116|137:114|137:114|142:124|142:124|153:116|153:116|163:128|163:128|170:118|170:118|266:127,1,243.75,0|0,3:3|3:3,0:0:0:0:
290,95,139442,37,0,2:2:0:0:
290,95,139579,1,0,2:2:0:0:
290,95,139717,2,0,B|386:79|386:79|378:88|378:88|387:96|387:96|393:95|393:95|388:106|388:106|397:110|397:110|375:223,1,243.75,0|0,3:3|3:3,0:0:0:0:
249,270,140817,2,0,B|169:329|169:329|162:320|162:320|151:320|151:320|146:315|146:315|149:305|149:305|137:305|137:305|125:309|125:309|126:295|126:295|52:232,1,243.75,0|0,3:3|3:3,0:0:0:0:
82,199,141642,6,0,B|62:165|70:164|66:123|66:123|70:134|90:87|74:88|74:88|63:54|63:54|33:60|33:60|-1:48,2,195,4|4|4,3:2|3:2|3:2,0:0:0:0:
52,292,143018,2,0,B|104:299|53:298|101:311,1,48.75,0|0,3:3|0:0,0:0:0:0:
133,339,143293,2,0,B|175:273|256:316|254:296|254:296|276:313,1,146.25,0|0,3:3|3:3,0:0:0:0:
297,332,143843,37,0,2:2:0:0:
297,332,143981,1,0,2:2:0:0:
297,332,144118,2,0,B|394:325|394:325|408:311|408:311|395:299|395:299|412:294|412:294|401:285|401:285|404:168,1,243.75,0|0,3:3|3:3,0:0:0:0:
402,110,145081,1,0,2:2:0:0:
402,110,145219,2,0,B|302:104|302:104|292:116|292:116|283:98|283:98|275:115|275:115|265:103|265:103|180:98,1,243.75,0|0,3:3|3:3,0:0:0:0:
53,47,146319,6,0,B|94:87|99:141|99:141|87:148|87:148|97:161|97:161|83:165|83:165|93:172|93:172|66:206|92:280,1,243.75,0|8,3:3|2:2,0:0:0:0:
177,360,147420,2,0,B|277:353|277:353|270:342|270:342|281:342|281:342|272:330|272:330|286:322|286:322|396:314,1,243.75,0|8,3:3|2:2,0:0:0:0:
502,246,148520,38,0,P|475:232|464:188,1,48.75,0|0,3:3|0:0,0:0:0:0:
471,168,148795,2,0,B|481:156|481:156|461:139|461:139|487:132|487:132|467:108|467:108|489:93|489:93|493:88,1,97.5,4|0,2:2|0:0,0:0:0:0:
477,61,149208,1,8,2:2:0:0:
338,14,149620,2,0,P|287:35|264:33,1,48.75,0|0,3:3|0:0,0:0:0:0:
245,25,149896,2,0,B|233:15|233:15|216:35|216:35|209:9|209:9|185:29|185:29|170:7|170:7|165:3,1,97.5,4|0,2:2|0:0,0:0:0:0:
138,30,150308,1,8,2:2:0:0:
27,125,150721,6,0,P|62:162|63:188,1,48.75,0|0,3:3|0:0,0:0:0:0:
51,206,150996,2,0,B|41:218|41:218|61:235|61:235|35:242|35:242|55:266|55:266|33:281|33:281|29:286,1,97.5,4|0,2:2|0:0,0:0:0:0:
52,312,151409,1,8,2:2:0:0:
52,312,151546,2,0,B|64:322|64:322|81:302|81:302|88:328|88:328|112:308|112:308|127:330|127:330|132:334,1,97.5,4|0,2:2|3:3,0:0:0:0:
182,374,152096,2,0,B|194:364|194:364|211:384|211:384|218:358|218:358|242:378|242:378|257:356|257:356|262:352,1,97.5,4|0,2:2|0:0,0:0:0:0:
318,318,152647,38,0,B|322:313|322:313|325:324|325:324|331:314|331:314|332:328|332:328|340:316|340:316|342:332|342:332|349:317|349:317|354:325|354:325,1,97.5,4|0,2:2|3:3,0:0:0:0:
432,266,153197,2,0,B|436:271|436:271|439:260|439:260|445:270|445:270|446:256|446:256|454:268|454:268|456:252|456:252|463:267|463:267|468:259|468:259,1,97.5,4|0,2:2|3:3,0:0:0:0:
463,163,153747,2,0,B|458:147|458:147|457:163|457:163|451:146|451:146|450:164|450:164|444:147|444:147|442:165|442:165|435:147|435:147|434:166|434:166,1,97.5,4|0,2:2|3:3,0:0:0:0:
359,107,154297,2,0,B|354:123|354:123|353:107|353:107|347:124|347:124|346:106|346:106|340:123|340:123|338:105|338:105|331:123|331:123|330:104|330:104,1,97.5,4|0,2:2|3:3,0:0:0:0:
302,79,154710,1,8,2:2:0:0:
302,79,154847,1,0,0:0:0:0:
165,26,155123,6,0,P|176:67|180:125,1,97.5,0|0,3:3|0:0,0:0:0:0:
136,142,155535,2,0,P|125:183|121:241,1,97.5,0|0,3:3|3:3,0:0:0:0:
