osu file format v14

[General]
AudioFilename: audio.mp3
AudioLeadIn: 0
PreviewTime: 119910
Countdown: 0
SampleSet: None
StackLeniency: 0
Mode: 0
LetterboxInBreaks: 0
WidescreenStoryboard: 1

[Editor]
Bookmarks: 50764,52967,68387,74995,94271,99773,108576,112428,115179,119855,127558
DistanceSpacing: 1
BeatDivisor: 8
GridSize: 16
TimelineZoom: 1.800001

[Metadata]
Title:On Sight
TitleUnicode:On Sight
Artist:Kanye West
ArtistUnicode:Kanye West
Creator:1103
Version:Smokeman's BAKKKSTROKE
Source:
Tags:apollo english hip hop yeezus Washedup player smokeman sparxo mrowswares apo11o trailmix
BeatmapID:3455987
BeatmapSetID:1541997

[Difficulty]
HPDrainRate:6.6
CircleSize:3.5
OverallDifficulty:8.3
ApproachRate:9.4
SliderMultiplier:2.75
SliderTickRate:1

[Events]
//Background and Video events
0,0,"fatass.png",0,0
//Break Periods
//Storyboard Layer 0 (Background)
//Storyboard Layer 1 (Fail)
//Storyboard Layer 2 (Pass)
//Storyboard Layer 3 (Foreground)
//Storyboard Layer 4 (Overlay)
//Storyboard Sound Samples

[TimingPoints]
15587,550.711335474988,4,2,1,60,1,0
19992,-40,4,2,1,60,0,0
20268,-40,4,2,3,60,0,0
20543,-50,4,2,1,60,0,0
20681,-100,4,2,1,60,0,0
21094,-40,4,2,1,60,0,0
21369,-40,4,2,3,60,0,0
21644,-50,4,2,1,60,0,0
21782,-100,4,2,1,60,0,0
22195,-40,4,2,1,60,0,0
22470,-40,4,2,3,60,0,0
22746,-50,4,2,1,60,0,0
22883,-100,4,2,1,60,0,0
23296,-40,4,2,1,60,0,0
23572,-40,4,2,3,60,0,0
23847,-50,4,2,1,60,0,0
23985,-100,4,2,1,60,0,0
24260,-40,4,2,1,60,0,0
24398,-45.4545454545455,4,2,1,60,0,0
24673,-45.4545454545455,4,2,3,60,0,0
25362,-40,4,2,1,60,0,0
25499,-45.4545454545455,4,2,1,60,0,0
25775,-45.4545454545455,4,2,3,60,0,0
26463,-50,4,2,1,60,0,0
26601,-45.4545454545455,4,2,1,60,0,0
26876,-45.4545454545455,4,2,3,60,0,0
27564,-50,4,2,1,60,0,0
27702,-45.4545454545455,4,2,1,60,0,0
27978,-45.4545454545455,4,2,3,60,0,0
28666,-50,4,2,1,60,0,0
28804,-45.4545454545455,4,2,1,60,0,0
29079,-45.4545454545455,4,2,3,60,0,0
29767,-50,4,2,1,60,0,0
29905,-45.4545454545455,4,2,1,60,0,0
30180,-45.4545454545455,4,2,3,60,0,0
30869,-50,4,2,1,60,0,0
31006,-45.4545454545455,4,2,1,60,0,0
31282,-45.4545454545455,4,2,3,60,0,0
31970,-50,4,2,1,60,0,0
32108,-45.4545454545455,4,2,1,60,0,0
32383,-45.4545454545455,4,2,3,60,0,0
33072,-50,4,2,1,60,0,0
33209,-117.647058823529,4,2,1,60,0,0
33485,-95.238095238095,4,2,1,60,0,0
33622,-117.647058823529,4,2,1,60,0,0
34311,-95.238095238095,4,2,1,60,0,0
34586,-68.9655172413792,4,2,1,60,0,0
34724,-74.0740740740741,4,2,1,60,0,0
34861,-95.238095238095,4,2,1,60,0,0
35687,-80,4,2,1,60,0,0
35963,-68.9655172413793,4,2,1,60,0,0
36238,-95.238095238095,4,2,1,60,0,0
36376,-74.0740740740741,4,2,1,60,0,0
36789,-64.5161290322581,4,2,1,60,0,0
37202,-57.1428571428571,4,2,1,60,0,0
37615,-40,4,2,1,60,0,0
38716,-45.4545454545455,4,2,1,60,0,0
42021,-95.238095238095,4,2,1,60,0,0
42709,-68.9655172413793,4,2,1,60,0,0
42984,-95.238095238095,4,2,1,60,0,0
45876,-68.9655172413793,4,2,1,60,0,0
46151,-95.238095238095,4,2,1,60,0,0
48078,-68.9655172413793,4,2,1,60,0,0
48354,-95.238095238095,4,2,1,60,0,0
50281,-68.9655172413793,4,2,1,60,0,0
50557,-95.2380952380952,4,2,1,60,0,0
50832,-45.4545454545455,4,2,1,60,0,0
51383,-57.1428571428571,4,2,1,60,0,0
51658,-95.238095238095,4,2,1,60,0,0
52209,-68.9655172413793,4,2,1,60,0,0
52484,-60.6060606060606,4,2,1,60,0,0
53035,-45.4545454545455,4,2,1,60,0,0
53586,-57.1428571428571,4,2,1,60,0,0
53861,-95.238095238095,4,2,1,60,0,0
54136,-40,4,2,1,60,0,0
54412,-40,4,2,3,60,0,0
54687,-57.1428571428571,4,2,1,60,0,0
54962,-95.238095238095,4,2,1,60,0,0
55788,-68.9655172413793,4,2,1,60,0,0
56890,-60.6060606060606,4,2,1,60,0,0
57441,-68.9655172413793,4,2,1,60,0,0
59093,-60.6060606060606,4,2,1,60,0,0
59643,-45.4545454545455,4,2,1,60,0,0
60194,-68.9655172413793,4,2,1,60,0,0
60745,-45.4545454545455,4,2,1,60,0,0
61296,-68.9655172413793,4,2,1,60,0,0
61846,-45.4545454545455,4,2,1,60,0,0
62397,-68.9655172413793,4,2,1,60,0,0
62948,-50,4,2,1,60,0,0
63017,-50,4,2,1,20,0,0
63223,-50,4,2,1,60,0,0
63292,-50,4,2,1,20,0,0
63498,-50,4,2,1,60,0,0
63567,-50,4,2,1,20,0,0
63911,-50,4,2,1,60,0,0
64049,-38.4615384615385,4,2,1,70,0,0
64324,-38.4615384615385,4,2,3,70,0,0
64462,-38.4615384615385,4,2,1,70,0,0
65426,-38.4615384615385,4,2,3,70,0,0
65564,-38.4615384615385,4,2,1,70,0,0
66527,-38.4615384615385,4,2,3,70,0,0
66665,-38.4615384615385,4,2,1,70,0,0
67629,-38.4615384615385,4,2,3,70,0,0
67766,-38.4615384615385,4,2,1,70,0,0
68455,-40,4,2,1,70,0,0
68730,-40,4,2,3,70,0,0
68868,-40,4,2,1,70,0,0
69832,-40,4,2,3,70,0,0
69969,-40,4,2,1,70,0,0
70933,-40,4,2,3,70,0,0
71071,-40,4,2,1,70,0,0
72034,-40,4,2,3,70,0,0
72172,-40,4,2,1,70,0,0
73136,-40,4,2,3,70,0,0
73274,-40,4,2,1,70,0,0
74237,-40,4,2,3,70,0,0
74375,-40,4,2,1,70,0,0
75063,-66.6666666666667,4,2,1,70,0,0
77232,907.578278626531,4,2,1,70,1,0
78139,861.945122827179,4,2,1,70,1,0
81620,852.757248436612,4,2,1,70,1,0
84178,873.743993010048,4,2,1,70,1,0
85051,865.051903114187,4,2,1,70,1,0
87649,852.757248436612,4,2,1,70,1,0
91038,550.206327372765,4,2,1,65,1,0
91038,-40,4,2,1,65,0,0
94064,-95.2380952380952,4,2,1,60,0,0
95026,-68.9655172413793,4,2,1,60,0,0
95302,-95.2380952380952,4,2,1,60,0,0
97090,-68.9655172413793,4,2,1,60,0,0
97502,-95.2380952380952,4,2,1,60,0,0
99291,-68.9655172413793,4,2,1,60,0,0
99703,-95.2380952380952,4,2,1,60,0,0
99841,-86.9565217391304,4,2,1,60,0,0
100116,-51.2820512820513,4,2,1,60,0,0
101216,-51.2820512820513,4,2,1,60,0,0
101491,-86.9565217391304,4,2,1,60,0,0
102317,-51.2820512820513,4,2,1,60,0,0
102592,-86.9565217391304,4,2,1,60,0,0
103417,-51.2820512820513,4,2,1,60,0,0
103692,-86.9565217391304,4,2,1,60,0,0
106443,-95.2380952380952,4,2,1,60,0,0
108644,-105.263157894737,4,2,1,60,0,0
110570,-95.2380952380952,4,2,1,60,0,0
110845,-86.9565217391304,4,2,1,60,0,0
112496,-68.9655172413793,4,2,1,60,0,0
115247,-38.4615384615385,4,2,1,70,0,0
115522,-38.4615384615385,4,2,3,70,0,0
115659,-38.4615384615385,4,2,1,70,0,0
116622,-38.4615384615385,4,2,3,70,0,0
116760,-38.4615384615385,4,2,1,70,0,0
117723,-38.4615384615385,4,2,3,70,0,0
117860,-38.4615384615385,4,2,1,70,0,0
118823,-38.4615384615385,4,2,3,70,0,0
118960,-38.4615384615385,4,2,1,70,0,0
119910,550.206327372765,4,2,1,65,1,0
119910,-100,4,2,1,50,0,0
141643,-50,4,2,1,50,0,0

[Colours]
Combo1 : 216,198,124
Combo2 : 180,180,180
Combo3 : 205,205,205
Combo4 : 145,145,145
Combo5 : 216,124,131

[HitObjects]
480,192,15587,6,0,P|483:175|501:144,1,34.375,0|0,2:2|0:0,0:0:0:0:
476,199,15724,2,0,P|470:182|470:146,1,34.375,0|0,2:2|0:0,0:0:0:0:
422,279,15862,2,0,L|517:292,1,68.75,0|0,2:2|2:2,0:0:0:0:
345,319,16137,2,0,L|359:416,1,68.75,8|0,2:2|2:2,0:0:0:0:
263,356,16413,1,0,2:2:0:0:
472,206,16550,5,0,3:3:0:0:
506,135,16688,1,0,0:0:0:0:
397,102,16826,1,0,0:0:0:0:
298,194,16963,2,0,L|393:207,1,68.75,0|0,2:2|2:2,0:0:0:0:
198,231,17239,2,0,L|188:162,1,68.75,8|0,2:2|2:2,0:0:0:0:
106,124,17514,1,0,2:2:0:0:
468,213,17652,5,0,3:3:0:0:
395,298,17789,1,0,0:0:0:0:
456,355,17927,1,0,0:0:0:0:
266,256,18065,2,0,L|197:246,1,68.75,0|0,2:2|2:2,0:0:0:0:
5,308,18340,2,0,L|62:347,1,68.75,8|0,2:2|2:2,0:0:0:0:
153,316,18615,1,0,2:2:0:0:
464,220,18753,37,0,3:3:0:0:
331,162,18891,1,0,0:0:0:0:
376,89,19028,1,0,0:0:0:0:
223,42,19166,2,0,L|237:139,1,68.75,0|0,2:2|2:2,0:0:0:0:
127,225,19441,2,0,L|58:215,1,68.75,8|0,2:2|2:2,0:0:0:0:
3,287,19717,1,0,2:2:0:0:
460,227,19855,5,0,3:3:0:0:
32,192,19992,6,0,B|6:41|6:41|21:5,1,171.875,4|0,3:2|0:0,0:0:0:0:
269,179,20268,2,0,B|196:281|196:281|175:356,1,171.875,4|0,3:2|0:0,0:0:0:0:
383,275,20543,2,0,L|375:373,1,68.75,8|0,2:2|0:0,0:0:0:0:
287,376,20681,1,0,0:0:0:0:
289,383,20818,1,0,0:0:0:0:
40,206,20956,37,0,3:3:0:0:
456,234,21094,6,0,B|482:83|482:83|467:47,1,171.875,4|0,3:2|0:0,0:0:0:0:
237,214,21369,2,0,B|336:294|336:294|391:313,1,171.875,4|0,3:2|0:0,0:0:0:0:
171,315,21644,2,0,L|93:345,1,68.75,8|0,2:2|0:0,0:0:0:0:
241,372,21782,1,0,0:0:0:0:
249,384,21920,1,0,0:0:0:0:
452,241,22057,5,0,3:3:0:0:
48,220,22195,38,0,B|22:69|22:69|37:33,1,171.875,4|0,3:2|0:0,0:0:0:0:
231,251,22470,2,0,B|335:158|335:158|344:121,1,171.875,4|0,3:2|0:0,0:0:0:0:
442,334,22746,2,0,L|372:313,1,68.75,8|0,2:2|0:0,0:0:0:0:
271,338,22883,1,0,2:2:0:0:
280,350,23021,1,0,2:2:0:0:
56,234,23159,5,0,3:3:0:0:
448,248,23296,6,0,B|474:97|474:97|459:61,1,171.875,4|0,3:2|0:0,0:0:0:0:
254,263,23572,2,0,B|179:152|179:152|114:118,1,171.875,4|0,3:2|0:0,0:0:0:0:
11,360,23847,2,0,L|93:393,1,68.75,8|0,2:2|0:0,0:0:0:0:
138,321,23985,1,0,2:2:0:0:
146,339,24123,1,0,2:2:0:0:
444,255,24260,37,0,3:3:0:0:
266,5,24398,6,0,B|275:59|275:59|307:176,1,151.250004615784,4|0,3:2|0:0,0:0:0:0:
375,380,24673,2,4,B|366:326|366:326|334:209,1,151.250004615784,4|0,3:2|0:0,3:0:0:0:
188,105,24949,1,8,2:2:0:0:
132,265,25086,1,0,2:2:0:0:
48,239,25362,5,0,3:3:0:0:
153,6,25499,38,0,B|144:60|144:60|112:177,1,151.250004615784,4|0,3:2|0:0,0:0:0:0:
236,351,25775,2,0,B|227:297|227:297|195:180,1,151.250004615784,4|0,3:2|0:0,0:0:0:0:
348,130,26050,1,8,2:2:0:0:
311,289,26188,1,0,2:2:0:0:
385,358,26463,5,0,3:3:0:0:
502,190,26601,6,0,B|473:95|473:95|431:37,1,151.250004615784,4|0,3:2|0:0,0:0:0:0:
157,236,26876,2,0,B|199:318|199:318|245:356,1,151.250004615784,4|0,3:2|0:0,0:0:0:0:
480,273,27151,1,0,2:2:0:0:
315,237,27289,1,0,2:2:0:0:
250,170,27564,37,0,3:3:0:0:
3,332,27702,6,0,B|32:237|32:237|74:179,1,151.250004615784,4|0,3:2|0:0,0:0:0:0:
318,119,27978,2,0,B|275:36|275:36|229:-1,1,151.250004615784,4|0,3:2|0:0,0:0:0:0:
156,258,28253,1,0,2:2:0:0:
321,222,28391,1,0,2:2:0:0:
411,249,28666,5,0,3:3:0:0:
486,20,28804,38,0,B|424:106|424:106|440:160,1,151.250004615784,4|0,3:2|0:0,0:0:0:0:
506,379,29079,2,0,B|421:337|421:337|341:323,1,151.250004615784,4|0,3:2|0:0,0:0:0:0:
80,368,29354,1,0,2:2:0:0:
245,332,29492,1,0,2:2:0:0:
207,257,29767,5,0,3:3:0:0:
17,63,29905,6,0,B|38:166|38:166|88:213,1,151.250004615784,4|0,3:2|0:0,0:0:0:0:
326,253,30180,2,0,B|377:212|377:212|487:171,1,151.250004615784,4|0,3:2|0:0,0:0:0:0:
291,15,30456,1,0,2:2:0:0:
269,182,30593,1,0,0:0:0:0:
198,247,30869,37,0,3:3:0:0:
451,351,31006,6,0,B|336:378|336:378|260:357,1,151.250004615784,4|0,3:2|0:0,0:0:0:0:
31,245,31282,2,0,B|68:199|68:199|98:97,1,151.250004615784,4|0,3:2|0:0,0:0:0:0:
273,0,31557,1,0,2:2:0:0:
295,167,31695,1,0,0:0:0:0:
216,130,31970,5,0,3:3:0:0:
48,359,32108,38,0,B|111:350|111:350|206:308,1,151.250004615784,4|0,3:2|0:0,0:0:0:0:
512,140,32383,2,0,B|470:182|470:182|377:228,1,151.250004615784,4|0,3:2|0:0,0:0:0:0:
123,255,32659,1,0,2:2:0:0:
279,301,32796,1,0,0:0:0:0:
339,358,33072,5,0,3:3:0:0:
470,331,33209,6,0,L|492:284,1,29.2187505573034,0|0,2:2|0:0,0:0:0:0:
480,329,33347,2,0,L|502:282,1,29.2187505573034
417,261,33485,2,0,P|455:228|465:223,1,36.0937488985062,0|0,2:2|0:0,0:0:0:0:
403,252,33622,2,0,L|415:225,1,29.2187505573034
350,187,33760,2,0,L|329:158,1,29.2187505573034,8|0,2:2|0:0,0:0:0:0:
337,140,33898,2,0,L|378:155,1,29.2187505573034
397,78,34035,2,0,L|370:68,1,29.2187505573034,0|0,2:2|0:0,0:0:0:0:
468,0,34173,37,0,0:0:0:0:
235,49,34311,6,0,P|201:57|151:59,1,72.1874977970124,0|0,2:2|0:0,0:0:0:0:
64,126,34586,2,0,P|40:117|59:102,1,49.8437515211106,0|0,2:2|0:0,0:0:0:0:
148,147,34724,2,0,P|151:167|130:168,1,46.4062501770258
0,238,34861,2,0,P|44:226|144:218,1,144.374995594025,8|0,2:2|0:0,0:0:0:0:
399,345,35274,5,0,0:0:0:0:
295,381,35412,38,0,P|269:336|258:291,1,72.1874977970124,0|0,2:2|0:0,0:0:0:0:
512,242,35687,2,0,P|502:286|469:316,1,85.9375,0|0,2:2|0:0,0:0:0:0:
460,83,35963,2,0,P|473:104|483:127,1,49.8437515211106,8|0,2:2|0:0,0:0:0:0:
372,63,36100,2,0,P|363:114|345:155,1,49.8437515211106
296,193,36238,5,0,2:2:0:0:
228,112,36376,2,0,P|292:155|323:189,1,92.8125003540516,0|0,0:0|2:2,0:0:0:0:
192,291,36651,5,0,0:0:0:0:
299,302,36789,2,0,P|228:338|183:348,1,106.562500813007,0|0,2:2|0:0,0:0:0:0:
100,222,37064,37,8,2:2:0:0:
6,328,37202,2,0,P|11:251|76:82,1,240.625002294779
215,0,37615,6,0,B|268:-38|277:22|273:58|244:77|231:73|219:70|171:108|189:162|235:127|241:117|248:108|300:84|253:155|229:183|212:222,1,257.8125,4|0,3:2|0:0,0:0:0:0:
272,355,37890,2,0,B|278:388|237:396|217:364|236:321|275:255,1,171.875,0|0,2:2|2:2,0:0:0:0:
485,72,38166,6,0,B|449:64|418:72|364:115|407:110|418:117|429:124|461:83|477:124|418:161|376:151|379:142|393:101|335:148|374:163|339:183|304:196,1,257.8125,4|0,3:2|0:0,0:0:0:0:
85,243,38441,2,0,B|65:258|60:277|58:283|128:285|181:261|207:216,1,171.875,0|0,2:2|2:2,0:0:0:0:
252,82,38648,37,0,0:0:0:0:
246,73,38716,2,0,P|174:44|66:37,1,151.250004615784,4|0,3:2|2:2,0:0:0:0:
366,195,38923,1,0,0:0:0:0:
374,202,38992,2,0,P|404:274|411:382,2,151.250004615784,0|0|8,2:2|2:2|2:2,0:0:0:0:
72,137,39405,2,0,B|155:139|270:170|315:252|214:276,1,302.500009231568,0|0,2:2|2:2,0:0:0:0:
7,319,39749,5,0,0:0:0:0:
0,293,39818,2,0,B|42:253|134:266|215:315|281:379,1,302.500009231568,0|0,3:2|2:2,0:0:0:0:
503,267,40231,1,0,2:2:0:0:
397,33,40369,1,8,2:2:0:0:
480,10,40644,1,0,2:2:0:0:
401,334,40782,2,0,L|357:190,1,151.250004615784,0|0,2:2|3:2,0:0:0:0:
306,60,41057,1,0,2:2:0:0:
499,314,41195,2,0,L|347:271,1,151.250004615784,0|0,2:2|2:2,0:0:0:0:
157,109,41470,1,8,2:2:0:0:
509,172,41608,2,0,L|284:401,1,302.500009231568,0|0,2:2|2:2,0:0:0:0:
183,340,42021,5,0,2:2:0:0:
146,356,42158,1,0,0:0:0:0:
109,372,42296,2,0,L|51:274,1,72.1874977970124,0|0,2:2|0:0,0:0:0:0:
126,199,42571,1,8,2:2:0:0:
162,206,42709,2,0,L|192:96,2,99.6875030422212,0|0|0,0:0|2:2|0:0,0:0:0:0:
7,175,43122,1,0,2:2:0:0:
322,242,43397,38,0,L|367:80,1,144.374995594025,0|8,2:2|2:2,0:0:0:0:
407,4,44086,6,0,L|428:54,1,36.0937488985062
480,97,44223,1,0,2:2:0:0:
468,114,44361,1,0,0:0:0:0:
456,132,44499,2,0,L|461:187,1,36.0937488985062,0|0,2:2|0:0,0:0:0:0:
489,244,44637,1,0,0:0:0:0:
443,314,44774,2,0,L|465:357,3,36.0937488985062,8|0|0|0,2:2|0:0|0:0|0:0,0:0:0:0:
359,354,45050,1,0,2:2:0:0:
99,275,45325,1,0,2:2:0:0:
191,216,45600,2,0,L|168:253,1,36.0937488985062
101,364,45738,1,0,0:0:0:0:
200,232,45876,2,0,L|333:269,2,99.6875030422212,8|0|0,2:2|0:0|2:2,0:0:0:0:
1,80,46495,5,0,0:0:0:0:
7,70,46564,2,0,P|22:107|37:159,1,72.1874977970124,0|0,0:0|2:2,0:0:0:0:
150,15,46839,2,0,L|131:84,1,72.1874977970124,0|8,0:0|2:2,0:0:0:0:
256,157,47115,1,0,0:0:0:0:
281,238,47252,1,0,2:2:0:0:
385,104,47390,1,0,0:0:0:0:
475,343,47665,2,0,L|520:176,1,144.374995594025
394,348,48078,2,0,L|286:367,2,99.6875030422212,8|0|0,2:2|0:0|2:2,0:0:0:0:
10,129,48629,38,0,L|41:269,1,144.374995594025,0|0,2:2|2:2,0:0:0:0:
36,283,49042,1,0,0:0:0:0:
192,225,49180,2,0,L|121:210,1,72.1874977970124,8|0,2:2|0:0,0:0:0:0:
57,65,49455,2,0,L|133:-7,1,72.1874977970124,0|0,2:2|0:0,0:0:0:0:
288,49,49731,1,0,2:2:0:0:
162,369,50006,2,0,L|197:361,1,36.0937488985062
276,295,50144,2,0,L|366:332,1,72.1874977970124,0|8,0:0|2:2,0:0:0:0:
463,254,50419,2,0,L|492:146,1,99.6875030422212,0|0,0:0|2:2,0:0:0:0:
512,81,50694,1,0,0:0:0:0:
411,372,50832,6,0,B|400:325|400:325|380:275|380:275|365:213|365:213|331:129|331:129|323:102|323:102|313:80,1,302.500009231568,4|0,3:2|2:2,0:0:0:0:
222,0,51245,1,0,2:2:0:0:
69,265,51383,2,0,B|114:271|183:210|228:145|243:75,1,240.625002294779,8|0,2:2|0:0,0:0:0:0:
53,27,51796,1,0,3:3:0:0:
147,49,51933,1,0,2:2:0:0:
266,282,52209,2,0,B|344:240|344:240|428:183,1,149.531254563332,0|0,2:2|0:0,0:0:0:0:
512,191,52484,2,0,B|381:266|381:266|305:334,1,226.875002163649,8|0,2:2|2:2,0:0:0:0:
257,376,52897,1,0,0:0:0:0:
0,255,53035,6,0,B|15:260|31:265|31:265|67:264|100:271|100:271|129:260|167:255|167:255|195:234|230:223|230:223|241:209|275:184|275:184,1,302.500009231568,4|0,3:2|2:2,0:0:0:0:
328,50,53448,1,0,2:2:0:0:
65,0,53586,2,0,B|42:-7|11:8|-5:52|44:157|146:186,1,240.625002294779,8|0,2:2|0:0,0:0:0:0:
335,235,53999,1,0,3:3:0:0:
502,30,54136,38,0,B|476:27|453:18|453:18|440:39|418:60|418:60|426:87|426:115|426:115|438:135|442:169|442:169|457:191|463:221|463:221,1,257.8125,4|0,3:2|0:0,0:0:0:0:
408,352,54412,6,0,B|419:341|437:329|437:329|437:312|446:295|446:295|417:291|391:279|391:279|362:290|330:290|330:290|303:307|265:312|265:312,1,257.8125,4|0,3:2|0:0,0:0:0:0:
77,350,54687,6,0,B|24:362|-7:423|38:372|11:422|14:340|-45:391|8:327|61:303|83:280|72:221|60:206,1,240.625002294779,8|0,2:2|0:0,0:0:0:0:
23,27,55238,37,0,2:2:0:0:
85,77,55513,1,0,2:2:0:0:
402,126,55788,2,0,L|382:252,1,99.6875030422212,8|0,2:2|0:0,0:0:0:0:
429,295,56064,1,0,2:2:0:0:
476,361,56201,1,0,0:0:0:0:
270,298,56339,1,0,2:2:0:0:
476,213,56614,1,0,2:2:0:0:
327,11,56890,2,0,L|375:244,1,226.875002163649,8|0,2:2|2:2,0:0:0:0:
494,352,57441,5,0,2:2:0:0:
394,384,57716,1,0,2:2:0:0:
51,279,57991,2,0,L|16:167,1,99.6875030422212,8|0,2:2|0:0,0:0:0:0:
89,19,58267,1,0,2:2:0:0:
71,108,58404,1,0,0:0:0:0:
284,162,58542,1,0,2:2:0:0:
390,125,58817,1,0,2:2:0:0:
212,353,59093,2,0,L|414:199,1,226.875002163649,8|0,2:2|2:2,0:0:0:0:
506,313,59643,6,0,L|280:206,1,226.875002163649,4|0,3:2|0:0,0:0:0:0:
380,142,59919,2,4,L|224:328,1,226.875006923676,4|0,3:2|0:0,3:0:0:0:
135,344,60194,1,8,2:2:0:0:
242,329,60332,1,0,2:2:0:0:
31,360,60469,2,0,L|-4:254,1,99.6875030422212,0|0,0:0|3:3,0:0:0:0:
109,202,60745,38,0,L|164:-38,1,226.875006923676,4|0,3:2|0:0,0:0:0:0:
37,41,61020,2,0,L|272:5,1,226.875006923676,4|0,3:2|0:0,0:0:0:0:
453,92,61296,2,0,L|510:-10,1,99.6875030422212,8|0,2:2|2:2,0:0:0:0:
357,103,61571,1,0,0:0:0:0:
490,139,61709,1,0,3:3:0:0:
273,222,61846,6,0,L|443:396,1,226.875006923676,4|0,3:2|0:0,0:0:0:0:
503,290,62122,2,0,L|215:364,1,226.875006923676,4|0,3:2|0:0,0:0:0:0:
108,379,62397,2,0,L|24:325,1,99.6875030422212,8|0,2:2|2:2,0:0:0:0:
95,196,62672,2,0,L|0:225,1,99.6875030422212,0|0,0:0|3:3,0:0:0:0:
30,18,62948,6,0,L|71:74,1,68.75,4|0,3:2|0:0,0:0:0:0:
280,157,63223,2,0,L|248:218,1,68.75,4|0,2:2|0:0,0:0:0:0:
426,0,63498,2,0,L|450:64,1,68.75,8|0,2:2|0:0,0:0:0:0:
511,304,63911,1,0,3:3:0:0:
256,384,64049,38,0,B|147:338|147:338|59:269,1,178.749991817475,4|0,3:2|2:2,0:0:0:0:
0,0,64324,6,0,B|37:84|37:84|92:161,1,178.749991817475,4|0,3:2|2:2,0:0:0:0:
330,330,64600,1,8,2:2:0:0:
512,192,64737,1,0,2:2:0:0:
466,185,64806,1,0,0:0:0:0:
420,179,64875,2,0,L|392:273,1,89.3749959087374,0|0,2:2|0:0,0:0:0:0:
310,198,65013,2,0,L|282:292,1,89.3749959087374,0|0,2:2|0:0,0:0:0:0:
125,363,65151,6,0,B|166:284|166:284|226:207,1,178.749991817475,4|0,3:2|2:2,0:0:0:0:
55,0,65426,38,0,B|15:79|15:79|-13:168,1,178.749991817475,4|0,3:2|2:2,0:0:0:0:
222,379,65701,5,8,2:2:0:0:
324,159,65839,1,0,2:2:0:0:
306,116,65908,1,0,0:0:0:0:
354,52,65977,2,0,L|451:19,2,89.3749959087374,0|0|0,2:2|0:0|2:2,0:0:0:0:
512,382,66252,6,0,B|422:335|422:335|313:306,1,178.749991817475,4|0,3:2|2:2,0:0:0:0:
34,252,66527,38,0,B|111:196|111:196|203:109,1,178.749991817475,4|0,3:2|2:2,0:0:0:0:
273,372,66803,5,8,2:2:0:0:
232,197,66940,1,0,2:2:0:0:
270,146,67009,1,0,0:0:0:0:
261,65,67078,2,0,L|177:16,1,89.3749959087374,0|0,2:2|0:0,0:0:0:0:
190,139,67216,2,0,L|317:87,1,89.3749959087374,0|0,2:2|0:0,0:0:0:0:
451,20,67353,6,0,B|470:126|470:126|495:213,1,178.749991817475,4|0,3:2|2:2,0:0:0:0:
272,384,67629,38,0,B|206:332|206:332|114:278,1,178.749991817475,4|0,3:2|2:2,0:0:0:0:
17,28,67904,5,8,2:2:0:0:
0,197,68042,1,0,2:2:0:0:
55,214,68111,1,0,0:0:0:0:
124,172,68179,2,0,L|144:75,2,89.3749959087374,0|0|0,2:2|0:0|2:2,0:0:0:0:
375,324,68455,6,0,B|386:294|386:294|484:182,1,171.875,4|0,3:2|2:2,0:0:0:0:
462,0,68730,2,0,B|401:90|401:90|353:142,1,171.875,4|0,3:2|2:2,0:0:0:0:
245,354,69005,1,8,2:2:0:0:
337,301,69143,1,0,2:2:0:0:
135,266,69281,1,0,2:2:0:0:
148,351,69419,1,0,2:2:0:0:
20,166,69556,38,0,B|86:184|86:184|175:263,1,171.875,4|0,3:2|2:2,0:0:0:0:
306,32,69832,2,0,B|318:109|318:109|284:203,1,171.875,4|0,3:2|2:2,0:0:0:0:
512,248,70107,2,0,L|159:401,1,343.75,8|0,2:2|0:0,0:0:0:0:
0,253,70658,5,4,3:2:0:0:
398,347,70933,1,4,3:2:0:0:
240,265,71071,1,0,2:2:0:0:
444,220,71208,1,8,2:2:0:0:
379,130,71346,1,0,2:2:0:0:
448,16,71484,1,0,2:2:0:0:
412,236,71621,1,0,0:0:0:0:
388,356,71759,6,0,L|218:225,1,171.875,4|0,3:2|0:0,0:0:0:0:
2,130,72034,1,4,3:2:0:0:
212,16,72310,1,8,2:2:0:0:
266,123,72447,1,0,0:0:0:0:
149,93,72585,1,0,2:2:0:0:
95,181,72723,1,0,2:2:0:0:
45,366,72860,38,0,B|179:348|179:348|229:328,1,171.875,4|0,3:2|0:0,0:0:0:0:
411,217,73136,2,0,B|475:143|475:143|519:63,1,171.875,4|0,3:2|0:0,0:0:0:0:
476,275,73411,1,8,0:0:0:0:
365,325,73549,1,0,2:2:0:0:
227,237,73687,1,0,2:2:0:0:
197,148,73824,1,0,2:2:0:0:
214,93,73962,5,4,3:2:0:0:
360,21,74100,1,0,0:0:0:0:
414,110,74237,1,4,3:2:0:0:
425,94,74513,5,8,2:2:0:0:
210,73,74650,1,0,2:2:0:0:
0,0,74857,38,0,L|68:52,1,85.9375
117,281,75339,6,0,L|30:351,2,103.125003933907
168,272,75752,6,0,L|81:342,1,103.125003933907
256,256,76165,1,0,0:0:0:0:
424,336,76440,38,0,L|344:272,1,103.125003933907
475,345,76715,6,0,L|395:281,2,103.125003933907
256,192,77232,22,0,B|352:128|384:176|368:240|512:192,1,275,0|0,0:0|0:0,2:0:0:0:
256,64,78785,1,0,0:0:0:0:
240,96,79000,2,0,B|128:160|96:160|0:64,1,275,2|0,2:0|0:0,0:0:0:0:
16,128,80078,2,0,L|16:224,1,68.75
16,256,80509,1,2,2:0:0:0:
0,320,80724,2,0,B|96:288|128:288|224:416,1,206.25
224,304,81620,6,0,L|336:304,1,68.75,8|0,1:0|1:0,0:0:0:0:
352,352,82046,2,0,L|448:352,1,68.75,8|0,1:0|1:0,0:0:0:0:
496,256,82472,2,8,L|496:112,1,137.5,8|8,1:0|1:0,0:0:0:0:
432,32,83112,2,0,L|304:160,1,160.416666666667,8|0,1:0|1:0,0:0:0:0:
240,112,83751,2,0,L|176:48,1,68.75,8|0,1:0|1:0,0:0:0:0:
80,80,84178,53,0,0:0:0:0:
144,352,84833,1,0,0:0:0:0:
208,352,85051,1,0,0:0:0:0:
416,352,85699,1,0,0:0:0:0:
352,352,85916,2,0,L|352:256,1,68.75,2|0,2:0|0:0,0:0:0:0:
416,144,86564,1,2,2:0:0:0:
480,144,86781,1,0,0:0:0:0:
304,48,87213,2,0,L|336:112,1,68.75,2|0,2:0|0:0,0:0:0:0:
416,256,87649,6,0,L|446:317,3,68.75,2|0|0|0,2:0|0:0|0:0|0:0,0:0:0:0:
384,288,88501,1,0,0:0:0:0:
160,176,89141,1,0,0:0:0:0:
128,240,89354,1,0,0:0:0:0:
64,368,89780,1,0,0:0:0:0:
192,320,90207,1,0,0:0:0:0:
256,336,90420,1,0,0:0:0:0:
320,352,90633,1,0,0:0:0:0:
508,281,91038,6,0,B|471:181|471:181|454:66,1,171.875,4|0,3:2|2:2,0:0:0:0:
321,0,91313,6,0,B|255:48|255:48|158:87,1,171.875,0|0,2:2|2:2,0:0:0:0:
11,193,91588,2,0,L|-17:108,2,85.9375,8|0|0,2:2|0:0|0:0,0:0:0:0:
148,265,91863,1,0,2:2:0:0:
78,312,92000,1,0,2:2:0:0:
267,372,92138,6,0,B|351:327|351:327|440:297,1,171.875,4|0,3:2|2:2,0:0:0:0:
324,88,92413,2,0,B|417:127|417:127|487:139,1,171.875,0|0,2:2|2:2,0:0:0:0:
242,280,92688,1,8,2:2:0:0:
193,80,92826,1,0,0:0:0:0:
260,20,92963,1,0,2:2:0:0:
160,253,93101,1,0,0:0:0:0:
92,370,93238,38,0,B|32:295|32:295|-22:191,1,171.875,4|0,3:2|2:2,0:0:0:0:
240,362,93513,2,0,B|332:337|332:337|411:284,1,171.875,0|0,2:2|2:2,0:0:0:0:
512,140,93789,2,0,L|539:37,2,85.9375,8|0|0,2:2|0:0|0:0,0:0:0:0:
480,292,94064,1,0,2:2:0:0:
296,159,94201,1,0,2:2:0:0:
395,50,94339,2,0,L|329:80,1,72.1874977970124,0|0,3:3|2:2,0:0:0:0:
285,262,94614,2,0,L|315:196,1,72.1874977970124,0|0,2:2|2:2,0:0:0:0:
214,342,94889,1,8,2:2:0:0:
100,313,95026,1,0,0:0:0:0:
0,192,95164,2,0,L|14:290,2,99.6875030422212,0|0|0,2:2|0:0|3:3,0:0:0:0:
488,143,96402,6,0,L|367:80,1,108.281246695519,0|0,2:2|0:0,0:0:0:0:
373,17,96677,1,0,0:0:0:0:
308,187,96815,1,0,2:2:0:0:
281,361,97090,2,0,B|437:378|437:378|450:339|450:339|348:359,1,299.062509126663,8|0,2:2|2:2,0:0:0:0:
54,254,98328,5,0,2:2:0:0:
21,238,98362,1,0,0:0:0:0:
152,170,98603,2,0,L|70:23,1,144.374995594025,0|0,2:2|2:2,0:0:0:0:
276,133,99015,2,0,L|269:47,1,72.1874977970124,0|0,2:2|2:2,0:0:0:0:
406,165,99291,2,0,B|459:48|459:48|394:-4|394:-4|419:100,1,299.062509126663,8|0,2:2|0:0,0:0:0:0:
166,306,99841,37,0,2:2:0:0:
150,327,99887,1,0,0:0:0:0:
69,358,100116,2,0,B|27:353|10:330|51:300|54:307|115:345|115:355|146:383|265:354,1,268.125001022816,0|0,2:2|0:0,0:0:0:0:
440,264,100529,5,2,0:0:0:0:
440,264,100574,1,0,0:0:0:0:
440,264,100620,1,0,0:0:0:0:
440,264,100666,1,0,0:0:0:0:
260,146,100941,5,0,2:2:0:0:
283,137,100976,1,0,0:0:0:0:
379,108,101216,2,0,B|397:183|363:141|410:143|283:32|292:78|263:163|321:33|211:4,1,268.125001022816,2|8,2:2|2:2,0:0:0:0:
32,204,101629,37,2,0:0:0:0:
32,204,101675,1,0,0:0:0:0:
32,204,101721,1,0,0:0:0:0:
32,204,101767,1,0,2:2:0:0:
163,149,102042,5,0,2:2:0:0:
137,142,102087,1,0,0:0:0:0:
211,218,102317,2,0,B|182:187|254:154|275:159|270:166|254:237|259:245|184:230|169:351|263:304,1,268.125001022816,0|8,2:2|2:2,0:0:0:0:
415,373,102729,5,2,0:0:0:0:
415,373,102775,1,0,0:0:0:0:
415,373,102821,1,0,0:0:0:0:
491,104,103142,37,0,2:2:0:0:
486,78,103188,1,0,0:0:0:0:
504,184,103417,2,0,B|447:179|436:129|421:129|401:132|423:186|433:193|427:209|492:315,1,268.125001022816,0|8,0:0|2:2,0:0:0:0:
227,382,103830,5,0,0:0:0:0:
318,319,103967,1,0,2:2:0:0:
96,346,104105,2,0,L|135:373,1,39.5312507539988
55,369,104242,2,0,L|89:269,1,79.0625015079976,0|0,2:2|0:0,0:0:0:0:
231,242,104518,2,0,L|307:189,1,79.0625015079976,0|0,2:2|0:0,0:0:0:0:
319,0,104793,2,0,L|353:109,1,79.0625015079976,8|0,2:2|0:0,0:0:0:0:
405,208,105068,1,0,2:2:0:0:
405,208,105205,1,0,0:0:0:0:
144,181,105343,6,0,P|157:133|165:97,1,79.0625015079976,0|0,2:2|0:0,0:0:0:0:
405,206,105618,2,0,L|347:58,1,158.125003015995,0|8,2:2|2:2,0:0:0:0:
239,337,106443,38,0,L|160:393,1,72.1874977970124,0|0,2:2|0:0,0:0:0:0:
40,305,106718,2,0,L|72:166,1,108.281246695519
30,123,106993,2,0,L|103:95,1,72.1874977970124,8|0,2:2|0:0,0:0:0:0:
135,21,107269,1,0,0:0:0:0:
326,321,107544,1,0,2:2:0:0:
498,366,107819,1,0,0:0:0:0:
366,114,107956,1,0,0:0:0:0:
463,6,108094,2,0,L|446:103,1,72.1874977970124,8|0,2:2|0:0,0:0:0:0:
154,380,108644,6,0,L|203:300,2,65.3124982559681,0|0|0,2:2|0:0|0:0,0:0:0:0:
76,272,109057,1,0,0:0:0:0:
346,307,109194,1,8,2:2:0:0:
18,119,109469,1,0,0:0:0:0:
420,248,109745,2,0,B|475:226|535:187|548:161,1,130.624996511936,0|0,2:2|0:0,0:0:0:0:
313,199,110157,1,0,0:0:0:0:
0,31,110295,1,8,2:2:0:0:
165,286,110570,6,0,L|133:370,1,72.1874977970124
273,239,110845,1,0,2:2:0:0:
311,317,110982,1,0,0:0:0:0:
417,162,111120,2,0,L|410:261,1,79.0625015079976
512,48,111395,2,0,L|419:22,1,79.0625015079976,8|0,2:2|0:0,0:0:0:0:
266,147,111670,1,0,0:0:0:0:
233,252,111808,1,0,0:0:0:0:
99,32,111945,2,0,L|154:111,1,79.0625015079976,0|0,2:2|0:0,0:0:0:0:
86,287,112220,1,0,2:2:0:0:
5,232,112358,1,0,0:0:0:0:
184,189,112496,38,0,L|200:253,1,49.8437515211106,8|0,2:2|0:0,0:0:0:0:
264,227,112633,6,0,L|206:195,1,49.8437515211106,0|0,2:2|0:0,0:0:0:0:
213,166,112771,6,0,L|280:175,1,49.8437515211106
273,112,112908,38,0,L|210:145,1,49.8437515211106,0|0,2:2|0:0,0:0:0:0:
319,99,113046,6,0,L|276:54,1,49.8437515211106,0|0,2:2|0:0,0:0:0:0:
308,35,113183,6,0,L|369:58,1,49.8437515211106
421,23,113321,38,0,L|361:51,1,49.8437515211106,0|0,2:2|0:0,0:0:0:0:
377,129,113458,6,0,L|396:65,1,49.8437515211106
458,89,113596,6,0,L|491:146,1,49.8437515211106,8|0,2:2|0:0,0:0:0:0:
503,202,113734,38,0,L|438:187,1,49.8437515211106,0|0,2:2|0:0,0:0:0:0:
386,190,113871,6,0,L|440:153,1,49.8437515211106
425,231,114009,6,0,L|414:296,1,49.8437515211106,0|0,2:2|0:0,0:0:0:0:
387,343,114146,38,0,L|346:291,1,49.8437515211106,0|0,2:2|0:0,0:0:0:0:
305,251,114284,6,0,L|370:256,1,49.8437515211106
326,327,114421,6,0,L|277:371,1,49.8437515211106,0|0,2:2|0:0,0:0:0:0:
214,338,114559,38,0,L|215:272,1,49.8437515211106
236,207,114696,6,0,L|283:252,1,49.8437515211106,8|0,2:2|0:0,0:0:0:0:
183,264,114834,6,0,L|117:267,1,49.8437515211106,0|0,2:2|0:0,0:0:0:0:
78,216,114971,38,0,L|120:165,1,49.8437515211106,0|0,2:2|0:0,0:0:0:0:
166,113,115109,6,0,L|174:178,1,49.8437515211106,0|0,2:2|0:0,0:0:0:0:
53,99,115247,6,0,B|109:77|109:77|144:56|144:56|174:54|174:54|239:42,1,178.749991817475,4|0,3:2|2:2,0:0:0:0:
488,0,115522,38,0,B|467:48|467:48|450:73|450:73|447:98|447:98|421:187,1,178.749991817475,4|0,3:2|2:2,0:0:0:0:
349,366,115797,1,8,2:2:0:0:
275,218,115934,1,0,2:2:0:0:
259,178,116003,1,0,0:0:0:0:
250,143,116072,2,0,B|282:158|282:158|292:229,1,89.3749959087374,0|0,2:2|0:0,0:0:0:0:
225,342,116209,2,0,B|235:311|235:311|286:260,1,89.3749959087374,0|0,2:2|0:0,0:0:0:0:
105,361,116347,6,0,B|71:297|71:297|7:212,1,178.749991817475,4|0,3:2|2:2,0:0:0:0:
287,0,116622,6,0,B|209:38|209:38|93:70,1,178.749991817475,4|0,3:2|2:2,0:0:0:0:
489,173,116897,37,8,2:2:0:0:
320,129,117035,1,0,2:2:0:0:
279,147,117104,1,0,0:0:0:0:
246,176,117172,2,0,B|225:128|225:128|181:80,2,89.3749959087374,0|0|0,2:2|0:0|2:2,0:0:0:0:
491,280,117447,6,0,B|402:314|402:314|299:368,1,178.749991817475,4|0,3:2|2:2,0:0:0:0:
429,0,117723,6,0,B|417:79|417:79|388:190,1,178.749991817475,4|0,3:2|2:2,0:0:0:0:
163,306,117998,37,8,2:2:0:0:
365,359,118135,1,0,2:2:0:0:
346,318,118204,1,0,0:0:0:0:
314,241,118273,2,0,B|274:216|274:216|217:202,1,89.3749959087374,0|0,2:2|0:0,0:0:0:0:
131,223,118410,2,0,B|179:196|179:196|223:141,1,89.3749959087374,0|0,2:2|0:0,0:0:0:0:
0,11,118548,6,0,B|72:78|72:78|178:133,1,178.749991817475,4|0,3:2|2:2,0:0:0:0:
94,384,118823,6,0,B|169:334|169:334|258:294,1,178.749991817475,4|0,3:2|2:2,0:0:0:0:
480,323,119098,37,8,2:2:0:0:
377,116,119236,1,0,2:2:0:0:
357,155,119304,1,0,0:0:0:0:
437,129,119373,2,0,B|425:85|425:85|388:48,1,89.3749959087374,0|0,2:2|0:0,0:0:0:0:
289,27,119511,1,0,0:0:0:0:
76,248,119910,5,0,3:3:0:0:
76,248,120322,1,0,3:3:0:0:
76,248,120597,1,0,3:3:0:0:
436,248,121010,5,0,3:3:0:0:
436,248,121423,1,0,3:3:0:0:
436,248,121698,1,0,3:3:0:0:
145,37,122110,37,0,3:3:0:0:
145,37,122523,1,0,3:3:0:0:
145,37,122798,1,0,3:3:0:0:
256,379,123211,5,0,3:3:0:0:
256,379,123623,1,0,3:3:0:0:
256,379,123898,1,0,3:3:0:0:
368,37,124311,5,0,3:3:0:0:
368,37,124724,1,0,3:3:0:0:
368,37,124999,1,0,3:3:0:0:
76,248,125412,37,0,3:3:0:0:
76,248,125824,1,0,3:3:0:0:
76,248,126099,1,0,3:3:0:0:
436,248,126512,5,0,3:3:0:0:
436,248,126925,1,0,3:3:0:0:
436,248,127200,1,0,3:3:0:0:
145,37,127612,5,0,3:3:0:0:
186,168,127887,1,0,0:0:0:0:
145,37,128025,1,0,3:3:0:0:
145,37,128300,1,0,3:3:0:0:
256,379,128713,37,0,3:3:0:0:
299,248,128988,1,0,0:0:0:0:
256,379,129125,1,0,3:3:0:0:
256,379,129401,1,0,3:3:0:0:
368,37,129813,5,0,3:3:0:0:
256,116,130088,1,0,0:0:0:0:
368,37,130226,1,0,3:3:0:0:
368,37,130501,1,0,3:3:0:0:
76,248,130914,53,0,3:3:0:0:
213,249,131189,1,0,0:0:0:0:
76,248,131326,1,0,3:3:0:0:
76,248,131601,1,0,3:3:0:0:
436,248,132014,1,0,3:3:0:0:
325,166,132289,2,0,L|352:208,1,34.375,8|0,2:2|0:0,0:0:0:0:
355,213,132427,1,0,3:3:0:0:
436,248,132702,1,0,3:3:0:0:
145,37,133114,1,0,3:3:0:0:
186,150,133390,2,0,L|221:125,1,34.375,8|0,2:2|0:0,0:0:0:0:
232,117,133527,1,0,3:3:0:0:
145,37,133802,1,0,3:3:0:0:
256,379,134215,1,0,3:3:0:0:
352,290,134490,2,0,L|364:337,1,34.375,8|0,2:2|0:0,0:0:0:0:
368,352,134628,1,0,3:3:0:0:
320,258,134903,1,0,3:3:0:0:
368,37,135315,1,0,3:3:0:0:
255,91,135590,2,0,L|292:121,1,34.375,8|0,2:2|0:0,0:0:0:0:
308,131,135728,1,0,3:3:0:0:
377,187,136003,1,0,3:3:0:0:
269,224,136141,1,0,2:2:0:0:
269,224,136278,1,0,2:2:0:0:
76,248,136416,1,0,3:3:0:0:
190,350,136691,1,8,2:2:0:0:
196,327,136760,1,0,2:2:0:0:
201,309,136828,1,0,3:3:0:0:
269,224,137103,1,0,3:3:0:0:
248,140,137241,1,0,2:2:0:0:
248,140,137379,1,0,2:2:0:0:
436,248,137516,1,0,3:3:0:0:
375,329,137791,1,8,2:2:0:0:
360,313,137860,1,0,2:2:0:0:
344,295,137929,1,0,3:3:0:0:
269,224,138204,1,0,3:3:0:0:
334,153,138341,1,0,2:2:0:0:
334,153,138479,1,0,2:2:0:0:
145,37,138617,1,0,3:3:0:0:
166,29,138685,1,0,2:2:0:0:
137,66,138892,1,8,2:2:0:0:
180,60,138960,1,0,2:2:0:0:
221,53,139029,1,0,3:3:0:0:
305,90,139304,1,0,3:3:0:0:
221,148,139442,1,0,2:2:0:0:
221,148,139579,1,0,2:2:0:0:
256,379,139717,1,0,3:3:0:0:
199,286,139992,1,8,2:2:0:0:
186,314,140061,1,0,2:2:0:0:
160,263,140130,1,0,3:3:0:0:
221,148,140405,1,0,3:3:0:0:
263,218,140542,1,0,2:2:0:0:
263,218,140680,1,0,2:2:0:0:
368,37,140817,1,0,3:3:0:0:
233,65,141092,1,8,2:2:0:0:
258,55,141161,1,0,2:2:0:0:
250,118,141230,1,0,3:3:0:0:
169,197,141505,1,0,3:3:0:0:
306,228,141643,2,0,L|207:278,1,68.75,4|0,3:2|0:0,0:0:0:0:
174,376,141780,2,0,L|156:301,1,68.75,0|0,2:2|0:0,0:0:0:0:
76,248,141918,2,0,L|320:288,1,206.25
378,336,142193,1,4,3:2:0:0:
392,347,142262,1,0,2:2:0:0:
360,384,142330,2,0,L|385:169,1,206.25,0|0,3:3|0:0,0:0:0:0:
352,150,142606,1,0,3:3:0:0:
237,105,142743,2,0,L|268:166,1,68.75,4|0,3:2|0:0,0:0:0:0:
214,304,142881,2,0,L|316:267,1,68.75,4|0,3:2|0:0,0:0:0:0:
436,248,143018,2,0,L|251:96,1,206.25,0|0,3:3|0:0,0:0:0:0:
166,165,143293,1,4,3:2:0:0:
176,179,143362,1,0,2:2:0:0:
123,237,143431,1,0,3:3:0:0:
226,319,143706,1,0,3:3:0:0:
280,223,143843,1,0,2:2:0:0:
268,112,143981,1,0,2:2:0:0:
145,37,144119,1,0,3:3:0:0:
53,175,144394,1,8,2:2:0:0:
33,156,144462,1,0,2:2:0:0:
84,136,144531,1,0,3:3:0:0:
334,207,144806,1,0,3:3:0:0:
235,264,145081,1,0,2:2:0:0:
256,379,145219,1,0,3:3:0:0:
89,331,145494,1,8,2:2:0:0:
100,345,145563,1,0,2:2:0:0:
157,315,145632,1,0,3:3:0:0:
334,207,145907,1,0,3:3:0:0:
368,37,146319,1,0,3:3:0:0:
427,181,146595,1,8,2:2:0:0:
443,218,146663,1,0,2:2:0:0:
441,234,146732,1,0,2:2:0:0:
461,279,146801,1,0,2:2:0:0:
494,343,147007,1,8,2:2:0:0:
76,248,147420,1,0,3:3:0:0:
0,149,147695,1,8,2:2:0:0:
45,125,147764,1,0,2:2:0:0:
57,136,147832,1,0,2:2:0:0:
110,166,147901,1,0,2:2:0:0:
178,140,148108,1,8,2:2:0:0:
436,248,148520,1,0,3:3:0:0:
368,319,148795,2,0,L|353:287,1,34.375,4|0,2:2|0:0,0:0:0:0:
351,336,148864,2,0,L|343:382,1,34.375,0|0,2:2|0:0,0:0:0:0:
291,337,148933,2,0,L|259:313,1,34.375,0|0,2:2|0:0,0:0:0:0:
232,340,149002,2,0,L|212:378,1,34.375,0|0,2:2|0:0,0:0:0:0:
126,360,149208,1,8,2:2:0:0:
145,37,149621,1,0,3:3:0:0:
47,168,149896,2,0,L|6:193,1,34.375,4|0,2:2|0:0,0:0:0:0:
72,148,149965,2,0,L|87:109,1,34.375,0|0,2:2|0:0,0:0:0:0:
128,172,150033,2,0,L|181:182,1,34.375,0|0,2:2|0:0,0:0:0:0:
211,152,150102,2,0,L|252:138,1,34.375,0|0,2:2|0:0,0:0:0:0:
323,173,150308,1,8,2:2:0:0:
256,379,150721,1,0,3:3:0:0:
403,348,150996,2,0,L|455:367,1,34.375,4|0,2:2|0:0,0:0:0:0:
397,314,151065,2,0,L|373:283,1,34.375,0|0,2:2|0:0,0:0:0:0:
334,249,151134,2,0,L|354:213,1,34.375,0|0,2:2|0:0,0:0:0:0:
378,166,151202,2,0,L|338:124,1,34.375,0|0,2:2|0:0,0:0:0:0:
283,92,151409,1,8,2:2:0:0:
222,188,151546,2,0,L|171:216,1,34.375,4|0,2:2|0:0,0:0:0:0:
232,162,151615,2,0,L|281:174,1,34.375,0|0,2:2|0:0,0:0:0:0:
306,204,151684,2,0,L|313:170,1,34.375,0|0,2:2|0:0,0:0:0:0:
368,37,151821,1,0,3:3:0:0:
456,84,152097,2,0,L|446:129,1,34.375,4|0,2:2|0:0,0:0:0:0:
481,110,152165,2,0,L|479:167,1,34.375,0|0,2:2|0:0,0:0:0:0:
456,169,152234,2,0,L|440:217,1,34.375,0|0,2:2|0:0,0:0:0:0:
459,258,152303,2,0,L|443:288,1,34.375,0|0,2:2|0:0,0:0:0:0:
386,339,152509,1,8,2:2:0:0:
203,239,152647,1,4,2:2:0:0:
167,189,152716,1,0,2:2:0:0:
172,173,152784,1,0,2:2:0:0:
135,223,152853,1,0,2:2:0:0:
76,248,152922,1,0,3:3:0:0:
24,344,153197,1,4,2:2:0:0:
80,362,153266,1,0,2:2:0:0:
96,374,153335,1,0,2:2:0:0:
156,356,153403,1,0,2:2:0:0:
230,311,153610,1,8,2:2:0:0:
311,186,153747,2,0,L|266:156,1,34.375,4|0,2:2|0:0,0:0:0:0:
323,126,153816,2,0,L|344:153,1,34.375,0|0,2:2|0:0,0:0:0:0:
389,142,153885,2,0,L|400:180,1,34.375,0|0,2:2|0:0,0:0:0:0:
436,248,154022,1,0,3:3:0:0:
459,361,154297,2,0,L|423:326,1,34.375,4|0,2:2|0:0,0:0:0:0:
420,334,154366,2,0,L|391:365,1,34.375,0|0,2:2|0:0,0:0:0:0:
319,378,154435,2,0,L|296:339,1,34.375,0|0,2:2|0:0,0:0:0:0:
236,302,154504,2,0,L|203:326,1,34.375,0|0,2:2|0:0,0:0:0:0:
12,257,154710,1,8,2:2:0:0:
251,141,154848,1,8,2:2:0:0:
145,37,155123,5,0,3:3:0:0:
94,185,155535,1,0,3:3:0:0:
256,379,155810,1,0,3:3:0:0:
