osu file format v14

[General]
AudioFilename: audio.mp3
AudioLeadIn: 0
PreviewTime: -1
Countdown: 0
SampleSet: Normal
StackLeniency: 0.7
Mode: 0
LetterboxInBreaks: 0
WidescreenStoryboard: 0

[Editor]
Bookmarks: 24449,44041,53837,63632,83224,93020,97918,117510,137102
DistanceSpacing: 0.4
BeatDivisor: 4
GridSize: 16
TimelineZoom: 1

[Metadata]
Title:Lift Yourself
TitleUnicode:Lift Yourself
Artist:Kanye West
ArtistUnicode:Kanye West
Creator:kirbob
Version:poopity scoop
Source:
Tags:
BeatmapID:1632588
BeatmapSetID:777072

[Difficulty]
HPDrainRate:4
CircleSize:5
OverallDifficulty:8.4
ApproachRate:9.2
SliderMultiplier:1.4
SliderTickRate:1

[Events]
//Background and Video events
0,0,"a.jpg",0,0
//Break Periods
//Storyboard Layer 0 (Background)
//Storyboard Layer 1 (Fail)
//Storyboard Layer 2 (Pass)
//Storyboard Layer 3 (Foreground)
//Storyboard Sound Samples

[TimingPoints]
0,612.244897959184,4,1,0,40,1,0
1184,612.244897959184,4,1,0,40,1,0
4857,612.244897959184,4,1,0,40,1,0
4857,-83.3333333333333,4,1,0,40,0,0
9755,-90.9090909090909,4,1,0,40,0,0
24448,-50,4,1,0,65,0,0
44040,-100,4,1,0,40,0,0
48939,-83.3333333333333,4,1,0,40,0,0
53837,-76.9230769230769,4,1,0,50,0,0
61795,-71.4285714285714,4,1,0,50,0,0
62408,-66.6666666666667,4,1,0,50,0,0
63020,-57.1428571428571,4,1,0,50,0,0
63632,-50,4,1,0,50,0,0
93020,-55.5555555555556,4,1,0,50,0,0
97918,-83.3333333333333,4,1,0,20,0,0
107714,-74.0740740740741,4,1,0,20,0,0
112612,-60.6060606060606,4,1,0,20,0,0
117510,-12.5,4,1,0,50,0,0

[Colours]
Combo1 : 254,175,208
Combo2 : 255,174,176
Combo3 : 252,215,177
Combo4 : 253,248,176
Combo5 : 187,252,177
Combo6 : 176,253,251
Combo7 : 176,176,253
Combo8 : 248,176,253

[HitObjects]
52,166,0,6,0,P|130:223|239:191,1,210,0|0,2:3|2:3,2:3:0:0:
282,115,1184,2,0,L|280:45,2,70,0|0|0,2:3|2:3|2:3,2:3:0:0:
319,206,2102,1,0,2:3:0:0:
319,206,2408,2,0,P|290:274|241:253,1,140,0|0,2:3|2:3,2:3:0:0:
306,130,3479,5,0,2:3:0:0:
306,130,3632,2,0,P|347:133|381:152,1,70,0|0,2:3|2:3,2:3:0:0:
329,205,4092,1,0,2:3:0:0:
329,205,4245,2,0,P|358:233|372:270,1,70,0|0,2:3|2:3,2:3:0:0:
252,344,4704,5,0,2:3:0:0:
252,344,4857,2,0,P|208:340|173:320,1,83.9999974365235,0|0,2:3|2:3,2:3:0:0:
227,265,5317,1,0,2:3:0:0:
227,265,5470,2,0,P|196:234|181:196,1,83.9999974365235,0|0,2:3|2:3,2:3:0:0:
258,188,5928,1,0,2:3:0:0:
258,188,6081,2,0,P|253:145|267:106,1,83.9999974365235,0|0,2:3|2:3,2:3:0:0:
332,149,6541,1,0,2:3:0:0:
332,149,6694,2,0,P|356:113|391:92,1,83.9999974365235,0|0,2:3|2:3,2:3:0:0:
408,178,7153,5,0,2:3:0:0:
408,178,7306,2,0,P|404:221|384:256,1,83.9999974365235,0|0,2:3|2:3,2:3:0:0:
329,203,7766,1,0,2:3:0:0:
329,203,7919,2,0,P|298:233|260:248,1,83.9999974365235,0|0,2:3|2:3,2:3:0:0:
252,172,8377,1,0,2:3:0:0:
252,172,8530,2,0,P|209:176|170:162,1,83.9999974365235,0|0,2:3|2:3,2:3:0:0:
294,80,8990,1,0,2:3:0:0:
294,80,9143,2,0,L|380:68,1,83.9999974365235,0|0,2:3|2:3,2:3:0:0:
205,42,9602,1,0,2:3:0:0:
205,42,9755,6,0,L|213:122,2,77.0000023498536,0|0|0,2:3|2:3|2:3,2:3:0:0:
130,144,10673,1,0,2:3:0:0:
130,144,10826,1,0,2:3:0:0:
130,144,10979,2,0,L|122:224,2,77.0000023498536,0|0|0,2:3|2:3|2:3,2:3:0:0:
283,200,11898,5,0,2:3:0:0:
283,200,12051,1,0,2:3:0:0:
283,200,12204,2,0,P|319:212|363:208,2,77.0000023498536,0|0|0,2:3|2:3|2:3,2:3:0:0:
420,145,13122,1,0,2:3:0:0:
420,145,13275,1,0,2:3:0:0:
420,145,13428,2,0,P|384:133|340:137,2,77.0000023498536,0|0|0,2:3|2:3|2:3,2:3:0:0:
441,308,14500,5,0,2:3:0:0:
441,308,14653,2,0,P|413:336|378:349,1,77.0000023498536,0|0,2:3|2:3,2:3:0:0:
370,278,15266,2,0,P|330:282|295:269,1,77.0000023498536,0|0,2:3|2:3,2:3:0:0:
334,211,15877,2,0,P|301:188|282:156,1,77.0000023498536,0|0,2:3|2:3,2:3:0:0:
351,136,16337,1,0,2:3:0:0:
351,136,16490,2,0,P|340:97|346:60,1,77.0000023498536,0|0,2:3|2:3,2:3:0:0:
413,190,17102,6,0,L|423:267,2,77.0000023498536,0|0|0,2:3|2:3|2:3,2:3:0:0:
350,318,18020,1,0,2:3:0:0:
261,187,18326,2,0,L|271:264,1,77.0000023498536,0|0,2:3|2:3,2:3:0:0:
208,315,18786,1,0,2:3:0:0:
208,315,18939,2,0,L|198:238,1,77.0000023498536,0|0,2:3|2:3,2:3:0:0:
113,68,19398,5,0,2:3:0:0:
113,68,19551,2,0,P|140:39|175:26,1,77.0000023498536,0|0,2:3|2:3,2:3:0:0:
184,98,20164,2,0,P|223:93|258:106,1,77.0000023498536,0|0,2:3|2:3,2:3:0:0:
220,165,20774,2,0,P|252:187|271:219,1,77.0000023498536,0|0,2:3|2:3,2:3:0:0:
203,240,21234,1,0,2:3:0:0:
203,240,21388,2,0,P|213:278|207:315,1,77.0000023498536,0|0,2:3|2:3,2:3:0:0:
124,211,21846,1,0,2:3:0:0:
124,211,21999,6,0,L|117:121,2,77.0000023498536,0|0|0,2:3|2:3|2:3,2:3:0:0:
181,93,22918,1,0,2:3:0:0:
306,177,23224,2,0,P|283:209|251:228,1,77.0000023498536,0|0,2:3|2:3,2:3:0:0:
231,160,23684,1,0,2:3:0:0:
231,160,23838,2,0,P|192:170|155:164,1,77.0000023498536,0|0,2:3|2:3,2:3:0:0:
326,76,24448,6,0,B|402:75|402:75|467:104,1,140,4|0,2:3|2:3,2:3:0:0:
380,203,25061,2,0,B|304:204|304:204|239:175,1,140,4|0,2:3|2:3,2:3:0:0:
326,76,25673,2,0,B|402:75|402:75|467:104,1,140,4|0,2:3|2:3,2:3:0:0:
398,141,26132,2,0,B|322:142|322:142|257:113,1,140,4|0,2:3|2:3,2:3:0:0:
464,178,26591,2,0,L|465:252,1,70,4|0,2:3|2:3,2:3:0:0:
384,349,26897,6,0,B|308:350|308:350|243:321,1,140,4|0,2:3|2:3,2:3:0:0:
330,222,27510,2,0,B|406:221|406:221|471:250,1,140,4|0,2:3|2:3,2:3:0:0:
384,349,28122,2,0,B|272:348|272:348|243:321,1,140,4|0,2:3|2:3,2:3:0:0:
312,284,28581,2,0,B|424:285|424:285|453:312,1,140,4|0,2:3|2:3,2:3:0:0:
246,247,29040,2,0,L|245:173,1,70,4|0,2:3|2:3,2:3:0:0:
325,75,29346,6,0,B|401:74|401:74|466:103,1,140,4|0,2:3|2:3,2:3:0:0:
379,202,29959,2,0,B|303:203|303:203|238:174,1,140,4|0,2:3|2:3,2:3:0:0:
325,75,30571,2,0,B|401:74|401:74|466:103,1,140,4|0,2:3|2:3,2:3:0:0:
397,140,31030,2,0,B|321:141|321:141|256:112,1,140,4|0,2:3|2:3,2:3:0:0:
463,177,31489,2,0,L|464:251,1,70,4|0,2:3|2:3,2:3:0:0:
383,348,31795,6,0,B|307:349|307:349|242:320,1,140,4|0,2:3|2:3,2:3:0:0:
329,221,32408,2,0,B|405:220|405:220|470:249,1,140,4|0,2:3|2:3,2:3:0:0:
383,348,33020,2,0,B|271:347|271:347|242:320,1,140,4|0,2:3|2:3,2:3:0:0:
311,283,33479,2,0,B|423:284|423:284|452:311,1,140,4|0,2:3|2:3,2:3:0:0:
245,246,33938,2,0,L|244:172,1,70,4|0,2:3|2:3,2:3:0:0:
321,210,34244,6,0,B|322:286|322:286|293:351,1,140,4|0,2:3|2:3,2:3:0:0:
194,264,34857,2,0,B|193:188|193:188|222:123,1,140,4|0,2:3|2:3,2:3:0:0:
321,210,35469,2,0,B|322:286|322:286|293:351,1,140,4|0,2:3|2:3,2:3:0:0:
256,282,35928,2,0,B|255:206|255:206|284:141,1,140,4|0,2:3|2:3,2:3:0:0:
219,348,36387,2,0,L|145:349,1,70,4|0,2:3|2:3,2:3:0:0:
48,268,36693,6,0,B|47:192|47:192|76:127,1,140,4|0,2:3|2:3,2:3:0:0:
175,214,37306,2,0,B|176:290|176:290|147:355,1,140,4|0,2:3|2:3,2:3:0:0:
48,268,37918,2,0,B|49:156|49:156|76:127,1,140,4|0,2:3|2:3,2:3:0:0:
113,196,38377,2,0,B|112:308|112:308|85:337,1,140,4|0,2:3|2:3,2:3:0:0:
150,130,38836,2,0,L|224:129,1,70,4|0,2:3|2:3,2:3:0:0:
321,210,39142,6,0,B|322:286|322:286|293:351,1,140,4|0,2:3|2:3,2:3:0:0:
194,264,39755,2,0,B|193:188|193:188|222:123,1,140,4|0,2:3|2:3,2:3:0:0:
321,210,40367,2,0,B|322:286|322:286|293:351,1,140,4|0,2:3|2:3,2:3:0:0:
256,282,40826,2,0,B|255:206|255:206|284:141,1,140,4|0,2:3|2:3,2:3:0:0:
219,348,41285,2,0,L|145:349,1,70,4|0,2:3|2:3,2:3:0:0:
48,268,41591,6,0,B|47:192|47:192|76:127,1,140,4|0,2:3|2:3,2:3:0:0:
175,214,42204,2,0,B|176:290|176:290|147:355,1,140,4|0,2:3|2:3,2:3:0:0:
48,268,42816,2,0,B|49:156|49:156|76:127,1,140,4|0,2:3|2:3,2:3:0:0:
113,196,43275,2,0,B|112:308|112:308|85:337,1,140,4|0,2:3|2:3,2:3:0:0:
150,130,43734,2,0,L|224:129,1,70,4|0,2:3|2:3,2:3:0:0:
368,39,44040,6,0,P|324:98|348:181,1,140,0|0,2:3|2:3,2:3:0:0:
201,218,44959,2,0,L|271:216,2,70,0|0|0,2:3|2:3|2:3,2:3:0:0:
203,66,45877,1,0,2:3:0:0:
203,66,46183,2,0,P|271:95|250:144,1,140,0|0,2:3|2:3,2:3:0:0:
156,223,46948,5,0,2:3:0:0:
156,223,47101,2,0,P|159:264|178:298,1,70,0|0,2:3|2:3,2:3:0:0:
231,246,47561,1,0,2:3:0:0:
231,246,47714,2,0,P|259:275|296:289,1,70,0|0,2:3|2:3,2:3:0:0:
426,265,48173,1,0,2:3:0:0:
426,265,48326,2,0,L|360:221,1,70,0|0,2:3|2:3,2:3:0:0:
216,254,48785,5,0,2:3:0:0:
216,254,48938,2,0,P|219:297|239:332,1,83.9999974365235,0|0,2:3|2:3,2:3:0:0:
295,279,49398,1,0,2:3:0:0:
295,279,49551,2,0,P|325:309|363:324,1,83.9999974365235,0|0,2:3|2:3,2:3:0:0:
372,248,50009,1,0,2:3:0:0:
372,248,50162,2,0,P|414:252|453:238,1,83.9999974365235,0|0,2:3|2:3,2:3:0:0:
411,174,50622,1,0,2:3:0:0:
411,174,50775,2,0,P|446:149|467:114,1,83.9999974365235,0|0,2:3|2:3,2:3:0:0:
382,98,51234,5,0,2:3:0:0:
382,98,51387,2,0,P|338:101|303:121,1,83.9999974365235,0|0,2:3|2:3,2:3:0:0:
357,177,51847,1,0,2:3:0:0:
357,177,52000,2,0,P|326:207|311:245,1,83.9999974365235,0|0,2:3|2:3,2:3:0:0:
388,254,52458,1,0,2:3:0:0:
388,254,52611,2,0,P|383:296|397:335,1,83.9999974365235,0|0,2:3|2:3,2:3:0:0:
480,212,53071,1,0,2:3:0:0:
480,212,53224,2,0,L|492:126,1,83.9999974365235,0|0,2:3|2:3,2:3:0:0:
459,302,53683,5,0,2:3:0:0:
459,302,53836,2,0,L|467:355,3,41.9999987182618,0|0|8|8,2:3|2:3|2:3|2:3,2:3:0:0:
374,251,54448,1,8,2:3:0:0:
374,251,54754,1,8,2:3:0:0:
273,291,55061,2,0,L|265:344,3,41.9999987182618,0|0|8|8,2:3|2:3|2:3|2:3,2:3:0:0:
222,222,55673,2,0,L|230:169,3,41.9999987182618,0|0|8|8,2:3|2:3|2:3|2:3,2:3:0:0:
89,230,56285,6,0,L|81:283,3,41.9999987182618,0|0|8|8,2:3|2:3|2:3|2:3,2:3:0:0:
156,140,56897,1,8,2:3:0:0:
156,140,57203,1,8,2:3:0:0:
240,96,57510,2,0,L|293:88,3,41.9999987182618,0|0|8|8,2:3|2:3|2:3|2:3,2:3:0:0:
171,45,58122,2,0,L|118:53,3,41.9999987182618,0|0|8|8,2:3|2:3|2:3|2:3,2:3:0:0:
68,172,58734,6,0,L|76:119,3,41.9999987182618,0|0|8|8,2:3|2:3|2:3|2:3,2:3:0:0:
175,128,59346,1,8,2:3:0:0:
175,128,59652,1,8,2:3:0:0:
285,182,59959,2,0,L|232:190,3,41.9999987182618,0|0|8|8,2:3|2:3|2:3|2:3,2:3:0:0:
354,233,60571,2,0,L|407:225,3,41.9999987182618,0|0|8|8,2:3|2:3|2:3|2:3,2:3:0:0:
423,104,61183,6,0,L|415:51,3,41.9999987182618,0|0|8|8,2:3|2:3|2:3|2:3,2:3:0:0:
355,179,61795,2,0,L|347:232,3,48.9999985046387,0|0|8|8,2:3|2:3|2:3|2:3,2:3:0:0:
284,89,62408,2,0,L|276:36,3,52.5000020027161,0|0|8|8,2:3|2:3|2:3|2:3,2:3:0:0:
233,239,63020,2,0,L|223:303,3,61.2500005841255,0|0|8|8,2:3|2:3|2:3|2:3,2:3:0:0:
255,95,63632,6,0,B|331:94|331:94|396:123,1,140,12|0,2:3|2:3,2:3:0:0:
204,187,64091,1,8,2:3:0:0:
204,187,64245,2,0,B|128:188|128:188|63:159,1,140,12|0,2:3|2:3,2:3:0:0:
255,95,64857,2,0,B|331:94|331:94|396:123,1,140,12|8,2:3|2:3,2:3:0:0:
338,212,65316,2,0,B|262:213|262:213|197:184,1,140,12|0,2:3|2:3,2:3:0:0:
179,34,65775,2,0,L|180:108,1,70,12|8,2:3|2:3,2:3:0:0:
245,219,66081,6,0,B|246:295|246:295|217:360,1,140,12|0,2:3|2:3,2:3:0:0:
153,168,66540,1,8,2:3:0:0:
153,168,66694,2,0,B|152:92|152:92|181:27,1,140,12|0,2:3|2:3,2:3:0:0:
245,219,67306,2,0,B|246:295|217:360,1,140,12|8,2:3|2:3,2:3:0:0:
128,302,67765,2,0,B|127:226|156:161,1,140,12|0,2:3|2:3,2:3:0:0:
306,143,68224,2,0,L|232:144,1,70,12|8,2:3|2:3,2:3:0:0:
327,69,68530,6,0,B|403:68|403:68|468:97,1,140,12|0,2:3|2:3,2:3:0:0:
276,161,68989,1,8,2:3:0:0:
276,161,69143,2,0,B|200:162|200:162|135:133,1,140,12|0,2:3|2:3,2:3:0:0:
327,69,69755,2,0,B|403:68|403:68|468:97,1,140,12|8,2:3|2:3,2:3:0:0:
410,186,70214,2,0,B|334:187|334:187|269:158,1,140,12|0,2:3|2:3,2:3:0:0:
251,8,70673,2,0,L|252:82,1,70,12|8,2:3|2:3,2:3:0:0:
347,216,70979,6,0,B|348:292|348:292|319:357,1,140,12|0,2:3|2:3,2:3:0:0:
255,165,71438,1,8,2:3:0:0:
255,165,71592,2,0,B|254:89|254:89|283:24,1,140,12|0,2:3|2:3,2:3:0:0:
347,216,72204,2,0,B|348:292|319:357,1,140,12|8,2:3|2:3,2:3:0:0:
230,299,72663,2,0,B|229:223|258:158,1,140,12|0,2:3|2:3,2:3:0:0:
408,140,73122,2,0,L|334:141,1,70,12|8,2:3|2:3,2:3:0:0:
209,248,73428,6,0,B|285:249|285:249|350:220,1,140,12|0,2:3|2:3,2:3:0:0:
158,156,73887,1,8,2:3:0:0:
158,156,74041,2,0,B|82:155|82:155|17:184,1,140,12|0,2:3|2:3,2:3:0:0:
209,248,74653,2,0,B|285:249|285:249|350:220,1,140,12|8,2:3|2:3,2:3:0:0:
292,131,75112,2,0,B|216:130|216:130|151:159,1,140,12|0,2:3|2:3,2:3:0:0:
133,309,75571,2,0,L|134:235,1,70,12|8,2:3|2:3,2:3:0:0:
250,62,75877,6,0,B|326:61|326:61|391:90,1,140,12|0,2:3|2:3,2:3:0:0:
199,154,76336,1,8,2:3:0:0:
199,154,76490,2,0,B|123:155|123:155|58:126,1,140,12|0,2:3|2:3,2:3:0:0:
250,62,77102,2,0,B|326:61|391:90,1,140,12|8,2:3|2:3,2:3:0:0:
333,179,77561,2,0,B|257:180|192:151,1,140,12|0,2:3|2:3,2:3:0:0:
174,1,78020,2,0,L|175:75,1,70,12|8,2:3|2:3,2:3:0:0:
135,219,78326,6,0,B|59:220|59:220|-6:191,1,140,12|0,2:3|2:3,2:3:0:0:
186,127,78785,1,8,2:3:0:0:
186,127,78939,2,0,B|262:126|262:126|327:155,1,140,12|0,2:3|2:3,2:3:0:0:
135,219,79551,2,0,B|59:220|59:220|-6:191,1,140,12|8,2:3|2:3,2:3:0:0:
52,102,80010,2,0,B|128:101|128:101|193:130,1,140,12|0,2:3|2:3,2:3:0:0:
211,280,80469,2,0,L|210:206,1,70,12|8,2:3|2:3,2:3:0:0:
345,224,80775,6,0,B|346:300|346:300|317:365,1,140,12|0,2:3|2:3,2:3:0:0:
253,173,81234,1,8,2:3:0:0:
253,173,81388,2,0,B|252:97|252:97|281:32,1,140,12|0,2:3|2:3,2:3:0:0:
345,224,82000,2,0,B|346:300|317:365,1,140,12|8,2:3|2:3,2:3:0:0:
228,307,82459,2,0,B|227:231|256:166,1,140,12|0,2:3|2:3,2:3:0:0:
406,148,82918,2,0,L|332:149,1,70,12|8,2:3|2:3,2:3:0:0:
98,157,83224,6,0,B|97:233|97:233|126:298,1,140,4|0,2:3|2:3,2:3:0:0:
225,211,83837,2,0,B|226:135|226:135|197:70,1,140,4|0,2:3|2:3,2:3:0:0:
98,157,84449,2,0,B|97:233|97:233|126:298,1,140,4|0,2:3|2:3,2:3:0:0:
163,229,84908,2,0,B|164:153|164:153|135:88,1,140,4|0,2:3|2:3,2:3:0:0:
200,295,85367,2,0,L|274:296,1,70,4|0,2:3|2:3,2:3:0:0:
371,215,85673,6,0,B|372:139|372:139|343:74,1,140,4|0,2:3|2:3,2:3:0:0:
244,161,86286,2,0,B|243:237|243:237|272:302,1,140,4|0,2:3|2:3,2:3:0:0:
371,215,86898,2,0,B|370:103|370:103|343:74,1,140,4|0,2:3|2:3,2:3:0:0:
306,143,87357,2,0,B|307:255|307:255|334:284,1,140,4|0,2:3|2:3,2:3:0:0:
269,77,87816,2,0,L|195:76,1,70,4|0,2:3|2:3,2:3:0:0:
98,157,88122,6,0,B|97:233|97:233|126:298,1,140,4|0,2:3|2:3,2:3:0:0:
225,211,88735,2,0,B|226:135|226:135|197:70,1,140,4|0,2:3|2:3,2:3:0:0:
98,157,89347,2,0,B|97:233|97:233|126:298,1,140,4|0,2:3|2:3,2:3:0:0:
163,229,89806,2,0,B|164:153|164:153|135:88,1,140,4|0,2:3|2:3,2:3:0:0:
200,295,90265,2,0,L|274:296,1,70,4|0,2:3|2:3,2:3:0:0:
371,215,90571,6,0,B|372:139|372:139|343:74,1,140,4|0,2:3|2:3,2:3:0:0:
244,161,91184,2,0,B|243:237|243:237|272:302,1,140,4|0,2:3|2:3,2:3:0:0:
371,215,91796,2,0,B|370:103|370:103|343:74,1,140,4|0,2:3|2:3,2:3:0:0:
306,143,92255,2,0,B|307:255|307:255|334:284,1,140,4|0,2:3|2:3,2:3:0:0:
269,77,92714,2,0,L|195:76,1,70,4|0,2:3|2:3,2:3:0:0:
107,185,93020,6,0,L|100:116,3,62.9999980773926,0|0|8|8,2:3|2:3|2:3|2:3,2:3:0:0:
199,272,93632,1,8,2:3:0:0:
199,272,93938,1,8,2:3:0:0:
289,189,94244,2,0,L|296:120,3,62.9999980773926,0|0|8|8,2:3|2:3|2:3|2:3,2:3:0:0:
359,282,94857,2,0,B|405:293|405:293|429:289,3,62.9999980773926,8|0|8|0,2:3|2:3|2:3|2:3,2:3:0:0:
453,133,95469,6,0,L|328:146,1,125.999996154785,8|0,2:3|2:3,2:3:0:0:
173,195,95928,2,0,L|298:208,1,125.999996154785,8|0,2:3|2:3,2:3:0:0:
478,238,96387,2,0,L|353:251,1,125.999996154785,8|0,2:3|2:3,2:3:0:0:
198,300,96846,2,0,L|323:313,1,125.999996154785,8|0,2:3|2:3,2:3:0:0:
98,139,97305,2,0,L|106:206,1,62.9999980773926,8|0,2:3|2:3,2:3:0:0:
189,65,97612,2,0,L|181:132,1,62.9999980773926,8|0,2:3|2:3,2:3:0:0:
325,56,97918,6,0,B|395:77|439:130|439:130|320:151|215:56|215:56|303:135|192:211|192:211|327:193|427:297|427:297|410:249|433:204|433:204|397:273|274:364|151:283|151:283|201:274,1,1301.99996026611,0|0,2:2|2:2,2:2:0:0:
286,262,102816,6,0,B|308:207|346:186|346:186|261:231|159:148|159:148|239:77|423:116|423:116|314:93|265:35|265:35|150:52|84:122|84:122|89:238|48:284|48:284|106:218|160:248|160:248|176:290,1,1301.99996026611,0|0,2:2|2:2,2:2:0:0:
93,344,107714,6,0,B|83:299|35:237|35:237|60:269|154:250|158:141|28:23|28:23|18:126|57:169|57:169|152:83|297:137|297:137|220:108|212:42|212:42|370:103|443:56|443:56|337:124|375:198|375:198|428:160,1,1464.75000558758,0|0,2:2|2:2,2:2:0:0:
440,348,112612,6,0,B|348:279|327:189|327:189|355:310|205:322|205:322|256:244|213:73|213:73|240:181|391:85|391:85|338:108|262:26|262:26|196:-23|138:53|138:53|168:225|43:238|43:238|78:217|72:158|72:158|88:280|134:311|134:311|156:284|164:255,1,1732.50001652241,0|0,2:2|2:2,2:2:0:0:
256,192,117510,5,4,2:3:0:0:
109,161,118122,2,0,B|233:173|346:61|346:61|225:182|387:234|387:234|384:173,1,560,4|0,2:3|2:3,2:3:0:0:
190,46,118734,2,0,B|190:198|153:242|153:242|236:132|353:159|353:159|238:75,1,560,4|0,2:3|2:3,2:3:0:0:
38,98,119193,2,0,B|458:73|458:73|375:78|336:159,1,560,4|0,2:3|2:3,2:3:0:0:
474,204,119652,2,0,L|192:222,1,280,4|0,2:3|2:3,2:3:0:0:
122,75,119959,6,0,B|148:214|109:356|109:356|100:261|25:190|25:190|124:228|153:199,1,560,4|0,2:3|2:3,2:3:0:0:
466,166,120571,2,0,B|406:305|279:276|279:276|369:154|369:154|306:239|203:211,1,560,4|0,2:3|2:3,2:3:0:0:
34,78,121183,2,0,B|162:0|293:77|283:246|160:314|53:284|28:201|36:137|95:97|155:120|135:168,1,560,4|0,2:3|2:3,2:3:0:0:
40,274,121642,2,0,B|150:340|242:281|271:200|271:200|247:269|333:300|333:300|385:228|345:150,1,560,4|0,2:3|2:3,2:3:0:0:
463,53,122101,2,0,L|447:334,1,280,4|0,2:3|2:3,2:3:0:0:
204,162,122408,6,0,B|298:134|360:232|360:232|221:334|111:268|111:268|169:303|231:226,1,560,4|0,2:3|2:3,2:3:0:0:
81,99,123020,2,0,B|117:209|276:207|276:207|195:208|272:42|272:42|240:108|158:99,1,560,4|0,2:3|2:3,2:3:0:0:
79,293,123632,2,0,B|265:317|260:182|260:182|265:314|456:270|456:270|409:231,1,560,4|0,2:3|2:3,2:3:0:0:
164,28,124091,2,0,B|133:113|133:113|184:319|184:319|154:195|260:182|260:182|206:188|205:121,1,560,4|0,2:3|2:3,2:3:0:0:
489,117,124550,2,0,L|212:80,1,280,4|0,2:3|2:3,2:3:0:0:
45,275,124857,6,0,B|181:237|321:293|321:293|243:262|257:160|306:102|417:169|382:244|324:225,1,560,4|0,2:3|2:3,2:3:0:0:
222,108,125469,2,0,B|185:108|137:135|137:135|211:93|232:17|232:17|275:179|455:195|454:78|391:12|321:53|338:160,1,560,4|0,2:3|2:3,2:3:0:0:
77,249,126081,2,0,B|150:328|368:291|267:45|267:45|188:97|188:97|226:126,1,560,4|0,2:3|2:3,2:3:0:0:
468,84,126540,2,0,B|369:49|369:49|414:151|414:151|354:245|354:245|417:335|417:335|392:300|283:320,1,560,4|0,2:3|2:3,2:3:0:0:
31,150,126999,2,0,L|308:187,1,280,4|0,2:3|2:3,2:3:0:0:
181,344,127305,6,0,B|171:271|95:209|95:209|153:257|241:149|386:168|321:288|321:288|238:266,1,560,4|0,2:3|2:3,2:3:0:0:
159,58,127918,2,0,B|265:157|187:252|187:252|72:207|107:135|107:135|38:274|115:304,1,560,4|0,2:3|2:3,2:3:0:0:
359,292,128530,2,0,B|294:235|294:235|143:271|143:271|233:250|260:159|260:159|177:129|119:190,1,560,4|0,2:3|2:3,2:3:0:0:
167,342,128989,2,0,B|286:257|463:268|463:268|422:219|412:129|412:129|417:177|341:202,1,560,4|0,2:3|2:3,2:3:0:0:
62,93,129448,2,0,L|339:130,1,280,4|0,2:3|2:3,2:3:0:0:
456,349,129754,6,0,B|419:301|372:297|372:297|251:289|251:289|208:337|208:337|199:223|199:223|245:258|245:258|324:220|303:171,1,560,4|0,2:3|2:3,2:3:0:0:
38,99,130367,2,0,B|212:115|245:258|245:258|321:94|321:94|280:182|323:201,1,560,4|0,2:3|2:3,2:3:0:0:
428,350,130979,2,0,B|302:319|214:149|214:149|237:274|237:274|224:203|139:194,1,560,4|0,2:3|2:3,2:3:0:0:
221,215,131438,2,0,B|227:279|227:279|67:293|67:293|52:117|52:117|212:104,1,560,4|0,2:3|2:3,2:3:0:0:
380,82,131897,2,0,L|343:359,1,280,4|0,2:3|2:3,2:3:0:0:
95,287,132203,6,0,B|131:209|261:192|261:192|168:205|102:87|102:87|218:136|258:73,1,560,4|0,2:3|2:3,2:3:0:0:
438,174,132816,2,0,B|310:311|193:178|265:26|403:95|346:160|346:160|268:98|171:124,1,560,4|0,2:3|2:3,2:3:0:0:
99,349,133428,2,0,B|171:313|222:233|193:139|114:98|114:98|29:173|38:240|89:274|89:274|114:256|123:231,1,560,4|0,2:3|2:3,2:3:0:0:
315,133,133887,2,0,B|259:229|370:309|370:309|404:18|404:18|397:75|345:73,1,560,4|0,2:3|2:3,2:3:0:0:
31,31,134346,2,0,L|308:68,1,280,4|0,2:3|2:3,2:3:0:0:
439,224,134652,6,0,P|221:336|110:99,1,560,4|0,2:3|2:3,2:3:0:0:
269,187,135265,2,0,P|1029:-15|1029:-15,1,560,4|0,2:3|2:3,2:3:0:0:
256,192,135647,12,4,137101,2:3:0:0:
