osu file format v14

[General]
AudioFilename: homecoming.mp3
AudioLeadIn: 0
PreviewTime: 14366
Countdown: 0
SampleSet: None
StackLeniency: 0.2
Mode: 0
LetterboxInBreaks: 0
WidescreenStoryboard: 0

[Editor]
DistanceSpacing: 1.3
BeatDivisor: 4
GridSize: 8
TimelineZoom: 1

[Metadata]
Title:Homecoming
TitleUnicode:Homecoming
Artist:Kanye West
ArtistUnicode:Kanye West
Creator:Axarious
Version:do you
Source:
Tags:
BeatmapID:1306193
BeatmapSetID:619699

[Difficulty]
HPDrainRate:5.9
CircleSize:4.1
OverallDifficulty:6.8
ApproachRate:8.2
SliderMultiplier:1.6
SliderTickRate:1

[Events]
//Background and Video events
0,0,"homecoming.png",0,0
//Break Periods
//Storyboard Layer 0 (Background)
//Storyboard Layer 1 (Fail)
//Storyboard Layer 2 (Pass)
//Storyboard Layer 3 (Foreground)
//Storyboard Sound Samples

[TimingPoints]
970.919535075089,674.157303370787,4,2,0,60,1,0
3667,691.64265129683,4,2,0,60,1,0
11966,685.714285714286,4,2,0,20,1,0
14366,-100,4,2,0,5,0,0
14708,691.64265129683,4,2,0,60,1,0
23007,685.714285714286,4,2,0,60,1,0
25749,691.64265129683,4,2,0,60,1,0
34033,685.714285714286,4,2,0,60,1,0
36775,691.64265129683,4,2,0,60,1,0
45074,689.655172413793,4,2,0,60,1,0
47832,691.64265129683,4,2,0,60,1,0
56131,681.818181818182,4,2,0,60,1,0
58858,691.64265129683,4,2,0,60,1,0
67157,685.714285714286,4,2,0,60,1,0
69899,691.64265129683,4,2,0,60,1,1
78198,681.818181818182,4,2,0,60,1,0
80925,691.64265129683,4,2,0,60,1,1
89224,689.655172413793,4,2,0,20,1,0
91982,691.645172413793,4,2,0,60,1,0
100281,685.715172413793,4,2,0,60,1,0
103023,691.645172413793,4,2,0,60,1,0
111322,685.715172413793,4,2,0,60,1,0
114064,691.645172413793,4,2,0,60,1,0
122363,681.818181818182,4,2,0,20,1,0
125090,691.645172413793,4,2,0,60,1,0
133389,685.714285714286,4,2,0,60,1,0
136116,689.655172413793,4,2,0,60,1,1
144415,681.818181818182,4,2,0,60,1,0
147142,691.64265129683,4,2,0,60,1,1
155441,685.714285714286,4,2,0,60,1,0
158183,691.64265129683,4,2,0,60,1,1
166482,685.714285714286,4,2,0,20,1,0
169214,691.64265129683,4,2,0,60,1,0
177523,681.818181818182,4,2,0,60,1,0
180250,691.64265129683,4,2,0,60,1,0
188549,685.714285714286,4,2,0,60,1,0
191291,691.64265129683,4,2,0,60,1,0
199590,714.285714285714,4,2,0,20,1,0

[Colours]
Combo1 : 252,237,150
Combo2 : 249,166,205
Combo3 : 252,192,139
Combo4 : 245,90,114

[HitObjects]
280,136,970,6,0,L|169:149,1,80
248,256,1476,1,0,0:0:0:0:
272,240,1645,2,0,L|384:256,1,80
456,216,2150,1,0,0:0:0:0:
424,208,2319,2,0,L|472:304,1,80
408,120,2824,1,0,0:0:0:0:
392,96,2993,2,0,L|336:192,1,80
424,208,3499,1,0,0:0:0:0:
352,248,3667,6,0,L|240:232,1,80
192,208,4185,1,0,0:0:0:0:
152,288,4358,1,0,0:0:0:0:
184,128,4531,6,0,L|103:136,1,80
40,288,5050,2,0,P|30:335|49:368,1,80
312,336,5741,2,0,L|303:256,1,80
304,168,6260,1,0,0:0:0:0:
200,208,6433,5,0,0:0:0:0:
240,24,6779,1,0,0:0:0:0:
240,24,6952,1,0,0:0:0:0:
416,184,7298,1,0,0:0:0:0:
120,240,7643,2,0,L|0:232,1,120
128,328,8335,2,0,B|120:312|120:312|144:272|144:272|136:256,1,80
440,280,9027,2,0,P|384:256|320:272,1,120
272,208,9718,2,0,L|279:110,1,80
336,72,10237,1,0,0:0:0:0:
328,56,10583,5,0,0:0:0:0:
320,40,10929,1,0,0:0:0:0:
348,185,11102,1,0,0:0:0:0:
143,155,11275,1,0,0:0:0:0:
280,128,11447,1,0,0:0:0:0:
288,144,11793,1,0,0:0:0:0:
296,160,11966,6,0,L|289:258,1,80
416,112,12651,2,0,L|365:119,2,40
488,168,13166,1,0,0:0:0:0:
496,256,13337,2,0,P|480:296|432:320,1,80
352,304,13851,2,0,L|336:176,1,120
240,32,14708,6,0,P|232:80|264:136,1,80
320,160,15226,1,0,0:0:0:0:
368,32,15399,2,0,L|304:40,1,40
400,112,15745,2,0,L|464:104,1,40
504,168,16091,6,0,P|512:224|480:272,1,80
320,272,16610,2,0,L|216:256,1,80
152,264,17128,1,0,0:0:0:0:
256,352,17301,1,0,0:0:0:0:
288,184,17474,6,0,L|272:80,1,80
376,208,17993,1,0,0:0:0:0:
472,144,18166,2,0,L|416:136,1,40
360,72,18512,2,0,L|304:64,1,40
168,176,18857,2,0,P|200:136|248:136,1,80
120,8,19376,2,0,B|136:32|136:32|128:112,2,80
0,160,20241,6,0,L|104:144,1,80
240,208,20759,2,0,P|256:264|216:320,1,120
120,224,21451,1,0,0:0:0:0:
216,128,21624,6,0,L|312:112,1,80
352,264,22143,1,0,0:0:0:0:
184,296,22316,1,0,0:0:0:0:
80,152,22488,2,0,P|88:104|144:80,1,80
216,128,23007,5,0,0:0:0:0:
16,64,23349,1,0,0:0:0:0:
40,152,23521,1,0,0:0:0:0:
16,240,23692,2,0,L|120:232,1,80
256,192,24207,1,0,0:0:0:0:
144,152,24378,2,0,L|40:160,1,80
104,336,24892,1,0,0:0:0:0:
192,264,25064,1,0,0:0:0:0:
280,328,25235,2,0,P|336:352|384:336,1,80
456,272,25749,5,0,0:0:0:0:
208,288,26094,1,0,0:0:0:0:
192,376,26267,1,0,0:0:0:0:
320,304,26440,1,0,0:0:0:0:
120,320,26613,2,0,L|16:328,1,80
112,184,27132,2,0,P|104:160|128:104,1,80
192,248,27823,2,0,B|216:256|216:256|296:240,1,80
408,208,28342,1,0,0:0:0:0:
336,320,28515,5,0,0:0:0:0:
496,160,28861,1,0,0:0:0:0:
386,219,29034,1,0,0:0:0:0:
512,248,29207,1,0,0:0:0:0:
320,160,29380,2,0,P|264:144|232:160,1,80
288,280,29898,2,0,L|384:264,1,80
199,247,30417,2,0,L|191:343,2,80
128,104,31282,6,0,L|80:120,1,40
208,104,31627,2,0,L|160:120,1,40
296,200,31973,2,0,L|344:216,1,40
136,208,32319,1,0,0:0:0:0:
216,200,32492,6,0,L|264:216,1,40
328,32,32838,1,0,0:0:0:0:
336,112,33011,2,0,L|320:160,1,40
344,240,33357,2,0,L|392:256,1,40
496,160,33702,1,0,0:0:0:0:
488,136,34033,5,0,0:0:0:0:
480,112,34204,2,0,L|488:72,1,40
400,64,34547,1,0,0:0:0:0:
328,192,34718,1,0,0:0:0:0:
432,296,34890,1,0,0:0:0:0:
296,184,35061,2,0,L|304:128,1,40
200,248,35404,6,0,P|168:280|168:328,1,80
256,384,35918,1,0,0:0:0:0:
312,248,36090,1,0,0:0:0:0:
176,288,36261,2,0,L|80:296,1,80
8,376,36775,5,0,0:0:0:0:
288,328,37120,1,0,0:0:0:0:
192,312,37293,1,0,0:0:0:0:
120,384,37466,1,0,0:0:0:0:
136,200,37639,2,0,L|128:96,1,80
240,40,38158,2,0,L|224:136,1,80
0,280,38849,2,0,B|56:264|56:264|96:272,1,80
168,304,39368,1,0,0:0:0:0:
120,384,39541,5,0,0:0:0:0:
144,88,39887,1,0,0:0:0:0:
56,112,40060,1,0,0:0:0:0:
120,240,40233,1,0,0:0:0:0:
144,88,40406,2,0,L|136:8,1,80
200,168,40924,2,0,P|248:184|304:160,1,80
352,128,41443,1,0,0:0:0:0:
440,328,41789,1,0,0:0:0:0:
136,272,42135,1,0,0:0:0:0:
224,232,42308,6,0,L|320:240,1,80
424,216,42826,1,0,0:0:0:0:
288,152,42999,2,0,L|192:144,1,80
192,336,43691,5,0,0:0:0:0:
288,64,44037,1,0,0:0:0:0:
368,160,44210,1,0,0:0:0:0:
272,272,44383,1,0,0:0:0:0:
440,240,44555,2,0,L|432:336,1,80
304,352,45074,6,0,P|224:352|192:280,1,160
256,192,45936,1,0,0:0:0:0:
352,240,46108,1,0,0:0:0:0:
432,160,46280,1,0,0:0:0:0:
368,64,46453,2,0,L|272:80,1,80
160,160,46970,1,0,0:0:0:0:
296,184,47142,1,0,0:0:0:0:
88,208,47315,2,0,P|64:168|72:112,1,80
136,48,47832,6,0,L|208:40,2,60
264,104,48523,2,0,L|312:112,1,40
392,96,48869,2,0,L|440:104,1,40
504,192,49215,2,0,L|456:200,1,40
376,184,49561,2,0,L|328:192,1,40
240,264,49906,2,0,P|240:320|272:352,1,80
416,376,50425,1,0,0:0:0:0:
360,304,50598,6,0,L|256:320,1,80
184,328,51117,1,0,0:0:0:0:
288,280,51290,1,0,0:0:0:0:
120,224,51463,2,0,B|112:160|112:160|128:120,1,80
208,72,51981,2,0,B|200:136|200:136|216:176,1,80
352,216,52500,1,0,0:0:0:0:
424,80,52673,1,0,0:0:0:0:
488,152,52846,2,0,L|472:232,1,80
360,280,53365,6,0,L|352:216,1,40
280,152,53710,1,0,0:0:0:0:
192,184,53883,1,0,0:0:0:0:
104,152,54056,2,0,L|48:160,1,40
0,272,54402,2,0,L|56:264,1,40
192,216,54748,2,0,L|288:224,1,80
376,264,55267,1,0,0:0:0:0:
224,296,55440,1,0,0:0:0:0:
432,344,55612,2,0,P|472:328|496:288,1,80
464,192,56131,6,0,L|472:112,1,80
368,136,56642,1,0,0:0:0:0:
264,168,56812,1,0,0:0:0:0:
240,48,56983,1,0,0:0:0:0:
104,24,57153,1,0,0:0:0:0:
32,128,57324,1,0,0:0:0:0:
72,56,57494,6,0,P|128:64|160:96,1,80
96,152,58006,1,0,0:0:0:0:
280,184,58176,2,0,L|288:256,1,40
200,328,58517,1,0,0:0:0:0:
312,312,58687,1,0,0:0:0:0:
416,360,58858,5,0,0:0:0:0:
432,112,59203,1,0,0:0:0:0:
392,192,59376,1,0,0:0:0:0:
432,272,59549,1,0,0:0:0:0:
312,232,59722,2,0,L|224:240,1,80
120,296,60241,5,0,0:0:0:0:
248,0,60587,1,0,0:0:0:0:
448,264,60932,1,0,0:0:0:0:
64,200,61278,1,0,0:0:0:0:
168,216,61451,1,0,0:0:0:0:
200,72,61624,5,0,0:0:0:0:
224,280,61970,2,0,L|232:328,2,40
272,216,62489,1,0,0:0:0:0:
432,304,62834,2,0,B|400:336|400:336|288:320,1,120
264,248,63526,2,0,L|312:240,1,40
368,160,63872,2,0,L|320:152,1,40
432,88,64218,1,0,0:0:0:0:
384,8,64391,6,0,L|464:0,1,80
432,176,64909,2,0,P|384:168|360:136,1,80
248,96,65428,1,0,0:0:0:0:
256,72,65774,5,0,0:0:0:0:
280,352,66120,1,0,0:0:0:0:
184,224,66293,1,0,0:0:0:0:
320,264,66466,1,0,0:0:0:0:
144,312,66638,1,0,0:0:0:0:
440,288,66984,1,0,0:0:0:0:
400,200,67157,6,0,B|424:192|424:192|488:200,1,80
424,104,67842,5,0,0:0:0:0:
424,152,68014,1,0,0:0:0:0:
392,184,68185,1,0,0:0:0:0:
352,184,68357,1,0,0:0:0:0:
328,312,68528,5,0,0:0:0:0:
240,288,68699,1,0,0:0:0:0:
216,200,68871,1,0,0:0:0:0:
280,136,69042,1,0,0:0:0:0:
120,216,69214,5,0,0:0:0:0:
104,104,69385,1,0,0:0:0:0:
192,32,69557,1,0,0:0:0:0:
304,48,69728,1,0,0:0:0:0:
344,152,69899,6,0,L|336:200,1,40
256,368,70244,1,0,0:0:0:0:
208,280,70417,1,0,0:0:0:0:
368,304,70590,2,0,L|424:312,1,40
136,200,70936,2,0,L|80:192,1,40
344,208,71282,2,0,P|352:168|320:128,1,80
152,304,71801,2,0,L|240:288,1,80
288,376,72319,1,0,0:0:0:0:
256,192,72492,1,0,0:0:0:0:
360,296,72665,6,0,L|416:304,1,40
432,48,73011,1,0,0:0:0:0:
248,96,73184,1,0,0:0:0:0:
384,120,73357,2,0,L|376:192,1,40
264,384,73703,2,0,L|272:312,1,40
448,256,74048,2,0,P|440:304|400:336,1,80
200,272,74567,2,0,P|248:264|280:224,1,80
112,56,75086,1,0,0:0:0:0:
72,128,75259,1,0,0:0:0:0:
128,192,75432,6,0,L|232:184,1,80
304,136,75950,1,0,0:0:0:0:
240,352,76123,2,0,P|208:344|192:328,1,40
328,328,76469,1,0,0:0:0:0:
512,384,76815,5,0,0:0:0:0:
256,264,77161,1,0,0:0:0:0:
392,240,77334,1,0,0:0:0:0:
224,256,77507,1,0,0:0:0:0:
448,312,77679,2,0,P|480:280|480:240,1,80
312,192,78198,5,0,0:0:0:0:
136,328,78538,1,0,0:0:0:0:
232,352,78709,1,0,0:0:0:0:
320,304,78879,1,0,0:0:0:0:
416,336,79050,2,0,B|440:344|440:344|496:328,1,80
352,208,79561,6,0,L|368:120,1,80
432,64,80073,1,0,0:0:0:0:
280,104,80243,1,0,0:0:0:0:
136,32,80413,2,0,B|112:40|112:40|56:24,1,80
48,152,80925,5,0,0:0:0:0:
256,232,81270,1,0,0:0:0:0:
200,320,81443,1,0,0:0:0:0:
336,296,81616,1,0,0:0:0:0:
240,136,81789,1,0,0:0:0:0:
280,384,81962,1,0,0:0:0:0:
456,256,82135,1,0,0:0:0:0:
200,232,82308,2,0,P|144:248|128:288,1,80
312,296,82827,2,0,L|304:400,1,80
392,248,83345,1,0,0:0:0:0:
216,344,83518,1,0,0:0:0:0:
416,352,83691,5,0,0:0:0:0:
336,8,84037,1,0,0:0:0:0:
360,112,84210,1,0,0:0:0:0:
288,208,84383,1,0,0:0:0:0:
264,104,84556,1,0,0:0:0:0:
152,216,84729,1,0,0:0:0:0:
288,208,84901,1,0,0:0:0:0:
136,312,85074,2,0,P|120:264|152:216,1,80
288,368,85593,2,0,L|192:360,1,80
440,312,86285,1,0,0:0:0:0:
432,232,86458,6,0,B|448:216|448:216|440:144,1,80
368,40,86976,2,0,L|352:128,1,80
336,208,87495,1,0,0:0:0:0:
344,232,87841,1,0,0:0:0:0:
16,208,88187,1,0,0:0:0:0:
120,168,88360,1,0,0:0:0:0:
224,208,88533,1,0,0:0:0:0:
176,72,88705,2,0,L|272:64,1,80
272,56,89138,1,0,0:0:0:0:
288,48,89224,6,0,P|328:80|328:120,1,80
336,264,89913,1,0,0:0:0:0:
232,296,90086,1,0,0:0:0:0:
336,264,90258,1,0,0:0:0:0:
168,224,90430,1,0,0:0:0:0:
312,184,90603,2,0,L|296:104,1,80
128,80,91120,2,0,B|48:96|48:96|24:112|16:136|24:168,1,160
192,224,91982,6,0,P|216:192|208:128,1,80
96,240,92500,1,0,0:0:0:0:
256,312,92673,1,0,0:0:0:0:
56,336,92846,2,0,L|64:240,1,80
176,296,93365,1,0,0:0:0:0:
448,336,93711,1,0,0:0:0:0:
264,64,94056,1,0,0:0:0:0:
32,336,94402,1,0,0:0:0:0:
152,280,94575,1,0,0:0:0:0:
264,352,94748,6,0,L|344:344,1,80
488,336,95267,2,0,P|456:368|408:368,2,80
448,240,96131,2,0,L|392:256,1,40
320,192,96477,1,0,0:0:0:0:
376,120,96650,1,0,0:0:0:0:
464,152,96823,1,0,0:0:0:0:
400,32,96996,2,0,L|304:48,1,80
232,128,97515,6,0,L|120:112,1,80
256,224,98033,1,0,0:0:0:0:
176,288,98206,2,0,L|64:272,1,80
368,384,98898,1,0,0:0:0:0:
96,368,99244,1,0,0:0:0:0:
208,320,99417,1,0,0:0:0:0:
40,288,99590,1,0,0:0:0:0:
208,320,99763,2,0,P|216:280|192:232,1,80
272,192,100281,6,0,L|368:200,1,80
192,128,100795,1,0,0:0:0:0:
256,64,100966,2,0,P|312:64|336:80,1,80
424,96,101481,1,0,0:0:0:0:
504,40,101652,1,0,0:0:0:0:
448,128,101823,1,0,0:0:0:0:
488,232,101995,2,0,L|480:280,1,40
504,384,102338,1,0,0:0:0:0:
408,304,102509,2,0,L|336:320,1,40
288,328,102852,1,0,0:0:0:0:
416,224,103023,6,0,L|344:240,1,40
288,328,103368,2,0,P|240:304|232:264,1,80
328,32,104060,2,0,L|320:80,1,40
344,112,104406,2,0,L|408:96,2,60
264,136,105097,1,0,0:0:0:0:
144,32,105328,1,0,0:0:0:0:
128,48,105443,2,0,L|72:64,1,40
32,136,105789,6,0,L|48:192,1,40
120,232,106135,2,0,L|176:216,1,40
240,280,106481,2,0,P|272:296|328:280,1,80
208,144,107172,2,0,L|272:128,2,60
120,176,107864,1,0,0:0:0:0:
408,32,108210,1,0,0:0:0:0:
368,120,108383,1,0,0:0:0:0:
416,208,108556,6,0,P|424:240|408:272,2,60
328,240,109247,2,0,L|320:288,1,40
216,160,109593,2,0,L|168:168,1,40
104,120,109939,2,0,P|96:88|112:56,2,60
104,120,110631,2,0,L|96:176,1,40
192,64,110976,2,0,L|184:120,1,40
280,8,111322,5,0,0:0:0:0:
320,144,111493,1,0,0:0:0:0:
360,72,111664,1,0,0:0:0:0:
168,80,111836,1,0,0:0:0:0:
320,144,112007,1,0,0:0:0:0:
280,240,112179,1,0,0:0:0:0:
288,112,112350,1,0,0:0:0:0:
424,184,112522,1,0,0:0:0:0:
352,304,112693,6,0,L|336:376,2,60
320,224,113379,1,0,0:0:0:0:
360,72,113607,1,0,0:0:0:0:
344,88,113722,2,0,L|280:104,1,40
216,120,114064,5,0,0:0:0:0:
152,48,114236,1,0,0:0:0:0:
64,88,114409,1,0,0:0:0:0:
72,184,114582,1,0,0:0:0:0:
168,208,114755,2,0,L|264:200,1,80
432,184,115274,1,0,0:0:0:0:
344,176,115447,2,0,L|248:184,2,80
360,136,116311,2,0,L|352:232,1,80
320,304,116830,5,0,0:0:0:0:
408,288,117003,1,0,0:0:0:0:
384,192,117176,1,0,0:0:0:0:
472,216,117349,1,0,0:0:0:0:
464,80,117522,2,0,L|368:96,1,80
312,32,118040,1,0,0:0:0:0:
216,48,118213,2,0,P|200:96|208:128,1,80
280,240,118732,2,0,P|296:192|288:160,2,80
192,216,119597,5,0,0:0:0:0:
96,240,119770,1,0,0:0:0:0:
192,216,119942,1,0,0:0:0:0:
96,240,120115,1,0,0:0:0:0:
160,336,120288,2,0,L|56:360,1,80
208,264,120807,1,0,0:0:0:0:
240,360,120980,2,0,P|288:368|344:336,2,80
384,288,121845,2,0,P|392:232|360:184,1,80
208,160,122363,6,0,L|256:152,2,40
304,232,122874,2,0,P|264:240|240:272,2,80
448,160,123726,2,0,L|440:208,1,40
392,280,124067,2,0,L|536:304,1,120
352,312,125090,6,0,L|400:304,1,40
464,256,125435,1,0,0:0:0:0:
392,200,125608,1,0,0:0:0:0:
440,120,125781,2,0,L|448:64,1,40
304,128,126127,2,0,L|312:184,1,40
336,344,126473,1,0,0:0:0:0:
368,240,126646,1,0,0:0:0:0:
232,192,126819,1,0,0:0:0:0:
416,168,127164,5,0,0:0:0:0:
232,112,127337,1,0,0:0:0:0:
392,88,127510,1,0,0:0:0:0:
336,240,127683,2,0,L|344:312,1,40
176,144,128202,2,0,L|168:72,2,40
128,224,128721,2,0,B|72:216|72:216|88:256,1,80
144,320,129239,5,0,0:0:0:0:
216,248,129412,2,0,L|224:200,1,40
312,208,129758,1,0,0:0:0:0:
392,272,129931,2,0,L|400:224,1,40
448,160,130277,1,0,0:0:0:0:
496,80,130450,2,0,L|488:0,1,80
424,128,130968,2,0,L|376:136,1,40
312,208,131314,5,0,0:0:0:0:
328,72,131487,2,0,P|304:40|256:32,1,80
176,64,132006,1,0,0:0:0:0:
136,152,132179,1,0,0:0:0:0:
184,232,132352,1,0,0:0:0:0:
120,304,132525,1,0,0:0:0:0:
32,264,132698,2,0,L|40:216,1,40
80,144,133043,2,0,L|88:96,1,40
80,24,133389,5,0,0:0:0:0:
0,112,133560,1,0,0:0:0:0:
96,184,133731,2,0,L|144:176,1,40
184,272,134074,2,0,L|168:344,2,60
384,64,134931,1,0,0:0:0:0:
448,120,135103,2,0,P|456:160|448:192,1,40
424,240,135446,2,0,L|352:248,2,60
496,296,136116,5,0,0:0:0:0:
264,360,136460,1,0,0:0:0:0:
272,256,136633,1,0,0:0:0:0:
184,320,136805,1,0,0:0:0:0:
288,344,136978,1,0,0:0:0:0:
168,336,137150,1,0,0:0:0:0:
304,304,137322,1,0,0:0:0:0:
256,152,137495,6,0,L|248:64,1,80
160,184,138012,2,0,B|120:168|120:168|72:192,1,80
0,232,138529,1,0,0:0:0:0:
64,96,138702,1,0,0:0:0:0:
120,272,138874,5,0,0:0:0:0:
144,264,139219,1,0,0:0:0:0:
16,256,139391,1,0,0:0:0:0:
184,176,139564,1,0,0:0:0:0:
0,232,139736,1,0,0:0:0:0:
160,368,139909,1,0,0:0:0:0:
120,240,140081,1,0,0:0:0:0:
264,312,140253,6,0,L|360:320,1,80
216,144,140771,2,0,B|200:184|200:184|208:240,2,80
280,64,141633,5,0,0:0:0:0:
248,368,141978,1,0,0:0:0:0:
224,288,142150,2,0,L|232:200,1,80
344,272,142667,2,0,L|352:184,1,80
448,312,143357,5,0,0:0:0:0:
312,272,143529,1,0,0:0:0:0:
320,112,143702,1,0,0:0:0:0:
496,152,143874,2,0,B|504:104|504:104|464:112,1,80
360,128,144415,6,0,L|272:120,1,80
144,160,144926,1,0,0:0:0:0:
264,240,145096,2,0,L|176:232,1,80
8,368,145608,1,0,0:0:0:0:
104,360,145778,2,0,P|128:312|120:272,1,80
64,136,146290,1,0,0:0:0:0:
48,288,146460,1,0,0:0:0:0:
232,232,146630,2,0,L|336:224,1,80
472,168,147142,5,0,0:0:0:0:
336,360,147487,1,0,0:0:0:0:
248,344,147660,2,0,L|200:336,1,40
16,304,148006,1,0,0:0:0:0:
136,256,148179,2,0,L|136:216,1,40
216,144,148525,2,0,L|216:184,1,40
296,240,148871,1,0,0:0:0:0:
304,248,149044,2,0,L|384:248,1,80
464,224,149562,2,0,L|504:224,2,40
456,144,150254,6,0,L|416:144,1,40
288,16,150600,2,0,L|264:64,1,40
64,48,150946,2,0,L|80:88,1,40
160,152,151291,2,0,P|160:200|144:232,1,80
0,160,151810,2,0,P|48:160|80:176,2,80
136,296,152675,6,0,L|240:296,1,80
320,176,153193,1,0,0:0:0:0:
280,360,153366,1,0,0:0:0:0:
312,376,153712,1,0,0:0:0:0:
384,256,153885,1,0,0:0:0:0:
280,168,154058,2,0,L|288:88,1,80
368,168,154577,1,0,0:0:0:0:
232,248,154750,1,0,0:0:0:0:
192,72,154922,2,0,P|160:64|96:88,1,80
40,128,155441,5,0,0:0:0:0:
312,96,155783,1,0,0:0:0:0:
208,80,155955,1,0,0:0:0:0:
352,168,156126,1,0,0:0:0:0:
264,208,156298,2,0,L|168:192,1,80
104,16,156812,2,0,P|104:80|112:104,1,80
304,72,157326,1,0,0:0:0:0:
208,56,157498,1,0,0:0:0:0:
408,16,157669,2,0,P|408:80|400:104,1,80
384,240,158183,5,0,0:0:0:0:
224,128,158528,1,0,0:0:0:0:
312,96,158701,2,0,L|320:40,1,40
192,120,159047,1,0,0:0:0:0:
344,96,159220,2,0,L|400:88,1,40
440,176,159566,2,0,L|496:168,1,40
272,160,159912,1,0,0:0:0:0:
168,288,160085,2,0,P|120:280|96:240,1,80
312,272,160603,1,0,0:0:0:0:
232,360,160776,1,0,0:0:0:0:
168,208,160949,5,0,0:0:0:0:
328,264,161295,1,0,0:0:0:0:
232,384,161468,1,0,0:0:0:0:
184,200,161641,1,0,0:0:0:0:
112,384,161814,1,0,0:0:0:0:
312,352,161987,5,0,0:0:0:0:
48,152,162332,1,0,0:0:0:0:
336,24,162678,1,0,0:0:0:0:
408,72,162851,2,0,P|464:64|480:40,2,80
312,8,163716,6,0,L|304:96,1,80
448,264,164234,2,0,L|440:352,1,80
360,376,164753,1,0,0:0:0:0:
344,216,164926,1,0,0:0:0:0:
208,312,165099,2,0,L|112:320,1,80
168,224,165618,1,0,0:0:0:0:
288,168,165791,1,0,0:0:0:0:
344,304,165963,2,0,P|352:352|344:384,1,80
320,376,166396,1,0,0:0:0:0:
296,368,166482,6,0,L|208:376,1,80
80,352,167167,1,0,0:0:0:0:
192,296,167339,1,0,0:0:0:0:
48,272,167510,1,0,0:0:0:0:
192,296,167682,1,0,0:0:0:0:
256,128,167853,6,0,P|248:176|256:224,1,80
336,264,168368,2,0,B|328:336|328:336|360:336|384:328|408:304,1,160
472,216,169214,5,0,0:0:0:0:
328,160,169559,1,0,0:0:0:0:
328,160,169732,1,0,0:0:0:0:
288,240,169905,5,0,0:0:0:0:
344,312,170078,2,0,L|472:304,1,120
168,312,170943,1,0,0:0:0:0:
256,352,171288,2,0,L|256:272,1,80
160,192,171807,1,0,0:0:0:0:
56,208,171980,5,0,0:0:0:0:
184,32,172326,1,0,0:0:0:0:
184,32,172499,1,0,0:0:0:0:
256,88,172672,5,0,0:0:0:0:
328,32,172845,1,0,0:0:0:0:
488,192,173190,2,0,L|344:184,1,120
280,224,173882,2,0,P|264:272|272:304,2,80
368,200,174747,5,0,0:0:0:0:
456,232,174920,1,0,0:0:0:0:
424,320,175092,1,0,0:0:0:0:
336,288,175265,1,0,0:0:0:0:
360,176,175438,1,0,0:0:0:0:
256,336,175784,5,0,0:0:0:0:
144,104,176130,5,0,0:0:0:0:
56,136,176303,1,0,0:0:0:0:
88,224,176475,1,0,0:0:0:0:
176,192,176648,1,0,0:0:0:0:
152,80,176821,1,0,0:0:0:0:
280,136,176994,2,0,L|264:216,1,80
368,272,177523,6,0,P|352:336|384:384,1,120
184,272,178204,6,0,P|168:208|200:160,1,120
312,144,178886,5,0,0:0:0:0:
168,384,179227,1,0,0:0:0:0:
264,336,179398,1,0,0:0:0:0:
112,320,179568,1,0,0:0:0:0:
264,336,179738,2,0,L|256:240,1,80
288,128,180250,5,0,0:0:0:0:
448,344,180595,1,0,0:0:0:0:
368,376,180768,1,0,0:0:0:0:
312,304,180941,5,0,0:0:0:0:
312,304,181114,2,0,P|256:280|200:304,1,120
120,168,181979,1,0,0:0:0:0:
256,360,182324,1,0,0:0:0:0:
392,168,182670,1,0,0:0:0:0:
392,168,182843,1,0,0:0:0:0:
352,240,183016,5,0,0:0:0:0:
176,104,183362,1,0,0:0:0:0:
128,184,183535,1,0,0:0:0:0:
200,248,183708,5,0,0:0:0:0:
200,248,183881,2,0,B|256:272|256:272|312:248,1,120
384,168,184745,1,0,0:0:0:0:
336,160,184919,2,0,L|328:80,2,80
432,224,185783,5,0,0:0:0:0:
488,144,185956,1,0,0:0:0:0:
432,64,186128,1,0,0:0:0:0:
336,96,186301,1,0,0:0:0:0:
336,192,186474,1,0,0:0:0:0:
256,48,186820,5,0,0:0:0:0:
112,312,187166,5,0,0:0:0:0:
56,232,187339,1,0,0:0:0:0:
112,152,187511,1,0,0:0:0:0:
208,184,187684,1,0,0:0:0:0:
208,280,187857,1,0,0:0:0:0:
336,248,188030,2,0,L|296:160,1,80
480,176,188549,6,0,P|464:248|424:272,1,120
224,176,189234,6,0,P|296:192|320:232,1,120
224,328,189920,6,0,L|112:320,1,80
136,144,190434,1,0,0:0:0:0:
160,240,190606,1,0,0:0:0:0:
48,344,190777,2,0,L|64:264,1,80
48,184,191291,5,0,0:0:0:0:
224,104,191636,2,0,L|280:112,2,40
392,72,192155,2,0,B|400:152|400:152|344:144,1,120
80,96,193019,1,0,0:0:0:0:
448,0,193365,1,0,0:0:0:0:
360,368,193711,1,0,0:0:0:0:
336,272,193884,1,0,0:0:0:0:
264,336,194057,5,0,0:0:0:0:
432,88,194403,2,0,L|384:72,2,40
312,128,194922,1,0,0:0:0:0:
112,232,195267,2,0,L|248:224,1,120
392,248,195959,2,0,P|344:264|296:240,2,80
464,176,196824,6,0,L|480:288,1,80
360,72,197342,2,0,L|376:184,1,80
448,32,197861,1,0,0:0:0:0:
96,112,198207,5,0,0:0:0:0:
288,144,198553,2,0,L|280:184,1,40
280,344,198899,1,0,0:0:0:0:
208,240,199071,2,0,L|192:152,1,80
128,280,199590,5,0,0:0:0:0:
232,336,200304,2,0,L|280:328,3,40
352,352,201018,6,0,L|440:360,1,80
504,312,201554,1,0,0:0:0:0:
