osu file format v14

[General]
AudioFilename: audio.mp3
AudioLeadIn: 0
PreviewTime: 108639
Countdown: 0
SampleSet: Soft
StackLeniency: 0.7
Mode: 0
LetterboxInBreaks: 0
WidescreenStoryboard: 0

[Editor]
Bookmarks: 27562,38596,58941,77217,110320,159975,176527,193079
DistanceSpacing: 1
BeatDivisor: 8
GridSize: 8
TimelineZoom: 1

[Metadata]
Title:Famous
TitleUnicode:Famous
Artist:Kanye West
ArtistUnicode:Kanye West
Creator:Fsjallink
Version:Wake Up, Mr. West
Source:
Tags:revolver gouhin english hip hop hip-hop rihanna Sister Nancy bam bam nina simone Do What You Gotta Do Mi Sono Svegliato E... Ho Chiuso Gli Occhi Il Rovescio Della Medaglia Havoc swizz beatz the life of pablo tlop
BeatmapID:3495796
BeatmapSetID:1710849

[Difficulty]
HPDrainRate:5
CircleSize:4
OverallDifficulty:8
ApproachRate:8
SliderMultiplier:2.8
SliderTickRate:1

[Events]
//Background and Video events
0,0,"dF6Xf6I.jpg",0,0
//Break Periods
2,27805,34958
2,60708,74786
//Storyboard Layer 0 (Background)
//Storyboard Layer 1 (Fail)
//Storyboard Layer 2 (Pass)
//Storyboard Layer 3 (Foreground)
//Storyboard Layer 4 (Overlay)
//Storyboard Sound Samples

[TimingPoints]
13812,689.655172413793,4,2,0,60,1,0
14846,-100,4,2,0,30,0,0
16570,-100,4,2,0,60,0,0
23036,-100,4,2,0,20,0,0
23122,-83.3333333333333,4,2,0,60,0,0
23812,-100,4,2,0,60,0,0
25794,-100,4,2,0,20,0,0
25880,-83.3333333333333,4,2,0,60,0,0
26570,-100,4,2,0,60,0,0
26829,-100,4,2,0,20,0,0
26915,-100,4,2,0,60,0,0
35708,-100,4,2,0,30,0,0
38639,-90.9090909090909,4,2,0,60,0,0
42346,-90.9090909090909,4,2,0,20,0,0
42432,-90.9090909090909,4,2,0,60,0,0
44846,-100,4,2,0,60,0,0
45363,-90.9090909090909,4,2,0,60,0,0
47605,-100,4,2,0,60,0,0
48122,-90.9090909090909,4,2,0,60,0,0
49932,-90.9090909090909,4,2,0,20,0,0
50018,-90.9090909090909,4,2,0,60,0,0
51656,-90.9090909090909,4,2,0,20,0,0
51743,-90.9090909090909,4,2,0,60,0,0
53036,-90.9090909090909,4,2,0,20,0,0
53122,-90.9090909090909,4,2,0,60,0,0
55449,-90.9090909090909,4,2,0,20,0,0
55536,-90.9090909090909,4,2,0,60,0,0
56312,-90.9090909090909,4,2,0,20,0,0
56398,-90.9090909090909,4,2,0,60,0,0
58036,-90.9090909090909,4,2,0,30,0,0
77260,-90.9090909090909,4,2,0,60,0,0
79243,-90.9090909090909,4,2,0,20,0,0
79329,-90.9090909090909,4,2,0,60,0,0
79932,-90.9090909090909,4,2,0,20,0,0
80018,-90.9090909090909,4,2,0,60,0,0
82691,-90.9090909090909,4,2,0,20,0,0
82777,-90.9090909090909,4,2,0,60,0,0
84760,-90.9090909090909,4,2,0,20,0,0
84846,-90.9090909090909,4,2,0,60,0,0
85449,-90.9090909090909,4,2,0,20,0,0
85536,-90.9090909090909,4,2,0,60,0,0
98984,-66.6666666666667,4,2,0,60,0,0
99846,-90.9090909090909,4,2,0,60,0,0
100277,-90.9090909090909,4,2,0,20,0,0
100363,-90.9090909090909,4,2,0,60,0,0
105794,-90.9090909090909,4,2,0,20,0,0
105880,-90.9090909090909,4,2,0,60,0,0
110363,-76.9230769230769,4,2,0,70,0,1
112432,-133.333333333333,4,2,0,70,0,1
113122,-76.9230769230769,4,2,0,70,0,1
113380,-76.9230769230769,4,2,0,20,0,1
113467,-76.9230769230769,4,2,0,70,0,1
115191,-133.333333333333,4,2,0,70,0,1
115880,-76.9230769230769,4,2,0,70,0,1
116139,-76.9230769230769,4,2,0,20,0,1
116225,-76.9230769230769,4,2,0,70,0,1
117949,-133.333333333333,4,2,0,70,0,1
118639,-76.9230769230769,4,2,0,70,0,1
123467,-133.333333333333,4,2,0,70,0,1
124156,-76.9230769230769,4,2,0,70,0,1
124415,-76.9230769230769,4,2,0,20,0,1
124501,-76.9230769230769,4,2,0,70,0,1
128984,-133.333333333333,4,2,0,70,0,1
129674,-76.9230769230769,4,2,0,70,0,1
129932,-76.9230769230769,4,2,0,20,0,1
130018,-76.9230769230769,4,2,0,70,0,1
134501,-133.333333333333,4,2,0,70,0,1
135191,-76.9230769230769,4,2,0,70,0,1
137949,-66.6666666666667,4,2,0,70,0,1
138208,-66.6666666666667,4,2,0,20,0,1
138294,-76.9230769230769,4,2,0,70,0,1
140018,-133.333333333333,4,2,0,70,0,1
140708,-76.9230769230769,4,2,0,70,0,1
141656,-76.9230769230769,4,2,0,20,0,1
141743,-76.9230769230769,4,2,0,70,0,1
143467,-66.6666666666667,4,2,0,70,0,1
144156,-76.9230769230769,4,2,0,70,0,1
145536,-133.333333333333,4,2,0,70,0,1
146225,-76.9230769230769,4,2,0,70,0,1
146484,-76.9230769230769,4,2,0,20,0,1
146570,-76.9230769230769,4,2,0,70,0,1
148208,-76.9230769230769,4,2,0,20,0,1
148294,-76.9230769230769,4,2,0,70,0,1
149243,-76.9230769230769,4,2,0,20,0,1
149329,-76.9230769230769,4,2,0,70,0,1
151312,-76.9230769230769,4,2,0,20,0,1
151398,-76.9230769230769,4,2,0,70,0,1
152346,-76.9230769230769,4,2,0,20,0,1
152432,-76.9230769230769,4,2,0,70,0,1
153380,-76.9230769230769,4,2,0,20,0,1
153467,-76.9230769230769,4,2,0,70,0,1
155536,-100,4,2,0,70,0,1
156225,-76.9230769230769,4,2,0,70,0,1
156570,-133.333333333333,4,2,0,70,0,1
157260,-76.9230769230769,4,2,0,70,0,1
157518,-76.9230769230769,4,2,0,20,0,1
157605,-76.9230769230769,4,2,0,70,0,1
158294,-100,4,2,0,70,0,1
158984,-76.9230769230769,4,2,0,70,0,1
159329,-133.333333333333,4,2,0,70,0,1
160018,-100,4,2,0,50,0,0
160277,-100,4,2,0,20,0,0
160363,-100,4,2,0,50,0,0
162087,-133.333333333333,4,2,0,50,0,0
162777,-100,4,2,0,50,0,0
164846,-133.333333333333,4,2,0,50,0,0
165536,-100,4,2,0,50,0,0
167605,-133.333333333333,4,2,0,50,0,0
168294,-100,4,2,0,50,0,0
168553,-100,4,2,0,20,0,0
168639,-100,4,2,0,50,0,0
170105,-100,4,2,0,20,0,0
170191,-100,4,2,0,50,0,0
170363,-133.333333333333,4,2,0,50,0,0
171053,-100,4,2,0,50,0,0

[Colours]
Combo1 : 17,254,176
Combo2 : 173,255,95
Combo3 : 255,88,100
Combo4 : 255,94,55

[HitObjects]
256,192,14846,12,0,16225,0:0:0:0:
167,167,16570,6,0,P|236:155|327:124,1,140,4|0,1:0|0:0,0:0:0:0:
341,55,17087,1,0,1:0:0:0:
382,221,17260,1,8,0:0:0:0:
382,221,17605,6,2,P|404:131|471:25,1,210,2|0,0:1|1:1,0:1:0:0:
341,55,18294,2,0,P|285:40|255:26,1,70,0|0,1:0|0:0,0:0:0:0:
135,70,18639,2,0,P|191:85|221:99,1,70,8|0,0:0|0:0,0:0:0:0:
270,253,18984,1,4,0:3:0:0:
270,253,19329,6,0,P|193:273|130:308,1,140,4|0,1:2|0:0,0:0:0:0:
61,258,19846,1,0,1:0:0:0:
218,367,20018,1,8,0:0:0:0:
218,367,20363,6,2,P|196:277|129:171,1,210,2|0,0:1|1:1,0:1:0:0:
88,57,21053,2,0,P|56:87|10:107,1,70,0|0,1:0|0:0,0:0:0:0:
37,205,21398,1,8,0:0:0:0:
235,119,21570,1,0,1:0:0:0:
235,119,21915,5,0,1:0:0:0:
185,354,22087,2,0,P|141:323|45:302,1,140,4|0,1:2|0:0,0:0:0:0:
37,205,22605,1,0,1:0:0:0:
214,214,22777,2,0,P|272:201|309:174,1,105,8|0,0:0|0:0,0:0:0:0:
343,131,23122,6,2,P|331:261|392:371,1,251.999992309571,0|0,0:0|0:0,0:1:0:0:
374,272,23812,2,0,P|329:294|303:337,1,70,0|0,1:0|0:0,0:0:0:0:
421,120,24156,2,0,P|405:76|371:50,1,70,8|0,0:0|0:0,0:0:0:0:
476,208,24501,1,4,0:3:0:0:
476,208,24846,6,0,P|414:197|314:182,1,140,4|0,1:2|0:0,0:0:0:0:
264,244,25363,1,0,1:0:0:0:
253,55,25536,2,0,P|216:76|141:79,1,105,8|0,0:0|0:0,0:0:0:0:
112,54,25880,2,2,P|139:124|136:222,1,167.999994873047,2|0,0:1|0:1,0:1:0:0:
41,240,26398,1,0,1:0:0:0:
189,343,26570,2,0,P|272:326|311:321,1,105,0|0,1:0|0:0,0:0:0:0:
309,321,26915,1,8,0:0:0:0:
423,358,27087,1,0,1:0:0:0:
423,358,27432,5,0,1:0:0:0:
480,260,27605,1,2,0:0:0:0:
256,192,35708,12,0,37087,0:0:0:0:
240,92,38639,5,4,1:0:0:0:
268,270,38812,1,2,0:0:0:0:
324,162,38984,2,0,P|328:112|344:57,1,77.0000023498536,2|0,0:0|1:0,0:0:0:0:
268,270,39329,2,0,P|188:294|112:310,1,154.000004699707,10|2,0:0|0:0,0:0:0:0:
34,323,39846,1,0,1:0:0:0:
99,218,40018,1,2,0:0:0:0:
273,349,40191,2,0,P|314:354|365:367,1,77.0000023498536,0|0,1:0|1:0,0:0:0:0:
465,191,40536,1,2,0:0:0:0:
429,324,40708,1,8,0:0:0:0:
429,324,41053,6,0,P|470:319|521:306,1,77.0000023498536,2|0,0:0|0:0,0:0:0:0:
374,155,41398,1,6,1:2:0:0:
356,278,41570,1,0,0:0:0:0:
226,262,41743,1,2,0:0:0:0:
242,129,41915,1,0,1:0:0:0:
139,162,42087,6,0,P|141:227|120:288,1,115.50000352478,10|0,0:0|0:0,0:0:0:0:
110,284,42432,2,0,P|39:278|0:277,1,77.0000023498536,2|0,0:0|1:0,0:0:0:0:
51,92,42777,1,2,0:0:0:0:
242,128,42949,2,0,P|306:136|340:140,1,77.0000023498536,0|0,1:0|1:0,0:0:0:0:
481,56,43294,2,0,P|429:69|388:77,1,77.0000023498536,2|8,0:0|0:0,0:0:0:0:
415,182,43639,1,2,1:2:0:0:
415,182,43984,5,2,1:2:0:0:
229,218,44156,1,4,1:2:0:0:
297,37,44329,1,0,0:0:0:0:
229,218,44501,2,0,P|235:278|247:325,1,77.0000023498536,2|0,0:0|1:0,0:0:0:0:
106,356,44846,2,2,P|106:293|66:198,1,140,8|0,0:0|0:0,0:1:0:0:
153,152,45363,2,0,L|144:75,2,77.0000023498536,2|0|0,1:0|0:0|0:0,0:0:0:0:
257,5,45880,5,2,1:0:0:0:
257,5,46225,1,10,0:1:0:0:
257,5,46743,5,2,0:0:0:0:
355,117,46915,1,4,1:2:0:0:
481,52,47087,1,0,0:0:0:0:
355,117,47260,2,0,P|298:140|267:156,1,77.0000023498536,2|0,0:0|1:0,0:0:0:0:
82,160,47605,2,2,P|141:146|220:80,1,140,10|0,0:1|0:0,0:1:0:0:
211,199,48122,2,0,P|236:252|250:287,1,77.0000023498536,2|0,0:1|0:0,0:0:0:0:
157,310,48467,5,0,1:0:0:0:
382,353,48639,1,0,1:0:0:0:
332,285,48984,5,8,0:0:0:0:
226,357,49156,1,0,1:0:0:0:
226,357,49501,5,2,1:2:0:0:
332,285,49674,2,0,P|318:229|334:137,1,115.50000352478,4|0,1:2|0:0,0:0:0:0:
327,151,50018,1,2,0:0:0:0:
211,199,50191,1,0,1:0:0:0:
440,164,50363,2,0,P|451:207|447:252,1,77.0000023498536,10|0,0:0|0:0,0:0:0:0:
471,43,50708,1,2,0:0:0:0:
471,43,50880,1,0,1:0:0:0:
345,39,51053,6,0,P|289:62|242:67,1,77.0000023498536,2|0,0:0|1:2,0:0:0:0:
98,135,51398,2,0,P|149:139|241:178,1,115.50000352478,0|0,1:0|0:0,0:0:0:0:
216,163,51743,2,0,P|198:216|194:248,1,77.0000023498536,8|0,0:0|0:0,0:0:0:0:
86,342,52087,1,0,0:0:0:0:
30,231,52260,1,2,0:0:0:0:
242,314,52432,1,4,1:2:0:0:
428,304,52777,6,0,P|377:300|285:261,1,115.50000352478,2|0,0:0|0:0,0:0:0:0:
310,276,53122,2,0,P|328:223|332:191,1,77.0000023498536,8|0,0:0|0:0,0:0:0:0:
312,371,53467,1,2,0:0:0:0:
312,371,53812,5,2,0:0:0:0:
242,223,53984,2,0,P|186:244|74:249,1,154.000004699707,0|2,1:0|0:0,0:0:0:0:
60,142,54501,1,8,0:0:0:0:
24,298,54674,1,0,1:0:0:0:
60,142,54846,2,0,P|44:91|17:55,1,77.0000023498536,0|2,0:0|1:2,0:0:0:0:
123,0,55191,6,0,P|152:63|225:89,1,115.50000352478,4|0,1:2|0:0,0:0:0:0:
217,84,55536,2,0,P|271:74|308:67,1,77.0000023498536,2|0,0:0|1:0,0:0:0:0:
500,115,55880,2,2,P|437:113|316:174,1,192.500005874634,8|0,0:0|0:0,0:1:0:0:
309,180,56398,2,0,P|327:235|337:280,2,77.0000023498536,2|0|0,1:0|0:0|1:0,0:0:0:0:
257,5,56915,5,2,1:0:0:0:
257,5,57260,1,10,0:1:0:0:
353,192,57605,5,2,0:0:0:0:
207,107,57777,1,0,0:0:0:0:
207,276,57949,1,2,0:0:0:0:
256,192,58036,12,0,59329,0:0:0:0:
256,192,75536,12,0,76915,0:0:0:0:
430,107,77260,6,0,P|380:97|328:94,1,77.0000023498536,4|0,1:0|0:0,0:0:0:0:
270,35,77605,1,2,0:0:0:0:
305,164,77777,1,0,1:0:0:0:
201,253,77949,1,10,0:0:0:0:
166,124,78122,1,0,0:0:0:0:
59,209,78294,1,2,0:0:0:0:
56,197,78467,1,0,1:0:0:0:
67,207,78639,1,2,0:0:0:0:
52,78,78812,1,0,1:0:0:0:
178,243,78984,6,0,P|238:230|318:231,1,115.50000352478,2|0,1:2|0:0,0:0:0:0:
312,225,79329,2,0,P|307:163|297:121,1,77.0000023498536,10|0,0:0|0:0,0:0:0:0:
422,237,79674,2,0,P|423:310|441:387,1,115.50000352478,2|0,0:0|0:0,0:0:0:0:
436,366,80018,1,4,1:2:0:0:
498,169,80191,1,0,0:0:0:0:
422,237,80363,6,0,P|359:224|252:229,1,154.000004699707,2|8,0:0|0:0,0:0:0:0:
178,241,80880,1,0,0:0:0:0:
150,323,81053,1,2,0:0:0:0:
227,381,81225,1,0,1:0:0:0:
269,225,81398,2,0,P|261:182|264:122,1,77.0000023498536,2|0,0:0|1:0,0:0:0:0:
308,321,81743,1,0,1:0:0:0:
475,77,82087,6,0,P|429:59|398:53,1,77.0000023498536,10|0,0:0|1:0,0:0:0:0:
207,41,82432,2,0,P|284:80|340:82,1,115.50000352478,2|0,0:0|0:0,0:0:0:0:
325,87,82777,2,0,P|310:138|300:193,1,77.0000023498536,4|0,1:2|0:0,0:0:0:0:
248,270,83122,5,2,0:0:0:0:
178,170,83294,1,0,1:0:0:0:
65,232,83467,1,8,0:0:0:0:
140,338,83639,1,0,0:0:0:0:
248,270,83812,2,0,P|303:284|336:288,1,77.0000023498536,2|0,0:0|1:0,0:0:0:0:
65,232,84156,2,0,P|15:220|-18:219,1,77.0000023498536,2|2,0:0|0:0,0:0:0:0:
178,169,84501,6,0,P|177:102|189:29,1,115.50000352478,0|0,1:0|0:0,0:0:0:0:
184,29,84846,2,0,P|127:42|87:40,1,77.0000023498536,10|0,0:0|0:0,0:0:0:0:
297,113,85191,2,0,P|342:104|440:104,1,115.50000352478,2|0,0:0|0:0,0:0:0:0:
419,97,85536,2,0,P|422:42|411:3,1,77.0000023498536,4|0,1:2|0:0,0:0:0:0:
507,178,85880,6,0,P|465:186|410:233,2,115.50000352478,2|2|2,0:0|0:0|0:0,0:0:0:0:
511,268,86570,1,0,0:0:0:0:
397,339,86743,1,0,1:0:0:0:
309,218,86915,1,2,0:0:0:0:
397,339,87087,1,0,1:0:0:0:
256,295,87260,1,2,1:2:0:0:
256,295,87605,6,0,P|199:312|97:327,1,154.000004699707,10|2,0:0|0:0,0:0:0:0:
59,235,88122,1,0,1:0:0:0:
256,295,88294,2,0,P|297:304|345:324,1,77.0000023498536,4|0,1:2|0:0,0:0:0:0:
296,150,88639,1,2,0:0:0:0:
180,214,88812,1,0,1:0:0:0:
61,127,88984,1,8,0:0:0:0:
61,127,89329,6,2,P|162:87|296:48,1,231.000007049561,0|0,0:0|1:0,0:1:0:0:
130,55,90018,2,0,P|75:47|23:34,1,77.0000023498536,0|0,1:0|0:0,0:0:0:0:
161,221,90363,2,0,P|139:294|127:370,1,154.000004699707,8|2,0:0|0:0,0:0:0:0:
39,265,90880,2,2,P|26:189|5:115,1,154.000004699707,2|0,0:2|0:1,0:1:0:0:
161,221,91398,1,2,0:0:0:0:
320,163,91570,1,0,1:0:0:0:
196,62,91743,1,10,0:0:0:0:
196,62,92087,6,2,P|296:72|439:43,1,231.000007049561,0|0,0:0|1:0,0:1:0:0:
438,165,92777,2,0,P|503:183|526:203,1,77.0000023498536,0|0,1:0|0:0,0:0:0:0:
309,183,93122,1,8,0:0:0:0:
406,361,93294,1,0,1:0:0:0:
406,361,93639,5,0,1:0:0:0:
305,303,93812,1,6,1:2:0:0:
507,279,93984,1,0,0:0:0:0:
381,156,94156,1,2,0:0:0:0:
406,361,94329,1,0,1:0:0:0:
218,273,94501,1,8,0:0:0:0:
289,214,94674,1,0,0:0:0:0:
305,303,94846,2,0,P|314:356|315:385,2,77.0000023498536,2|0|2,0:0|1:0|0:0,0:0:0:0:
289,214,95363,1,0,0:0:0:0:
299,114,95536,1,0,1:0:0:0:
380,55,95708,1,2,0:0:0:0:
166,182,95880,6,0,P|117:211|24:235,1,154.000004699707,10|2,0:0|0:0,0:0:0:0:
42,330,96398,2,0,P|93:351|125:369,1,77.0000023498536,2|0,0:0|1:2,0:0:0:0:
197,354,97087,5,0,1:0:0:0:
277,335,97777,1,0,1:0:0:0:
351,299,98122,1,0,1:0:0:0:
427,329,98294,1,0,1:0:0:0:
508,353,98812,1,0,1:0:0:0:
508,353,98984,6,2,P|502:292|529:224,1,105.000004005432,2|0,0:1|0:1,0:1:0:0:
438,40,99329,2,0,P|455:112|404:266,1,210.000008010865,6|2,1:2|0:0,0:0:0:0:
345,255,99846,1,0,1:0:0:0:
245,217,100018,2,0,P|176:229|126:251,1,115.50000352478,8|0,0:0|0:0,0:0:0:0:
105,266,100363,6,2,P|124:192|73:14,1,231.000007049561,0|0,0:0|1:0,0:1:0:0:
175,22,101053,2,0,P|226:13|272:-3,1,77.0000023498536,0|0,1:0|0:0,0:0:0:0:
17,73,101398,1,8,0:0:0:0:
17,73,101743,5,2,0:0:0:0:
206,112,101915,2,0,P|258:106|305:111,1,77.0000023498536,0|4,0:0|1:2,0:0:0:0:
438,255,102260,1,0,0:0:0:0:
404,129,102432,1,2,0:0:0:0:
496,27,102605,1,0,1:0:0:0:
282,107,102777,1,8,0:0:0:0:
282,107,103122,6,2,P|188:107|50:22,1,231.000007049561,2|0,0:1|1:1,0:1:0:0:
40,148,103812,2,0,P|31:203|14:254,1,77.0000023498536,0|0,1:0|0:0,0:0:0:0:
88,360,104156,2,0,P|95:319|107:267,1,77.0000023498536,8|0,0:0|1:0,0:0:0:0:
192,173,104501,1,2,0:0:0:0:
345,285,104674,1,0,1:0:0:0:
177,359,104846,1,4,1:2:0:0:
192,173,105018,1,2,0:0:0:0:
345,285,105191,2,0,P|374:321|380:361,1,77.0000023498536,0|0,0:0|1:0,0:0:0:0:
512,177,105536,2,0,P|463:237|450:296,1,115.50000352478,10|0,0:0|0:0,0:0:0:0:
446,288,105880,6,2,P|433:192|381:40,1,231.000007049561,2|0,0:1|0:1,0:1:0:0:
255,15,106570,2,0,P|270:73|297:117,1,77.0000023498536,0|0,1:0|0:0,0:0:0:0:
217,164,106915,2,0,P|154:182|46:238,1,154.000004699707,8|2,0:0|0:0,0:0:0:0:
84,120,107432,2,2,P|161:227|181:274,1,154.000004699707,2|0,0:1|0:1,0:1:0:0:
197,321,107949,1,2,0:0:0:0:
114,340,108122,1,2,0:0:0:0:
31,355,108294,1,2,0:0:0:0:
256,192,108639,12,2,109674,0:0:0:0:
322,81,110018,6,0,P|388:73|422:60,1,77.0000023498536,2|0,0:0|0:0,0:0:0:0:
249,144,110363,2,0,P|251:218|265:342,1,181.999991668702,4|2,1:2|0:3,0:0:0:0:
358,300,110880,1,0,3:0:0:0:
174,279,111053,2,0,P|166:327|156:375,1,90.9999958343508,10|0,0:2|0:0,0:0:0:0:
100,227,111398,2,0,P|79:271|57:315,1,90.9999958343508,2|8,0:3|0:2,0:0:0:0:
61,145,111743,2,0,P|30:182|-2:219,1,90.9999958343508,2|0,0:3|0:0,0:0:0:0:
60,44,112087,1,2,1:2:0:0:
150,149,112260,1,0,3:0:0:0:
252,60,112432,2,2,P|303:68|373:80,1,105.000004005432,8|2,0:2|0:3,0:1:0:0:
446,98,112949,1,0,3:0:0:0:
266,162,113122,6,0,P|284:218|281:295,1,136.499993751526,6|0,1:2|0:0,0:0:0:0:
264,321,113467,2,0,P|193:308|147:309,1,90.9999958343508,0|0,3:0|0:0,0:0:0:0:
15,353,113812,2,0,P|86:366|132:365,1,90.9999958343508,10|0,0:2|0:0,0:0:0:0:
127,234,114156,2,0,P|56:221|10:222,1,90.9999958343508,2|8,0:3|0:0,0:0:0:0:
159,148,114501,5,2,3:2:0:0:
262,321,114674,2,0,P|343:299|379:297,1,90.9999958343508,2|0,0:0|1:0,0:0:0:0:
485,344,115018,1,0,0:0:0:0:
481,175,115191,2,2,P|431:193|364:201,1,105.000004005432,10|2,0:2|0:3,0:1:0:0:
288,197,115708,1,8,0:2:0:0:
233,32,115880,6,0,P|295:50|363:100,1,136.499993751526,6|0,1:2|0:0,0:0:0:0:
369,102,116225,2,0,P|426:84|492:80,1,90.9999958343508,2|0,3:2|0:0,0:0:0:0:
200,175,116570,2,0,P|257:193|323:197,1,90.9999958343508,10|0,0:2|0:0,0:0:0:0:
25,121,116915,2,0,P|82:103|148:99,1,90.9999958343508,2|8,3:0|0:2,0:0:0:0:
127,257,117260,1,0,3:0:0:0:
34,224,117432,1,0,0:0:0:0:
217,259,117605,2,0,P|208:316|222:378,1,90.9999958343508,2|0,1:2|0:0,0:0:0:0:
199,173,117949,2,2,P|210:129|197:48,1,105.000004005432,10|2,0:0|0:0,0:1:0:0:
129,17,118467,1,0,0:0:0:0:
39,65,118639,5,6,1:2:0:0:
96,148,118812,1,0,0:0:0:0:
300,169,118984,2,0,L|412:154,1,90.9999958343508,10|0,0:2|0:0,0:0:0:0:
180,273,119329,1,10,0:0:0:0:
180,273,119674,5,2,0:0:0:0:
192,105,119846,1,8,0:0:0:0:
360,117,120018,1,2,0:0:0:0:
344,290,120191,1,2,0:0:0:0:
270,197,120363,5,0,1:0:0:0:
360,117,120536,1,0,0:0:0:0:
430,214,120708,1,10,0:0:0:0:
344,290,120880,1,0,0:0:0:0:
360,117,121053,2,0,P|366:58|371:-8,1,90.9999958343508,2|8,3:2|0:0,0:0:0:0:
202,250,121398,1,6,1:2:0:0:
202,250,121743,6,0,P|137:240|80:234,1,90.9999958343508,2|0,3:2|0:0,0:0:0:0:
239,173,122087,2,0,P|178:146|125:125,1,90.9999958343508,10|0,0:0|0:0,0:0:0:0:
304,111,122432,2,0,P|252:69|206:36,1,90.9999958343508,2|8,0:3|0:0,0:0:0:0:
395,80,122777,2,0,P|356:26|320:-17,1,90.9999958343508,2|0,0:3|0:0,0:0:0:0:
489,84,123122,2,0,P|465:22|441:-29,1,90.9999958343508,2|0,1:2|0:0,0:0:0:0:
455,226,123467,2,2,P|476:288|499:339,1,105.000004005432,10|2,0:0|0:3,0:1:0:0:
418,366,123984,1,0,3:0:0:0:
433,146,124156,6,0,P|387:167|273:189,1,136.499993751526,6|0,1:2|0:0,0:0:0:0:
280,189,124501,2,0,P|276:126|284:62,1,90.9999958343508,2|0,3:2|0:0,0:0:0:0:
197,268,124846,2,0,P|201:331|193:395,1,90.9999958343508,10|0,0:0|0:0,0:0:0:0:
106,205,125191,1,2,0:3:0:0:
127,101,125363,1,8,0:0:0:0:
280,189,125536,5,2,0:3:0:0:
197,268,125708,1,0,0:0:0:0:
240,82,125880,1,2,1:2:0:0:
240,82,126053,1,0,0:0:0:0:
406,188,126225,2,0,P|444:245|481:291,1,90.9999958343508,10|0,0:0|0:0,0:0:0:0:
197,268,126570,2,0,P|130:307|98:330,1,90.9999958343508,2|8,0:0|0:0,0:0:0:0:
240,82,126915,1,4,1:2:0:0:
240,82,127260,5,2,0:3:0:0:
362,88,127432,1,0,3:0:0:0:
254,200,127605,2,0,P|271:266|291:324,1,90.9999958343508,10|0,0:2|0:0,0:0:0:0:
397,224,127949,2,0,P|378:289|367:349,1,90.9999958343508,2|8,0:3|0:2,0:0:0:0:
506,308,128294,2,0,P|457:355|417:402,1,90.9999958343508,2|0,0:3|0:0,0:0:0:0:
397,224,128639,1,2,1:2:0:0:
504,178,128812,1,0,3:0:0:0:
336,383,128984,2,2,P|266:365|222:364,1,105.000004005432,10|2,0:2|0:3,0:1:0:0:
150,369,129501,1,0,3:0:0:0:
23,216,129674,6,0,P|96:269|179:279,1,136.499993751526,6|0,1:2|0:0,0:0:0:0:
161,278,130018,2,0,P|181:232|191:165,1,90.9999958343508,0|0,3:0|0:0,0:0:0:0:
146,17,130363,2,0,P|126:63|116:130,1,90.9999958343508,10|0,0:2|0:0,0:0:0:0:
295,191,130708,1,2,0:3:0:0:
205,91,130880,1,8,0:2:0:0:
104,181,131053,5,2,3:2:0:0:
194,281,131225,1,2,0:0:0:0:
295,191,131398,2,0,P|362:198|422:204,1,90.9999958343508,2|0,1:2|0:0,0:0:0:0:
104,181,131743,1,10,0:2:0:0:
104,181,132087,5,2,0:3:0:0:
26,328,132260,1,8,0:2:0:0:
11,165,132432,2,0,P|21:106|2:46,1,90.9999958343508,6|0,1:2|0:0,0:0:0:0:
159,22,132777,2,0,P|164:83|188:141,1,90.9999958343508,2|0,3:2|0:0,0:0:0:0:
336,204,133122,2,0,P|348:160|349:114,1,90.9999958343508,10|0,0:2|0:0,0:0:0:0:
211,179,133467,2,0,P|198:222|197:268,1,90.9999958343508,2|8,3:0|0:2,0:0:0:0:
307,358,133812,1,0,3:0:0:0:
336,204,133984,1,0,0:0:0:0:
449,298,134156,2,0,P|504:326|552:333,1,90.9999958343508,2|0,1:2|0:0,0:0:0:0:
512,141,134501,6,2,P|463:165|421:200,1,105.000004005432,10|2,0:0|0:0,0:1:0:0:
368,288,135018,1,0,0:0:0:0:
207,251,135191,1,6,1:2:0:0:
221,83,135363,1,0,0:0:0:0:
392,118,135536,5,10,0:2:0:0:
368,288,135708,1,0,0:0:0:0:
207,251,135880,1,10,0:0:0:0:
221,83,136053,1,0,0:0:0:0:
392,118,136225,5,2,0:0:0:0:
368,288,136398,1,8,0:0:0:0:
207,251,136570,1,2,0:0:0:0:
221,83,136743,1,2,0:0:0:0:
338,198,136915,5,0,1:0:0:0:
355,25,137087,1,0,0:0:0:0:
484,125,137260,2,0,P|491:175|508:246,1,90.9999958343508,10|0,0:0|0:0,0:0:0:0:
462,31,137605,5,2,3:1:0:0:
42,350,137949,2,2,P|124:338|239:325,1,157.500006008148,6|0,1:0|1:0,1:0:0:0:
210,330,138294,2,0,P|205:283|232:214,1,90.9999958343508,2|0,3:2|0:0,0:0:0:0:
177,163,138639,2,0,P|145:195|127:237,1,90.9999958343508,10|0,0:0|0:0,0:0:0:0:
102,121,138984,2,0,P|138:94|181:81,1,90.9999958343508,2|8,0:3|0:0,0:0:0:0:
233,12,139329,2,0,P|189:1|144:6,1,90.9999958343508,2|0,0:3|0:0,0:0:0:0:
41,44,139674,1,2,1:2:0:0:
41,204,139846,1,0,0:0:0:0:
249,181,140018,2,2,P|331:193|361:196,1,105.000004005432,10|2,0:0|0:3,0:1:0:0:
425,252,140536,1,0,3:0:0:0:
403,97,140708,5,6,1:2:0:0:
240,275,140880,1,0,0:0:0:0:
211,101,141053,2,0,P|216:33|230:0,1,90.9999958343508,2|0,3:2|0:0,0:0:0:0:
173,225,141398,2,0,P|122:250|13:273,1,136.499993751526,10|0,0:0|0:0,0:0:0:0:
14,268,141743,2,0,P|35:346|28:380,1,90.9999958343508,2|8,0:3|0:0,0:0:0:0:
48,130,142087,1,2,0:3:0:0:
48,130,142432,6,0,P|118:145|173:142,1,90.9999958343508,2|0,1:2|0:0,0:0:0:0:
80,224,142777,1,10,0:0:0:0:
12,10,142949,1,2,0:0:0:0:
12,10,143294,5,8,0:0:0:0:
263,57,143467,2,2,P|243:222|247:299,1,210.000008010865,4|2,1:2|0:3,0:1:0:0:
153,277,143984,1,0,3:0:0:0:
329,272,144156,2,0,P|327:342|322:400,1,90.9999958343508,10|0,0:2|0:0,0:0:0:0:
411,232,144501,2,0,P|427:300|437:357,1,90.9999958343508,2|8,0:3|0:2,0:0:0:0:
469,167,144846,2,0,P|502:228|526:281,1,90.9999958343508,2|0,0:3|0:0,0:0:0:0:
487,47,145191,1,2,1:2:0:0:
381,145,145363,1,0,3:0:0:0:
238,125,145536,2,2,P|191:121|111:116,1,105.000004005432,10|2,0:2|0:3,0:1:0:0:
184,30,146053,1,0,3:0:0:0:
279,197,146225,6,0,P|291:263|262:361,1,136.499993751526,6|0,1:2|0:0,0:0:0:0:
253,353,146570,2,0,P|308:353|361:362,1,90.9999958343508,0|0,3:0|0:0,0:0:0:0:
509,278,146915,2,0,P|461:278|401:271,1,90.9999958343508,10|0,0:2|0:0,0:0:0:0:
279,165,147260,2,0,P|322:165|379:173,1,90.9999958343508,2|8,0:3|0:2,0:0:0:0:
474,190,147605,5,2,3:2:0:0:
360,355,147777,1,2,0:0:0:0:
204,235,147949,2,0,P|196:170|214:70,1,136.499993751526,2|0,1:2|0:0,0:0:0:0:
208,77,148294,1,10,0:2:0:0:
306,88,148467,1,0,0:0:0:0:
403,82,148639,2,0,P|470:77|510:66,1,90.9999958343508,2|8,0:3|0:2,0:0:0:0:
208,77,148984,6,0,P|131:82|59:108,1,136.499993751526,6|0,1:2|0:0,0:0:0:0:
59,104,149329,2,0,P|76:168|92:210,1,90.9999958343508,2|0,3:2|0:0,0:0:0:0:
49,330,149674,2,0,P|33:280|6:221,1,90.9999958343508,10|0,0:2|0:0,0:0:0:0:
161,230,150018,2,0,P|215:240|269:242,1,90.9999958343508,2|8,3:0|0:2,0:0:0:0:
420,159,150363,1,0,3:0:0:0:
336,262,150536,1,0,0:0:0:0:
249,162,150708,6,0,P|227:110|231:65,1,90.9999958343508,2|0,1:2|0:0,0:0:0:0:
161,230,151053,2,0,P|188:286|168:388,1,136.499993751526,10|0,0:0|0:0,0:0:0:0:
174,373,151398,1,2,0:0:0:0:
59,273,151570,1,2,0:0:0:0:
269,246,151743,2,0,P|343:232|381:238,1,90.9999958343508,6|0,1:2|0:0,0:0:0:0:
478,149,152087,6,0,P|404:131|355:47,1,136.499993751526,10|0,0:2|0:0,0:0:0:0:
357,51,152432,1,10,0:0:0:0:
439,15,152605,1,2,0:0:0:0:
267,145,152777,2,0,P|193:159|155:153,1,90.9999958343508,2|8,0:0|0:0,0:0:0:0:
55,63,153122,6,0,P|124:50|216:70,1,136.499993751526,2|0,0:0|0:0,0:0:0:0:
199,65,153467,1,0,1:2:0:0:
178,157,153639,1,2,0:0:0:0:
290,266,153812,2,0,P|363:257|399:253,1,90.9999958343508,10|0,0:0|0:0,0:0:0:0:
177,285,154156,1,2,3:2:0:0:
408,340,154501,6,0,P|336:342|195:366,1,181.999991668702,6|2,1:2|3:2,0:0:0:0:
177,285,155018,1,0,0:0:0:0:
436,257,155191,2,0,P|479:301|487:346,1,90.9999958343508,10|0,0:0|0:0,0:0:0:0:
510,204,155536,2,2,P|472:168|446:3,1,210,2|2,0:1|0:3,0:1:0:0:
345,68,156225,2,0,P|270:77|240:82,1,90.9999958343508,2|0,1:2|0:0,0:0:0:0:
68,21,156570,2,2,P|136:45|171:72,1,105.000004005432,10|2,0:0|0:3,0:1:0:0:
196,144,157087,1,0,3:0:0:0:
63,252,157260,6,0,P|136:249|218:205,1,136.499993751526,6|0,1:2|0:0,0:0:0:0:
206,225,157605,2,0,P|210:280|222:335,1,90.9999958343508,2|0,3:2|0:0,0:0:0:0:
379,294,157949,2,0,P|375:349|363:404,1,90.9999958343508,10|0,0:0|0:0,0:0:0:0:
302,229,158294,2,2,P|328:190|319:4,1,210,2|2,0:1|0:3,0:1:0:0:
220,15,158984,1,2,1:2:0:0:
254,116,159156,1,0,0:0:0:0:
333,32,159329,2,2,P|383:25|441:15,1,105.000004005432,10|0,0:0|0:0,0:1:0:0:
506,86,159846,1,8,0:0:0:0:
416,176,160018,6,0,P|381:184|292:233,1,105,4|0,3:2|0:0,0:0:0:0:
304,227,160363,2,0,P|329:270|360:301,1,70,2|0,0:3|3:0,0:0:0:0:
240,166,160708,2,0,P|213:202|199:237,1,70,2|0,0:0|0:0,0:0:0:0:
124,194,161053,2,0,P|118:238|123:275,1,70,2|0,0:0|0:0,0:0:0:0:
44,288,161398,2,0,P|61:329|84:359,1,70,2|0,0:0|3:0,0:0:0:0:
207,343,161743,2,0,P|256:330|290:318,1,70,2|0,0:0|0:0,0:0:0:0:
124,194,162087,2,2,P|63:205|1:210,1,105.000004005432,0|2,0:0|0:3,0:1:0:0:
44,288,162605,1,0,3:0:0:0:
226,222,162777,6,0,P|231:175|224:122,1,70,6|0,0:0|0:0,0:0:0:0:
214,30,163122,1,2,0:0:0:0:
128,99,163294,1,0,0:0:0:0:
310,118,163467,2,0,P|371:129|451:131,1,140,2|2,0:0|0:0,0:0:0:0:
500,52,163984,1,2,0:3:0:0:
422,216,164156,1,2,0:0:0:0:
503,269,164329,1,2,0:0:0:0:
424,322,164501,2,0,P|380:332|335:345,1,70,0|0,3:0|0:0,0:0:0:0:
238,213,164846,2,2,P|253:253|260:339,1,105.000004005432,2|2,3:1|0:3,0:1:0:0:
195,370,165363,1,0,3:0:0:0:
120,235,165536,6,0,P|115:192|126:140,1,70,6|0,0:0|0:0,0:0:0:0:
94,73,165880,2,0,P|34:90|-2:89,1,70,2|0,0:0|0:0,0:0:0:0:
242,51,166225,2,0,P|182:34|146:35,1,70,2|0,0:0|0:0,0:0:0:0:
390,75,166570,2,0,P|330:92|294:91,1,70,2|0,0:0|0:0,0:0:0:0:
191,125,166915,1,2,0:0:0:0:
271,169,167087,1,0,0:0:0:0:
243,258,167260,2,0,P|238:302|237:334,1,70,2|0,0:0|0:0,0:0:0:0:
335,364,167605,2,2,P|385:349|437:341,1,105.000004005432,0|2,3:0|0:3,0:1:0:0:
501,272,168122,1,0,3:0:0:0:
424,175,168294,6,0,P|409:222|358:286,1,105,6|0,0:0|0:0,0:0:0:0:
361,275,168639,2,0,P|310:261|265:255,1,70,2|0,0:0|0:0,0:0:0:0:
162,349,168984,2,0,P|199:311|227:275,1,70,2|0,0:0|0:0,0:0:0:0:
219,212,169329,2,0,P|195:164|169:127,1,70,2|2,0:0|0:3,0:0:0:0:
156,34,169674,1,2,0:0:0:0:
106,131,169846,2,0,P|59:161|-11:186,1,105,2|0,0:0|0:0,0:0:0:0:
2,179,170191,1,0,0:0:0:0:
221,211,170363,2,2,P|282:214|337:217,1,105.000004005432,0|2,3:0|0:3,0:1:0:0:
444,226,170880,1,0,3:0:0:0:
455,107,171053,6,0,L|459:66,1,35,2|0,0:1|0:0,0:0:0:0:
325,216,171398,2,0,L|329:175,1,35,2|0,0:1|0:0,0:0:0:0:
325,216,171915,2,0,L|329:178,1,35,2|0,0:1|0:0,0:0:0:0:
248,38,172432,6,0,L|245:72,1,35,2|0,0:1|0:0,0:0:0:0:
131,155,172777,2,0,L|128:189,1,35,2|0,0:1|0:0,0:0:0:0:
227,302,173122,2,0,L|224:336,1,35,2|0,0:1|0:0,0:0:0:0:
227,302,173812,2,0,L|224:336,1,35,2|0,0:1|0:0,0:0:0:0:
128,189,174156,6,0,L|131:155,1,35,2|0,0:1|0:0,0:0:0:0:
128,189,174674,2,0,L|131:153,1,35,2|0,0:1|0:1,0:0:0:0:
245,72,175191,2,2,L|247:37,1,35,2|0,0:1|0:1,0:1:0:0:
251,9,175363,1,0,3:0:0:0:
353,152,175536,2,0,P|337:207|335:244,1,70,2|0,0:0|0:0,0:0:0:0:
277,344,175880,2,0,L|226:359,1,35,2|0,0:1|0:0,0:0:0:0:
193,371,176053,2,0,P|178:300|136:213,1,140,2|2,0:0|0:0,0:0:0:0:
256,192,176570,6,0,L|256:288,2,70,6|0|2,0:0|0:0|0:3,0:0:0:0:
