osu file format v14

[General]
AudioFilename: audio.mp3
AudioLeadIn: 0
PreviewTime: 108639
Countdown: 0
SampleSet: Soft
StackLeniency: 0.7
Mode: 0
LetterboxInBreaks: 0
WidescreenStoryboard: 1

[Editor]
Bookmarks: 27562,38596,58941,77217,110320,159975,176527,193079
DistanceSpacing: 1.2
BeatDivisor: 4
GridSize: 32
TimelineZoom: 1

[Metadata]
Title:Famous
TitleUnicode:Famous
Artist:Kanye West
ArtistUnicode:Kanye West
Creator:Fsjallink
Version:Revolver's Hard
Source:
Tags:revolver gouhin english hip hop hip-hop rihanna Sister Nancy bam bam nina simone Do What You Gotta Do Mi Sono Svegliato E... Ho Chiuso Gli Occhi Il Rovescio Della Medaglia Havoc swizz beatz the life of pablo tlop
BeatmapID:3497777
BeatmapSetID:1710849

[Difficulty]
HPDrainRate:4
CircleSize:3.8
OverallDifficulty:6
ApproachRate:7.5
SliderMultiplier:2.8
SliderTickRate:1

[Events]
//Background and Video events
0,0,"dF6Xf6I.jpg",0,0
//Break Periods
2,27805,34883
2,60708,74711
//Storyboard Layer 0 (Background)
//Storyboard Layer 1 (Fail)
//Storyboard Layer 2 (Pass)
//Storyboard Layer 3 (Foreground)
//Storyboard Layer 4 (Overlay)
//Storyboard Sound Samples

[TimingPoints]
13812,689.655172413793,4,2,0,60,1,0
14846,-100,4,2,0,30,0,0
16570,-100,4,2,0,60,0,0
23036,-100,4,2,0,20,0,0
23122,-100,4,2,0,60,0,0
23812,-100,4,2,0,60,0,0
25794,-100,4,2,0,20,0,0
25880,-100,4,2,0,60,0,0
26570,-100,4,2,0,60,0,0
26829,-100,4,2,0,20,0,0
26915,-100,4,2,0,60,0,0
35708,-100,4,2,0,30,0,0
38639,-100,4,2,0,60,0,0
42346,-100,4,2,0,20,0,0
42432,-100,4,2,0,60,0,0
44846,-100,4,2,0,60,0,0
45363,-100,4,2,0,60,0,0
47605,-100,4,2,0,60,0,0
48122,-100,4,2,0,60,0,0
49932,-100,4,2,0,20,0,0
50018,-100,4,2,0,60,0,0
51656,-100,4,2,0,20,0,0
51743,-100,4,2,0,60,0,0
53036,-100,4,2,0,20,0,0
53122,-100,4,2,0,60,0,0
55449,-100,4,2,0,20,0,0
55536,-100,4,2,0,60,0,0
56312,-100,4,2,0,20,0,0
56398,-100,4,2,0,60,0,0
58036,-100,4,2,0,30,0,0
77260,-100,4,2,0,60,0,0
79243,-100,4,2,0,20,0,0
79329,-100,4,2,0,60,0,0
79932,-100,4,2,0,20,0,0
80018,-100,4,2,0,60,0,0
82691,-100,4,2,0,20,0,0
82777,-100,4,2,0,60,0,0
84760,-100,4,2,0,20,0,0
84846,-100,4,2,0,60,0,0
85449,-100,4,2,0,20,0,0
85536,-100,4,2,0,60,0,0
98984,-100,4,2,0,60,0,0
99846,-100,4,2,0,60,0,0
100277,-100,4,2,0,20,0,0
100363,-100,4,2,0,60,0,0
105794,-100,4,2,0,20,0,0
105880,-100,4,2,0,60,0,0
110363,-83.3333333333333,4,2,0,70,0,1
112432,-83.3333333333333,4,2,0,70,0,1
113122,-83.3333333333333,4,2,0,70,0,1
113380,-83.3333333333333,4,2,0,20,0,1
113467,-83.3333333333333,4,2,0,70,0,1
115191,-83.3333333333333,4,2,0,70,0,1
115880,-83.3333333333333,4,2,0,70,0,1
116139,-83.3333333333333,4,2,0,20,0,1
116225,-83.3333333333333,4,2,0,70,0,1
117949,-83.3333333333333,4,2,0,70,0,1
118639,-83.3333333333333,4,2,0,70,0,1
123467,-83.3333333333333,4,2,0,70,0,1
124156,-83.3333333333333,4,2,0,70,0,1
124415,-83.3333333333333,4,2,0,20,0,1
124501,-83.3333333333333,4,2,0,70,0,1
128984,-83.3333333333333,4,2,0,70,0,1
129674,-83.3333333333333,4,2,0,70,0,1
129932,-83.3333333333333,4,2,0,20,0,1
130018,-83.3333333333333,4,2,0,70,0,1
134501,-83.3333333333333,4,2,0,70,0,1
135191,-83.3333333333333,4,2,0,70,0,1
137949,-83.3333333333333,4,2,0,70,0,1
138208,-83.3333333333333,4,2,0,20,0,1
138294,-83.3333333333333,4,2,0,70,0,1
140018,-83.3333333333333,4,2,0,70,0,1
140708,-83.3333333333333,4,2,0,70,0,1
141656,-83.3333333333333,4,2,0,20,0,1
141743,-83.3333333333333,4,2,0,70,0,1
143467,-83.3333333333333,4,2,0,70,0,1
144156,-83.3333333333333,4,2,0,70,0,1
145536,-83.3333333333333,4,2,0,70,0,1
146225,-83.3333333333333,4,2,0,70,0,1
146484,-83.3333333333333,4,2,0,20,0,1
146570,-83.3333333333333,4,2,0,70,0,1
148208,-83.3333333333333,4,2,0,20,0,1
148294,-83.3333333333333,4,2,0,70,0,1
149243,-83.3333333333333,4,2,0,20,0,1
149329,-83.3333333333333,4,2,0,70,0,1
151312,-83.3333333333333,4,2,0,20,0,1
151398,-83.3333333333333,4,2,0,70,0,1
152346,-83.3333333333333,4,2,0,20,0,1
152432,-83.3333333333333,4,2,0,70,0,1
153380,-83.3333333333333,4,2,0,20,0,1
153467,-83.3333333333333,4,2,0,70,0,1
155536,-83.3333333333333,4,2,0,70,0,1
156225,-83.3333333333333,4,2,0,70,0,1
156570,-83.3333333333333,4,2,0,70,0,1
157260,-83.3333333333333,4,2,0,70,0,1
157518,-83.3333333333333,4,2,0,20,0,1
157605,-83.3333333333333,4,2,0,70,0,1
158294,-83.3333333333333,4,2,0,70,0,1
158984,-83.3333333333333,4,2,0,70,0,1
159329,-83.3333333333333,4,2,0,70,0,1
160018,-100,4,2,0,50,0,0
160277,-100,4,2,0,20,0,0
160363,-100,4,2,0,50,0,0
162087,-100,4,2,0,50,0,0
162777,-100,4,2,0,50,0,0
164846,-100,4,2,0,50,0,0
165536,-100,4,2,0,50,0,0
167605,-100,4,2,0,50,0,0
168294,-100,4,2,0,50,0,0
168553,-100,4,2,0,20,0,0
168639,-100,4,2,0,50,0,0
170105,-100,4,2,0,20,0,0
170191,-100,4,2,0,50,0,0
170363,-100,4,2,0,50,0,0
171053,-100,4,2,0,50,0,0

[Colours]
Combo1 : 17,254,176
Combo2 : 173,255,95
Combo3 : 255,88,100
Combo4 : 255,94,55

[HitObjects]
256,192,14846,12,0,16225,0:0:0:0:
453,74,16570,6,0,P|382:54|315:98,1,140,4|0,1:0|0:0,0:0:0:0:
291,175,17087,1,0,1:0:0:0:
320,268,17260,1,8,0:0:0:0:
320,268,17605,6,2,P|213:247|89:222,1,210,2|0,0:1|1:1,0:1:0:0:
156,315,18294,2,0,P|191:324|242:337,1,70,0|0,1:0|0:0,0:0:0:0:
317,361,18639,2,0,P|349:352|384:343,1,70,8|0,0:0|0:0,0:0:0:0:
476,307,18984,1,4,0:3:0:0:
476,307,19329,6,0,P|496:231|470:162,1,140,4|0,1:2|0:0,0:0:0:0:
400,114,19846,1,0,1:0:0:0:
305,139,20018,1,8,0:0:0:0:
305,139,20363,6,2,P|200:128|84:114,1,210,2|0,0:1|1:1,0:1:0:0:
71,210,21053,2,0,P|78:251|87:291,1,70,0|0,1:0|0:0,0:0:0:0:
102,375,21398,1,8,0:0:0:0:
102,375,21570,1,0,1:0:0:0:
174,192,21915,5,0,1:0:0:0:
253,252,22087,2,0,P|329:243|409:237,1,140,4|0,1:2|0:0,0:0:0:0:
461,168,22605,1,0,1:0:0:0:
400,91,22777,2,0,P|360:80|312:100,1,70,8|0,0:0|0:0,0:0:0:0:
273,165,23122,6,2,P|285:35|216:5,1,210,0|0,0:0|0:0,0:1:0:0:
192,96,23812,2,0,P|158:109|110:90,1,70,0|0,1:0|0:0,0:0:0:0:
72,20,24156,2,0,P|38:6|-10:26,1,70,8|0,0:0|0:0,0:0:0:0:
6,112,24501,1,4,0:3:0:0:
6,112,24846,6,0,P|13:183|21:268,1,140,4|0,1:2|0:0,0:0:0:0:
93,316,25363,1,0,1:0:0:0:
158,242,25536,2,0,P|188:217|242:232,1,70,8|0,0:0|0:0,0:0:0:0:
288,284,25880,6,2,P|265:217|304:147,1,140,2|0,0:1|0:1,0:1:0:0:
390,160,26398,1,0,1:0:0:0:
347,72,26570,2,0,P|358:35|366:0,1,70,0|0,1:0|0:0,0:0:0:0:
270,33,26915,1,8,0:0:0:0:
270,33,27087,1,0,1:0:0:0:
172,23,27260,6,0,L|94:32,1,70,2|0,0:0|1:0,0:0:0:0:
5,44,27605,1,2,0:0:0:0:
256,192,35708,12,0,37260,0:0:0:0:
148,62,38639,5,4,1:0:0:0:
148,62,38812,1,2,0:0:0:0:
179,154,38984,2,0,P|172:201|165:244,1,70,2|0,0:0|1:0,0:0:0:0:
262,193,39329,2,0,P|325:182|422:164,1,140,10|2,0:0|0:0,0:0:0:0:
454,86,39846,1,0,1:0:0:0:
387,14,40018,1,2,0:0:0:0:
387,14,40191,2,0,P|347:22|295:28,1,70,0|0,1:0|1:0,0:0:0:0:
236,80,40536,2,0,P|162:70|78:61,1,140,2|0,0:0|0:0,0:0:0:0:
88,161,41053,6,0,P|82:201|99:246,1,70,2|0,0:0|0:0,0:0:0:0:
159,297,41398,1,6,1:2:0:0:
159,297,41570,1,0,0:0:0:0:
222,221,41743,1,2,0:0:0:0:
222,221,41915,1,0,1:0:0:0:
296,284,42087,6,0,P|334:277|390:265,1,70,10|0,0:0|0:0,0:0:0:0:
421,189,42432,2,0,P|386:181|352:175,1,70,2|0,0:0|1:0,0:0:0:0:
318,88,42777,1,2,0:0:0:0:
318,88,42949,2,0,P|382:80|406:74,1,70,0|0,1:0|1:0,0:0:0:0:
450,9,43294,2,0,P|498:67|474:145,1,140,2|2,0:0|1:2,0:0:0:0:
383,285,43984,5,2,1:2:0:0:
428,203,44156,1,4,1:2:0:0:
428,203,44329,1,0,0:0:0:0:
348,146,44501,2,0,P|342:108|332:51,1,70,2|0,0:0|1:0,0:0:0:0:
242,48,44846,2,2,P|254:117|267:207,1,140,8|0,0:0|0:0,0:1:0:0:
207,266,45363,2,0,P|201:305|216:343,2,70,2|0|0,1:0|0:0|0:0,0:0:0:0:
301,293,45880,5,2,1:0:0:0:
496,277,46225,1,10,0:1:0:0:
301,293,46743,5,2,0:0:0:0:
342,204,46915,1,4,1:2:0:0:
342,204,47087,1,0,0:0:0:0:
434,170,47260,2,0,P|441:133|423:79,1,70,2|0,0:0|1:0,0:0:0:0:
372,26,47605,2,2,P|295:7|241:49,1,140,10|0,0:1|0:0,0:1:0:0:
230,134,48122,2,0,P|238:170|252:225,1,70,2|0,0:1|0:0,0:0:0:0:
270,297,48467,5,0,1:0:0:0:
196,361,48639,1,0,1:0:0:0:
196,361,48984,5,8,0:0:0:0:
135,284,49156,1,0,1:0:0:0:
135,284,49501,5,2,1:2:0:0:
72,207,49674,2,0,P|76:173|85:118,1,70,4|0,1:2|0:0,0:0:0:0:
103,42,50018,1,2,0:0:0:0:
103,42,50191,1,0,1:0:0:0:
168,114,50363,2,0,P|201:108|244:98,1,70,10|0,0:0|0:0,0:0:0:0:
335,77,50708,1,2,0:0:0:0:
335,77,50880,1,0,1:0:0:0:
383,162,51053,6,0,P|378:203|374:239,1,70,2|0,0:0|1:2,0:0:0:0:
282,198,51398,2,0,P|251:221|221:246,1,70,0|0,1:0|0:0,0:0:0:0:
197,147,51743,2,0,P|159:143|120:138,1,70,8|0,0:0|0:0,0:0:0:0:
57,70,52087,1,0,0:0:0:0:
57,70,52260,1,2,0:0:0:0:
131,7,52432,1,4,1:2:0:0:
131,7,52777,6,0,P|167:16|205:25,1,70,2|0,0:0|0:0,0:0:0:0:
260,100,53122,2,0,P|295:96|337:87,1,70,8|0,0:0|0:0,0:0:0:0:
425,70,53467,1,2,0:0:0:0:
425,70,53812,5,2,0:0:0:0:
394,162,53984,2,0,P|375:231|410:313,1,140,0|2,1:0|0:0,0:0:0:0:
344,378,54501,1,8,0:0:0:0:
344,378,54674,1,0,1:0:0:0:
271,312,54846,2,0,P|232:321|188:332,1,70,0|2,0:0|1:2,0:0:0:0:
146,248,55191,6,0,P|154:212|163:155,1,70,4|0,1:2|0:0,0:0:0:0:
255,160,55536,2,0,P|273:188|294:222,1,70,2|0,0:0|1:0,0:0:0:0:
364,153,55880,2,2,P|421:188|485:165,1,140,8|0,0:0|0:0,0:1:0:0:
447,73,56398,2,0,P|436:36|419:-27,2,70,2|0|0,1:0|0:0|1:0,0:0:0:0:
348,67,56915,5,2,1:0:0:0:
348,67,57260,1,10,0:1:0:0:
153,41,57605,5,2,0:0:0:0:
132,136,57777,1,0,0:0:0:0:
54,75,57949,1,2,0:0:0:0:
256,192,58036,12,0,59329,0:0:0:0:
256,192,75536,12,0,76915,0:0:0:0:
40,190,77260,6,0,P|76:184|136:179,1,70,4|0,1:0|0:0,0:0:0:0:
207,180,77605,1,2,0:0:0:0:
207,180,77777,1,0,1:0:0:0:
292,226,77949,1,10,0:0:0:0:
292,226,78122,1,0,0:0:0:0:
366,163,78294,2,0,P|404:158|442:151,1,70,2|0,0:0|1:0,0:0:0:0:
416,248,78639,2,0,P|421:286|426:317,1,70,2|0,0:0|1:0,0:0:0:0:
330,338,78984,6,0,P|291:348|244:322,1,70,2|0,1:2|0:0,0:0:0:0:
198,265,79329,2,0,P|188:226|214:179,1,70,10|0,0:0|0:0,0:0:0:0:
278,144,79674,1,2,0:0:0:0:
278,144,80018,5,4,1:2:0:0:
199,85,80191,1,0,0:0:0:0:
110,126,80363,2,0,P|85:199|113:280,1,140,2|8,0:0|0:0,0:0:0:0:
184,306,80880,1,0,0:0:0:0:
237,223,81053,1,2,0:0:0:0:
237,223,81225,1,0,1:0:0:0:
303,295,81398,2,0,P|306:337|308:398,1,70,2|0,0:0|1:0,0:0:0:0:
397,328,81743,1,0,1:0:0:0:
397,328,82087,6,0,P|432:331|473:339,1,70,10|0,0:0|1:0,0:0:0:0:
444,242,82432,2,0,P|436:201|426:153,1,70,2|0,0:0|0:0,0:0:0:0:
427,75,82777,1,4,1:2:0:0:
292,58,83122,5,2,0:0:0:0:
292,58,83294,1,0,1:0:0:0:
295,160,83467,1,8,0:0:0:0:
295,160,83639,1,0,0:0:0:0:
210,109,83812,2,0,P|178:88|129:89,1,70,2|0,0:0|1:0,0:0:0:0:
145,182,84156,2,0,P|108:189|73:225,1,70,2|2,0:0|0:0,0:0:0:0:
143,286,84501,6,0,P|182:282|238:279,1,70,0|0,1:0|0:0,0:0:0:0:
290,341,84846,2,0,P|362:332|433:325,2,140,10|2|4,0:0|0:0|1:2,0:0:0:0:
290,341,85880,6,0,P|299:291|310:227,2,105,2|2|2,0:0|0:0|0:0,0:0:0:0:
194,362,86570,1,0,0:0:0:0:
194,362,86743,1,0,1:0:0:0:
131,286,86915,1,2,0:0:0:0:
131,286,87087,1,0,1:0:0:0:
176,198,87260,1,2,1:2:0:0:
176,198,87605,6,0,P|166:120|156:53,1,140,10|2,0:0|0:0,0:0:0:0:
67,17,88122,1,0,1:0:0:0:
33,108,88294,2,0,P|37:144|44:195,1,70,4|0,1:2|0:0,0:0:0:0:
105,259,88639,1,2,0:0:0:0:
105,259,88812,1,0,1:0:0:0:
176,198,88984,1,8,0:0:0:0:
176,198,89329,6,2,B|292:145|268:247|395:222,1,210,0|0,0:0|1:0,0:1:0:0:
348,130,90018,2,0,P|337:95|325:52,1,70,0|0,1:0|0:0,0:0:0:0:
410,9,90363,2,0,P|429:80|450:151,1,140,8|2,0:0|0:0,0:0:0:0:
459,241,90880,2,2,P|389:222|315:258,1,140,2|0,0:2|0:1,0:1:0:0:
292,337,91398,1,2,0:0:0:0:
292,337,91570,1,0,1:0:0:0:
221,268,91743,1,10,0:0:0:0:
221,268,92087,6,2,B|115:286|139:197|19:233,1,210,0|0,0:0|1:0,0:1:0:0:
61,141,92777,2,0,P|51:104|41:55,1,70,0|0,1:0|0:0,0:0:0:0:
141,91,93122,2,0,P|206:73|281:54,1,140,8|0,0:0|0:0,0:0:0:0:
369,24,93639,5,0,1:0:0:0:
426,115,93812,1,6,1:2:0:0:
426,115,93984,1,0,0:0:0:0:
360,187,94156,1,2,0:0:0:0:
360,187,94329,1,0,1:0:0:0:
266,142,94501,6,0,P|224:157|182:169,1,70,8|0,0:0|0:0,0:0:0:0:
173,68,94846,2,0,P|177:38|185:-10,2,70,2|0|2,0:0|1:0|0:0,0:0:0:0:
103,138,95363,1,0,0:0:0:0:
103,138,95536,1,0,1:0:0:0:
24,79,95708,1,2,0:0:0:0:
7,175,95880,6,0,P|20:241|33:322,1,140,10|2,0:0|0:0,0:0:0:0:
115,260,96398,2,0,P|142:237|185:228,1,70,2|0,0:0|1:2,0:0:0:0:
174,228,97087,5,0,1:0:0:0:
451,188,97777,1,0,1:0:0:0:
282,98,98122,1,0,1:0:0:0:
282,98,98294,1,0,1:0:0:0:
295,350,98812,1,0,1:0:0:0:
295,350,98984,6,2,P|316:310|309:261,1,70,2|0,0:1|0:1,0:1:0:0:
237,227,99329,2,0,P|309:244|352:174,1,140,6|2,1:2|0:0,0:0:0:0:
344,102,99846,1,0,1:0:0:0:
250,72,100018,2,0,P|215:89|157:92,1,70,8|0,0:0|0:0,0:0:0:0:
84,77,100363,6,2,P|99:178|117:292,1,210,0|0,0:0|1:0,0:1:0:0:
196,227,101053,2,0,P|226:221|273:213,1,70,0|0,1:0|0:0,0:0:0:0:
352,259,101398,1,8,0:0:0:0:
352,259,101743,5,2,0:0:0:0:
410,180,101915,2,0,P|400:140|389:88,1,70,0|4,0:0|1:2,0:0:0:0:
326,41,102260,1,0,0:0:0:0:
244,95,102432,1,2,0:0:0:0:
244,95,102605,1,0,1:0:0:0:
163,39,102777,1,8,0:0:0:0:
163,39,103122,6,2,P|147:132|126:257,1,210,2|0,0:1|1:1,0:1:0:0:
193,318,103812,2,0,P|229:328|266:312,1,70,0|0,1:0|0:0,0:0:0:0:
331,251,104156,2,0,P|367:241|404:257,1,70,8|0,0:0|1:0,0:0:0:0:
461,325,104501,1,2,0:0:0:0:
461,325,104674,1,0,1:0:0:0:
502,238,104846,1,4,1:2:0:0:
502,238,105018,1,2,0:0:0:0:
437,164,105191,2,0,P|446:131|456:83,1,70,0|0,0:0|1:0,0:0:0:0:
383,26,105536,1,10,0:0:0:0:
383,26,105880,6,2,P|277:36|157:51,1,210,2|0,0:1|0:1,0:1:0:0:
119,130,106570,2,0,P|121:173|141:203,1,70,0|0,1:0|0:0,0:0:0:0:
226,230,106915,2,0,P|157:232|103:275,1,140,8|2,0:0|0:0,0:0:0:0:
184,330,107432,2,2,P|252:327|306:284,1,140,2|0,0:1|0:1,0:1:0:0:
338,200,107949,1,2,0:0:0:0:
338,200,108122,1,2,0:0:0:0:
276,133,108294,1,2,0:0:0:0:
256,192,108639,12,2,109674,0:0:0:0:
256,192,110018,6,0,P|215:200|156:213,1,70,2|0,0:0|0:0,0:0:0:0:
104,263,110363,2,0,B|92:199|92:199|109:173|109:173|92:67,1,167.999994873047,0|2,1:0|0:3,0:0:0:0:
146,13,110880,1,0,3:0:0:0:
232,66,111053,6,0,B|263:38|263:38|324:36,1,83.9999974365235,10|0,0:2|0:0,0:0:0:0:
306,137,111398,2,0,B|347:139|347:139|392:180,1,83.9999974365235,2|8,0:3|0:2,0:0:0:0:
304,236,111743,2,0,B|332:267|332:267|334:328,1,83.9999974365235,2|0,0:3|0:0,0:0:0:0:
233,298,112087,1,2,1:2:0:0:
233,298,112432,6,2,P|146:287|45:275,1,167.999994873047,8|2,0:2|0:3,0:1:0:0:
38,180,112949,1,0,3:0:0:0:
131,140,113122,2,0,B|115:96|115:96|135:32,1,83.9999974365235,6|0,1:2|0:0,0:0:0:0:
227,62,113467,2,0,B|237:98|237:98|222:141,1,83.9999974365235,0|0,3:0|0:0,0:0:0:0:
172,229,113812,2,0,P|240:178|336:228,1,167.999994873047,10|2,0:2|0:3,0:0:0:0:
366,285,114329,1,8,0:2:0:0:
411,195,114501,5,2,3:2:0:0:
411,195,114674,2,0,P|421:146|445:99,1,83.9999974365235,2|0,0:0|1:0,0:0:0:0:
312,52,115191,6,2,P|260:59|239:172,1,167.999994873047,10|2,0:2|0:3,0:1:0:0:
279,247,115708,1,8,0:2:0:0:
226,332,115880,2,0,P|186:323|106:309,1,83.9999974365235,6|0,1:2|0:0,0:0:0:0:
78,238,116225,2,0,P|118:229|160:222,1,83.9999974365235,2|0,3:2|0:0,0:0:0:0:
141,122,116570,2,0,P|101:113|58:106,1,83.9999974365235,10|0,0:2|0:0,0:0:0:0:
14,15,116915,2,0,P|55:9|96:0,1,83.9999974365235,2|8,3:0|0:2,0:0:0:0:
197,4,117260,5,0,3:0:0:0:
197,4,117605,1,2,1:2:0:0:
197,4,117949,6,2,P|186:48|291:113,1,167.999994873047,10|2,0:0|0:0,0:1:0:0:
362,76,118467,1,0,0:0:0:0:
457,108,118639,1,6,1:2:0:0:
457,108,118812,1,0,0:0:0:0:
415,199,118984,2,0,P|425:246|437:307,1,83.9999974365235,10|0,0:2|0:0,0:0:0:0:
451,380,119329,1,10,0:0:0:0:
289,267,119674,5,2,0:0:0:0:
289,267,119846,1,8,0:0:0:0:
227,346,120018,1,2,0:0:0:0:
227,346,120191,1,2,0:0:0:0:
132,330,120363,6,0,P|136:281|138:216,1,83.9999974365235,0|0,1:0|0:0,0:0:0:0:
214,182,120708,1,10,0:0:0:0:
214,182,120880,1,0,0:0:0:0:
176,88,121053,2,0,P|237:43|320:78,1,167.999994873047,2|6,3:2|1:2,0:0:0:0:
316,73,121743,6,0,P|358:52|416:66,1,83.9999974365235,2|0,3:2|0:0,0:0:0:0:
373,153,122087,2,0,P|417:167|448:218,1,83.9999974365235,10|0,0:0|0:0,0:0:0:0:
356,249,122432,2,0,P|377:291|363:349,1,83.9999974365235,2|8,0:3|0:0,0:0:0:0:
276,306,122777,2,0,P|261:350|210:381,1,83.9999974365235,2|0,0:3|0:0,0:0:0:0:
180,289,123122,2,0,P|137:310|79:296,1,83.9999974365235,2|0,1:2|0:0,0:0:0:0:
123,208,123467,2,2,P|85:135|125:46,1,167.999994873047,10|2,0:0|0:3,0:1:0:0:
205,20,123984,1,0,3:0:0:0:
258,105,124156,2,0,B|290:117|290:117|372:85,1,83.9999974365235,6|0,1:2|0:0,0:0:0:0:
434,73,124501,6,0,P|427:121|416:172,1,83.9999974365235,2|0,3:2|0:0,0:0:0:0:
321,182,124846,2,0,P|329:229|339:281,1,83.9999974365235,10|0,0:0|0:0,0:0:0:0:
237,241,125191,2,0,P|228:284|219:340,1,83.9999974365235,2|8,0:3|0:0,0:0:0:0:
125,294,125536,2,0,P|132:337|143:393,1,83.9999974365235,2|0,0:3|0:0,0:0:0:0:
44,362,125880,1,2,1:2:0:0:
44,362,126053,1,0,0:0:0:0:
25,263,126225,6,0,B|19:218|19:218|53:175,1,83.9999974365235,10|0,0:0|0:0,0:0:0:0:
131,139,126570,2,0,B|137:94|137:94|103:51,1,83.9999974365235,2|8,0:0|0:0,0:0:0:0:
196,5,126915,1,4,1:2:0:0:
368,118,127260,5,2,0:3:0:0:
368,118,127432,1,0,3:0:0:0:
290,183,127605,6,0,P|278:139|261:78,1,83.9999974365235,10|0,0:2|0:0,0:0:0:0:
170,128,127949,2,0,P|182:167|192:208,1,83.9999974365235,2|8,0:3|0:2,0:0:0:0:
96,239,128294,2,0,P|88:205|67:134,1,83.9999974365235,2|0,0:3|0:0,0:0:0:0:
48,60,128639,1,2,1:2:0:0:
48,60,128812,1,0,3:0:0:0:
145,27,128984,6,2,P|193:20|267:106,1,167.999994873047,10|2,0:2|0:3,0:1:0:0:
262,202,129501,1,0,3:0:0:0:
186,269,129674,2,0,P|78:248|49:201,1,167.999994873047,6|0,1:2|0:0,0:0:0:0:
145,27,130363,6,0,P|188:29|245:35,1,83.9999974365235,10|0,0:2|0:0,0:0:0:0:
329,43,130708,1,2,0:3:0:0:
329,43,130880,1,8,0:2:0:0:
371,134,131053,5,2,3:2:0:0:
371,134,131225,1,2,0:0:0:0:
293,199,131398,2,0,P|247:196|177:188,1,83.9999974365235,2|0,1:2|0:0,0:0:0:0:
108,183,131743,1,10,0:2:0:0:
228,33,132087,5,2,0:3:0:0:
228,33,132260,1,8,0:2:0:0:
298,115,132432,2,0,P|295:163|291:232,1,83.9999974365235,6|0,1:2|0:0,0:0:0:0:
386,236,132777,6,0,B|376:193|376:193|414:152,1,83.9999974365235,2|0,3:2|0:0,0:0:0:0:
500,190,133122,2,0,B|510:233|510:233|482:262,1,83.9999974365235,10|0,0:2|0:0,0:0:0:0:
424,344,133467,2,0,B|381:353|381:353|351:326,1,83.9999974365235,2|8,3:0|0:2,0:0:0:0:
386,236,133812,1,0,3:0:0:0:
386,236,133984,1,0,0:0:0:0:
286,223,134156,2,0,L|178:238,1,83.9999974365235,2|0,1:2|0:0,0:0:0:0:
129,304,134501,6,2,P|73:314|71:208,1,167.999994873047,10|2,0:0|0:0,0:1:0:0:
107,142,135018,1,0,0:0:0:0:
127,42,135191,1,6,1:2:0:0:
127,42,135363,1,0,0:0:0:0:
216,89,135536,6,0,P|261:84|305:78,1,83.9999974365235,10|0,0:2|0:0,0:0:0:0:
371,148,135880,2,0,P|411:150|454:158,1,83.9999974365235,10|0,0:0|0:0,0:0:0:0:
492,252,136225,1,2,0:0:0:0:
492,252,136398,1,8,0:0:0:0:
431,332,136570,2,0,P|356:265|222:308,1,251.999992309571,2|0,0:0|0:0,0:0:0:0:
129,267,137260,2,0,P|130:218|102:172,1,83.9999974365235,10|0,0:0|0:0,0:0:0:0:
49,110,137605,5,2,3:1:0:0:
49,110,137949,2,2,P|56:68|65:17,1,83.9999974365235,6|0,1:0|0:0,1:0:0:0:
151,75,138294,6,0,P|189:73|248:68,1,83.9999974365235,2|0,3:2|0:0,0:0:0:0:
280,159,138639,2,0,P|236:154|196:152,1,83.9999974365235,10|0,0:0|0:0,0:0:0:0:
169,250,138984,2,0,P|212:248|266:243,1,83.9999974365235,2|8,0:3|0:0,0:0:0:0:
252,345,139329,2,0,P|210:341|168:338,1,83.9999974365235,2|0,0:3|0:0,0:0:0:0:
71,335,139674,1,2,1:2:0:0:
71,335,139846,1,0,0:0:0:0:
61,234,140018,6,2,P|60:147|10:78,1,167.999994873047,10|2,0:0|0:3,0:1:0:0:
107,38,140536,1,0,3:0:0:0:
180,107,140708,1,6,1:2:0:0:
180,107,140880,1,0,0:0:0:0:
274,70,141053,2,0,P|279:118|255:171,1,83.9999974365235,2|0,3:2|0:0,0:0:0:0:
185,210,141398,2,0,P|214:239|252:255,1,83.9999974365235,10|0,0:0|0:0,0:0:0:0:
341,207,141743,2,0,P|352:247|346:288,1,83.9999974365235,2|8,0:3|0:0,0:0:0:0:
296,375,142087,1,2,0:3:0:0:
296,375,142432,6,0,P|247:370|177:366,1,83.9999974365235,2|0,1:2|0:0,0:0:0:0:
112,354,142777,1,10,0:0:0:0:
160,265,142949,1,2,0:0:0:0:
160,265,143294,5,8,0:0:0:0:
207,175,143467,2,2,P|286:178|382:183,1,167.999994873047,4|2,1:2|0:3,0:1:0:0:
372,81,143984,1,0,3:0:0:0:
271,90,144156,6,0,P|277:48|285:0,1,83.9999974365235,10|0,0:2|0:0,0:0:0:0:
184,23,144501,2,0,P|176:65|171:106,1,83.9999974365235,2|8,0:3|0:2,0:0:0:0:
95,173,144846,2,0,P|102:223|107:256,1,83.9999974365235,2|0,0:3|0:0,0:0:0:0:
121,356,145191,1,2,1:2:0:0:
121,356,145363,1,0,3:0:0:0:
194,286,145536,6,2,B|282:252|279:326|369:292,1,167.999994873047,10|2,0:2|0:3,0:1:0:0:
425,222,146053,1,0,3:0:0:0:
331,184,146225,2,0,B|319:155|319:155|347:67,1,83.9999974365235,6|0,1:2|0:0,0:0:0:0:
272,25,146570,2,0,B|243:13|243:13|155:41,1,83.9999974365235,0|0,3:0|0:0,0:0:0:0:
112,90,146915,6,0,P|92:133|100:170,1,83.9999974365235,10|0,0:2|0:0,0:0:0:0:
198,147,147260,2,0,P|214:191|246:212,1,83.9999974365235,2|8,0:3|0:2,0:0:0:0:
300,128,147605,1,2,3:2:0:0:
300,128,147777,1,2,0:0:0:0:
362,206,147949,2,0,P|404:198|463:187,1,83.9999974365235,2|0,1:2|0:0,0:0:0:0:
492,101,148294,1,10,0:2:0:0:
492,101,148467,1,0,0:0:0:0:
424,26,148639,1,2,0:3:0:0:
424,26,148984,6,0,P|376:33|312:39,1,83.9999974365235,6|0,1:2|0:0,0:0:0:0:
267,105,149329,2,0,P|256:67|234:-1,1,83.9999974365235,2|0,3:2|0:0,0:0:0:0:
167,92,149674,2,0,P|155:137|142:172,1,83.9999974365235,10|0,0:2|0:0,0:0:0:0:
57,118,150018,2,0,P|45:78|24:12,1,83.9999974365235,2|8,3:0|0:2,0:0:0:0:
126,1,150363,1,0,3:0:0:0:
126,1,150536,1,0,0:0:0:0:
167,92,150708,6,0,P|210:104|266:79,1,83.9999974365235,2|0,1:2|0:0,0:0:0:0:
325,30,151053,2,0,P|368:18|424:43,1,83.9999974365235,10|0,0:0|0:0,0:0:0:0:
456,114,151398,1,2,0:0:0:0:
456,114,151570,1,2,0:0:0:0:
411,204,151743,2,0,P|329:230|248:172,1,167.999994873047,6|10,1:2|0:2,0:0:0:0:
81,112,152432,5,10,0:0:0:0:
81,112,152605,1,2,0:0:0:0:
181,121,152777,2,0,L|286:95,1,83.9999974365235,2|8,0:0|0:0,0:0:0:0:
339,35,153122,2,0,L|444:48,1,83.9999974365235,2|0,0:0|0:0,0:0:0:0:
478,129,153467,1,0,1:2:0:0:
478,129,153639,1,2,0:0:0:0:
424,214,153812,2,0,L|434:307,1,83.9999974365235,10|0,0:0|0:0,0:0:0:0:
367,374,154156,1,2,3:2:0:0:
367,374,154501,6,0,P|279:360|181:346,1,167.999994873047,6|2,1:2|3:2,0:0:0:0:
184,249,155018,1,0,0:0:0:0:
88,282,155191,2,0,P|83:236|103:187,1,83.9999974365235,10|0,0:0|0:0,0:0:0:0:
159,123,155536,2,2,P|120:41|5:113,1,251.999992309571,2|2,0:1|0:3,0:1:0:0:
10,208,156225,2,0,P|53:203|110:200,1,83.9999974365235,2|0,1:2|0:0,0:0:0:0:
184,249,156570,6,2,P|228:277|324:212,1,167.999994873047,10|2,0:0|0:3,0:1:0:0:
288,131,157087,1,0,3:0:0:0:
374,77,157260,2,0,P|418:81|475:82,1,83.9999974365235,6|0,1:2|0:0,0:0:0:0:
498,173,157605,2,0,P|454:172|414:168,1,83.9999974365235,2|0,3:2|0:0,0:0:0:0:
428,268,157949,2,0,P|471:273|529:273,1,83.9999974365235,10|0,0:0|0:0,0:0:0:0:
487,370,158294,2,2,B|372:343|372:343|346:354|346:354|220:328,1,251.999992309571,2|2,0:1|0:3,0:1:0:0:
180,253,158984,1,2,1:2:0:0:
180,253,159156,1,0,0:0:0:0:
147,348,159329,6,2,P|59:335|-27:327,1,167.999994873047,10|0,0:0|0:0,0:1:0:0:
9,231,159846,1,8,0:0:0:0:
76,181,160018,2,0,P|67:142|199:62,1,210,4|0,3:2|3:0,0:0:0:0:
257,113,160708,6,0,P|291:106|342:96,1,70,2|0,0:0|0:0,0:0:0:0:
421,79,161053,1,0,0:0:0:0:
379,270,161398,6,0,P|386:310|396:355,1,70,2|0,0:0|3:0,0:0:0:0:
303,381,161743,1,0,0:0:0:0:
152,255,162087,6,2,P|79:261|-8:271,1,140,0|2,0:0|0:3,0:1:0:0:
35,172,162605,1,0,3:0:0:0:
113,114,162777,6,0,P|152:102|206:120,1,70,6|0,0:0|0:0,0:0:0:0:
233,189,163122,1,2,0:0:0:0:
233,189,163294,1,0,0:0:0:0:
308,125,163467,2,0,P|377:128|407:130,1,70,2|2,0:0|0:0,0:0:0:0:
429,211,163812,2,0,P|463:209|498:207,1,70,2|2,0:0|0:0,0:0:0:0:
497,308,164156,1,2,0:0:0:0:
497,308,164329,1,0,0:0:0:0:
497,308,164846,6,2,P|437:357|351:349,1,140,2|2,3:1|0:3,0:1:0:0:
281,337,165363,1,0,3:0:0:0:
182,333,165536,6,0,P|191:296|198:263,1,70,6|0,0:0|0:0,0:0:0:0:
238,177,165880,1,0,0:0:0:0:
384,46,166225,6,0,P|393:79|399:114,1,70,2|0,0:0|0:0,0:0:0:0:
372,208,166570,1,0,0:0:0:0:
512,71,166915,5,2,0:0:0:0:
512,71,167087,1,0,0:0:0:0:
473,161,167260,2,0,P|468:197|467:230,1,70,2|0,0:0|0:0,0:0:0:0:
372,208,167605,6,2,P|322:223|223:181,1,140,0|2,3:0|0:3,0:1:0:0:
209,104,168122,1,0,3:0:0:0:
144,181,168294,2,0,P|136:226|266:302,1,210,6|0,0:0|0:0,0:0:0:0:
279,211,168984,2,0,P|290:174|298:139,1,70,2|0,0:0|0:0,0:0:0:0:
375,202,169329,2,0,P|404:184|439:164,1,70,2|2,0:0|0:3,0:0:0:0:
464,72,169674,1,2,0:0:0:0:
464,72,169846,1,0,0:0:0:0:
227,118,170363,6,2,P|176:134|106:71,1,140,0|2,3:0|0:3,0:1:0:0:
29,143,170880,1,0,3:0:0:0:
69,232,171053,6,0,L|64:266,1,35,2|0,0:1|0:0,0:0:0:0:
203,218,171398,2,0,L|198:264,1,35,2|0,0:1|0:0,0:0:0:0:
426,343,171915,6,0,L|422:381,1,35,2|0,0:1|0:0,0:0:0:0:
303,163,172432,6,0,L|306:129,1,35,2|0,0:1|0:0,0:0:0:0:
159,145,172777,2,0,L|162:111,1,35,2|0,0:1|0:0,0:0:0:0:
15,123,173122,2,0,L|18:89,1,35,2|0,0:1|0:0,0:0:0:0:
362,20,173812,6,0,L|359:54,1,35,2|0,0:1|0:0,0:0:0:0:
466,154,174156,2,0,L|463:188,1,35,2|0,0:1|0:0,0:0:0:0:
249,66,174674,6,0,L|246:102,1,35,2|0,0:1|0:1,0:0:0:0:
160,330,175191,5,2,0:1:0:0:
77,364,175363,2,0,P|38:358|-17:354,1,70,0|2,3:0|0:0,0:0:0:0:
14,258,175708,1,0,0:0:0:0:
14,258,175880,1,2,0:1:0:0:
85,190,176053,2,0,P|159:177|239:210,1,140,2|2,0:0|0:0,0:0:0:0:
295,258,176570,6,0,L|310:335,2,70,6|0|2,0:0|0:0|0:3,0:0:0:0:
