osu file format v14

[General]
AudioFilename: audio.mp3
AudioLeadIn: 0
PreviewTime: 108639
Countdown: 0
SampleSet: Soft
StackLeniency: 0.7
Mode: 0
LetterboxInBreaks: 0
WidescreenStoryboard: 1

[Editor]
Bookmarks: 27562,38596,58941,77217,110320,159975,176527,193079
DistanceSpacing: 1
BeatDivisor: 4
GridSize: 32
TimelineZoom: 1

[Metadata]
Title:Famous
TitleUnicode:Famous
Artist:Kanye West
ArtistUnicode:Kanye West
Creator:Fsjallink
Version:Normal
Source:
Tags:revolver gouhin english hip hop hip-hop rihanna Sister Nancy bam bam nina simone Do What You Gotta Do Mi Sono Svegliato E... Ho Chiuso Gli Occhi Il Rovescio Della Medaglia Havoc swizz beatz the life of pablo tlop
BeatmapID:3498352
BeatmapSetID:1710849

[Difficulty]
HPDrainRate:3
CircleSize:3
OverallDifficulty:4
ApproachRate:5
SliderMultiplier:2
SliderTickRate:1

[Events]
//Background and Video events
0,0,"dF6Xf6I.jpg",0,0
//Break Periods
2,27805,35708
2,60908,74336
//Storyboard Layer 0 (Background)
//Storyboard Layer 1 (Fail)
//Storyboard Layer 2 (Pass)
//Storyboard Layer 3 (Foreground)
//Storyboard Layer 4 (Overlay)
//Storyboard Sound Samples

[TimingPoints]
13812,689.655172413793,4,2,0,60,1,0
14846,-100,4,2,0,30,0,0
16570,-100,4,2,0,60,0,0
23122,-100,4,2,0,60,0,0
58984,-100,4,2,0,30,0,0
77260,-100,4,2,0,60,0,0
110363,-90.9090909090909,4,2,0,70,0,1
160018,-100,4,2,0,50,0,0

[Colours]
Combo1 : 17,254,176
Combo2 : 173,255,95
Combo3 : 255,88,100
Combo4 : 255,94,55

[HitObjects]
256,192,14846,12,0,15880,0:0:0:0:
117,317,16570,6,0,P|183:305|231:305,1,100,4|0,1:0|0:0,0:0:0:0:
308,342,17260,1,8,0:0:0:0:
356,254,17605,2,2,P|348:185|374:92,1,150,2|0,0:1|1:1,0:1:0:0:
387,62,18294,1,0,1:0:0:0:
288,79,18639,2,0,L|183:95,1,100,8|4,0:0|0:3,0:0:0:0:
161,190,19329,6,0,L|266:174,1,100,4|0,1:2|0:0,0:0:0:0:
316,257,20018,1,8,0:0:0:0:
415,243,20363,2,2,P|432:187|418:81,1,150,2|0,0:1|1:1,0:1:0:0:
439,49,21053,1,0,1:0:0:0:
339,41,21398,2,0,P|306:76|249:85,1,100,8|0,0:0|0:0,0:0:0:0:
227,52,21915,1,0,1:0:0:0:
227,52,22087,6,0,L|107:58,1,100,4|0,1:2|0:0,0:0:0:0:
49,120,22777,1,8,0:0:0:0:
114,196,23122,2,2,P|91:253|104:345,1,150,0|0,0:0|0:0,0:1:0:0:
133,377,23812,1,0,1:0:0:0:
224,337,24156,2,0,L|333:321,1,100,8|4,0:0|0:3,0:0:0:0:
312,222,24846,6,0,L|410:236,1,100,4|0,1:2|0:0,0:0:0:0:
489,173,25536,1,8,0:0:0:0:
506,278,25880,2,2,P|485:310|434:350,1,100,2|0,0:1|0:1,0:1:0:0:
390,353,26398,1,0,1:0:0:0:
390,353,26570,2,0,P|363:304|323:264,1,100,0|8,1:0|0:0,0:0:0:0:
293,240,27087,1,0,1:0:0:0:
217,304,27432,1,0,1:0:0:0:
217,304,27605,1,2,0:0:0:0:
192,99,38639,6,0,L|255:104,1,50,4|2,1:0|0:0,0:0:0:0:
291,109,38984,2,0,P|278:164|285:228,1,100,2|10,0:0|0:0,0:0:0:0:
327,295,39674,1,2,0:0:0:0:
234,331,40018,1,2,0:0:0:0:
234,331,40191,2,0,P|160:303|83:300,1,150,0|8,1:0|0:0,0:0:0:0:
51,206,41053,6,0,L|57:149,1,50,2|0,0:0|0:0,0:0:0:0:
64,106,41398,2,0,P|116:128|218:124,1,150,6|0,1:2|1:0,0:0:0:0:
256,138,42087,1,10,0:0:0:0:
288,43,42432,2,0,L|338:53,1,50,2|0,0:0|1:0,0:0:0:0:
386,62,42777,1,2,0:0:0:0:
386,62,42949,2,0,P|372:108|378:179,1,100,0|2,1:0|0:0,0:0:0:0:
399,202,43467,2,0,P|399:228|391:264,1,50,8|2,0:0|1:2,1:2:0:0:
498,250,43984,5,2,1:2:0:0:
498,250,44156,2,0,P|502:297|485:354,1,100,4|2,1:2|0:0,0:0:0:0:
388,342,44846,2,2,P|232:323|223:324,2,150,8|2|2,0:0|1:0|1:0,0:1:0:0:
487,356,46225,1,10,0:1:0:0:
489,209,46743,5,2,0:0:0:0:
489,209,46915,2,0,P|489:138|455:46,1,150,4|0,1:2|1:0,0:0:0:0:
431,25,47605,2,2,P|312:51|280:48,1,150,10|2,0:1|0:1,0:1:0:0:
189,55,48467,1,0,1:0:0:0:
189,55,48639,2,0,P|195:98|185:162,1,100,0|8,1:0|0:0,0:0:0:0:
195,204,49156,1,0,1:0:0:0:
298,193,49501,5,2,1:2:0:0:
298,193,49674,2,0,P|289:245|301:344,1,150,4|0,1:2|1:0,0:0:0:0:
250,348,50363,2,0,P|164:359|132:362,1,100,10|2,0:0|0:0,0:0:0:0:
81,296,51053,1,2,0:0:0:0:
81,296,51225,2,0,L|66:139,1,150,0|8,1:2|0:0,0:0:0:0:
87,42,52087,2,0,L|148:48,1,50,0|2,0:0|0:0,0:0:0:0:
175,79,52432,6,0,L|331:62,1,150,4|0,1:2|0:0,0:0:0:0:
366,36,53122,1,8,0:0:0:0:
426,115,53467,1,0,0:0:0:0:
353,184,53812,1,2,0:0:0:0:
353,184,53984,2,0,P|360:255|362:296,1,100,0|2,1:0|0:0,1:0:0:0:
366,333,54501,1,8,0:0:0:0:
269,305,54846,6,0,P|220:325|203:327,1,50,0|2,0:0|1:2,1:0:0:0:
173,328,55191,1,4,1:2:0:0:
130,237,55536,1,2,0:0:0:0:
201,167,55880,2,2,P|282:148|349:124,2,150,8|2|2,0:0|1:0|1:0,0:1:0:0:
101,175,57260,1,10,0:1:0:0:
34,249,57605,1,2,0:0:0:0:
34,249,57777,2,0,L|38:305,1,50,0|2,0:0|0:0,0:0:0:0:
256,192,58984,12,0,60708,0:0:0:0:
256,192,75536,12,0,76570,0:0:0:0:
115,258,77260,6,0,P|108:212|111:142,1,100,4|2,1:0|0:0,0:0:0:0:
118,109,77777,1,0,1:0:0:0:
118,109,77949,1,10,0:0:0:0:
215,132,78294,1,2,0:0:0:0:
287,63,78639,1,2,0:0:0:0:
287,63,78812,2,0,L|349:52,1,50,0|2,1:0|1:2,0:0:0:0:
436,60,79329,1,10,0:0:0:0:
465,156,79674,2,0,P|407:170|366:195,1,100,2|4,0:0|1:2,0:0:0:0:
341,285,80363,6,0,P|310:267|234:246,1,100,2|8,0:0|0:0,0:0:0:0:
206,274,80880,1,0,0:0:0:0:
206,274,81053,1,2,0:0:0:0:
114,313,81398,1,2,0:0:0:0:
40,245,81743,1,0,1:0:0:0:
91,159,82087,2,0,P|101:110|90:41,2,100,10|2|4,0:0|0:0|1:2,0:0:0:0:
157,234,83122,6,0,P|195:251|207:260,1,50,2|0,0:0|1:0,0:0:0:0:
208,305,83467,2,0,P|273:283|321:287,1,100,8|2,0:0|0:0,0:0:0:0:
352,295,83984,1,0,1:0:0:0:
352,295,84156,1,2,0:0:0:0:
423,224,84501,1,0,1:0:0:0:
372,137,84846,1,10,0:0:0:0:
432,57,85191,2,0,P|384:36|326:30,1,100,2|4,0:0|1:2,0:0:0:0:
248,75,85880,6,0,P|253:118|255:161,2,75,2|2|2,0:0|0:0|0:0,0:0:0:0:
203,51,86570,2,0,P|164:63|99:59,1,100,0|2,0:0|0:0,0:0:0:0:
57,45,87087,1,0,1:0:0:0:
57,45,87260,1,2,1:2:0:0:
32,142,87605,2,0,P|18:190|24:257,1,100,10|2,0:0|0:0,0:0:0:0:
28,288,88122,1,0,1:0:0:0:
28,288,88294,6,0,P|81:280|130:277,1,100,4|2,1:2|0:0,0:0:0:0:
208,335,88984,1,8,0:0:0:0:
264,252,89329,2,2,P|279:177|241:98,1,150,0|0,0:0|1:0,0:1:0:0:
242,61,90018,1,0,1:0:0:0:
330,14,90363,1,8,0:0:0:0:
423,65,90708,1,2,0:0:0:0:
423,65,90880,2,2,P|412:105|419:178,1,100,2|0,0:2|0:1,0:1:0:0:
421,213,91398,2,0,P|445:220|469:230,2,50,2|0|10,0:0|1:0|0:0,0:0:0:0:
335,263,92087,6,2,P|262:237|241:168,1,150,0|0,0:0|1:0,0:1:0:0:
256,128,92777,1,0,1:0:0:0:
163,105,93122,1,8,0:0:0:0:
163,105,93294,2,0,P|103:115|46:128,1,100,0|0,1:0|1:0,0:0:0:0:
16,136,93812,5,6,1:2:0:0:
78,215,94156,1,2,0:0:0:0:
47,310,94501,1,8,0:0:0:0:
142,339,94846,2,0,L|260:328,1,100,2|2,0:0|0:0,0:0:0:0:
338,302,95536,2,0,L|391:317,1,50,0|2,1:0|0:0,0:0:0:0:
431,335,95880,2,0,P|433:275|452:218,1,100,10|2,0:0|0:0,0:0:0:0:
478,199,96398,1,2,0:0:0:0:
478,199,96570,5,0,1:2:0:0:
408,66,97087,1,0,1:0:0:0:
259,199,97777,1,0,1:0:0:0:
200,118,98122,2,0,L|134:131,1,50,0|0,1:0|1:0,0:0:0:0:
40,229,98812,2,0,L|99:245,1,50,0|2,1:0|0:1,0:0:0:0:
120,269,99156,6,2,P|158:242|225:235,1,100,2|0,1:1|0:1,0:1:0:0:
260,233,99674,1,2,0:0:0:0:
335,298,100018,1,8,0:0:0:0:
398,220,100363,2,2,P|407:144|371:65,1,150,0|0,0:0|1:0,0:1:0:0:
332,63,101053,1,0,1:0:0:0:
243,108,101398,2,0,P|236:152|246:217,1,100,8|2,0:0|0:0,0:0:0:0:
257,254,101915,6,2,L|139:273,1,100,2|0,0:1|0:1,0:1:0:0:
108,276,102432,1,2,0:0:0:0:
32,210,102777,1,8,0:0:0:0:
119,161,103122,2,2,P|127:122|116:13,1,150,2|0,0:1|1:1,0:1:0:0:
66,3,103812,1,0,1:0:0:0:
12,87,104156,1,8,0:0:0:0:
73,165,104501,2,0,P|112:170|132:179,1,50,2|2,0:2|1:2,0:0:0:0:
162,202,104846,6,0,P|165:291|171:312,1,100,4|0,1:2|0:0,0:0:0:0:
200,346,105363,1,0,1:0:0:0:
200,346,105536,1,10,0:0:0:0:
283,290,105880,2,2,P|299:200|281:131,1,150,2|0,0:1|0:1,0:1:0:0:
265,98,106570,1,0,1:0:0:0:
349,44,106915,2,0,P|399:73|442:78,1,100,8|2,0:0|0:0,0:0:0:0:
456,125,107432,6,2,L|465:248,1,100,2|0,0:1|0:1,0:1:0:0:
453,273,107949,2,0,P|404:265|381:264,2,50,2|2|2,0:0|0:0|0:0,0:0:0:0:
256,192,108639,12,2,109674,0:0:0:0:
262,298,110363,6,0,P|270:247|265:168,1,110.000003356934,4|2,1:2|0:3,0:0:0:0:
236,71,111053,1,10,0:2:0:0:
134,136,111398,2,0,P|131:182|136:211,1,55.0000016784668,2|8,0:3|0:0,0:0:0:0:
127,251,111743,1,2,0:3:0:0:
236,300,112087,2,0,L|291:294,1,55.0000016784668,2|0,1:2|3:0,0:0:0:0:
351,293,112432,2,2,P|363:235|342:171,1,110.000003356934,8|2,0:2|0:3,0:1:0:0:
275,91,113122,6,0,P|166:118|154:117,1,110.000003356934,6|0,1:2|3:0,0:0:0:0:
49,129,113812,1,10,0:2:0:0:
64,13,114156,2,0,P|114:22|142:17,1,55.0000016784668,2|8,0:3|0:0,0:0:0:0:
178,22,114501,2,0,P|213:22|242:28,2,55.0000016784668,2|2|0,3:2|0:0|1:0,0:0:0:0:
170,142,115191,2,2,P|155:212|166:272,1,110.000003356934,10|2,0:2|0:3,0:1:0:0:
190,301,115708,1,8,0:2:0:0:
190,301,115880,6,0,P|276:296|311:293,1,110.000003356934,6|2,1:2|3:2,0:0:0:0:
376,200,116570,2,0,P|445:206|505:213,2,110.000003356934,10|2|0,0:2|3:0|3:0,0:0:0:0:
254,203,117605,1,2,1:2:0:0:
263,82,117949,2,2,P|316:97|391:97,1,110.000003356934,10|2,0:0|0:0,0:1:0:0:
488,71,118639,6,0,P|481:136|481:203,1,110.000003356934,6|10,1:2|0:2,0:0:0:0:
411,280,119329,1,10,0:0:0:0:
293,308,119674,2,0,P|246:317|225:329,1,55.0000016784668,2|8,0:3|0:0,0:0:0:0:
182,301,120018,2,0,L|127:316,2,55.0000016784668,2|2|0,0:0|0:0|1:0,0:0:0:0:
230,187,120708,2,0,P|233:115|221:60,1,110.000003356934,10|2,0:0|3:2,0:0:0:0:
188,30,121225,1,8,0:0:0:0:
188,30,121398,6,0,P|119:43|66:44,1,110.000003356934,6|2,1:2|3:2,0:0:0:0:
12,145,122087,1,10,0:0:0:0:
90,236,122432,2,0,P|80:287|71:307,1,55.0000016784668,2|8,0:3|0:0,0:0:0:0:
49,343,122777,1,2,0:3:0:0:
168,371,123122,2,0,P|207:357|232:352,1,55.0000016784668,2|0,1:2|0:0,0:0:0:0:
280,345,123467,2,2,P|283:285|277:223,1,110.000003356934,10|2,0:0|0:3,0:1:0:0:
281,114,124156,6,0,P|339:156|388:164,1,110.000003356934,6|2,1:2|3:2,0:0:0:0:
495,147,124846,1,10,0:0:0:0:
501,267,125191,2,0,P|498:308|495:331,1,55.0000016784668,2|8,0:3|0:0,0:0:0:0:
442,349,125536,2,0,P|378:332|321:333,2,110.000003356934,2|2|10,0:3|1:2|0:0,0:0:0:0:
420,229,126570,2,0,P|418:182|425:153,1,55.0000016784668,2|8,0:0|0:0,0:0:0:0:
441,118,126915,6,0,L|321:139,1,110.000003356934,4|2,1:2|0:3,0:0:0:0:
234,65,127605,1,10,0:2:0:0:
133,132,127949,2,0,P|98:122|73:103,1,55.0000016784668,2|8,0:3|0:0,0:0:0:0:
32,78,128294,1,2,0:3:0:0:
3,194,128639,2,0,P|10:233|9:253,1,55.0000016784668,2|0,1:2|3:0,0:0:0:0:
38,301,128984,2,2,P|89:266|160:246,1,110.000003356934,10|2,0:2|0:3,0:1:0:0:
230,175,129674,6,0,P|180:160|127:102,1,110.000003356934,6|0,1:2|3:0,0:0:0:0:
141,0,130363,1,10,0:2:0:0:
261,12,130708,2,0,P|314:16|324:18,1,55.0000016784668,2|8,0:3|0:0,0:0:0:0:
376,18,131053,2,0,L|445:23,2,55.0000016784668,2|2|2,3:2|0:0|1:2,0:0:0:0:
307,116,131743,2,0,P|293:160|301:233,1,110.000003356934,10|2,0:2|0:3,0:0:0:0:
338,267,132260,1,8,0:2:0:0:
338,267,132432,6,0,P|399:261|456:259,1,110.000003356934,6|2,1:2|3:2,0:0:0:0:
502,150,133122,1,10,0:2:0:0:
439,46,133467,1,2,3:0:0:0:
322,78,133812,2,0,P|285:93|252:95,1,55.0000016784668,0|0,3:0|0:0,0:0:0:0:
210,104,134156,1,2,1:2:0:0:
168,217,134501,2,2,P|189:266|186:338,1,110.000003356934,10|2,0:0|0:0,0:1:0:0:
74,358,135191,6,0,P|57:308|61:247,1,110.000003356934,6|10,1:2|0:2,0:0:0:0:
85,196,135708,1,0,0:0:0:0:
85,196,135880,2,0,P|80:145|75:121,1,55.0000016784668,10|0,0:0|0:0,0:0:0:0:
29,106,136225,2,0,P|34:55|39:31,1,55.0000016784668,2|8,0:0|0:0,0:0:0:0:
85,18,136570,6,0,P|128:34|215:42,1,110.000003356934,2|0,0:0|1:0,0:0:0:0:
311,58,137260,2,0,P|293:107|292:125,1,55.0000016784668,10|0,0:0|0:0,0:0:0:0:
297,169,137605,1,2,3:1:0:0:
335,283,137949,6,2,P|252:305|203:316,2,110.000003356934,6|2|10,1:0|3:2|0:0,1:0:0:0:
412,194,138984,2,0,P|457:224|464:234,1,55.0000016784668,2|8,0:3|0:0,0:0:0:0:
496,269,139329,1,2,0:3:0:0:
423,366,139674,1,2,1:2:0:0:
335,283,140018,2,2,P|294:247|241:223,1,110.000003356934,10|2,0:0|0:3,0:1:0:0:
125,199,140708,6,0,P|163:176|207:115,1,110.000003356934,6|2,1:2|3:2,0:0:0:0:
232,6,141398,1,10,0:0:0:0:
337,65,141743,1,2,0:3:0:0:
448,17,142087,6,0,P|446:61|438:153,1,110.000003356934,2|2,0:3|1:2,0:0:0:0:
357,215,142777,1,10,0:0:0:0:
357,215,142949,1,2,0:0:0:0:
245,167,143294,1,8,0:0:0:0:
245,167,143467,6,2,P|197:185|125:203,2,110.000003356934,4|2|10,1:2|0:3|0:2,0:1:0:0:
266,47,144501,2,0,P|210:49|197:51,1,55.0000016784668,2|8,0:3|0:0,0:0:0:0:
158,19,144846,1,2,0:3:0:0:
53,79,145191,2,0,P|59:118|61:145,1,55.0000016784668,2|0,1:2|3:0,0:0:0:0:
21,168,145536,2,2,P|21:210|37:295,1,110.000003356934,10|2,0:2|0:3,0:1:0:0:
128,350,146225,6,0,P|185:336|257:336,1,110.000003356934,6|0,1:2|3:0,0:0:0:0:
354,359,146915,1,10,0:2:0:0:
405,249,147260,1,2,0:3:0:0:
326,156,147605,2,0,L|334:99,1,55.0000016784668,2|2,3:2|0:0,0:0:0:0:
342,41,147949,2,0,P|396:60|472:56,1,110.000003356934,2|10,1:2|0:2,0:0:0:0:
496,172,148639,2,0,L|488:229,1,55.0000016784668,2|8,0:3|0:2,0:0:0:0:
455,277,148984,6,0,P|401:258|325:262,1,110.000003356934,6|2,1:2|3:2,0:0:0:0:
236,303,149674,1,10,0:2:0:0:
153,214,150018,2,0,P|158:178|180:143,1,55.0000016784668,2|8,0:3|0:0,0:0:0:0:
206,116,150363,2,0,P|253:121|285:122,2,55.0000016784668,0|0|2,3:0|0:0|1:2,0:0:0:0:
96,62,151053,2,0,P|87:120|55:180,1,110.000003356934,10|2,0:0|0:0,0:0:0:0:
23,279,151743,6,0,P|85:267|150:268,1,110.000003356934,6|10,1:2|0:2,0:0:0:0:
180,302,152260,1,0,0:0:0:0:
180,302,152432,2,0,P|236:301|303:279,1,110.000003356934,10|2,0:0|0:0,0:0:0:0:
313,167,153122,2,0,P|297:137|278:112,2,55.0000016784668,2|0|0,0:0|0:0|1:2,0:0:0:0:
425,213,153812,2,2,P|414:249|419:323,1,110.000003356934,10|0,0:1|3:1,0:1:0:0:
369,356,154329,1,0,0:0:0:0:
369,356,154501,6,0,P|286:344|237:344,1,110.000003356934,6|2,1:2|3:2,0:0:0:0:
138,343,155191,1,10,0:0:0:0:
194,235,155536,2,2,P|206:181|180:70,1,165.000005035401,2|2,0:1|0:3,0:1:0:0:
152,23,156225,1,2,1:2:0:0:
272,35,156570,2,2,P|338:45|394:51,1,110.000003356934,10|2,0:0|0:3,0:1:0:0:
472,129,157260,6,0,P|406:139|350:145,1,110.000003356934,6|2,1:2|3:2,0:0:0:0:
359,264,157949,1,10,0:0:0:0:
242,232,158294,2,2,P|231:177|256:58,1,165.000005035401,2|0,0:1|0:1,0:1:0:0:
205,29,158984,1,2,1:2:0:0:
94,78,159329,1,10,0:2:0:0:
72,197,159674,2,0,P|102:208|137:221,1,55.0000016784668,0|8,0:0|0:0,0:0:0:0:
177,225,160018,6,0,P|176:174|191:119,1,100,4|2,3:2|0:3,0:0:0:0:
159,30,160708,1,2,0:0:0:0:
59,18,161053,1,2,0:0:0:0:
9,105,161398,1,2,0:0:0:0:
71,182,161743,2,0,P|86:214|81:250,1,50,2|0,0:0|0:0,0:0:0:0:
98,276,162087,6,2,P|42:273|-22:279,2,100,0|2|6,0:0|0:3|0:0,0:1:0:0:
198,276,163122,2,0,P|197:317|196:336,1,50,2|0,0:0|0:0,0:0:0:0:
235,358,163467,2,0,P|293:360|356:351,1,100,2|2,0:0|0:0,0:0:0:0:
426,316,164156,2,0,P|469:340|479:343,2,50,2|2|0,0:0|0:0|3:0,0:0:0:0:
421,215,164846,2,2,P|423:158|414:102,1,100,2|2,3:1|0:3,0:1:0:0:
391,79,165363,1,0,3:0:0:0:
391,79,165536,6,0,P|310:102|279:103,1,100,6|2,0:0|0:0,0:0:0:0:
206,55,166225,1,2,0:0:0:0:
171,150,166570,1,2,0:0:0:0:
227,230,166915,2,0,P|226:258|224:293,1,50,2|0,0:0|0:0,0:0:0:0:
222,330,167260,1,2,0:0:0:0:
123,345,167605,2,2,P|90:313|77:245,1,100,0|2,3:0|0:3,0:1:0:0:
17,180,168294,6,0,P|50:148|63:80,1,100,6|2,0:0|0:0,0:0:0:0:
136,26,168984,1,2,0:0:0:0:
214,87,169329,1,2,0:0:0:0:
305,47,169674,2,0,P|340:35|357:18,2,50,2|2|0,0:0|0:0|0:0,0:0:0:0:
289,145,170363,2,2,P|299:193|303:261,1,100,0|2,3:0|0:3,0:1:0:0:
306,293,170880,1,0,3:0:0:0:
306,293,171053,5,2,0:1:0:0:
404,311,171398,1,2,0:1:0:0:
486,159,171915,2,0,P|476:114|475:45,1,100,2|0,0:1|0:0,0:0:0:0:
481,10,172432,1,2,0:1:0:0:
390,52,172777,1,2,0:1:0:0:
285,52,173122,2,0,P|230:40|134:46,1,150,2|0,0:1|0:0,0:0:0:0:
89,61,173812,5,2,0:1:0:0:
64,157,174156,1,2,0:1:0:0:
37,304,174674,2,0,P|85:299|155:286,1,100,2|0,0:1|0:0,0:0:0:0:
178,293,175191,5,2,0:1:0:0:
246,365,175536,1,2,0:1:0:0:
318,296,175880,2,0,P|324:239|300:135,1,150,2|2,0:1|0:0,0:0:0:0:
256,141,176570,6,0,L|256:78,2,50,6|0|2,0:0|0:0|0:3,0:0:0:0:
