osu file format v14

[General]
AudioFilename: audio.mp3
AudioLeadIn: 0
PreviewTime: 94
Countdown: 0
SampleSet: Soft
StackLeniency: 0.5
Mode: 0
LetterboxInBreaks: 0
WidescreenStoryboard: 1

[Editor]
Bookmarks: 11171,12709,25940,55479,70248,85017,92402,107171,129325,136710,151479,166248
DistanceSpacing: 1
BeatDivisor: 6
GridSize: 16
TimelineZoom: 1.6

[Metadata]
Title:BLKKK SKKKN HEAD
TitleUnicode:BLKKK SKKKN HEAD
Artist:Kanye West
ArtistUnicode:Kanye West
Creator:jamesjan3
Version:HRDDD
Source:
Tags:jamesjan mimari ancelysia ancel wafer kami no kotoba goopert hip hop hip-hop trap rap english yeezus black skinhead skin skn head daft punk
BeatmapID:2922660
BeatmapSetID:1418400

[Difficulty]
HPDrainRate:4
CircleSize:3.2
OverallDifficulty:6.5
ApproachRate:8
SliderMultiplier:2
SliderTickRate:1

[Events]
//Background and Video events
0,0,"2449737.jpg",0,0
//Break Periods
2,55661,62127
2,92586,99045
2,136900,143357
//Storyboard Layer 0 (Background)
//Storyboard Layer 1 (Fail)
//Storyboard Layer 2 (Pass)
//Storyboard Layer 3 (Foreground)
//Storyboard Layer 4 (Overlay)
//Storyboard Sound Samples

[TimingPoints]
108,468.75,4,2,1,50,1,0
108,-80,4,2,1,50,0,0
1983,-80,4,2,1,50,0,0
3800,461.538461538462,4,2,1,50,1,0
3800,-100,4,2,0,80,0,0
11154,461.538461538462,4,2,1,80,1,0
11154,-83.3333333333333,4,3,0,80,0,0
18077,-83.3333333333333,4,2,0,80,0,0
18538,-83.3333333333333,4,3,0,80,0,0
22230,-83.3333333333333,4,2,0,80,0,0
27769,-83.3333333333333,4,2,1,80,0,0
28077,-83.3333333333333,4,2,0,80,0,0
29615,-83.3333333333333,4,2,1,80,0,0
29923,-83.3333333333333,4,2,0,80,0,0
33307,-83.3333333333333,4,2,1,80,0,0
33615,-83.3333333333333,4,2,0,80,0,0
35153,-83.3333333333333,4,2,1,80,0,0
35461,-83.3333333333333,4,2,0,80,0,0
37050,461.538461538462,4,2,1,80,1,0
37050,-83.3333333333333,4,2,0,80,0,0
39665,-83.3333333333333,4,2,2,80,0,0
40692,461.538461538462,4,2,1,80,1,0
40692,-83.3333333333333,4,2,0,80,0,0
42384,-83.3333333333333,4,2,1,80,0,0
42538,-83.3333333333333,4,2,0,80,0,0
44230,-83.3333333333333,4,2,1,80,0,0
44384,-83.3333333333333,4,2,0,80,0,0
47923,-83.3333333333333,4,2,1,80,0,0
48077,-83.3333333333333,4,2,0,80,0,0
49769,-83.3333333333333,4,2,1,80,0,0
55461,-83.3333333333333,4,2,1,80,0,0
62877,461.538461538462,4,2,1,100,1,0
62877,-83.3333333333333,4,3,0,100,0,0
70230,461.538461538462,4,2,1,50,1,0
70230,-83.3333333333333,4,2,0,100,0,0
70555,-83.3333333333333,4,2,0,80,0,0
83186,461.538461538462,4,2,1,80,1,0
83186,-100,4,2,0,80,0,0
84570,-83.3333333333333,4,2,0,80,0,0
85040,465.116279069767,4,2,1,50,1,0
85040,-83.3333333333333,4,2,1,80,0,0
91040,-83.3333333333333,4,2,0,80,0,0
91463,461.538461538462,4,2,1,50,1,0
91463,-83.3333333333333,4,2,0,80,0,0
92386,461.538461538462,4,2,1,80,1,0
92386,-83.3333333333333,4,2,1,80,0,0
99795,461.538461538462,4,2,1,50,1,0
99795,-83.3333333333333,4,3,0,100,0,0
107147,461.538461538462,4,2,1,50,1,0
107147,-83.3333333333333,4,2,0,100,0,0
107609,-83.3333333333333,4,2,0,80,0,0
108994,-83.3333333333333,4,2,1,80,0,0
109071,-83.3333333333333,4,2,0,80,0,0
110840,-83.3333333333333,4,2,1,80,0,0
111301,-83.3333333333333,4,2,0,80,0,0
119147,-100,4,2,0,80,0,0
121454,-83.3333333333333,4,2,0,80,0,0
121917,-83.3333333333333,4,2,1,80,0,0
122224,-83.3333333333333,4,2,0,80,0,0
123763,-83.3333333333333,4,2,1,80,0,0
124071,-83.3333333333333,4,2,0,80,0,0
125609,-83.3333333333333,4,2,1,80,0,0
125917,-83.3333333333333,4,2,0,80,0,0
127455,-83.3333333333333,4,2,1,80,0,0
127763,-83.3333333333333,4,2,0,80,0,0
129326,461.538461538462,4,2,1,50,1,0
129326,-125,4,2,2,80,0,0
129787,-125,4,2,0,80,0,0
130095,-125,4,2,2,80,0,0
130556,-125,4,2,0,80,0,0
131171,-125,4,2,2,80,0,0
131633,-125,4,2,0,80,0,0
131941,-125,4,2,2,80,0,0
132402,-125,4,2,0,80,0,0
133018,-83.3333333333333,4,2,0,80,0,0
136700,461.538461538462,4,2,1,50,1,0
136700,-83.3333333333333,4,2,1,80,0,0
144107,461.538461538462,4,2,1,50,1,0
144107,-83.3333333333333,4,3,0,100,0,0
151460,461.538461538462,4,2,1,50,1,0
151460,-83.3333333333333,4,2,0,100,0,0
151767,-83.3333333333333,4,2,0,80,0,0
164449,461.538461538462,4,2,1,50,1,0
164449,-83.3333333333333,4,2,0,80,0,0
166290,461.538461538462,4,2,1,80,1,0
166290,-83.3333333333333,4,2,0,80,0,0
173628,461.538461538462,4,2,1,50,1,0
173628,-83.3333333333333,4,2,0,80,0,0
184704,-125,4,2,0,80,0,0
186551,-166.666666666667,4,2,0,80,0,0

[Colours]
Combo1 : 200,0,0
Combo2 : 132,132,132
Combo3 : 222,222,222
Combo4 : 170,170,213
Combo5 : 255,72,72

[HitObjects]
39,247,108,6,0,B|39:211|48:183|86:157|182:146|138:226|199:253|232:236,3,250,2|0|2|0,0:0|0:0|0:0|0:0,0:0:0:0:
360,174,1983,2,0,P|304:206|189:358,3,250,2|0|2|2,0:0|0:0|0:0|0:0,0:0:0:0:
75,135,3800,6,0,L|57:40,2,66.6666666666667,4|4|4,1:3|1:3|1:3,0:0:0:0:
109,215,4261,2,0,P|146:189|159:160,2,66.6666666666667,4|4|4,1:3|1:3|1:3,0:0:0:0:
24,204,4723,2,0,P|9:235|6:268,2,66.6666666666667,4|4|4,1:3|1:3|1:3,0:0:0:0:
75,135,5184,5,4,1:2:0:0:
274,303,5646,2,0,L|263:377,2,66.6666666666667,4|4|4,1:3|1:3|1:3,0:0:0:0:
333,234,6108,2,0,P|365:220|399:226,2,66.6666666666667,4|4|4,1:3|1:3|1:3,0:0:0:0:
244,217,6569,2,0,P|218:192|184:186,2,66.6666666666667,4|4|4,1:3|1:3|1:3,0:0:0:0:
274,303,7031,5,4,1:2:0:0:
447,116,7492,2,0,L|432:51,2,66.6666666666667,4|4|4,1:3|1:3|1:3,0:0:0:0:
506,182,7954,5,4,1:2:0:0:
266,104,8415,2,0,P|224:112|205:127,2,66.6666666666667,4|4|4,1:3|1:3|1:3,0:0:0:0:
338,49,8877,5,4,1:2:0:0:
203,214,9338,2,0,P|161:206|142:191,2,66.6666666666667,4|4|4,1:3|1:3|1:3,0:0:0:0:
275,269,9800,2,0,P|306:248|323:218,2,66.6666666666667,4|4|4,1:3|1:3|1:3,0:0:0:0:
192,302,10261,2,0,P|176:337|179:376,2,66.6666666666667,4|4|4,1:3|1:3|1:3,0:0:0:0:
203,214,10723,5,4,1:2:0:0:
78,110,11154,6,0,P|159:122|193:61,1,159.999995117188,2|0,1:3|1:0,0:0:0:0:
185,49,11615,1,8,0:2:0:0:
352,60,11923,1,2,1:3:0:0:
352,60,12077,2,0,P|375:112|389:227,1,159.999995117188,0|2,0:0|1:3,0:0:0:0:
313,268,12538,1,8,0:2:0:0:
158,181,12846,1,2,1:3:0:0:
246,211,13000,6,0,P|171:248|173:330,1,159.999995117188,2|0,1:3|1:0,0:0:0:0:
236,371,13461,1,8,0:2:0:0:
61,327,13769,1,2,0:0:0:0:
7,71,14230,5,2,1:3:0:0:
40,153,14384,1,8,0:2:0:0:
184,9,14846,6,0,P|253:14|304:94,1,159.999995117188,2|0,1:3|1:0,0:0:0:0:
289,97,15307,1,8,0:2:0:0:
411,226,15615,1,2,1:3:0:0:
411,226,15769,2,0,P|395:173|392:55,1,159.999995117188,0|2,0:0|1:3,0:0:0:0:
459,19,16230,1,8,0:2:0:0:
303,83,16538,1,2,1:3:0:0:
229,36,16692,6,0,P|176:50|165:163,1,159.999995117188,2|0,1:3|1:0,0:0:0:0:
107,214,17154,1,8,0:2:0:0:
289,267,17461,1,2,1:3:0:0:
221,322,17615,6,0,L|126:335,2,79.9999975585938,8|8|8,1:3|1:3|1:3,0:0:0:0:
289,267,18077,2,0,B|312:244|312:244|287:203|230:193|196:231,1,159.999995117188,10|2,1:3|0:3,0:0:0:0:
121,252,18538,6,0,B|253:297|253:297|271:346|271:346|335:374,2,239.999992675781,2|10|2,1:2|1:2|0:2,0:0:0:0:
2,110,19769,1,0,1:0:0:0:
24,191,19923,1,8,0:2:0:0:
222,52,20384,6,0,B|304:0|304:0|362:81|362:81|421:90,2,239.999992675781,2|10|2,1:2|1:2|1:2,0:0:0:0:
266,269,21615,1,0,1:0:0:0:
291,183,21769,1,8,0:2:0:0:
436,325,22230,6,0,L|257:355,1,159.999995117188,2|0,1:3|1:0,0:0:0:0:
266,269,22692,2,0,L|445:239,1,159.999995117188,8|0,1:2|1:0,0:0:0:0:
489,174,23154,6,0,P|519:129|497:13,1,159.999995117188,2|0,1:3|1:0,0:0:0:0:
421,12,23615,2,0,P|390:56|412:172,1,159.999995117188,8|0,1:2|1:0,0:0:0:0:
423,242,24077,2,0,B|367:303|367:303|280:270,1,159.999995117188,2|0,1:3|1:0,0:0:0:0:
272,191,24538,2,0,B|327:129|327:129|414:162,1,159.999995117188,8|0,1:2|1:0,0:0:0:0:
485,183,25000,2,0,L|499:261,2,79.9999975585938,8|8|8,1:3|1:3|1:3,0:0:0:0:
461,97,25461,2,0,B|416:65|416:65|357:114|358:195|399:228,1,239.999992675781,10|6,1:3|3:0,0:0:0:0:
269,112,26538,5,2,0:0:0:0:
278,73,26692,1,4,0:3:0:0:
254,38,26846,2,0,B|208:8|141:21|111:76|111:76|120:111|85:147,2,239.999992675781,2|10|2,0:0|0:0|1:1,0:0:0:0:
426,178,28077,5,4,0:3:0:0:
341,203,28230,2,0,P|399:222|427:321,1,159.999995117188,10|4,0:0|0:3,0:0:0:0:
360,363,28692,2,0,B|260:347|260:347|183:336|201:380|126:367,2,239.999992675781,10|8|2,0:3|1:2|1:1,0:0:0:0:
461,169,29923,5,4,0:3:0:0:
382,194,30077,2,0,P|344:214|281:129,1,159.999995117188,10|2,0:0|0:3,0:0:0:0:
285,49,30538,2,0,B|326:46|336:85|336:85|256:71|183:142,1,239.999992675781,2|8,0:0|0:0,0:0:0:0:
26,272,31461,5,4,0:3:0:0:
26,272,31615,1,2,0:0:0:0:
26,272,31769,1,6,0:3:0:0:
26,272,31923,2,0,P|52:343|119:313,1,159.999995117188,10|4,0:0|0:3,0:0:0:0:
163,242,32384,2,0,L|150:161,2,79.9999975585938,8|8|8,1:3|1:3|1:3,0:0:0:0:
229,300,32846,2,0,B|247:352|247:352|342:309|339:380|432:340,1,239.999992675781,8|2,1:3|1:1,0:0:0:0:
483,169,33769,5,10,1:2:0:0:
450,180,33923,1,0,0:0:0:0:
423,174,34077,1,6,1:3:0:0:
403,157,34230,2,0,B|370:78|421:4|421:4|439:54|482:65,2,239.999992675781,2|8|2,0:0|0:0|1:1,0:0:0:0:
286,279,35461,5,4,0:3:0:0:
325,202,35615,2,0,P|299:165|182:143,1,159.999995117188,10|6,0:0|0:3,0:0:0:0:
111,161,36077,2,0,B|114:204|82:230|82:230|116:206|160:222,1,159.999995117188,2|4,0:0|0:3,0:0:0:0:
160,222,36538,1,8,0:0:0:0:
421,31,37050,6,0,P|449:58|456:97,2,79.9999975585938,2|0|2,0:3|0:0|0:0,0:0:0:0:
339,33,37511,2,0,P|332:88|399:163,1,159.999995117188,2|2,0:3|0:0,0:0:0:0:
474,213,37973,6,0,L|453:306,1,79.9999975585938,2|0,0:3|0:0,0:0:0:0:
362,318,38280,1,2,0:0:0:0:
362,318,38434,2,0,L|396:161,1,159.999995117188,2|2,0:3|0:0,0:0:0:0:
423,81,38896,6,0,P|471:64|520:93,2,79.9999975585938,2|0|2,0:3|0:0|0:0,0:0:0:0:
338,97,39357,2,0,P|282:83|259:47,1,79.9999975585938,2|0,0:3|0:0,0:0:0:0:
190,30,39665,1,2,0:1:0:0:
190,30,39819,2,0,P|244:94|235:183,2,159.999995117188,2|2|0,0:1|0:1|0:0,0:0:0:0:
4,128,40692,6,0,L|32:300,1,159.999995117188,2|4,1:3|0:3,0:0:0:0:
77,354,41153,2,0,P|105:326|116:288,1,79.9999975585938,10|2,0:0|0:0,0:0:0:0:
188,236,41461,1,2,1:3:0:0:
188,236,41615,2,0,B|224:259|225:303|225:303|244:266|290:262,1,159.999995117188,0|6,0:0|0:3,0:0:0:0:
366,214,42076,1,8,0:0:0:0:
460,59,42384,5,2,1:1:0:0:
494,139,42538,2,0,P|453:87|339:39,1,159.999995117188,4|4,0:3|0:3,0:0:0:0:
289,63,42999,2,0,P|270:97|215:104,1,79.9999975585938,8|2,0:0|0:0,0:0:0:0:
150,74,43307,1,6,0:3:0:0:
150,74,43461,2,0,B|104:70|85:33|85:33|84:77|48:100,1,159.999995117188,0|4,0:0|0:3,0:0:0:0:
7,178,43922,1,8,0:0:0:0:
140,310,44230,5,2,1:1:0:0:
48,330,44384,2,0,P|60:277|142:187,1,159.999995117188,4|4,0:3|0:3,0:0:0:0:
189,134,44845,2,0,P|219:174|212:215,1,79.9999975585938,10|2,0:0|0:0,0:0:0:0:
274,268,45153,1,4,0:3:0:0:
274,268,45307,2,0,B|320:272|339:309|339:309|340:265|376:242,1,159.999995117188,2|4,0:0|0:3,0:0:0:0:
400,161,45768,1,8,0:0:0:0:
194,47,46230,6,0,B|214:17|214:17|254:6|254:6|285:38|285:38|289:82|289:82|327:100|327:100|376:88,2,239.999992675781,2|2|6,0:3|0:3|1:3,0:0:0:0:
110,53,47307,2,0,P|134:116|153:124,1,79.9999975585938,6|6,1:3|1:3,0:0:0:0:
129,205,47615,2,0,P|194:191|205:173,2,79.9999975585938,6|6|2,1:3|1:3|1:1,0:0:0:0:
56,158,48076,6,0,P|23:209|36:308,1,159.999995117188,4|4,0:3|0:3,0:0:0:0:
109,360,48538,2,0,L|196:328,1,79.9999975585938,8|2,0:0|0:0,0:0:0:0:
260,230,48845,1,4,0:3:0:0:
169,252,48999,6,0,B|194:298|194:298|323:333,1,159.999995117188,2|6,0:0|0:3,0:0:0:0:
297,326,49461,1,8,0:0:0:0:
493,183,49768,5,2,1:1:0:0:
493,183,49922,2,0,P|480:128|387:60,1,159.999995117188,4|4,0:3|0:3,0:0:0:0:
317,35,50384,2,0,L|325:132,1,79.9999975585938,10|2,0:0|0:0,0:0:0:0:
332,253,50692,1,6,0:3:0:0:
388,177,50845,6,0,B|269:152|269:152|234:177,1,159.999995117188,2|4,0:0|0:3,0:0:0:0:
236,174,51307,1,8,0:0:0:0:
32,98,51768,6,0,P|58:39|83:23,2,79.9999975585938,4|2|4,0:3|0:0|0:3,0:0:0:0:
37,191,52230,2,0,L|130:167,1,79.9999975585938,8|2,0:0|0:0,0:0:0:0:
222,89,52538,1,4,0:3:0:0:
138,81,52692,6,0,B|142:136|142:136|232:224,2,159.999995117188,2|6|2,0:0|0:3|0:0,0:0:0:0:
192,7,53461,1,2,0:0:0:0:
222,89,53615,6,0,B|280:68|280:68|316:81|316:81|384:62,1,159.999995117188,2|4,3:2|0:3,0:0:0:0:
432,7,54076,2,0,P|459:51|454:85,1,79.9999975585938,10|0,3:2|0:0,0:0:0:0:
402,148,54384,1,4,0:3:0:0:
402,148,54538,2,0,L|301:121,2,79.9999975585938,10|10|10,1:3|1:3|1:3,0:0:0:0:
455,219,54999,2,0,B|468:250|468:250|397:222|333:269,1,159.999995117188,2|2,1:3|0:3,0:0:0:0:
274,319,55461,5,4,0:3:0:0:
33,203,62877,6,0,P|5:148|12:120,2,79.9999975585938,12|12|14,1:3|1:3|1:3,0:0:0:0:
123,225,63338,2,0,P|156:173|184:165,2,79.9999975585938,14|12|12,1:3|1:3|1:3,0:0:0:0:
152,313,63800,2,0,P|213:316|234:336,2,79.9999975585938,12|12|12,1:3|1:3|1:3,0:0:0:0:
78,368,64261,5,6,1:2:0:0:
353,257,64723,2,0,P|357:215|385:170,2,79.9999975585938,12|12|12,1:3|1:3|1:3,0:0:0:0:
274,200,65184,2,0,P|270:158|242:113,2,79.9999975585938,12|12|12,1:3|1:3|1:3,0:0:0:0:
338,105,65646,2,0,P|342:63|370:18,2,79.9999975585938,12|12|12,1:3|1:3|1:3,0:0:0:0:
374,181,66107,5,6,1:2:0:0:
114,38,66569,1,12,1:3:0:0:
114,38,66723,2,0,P|131:83|171:86,1,79.9999975585938,12|12,1:3|1:3,0:0:0:0:
237,42,67030,5,6,1:2:0:0:
180,225,67492,1,12,1:3:0:0:
180,225,67646,2,0,P|163:180|123:177,1,79.9999975585938,12|12,1:3|1:3,0:0:0:0:
61,214,67953,5,6,1:2:0:0:
298,338,68415,2,0,L|376:305,2,79.9999975585938,14|14|14,1:3|1:3|1:3,0:0:0:0:
264,261,68877,1,14,1:3:0:0:
264,261,69030,2,0,L|345:225,1,79.9999975585938,14|14,1:3|1:3,0:0:0:0:
422,235,69338,1,14,1:3:0:0:
460,220,69492,1,14,1:3:0:0:
483,187,69646,1,14,1:3:0:0:
493,147,69800,2,0,P|481:90|392:13,1,159.999995117188,6|0,1:2|0:0,0:0:0:0:
323,2,70230,6,0,B|332:17|332:17|251:84|251:84|360:89|360:89|359:105,2,239.999992675781,2|0|0,1:0|0:0|0:0,0:0:0:0:
16,105,71922,5,2,0:3:0:0:
16,105,72076,2,0,P|69:130|90:234,1,159.999995117188,0|2,3:0|0:0,0:0:0:0:
98,306,72537,2,0,P|49:304|32:270,2,79.9999975585938,8|2|2,3:2|0:0|0:3,0:0:0:0:
172,265,72999,1,2,3:2:0:0:
172,265,73153,2,0,P|219:268|235:300,1,79.9999975585938,2|2,3:2|3:2,0:0:0:0:
281,361,73460,1,8,3:2:0:0:
455,315,73768,6,0,B|434:308|434:308|416:194|416:194|421:178|421:178|406:191|406:191|296:220|296:220|277:176|277:176,1,319.999990234375,2|0,3:1|0:0,0:0:0:0:
176,39,75614,5,2,0:3:0:0:
176,39,75768,2,0,P|163:85|258:123,1,159.999995117188,0|0,3:0|0:0,0:0:0:0:
319,77,76230,2,0,L|301:0,2,79.9999975585938,8|2|2,3:2|0:0|0:3,0:0:0:0:
381,140,76691,1,10,1:3:0:0:
387,175,76845,1,10,1:3:0:0:
375,212,76999,1,10,1:3:0:0:
345,232,77153,2,0,P|300:232|269:211,1,79.9999975585938,10|0,3:3|3:0,0:0:0:0:
247,129,77460,6,0,B|182:76|182:76|159:166|159:166|84:155|84:155|66:182|66:182|24:201|24:201,1,319.999990234375,2|8,0:1|0:0,0:0:0:0:
42,287,78230,1,0,0:0:0:0:
42,287,78383,2,0,P|85:267|133:264,2,79.9999975585938,2|0|0,0:3|3:0|3:0,0:0:0:0:
0,365,78845,1,2,3:0:0:0:
84,384,78999,1,8,3:2:0:0:
211,346,79306,6,0,B|230:328|230:328|248:178|248:178|311:210|311:210|323:262|323:262|368:275,1,319.999990234375,2|10,0:1|3:2,0:0:0:0:
429,284,80076,1,0,0:0:0:0:
429,284,80230,2,0,P|419:326|380:338,2,79.9999975585938,2|0|0,0:3|3:0|3:0,0:0:0:0:
492,220,80691,1,2,3:3:0:0:
451,138,80845,1,8,3:2:0:0:
369,24,81153,6,0,B|342:89|342:89|252:75|252:75|241:112|241:112|190:140,1,239.999992675781,2|4,0:1|0:3,0:0:0:0:
142,193,81768,2,0,P|124:237|126:281,1,79.9999975585938,8|0,3:2|3:0,0:0:0:0:
210,290,82076,1,2,3:0:0:0:
210,290,82230,2,0,P|227:245|225:201,1,79.9999975585938,0|0,3:0|3:0,0:0:0:0:
205,131,82537,1,2,3:0:0:0:
285,91,82691,1,8,0:0:0:0:
71,37,83186,6,0,L|-6:19,2,66.6666666666667,2|0|0,0:3|0:0|0:0,0:0:0:0:
156,52,83647,2,0,B|165:89|165:89|110:104|86:164,1,133.333333333333,2|2,0:3|0:3,0:0:0:0:
108,229,84109,2,0,P|148:217|166:179,1,66.6666666666667
234,159,84416,1,2,0:3:0:0:
234,159,84570,6,0,B|221:211|221:211|256:266|331:234,1,159.999995117188,2|2,3:0|0:3,0:0:0:0:
370,178,85040,6,0,B|296:171|270:241|296:248|274:330|190:320,3,239.999992675781,2|0|2|0,2:0|0:0|0:0|0:0,0:0:0:0:
4,174,86900,6,0,P|50:227|136:392,3,239.999992675781,2|0|2|2,2:0|0:0|0:0|2:0,0:0:0:0:
348,340,88760,6,0,P|371:290|268:314,1,239.999992675781,2|0,0:0|0:0,0:0:0:0:
131,235,89536,1,0,0:0:0:0:
131,235,89691,2,0,B|90:183|100:70|261:78|227:191|181:194,2,239.999992675781,2|2|2,0:0|0:0|0:0,0:0:0:0:
356,255,91086,1,2,0:3:0:0:
258,30,91463,6,0,P|214:49|177:43,2,79.9999975585938,10|10|10,3:0|3:0|3:0,0:0:0:0:
347,54,91924,2,0,P|385:23|431:13,2,79.9999975585938,10|10|10,3:0|3:0|3:0,0:0:0:0:
321,139,92386,1,4,0:3:0:0:
164,170,99795,6,0,P|125:178|98:207,2,79.9999975585938,12|12|14,1:3|1:3|1:3,0:0:0:0:
245,212,100256,2,0,P|232:249|244:286,2,79.9999975585938,14|12|12,1:3|1:3|1:3,0:0:0:0:
323,163,100718,2,0,P|349:192|388:200,2,79.9999975585938,12|12|12,1:3|1:3|1:3,0:0:0:0:
302,73,101179,5,6,1:2:0:0:
99,208,101641,2,0,P|73:238|60:276,2,79.9999975585938,12|12|12,1:3|1:3|1:3,0:0:0:0:
39,140,102102,2,0,P|25:102|0:72,2,79.9999975585938,12|12|12,1:3|1:3|1:3,0:0:0:0:
127,123,102564,2,0,P|166:130|205:121,2,79.9999975585938,12|12|12,1:3|1:3|1:3,0:0:0:0:
99,208,103025,5,6,1:2:0:0:
271,348,103487,1,12,1:3:0:0:
271,348,103641,2,0,P|262:310|226:296,1,79.9999975585938,12|12,1:3|1:3,0:0:0:0:
148,344,103948,5,6,1:2:0:0:
329,179,104410,1,12,1:3:0:0:
329,179,104564,2,0,P|337:141|373:127,1,79.9999975585938,12|12,1:3|1:3,0:0:0:0:
448,168,104871,5,6,1:2:0:0:
294,0,105333,2,0,L|279:100,1,79.9999975585938,14|14,1:3|1:3,0:0:0:0:
191,66,105641,1,14,1:3:0:0:
180,93,105795,2,0,L|206:183,1,79.9999975585938,14|14,1:3|1:3,0:0:0:0:
126,205,106102,1,14,1:3:0:0:
124,242,106256,2,0,L|200:296,1,79.9999975585938,14|14,1:3|1:3,0:0:0:0:
281,283,106564,1,14,1:3:0:0:
281,283,106718,2,0,P|198:316|196:390,1,159.999995117188,6|0,1:2|0:0,0:0:0:0:
276,384,107147,6,0,B|340:377|340:377|402:263|402:263|454:258,1,239.999992675781,2|10,1:0|0:0,0:0:0:0:
501,74,107916,1,6,0:3:0:0:
454,149,108070,2,0,P|381:148|391:70,1,159.999995117188,2|6,0:0|0:3,0:0:0:0:
458,153,108531,2,0,L|216:104,1,239.999992675781,8|2,0:0|1:1,0:0:0:0:
187,24,109147,6,0,P|147:58|135:91,1,79.9999975585938,2|4,0:0|0:3,0:0:0:0:
155,167,109454,2,0,P|195:201|207:234,2,79.9999975585938,8|2|6,0:0|0:0|0:3,0:0:0:0:
71,144,109916,2,0,P|31:205|101:240,1,159.999995117188,2|6,0:0|0:3,0:0:0:0:
75,148,110377,2,0,L|33:384,1,239.999992675781,8|2,0:0|1:1,0:0:0:0:
230,295,111300,6,0,L|214:201,2,79.9999975585938,8|2|6,0:0|0:0|0:3,0:0:0:0:
290,368,111762,2,0,P|338:372|353:272,1,159.999995117188,2|6,0:0|0:3,0:0:0:0:
293,371,112223,2,0,L|478:336,1,159.999995117188,8|6,0:0|0:3,0:0:0:0:
509,279,112685,1,0,3:0:0:0:
20,67,113608,5,10,1:3:0:0:
56,58,113762,1,10,1:3:0:0:
87,68,113916,1,10,1:3:0:0:
103,106,114070,2,0,B|128:178|64:224|67:204|9:247|38:323,1,239.999992675781,10|4,1:3|0:3,0:0:0:0:
220,358,114839,5,4,0:3:0:0:
131,344,114993,2,0,P|142:301|172:281,1,79.9999975585938,10|0,0:0|0:0,0:0:0:0:
245,238,115300,1,6,0:3:0:0:
245,238,115454,2,0,P|287:290|395:333,1,159.999995117188,2|6,0:0|0:3,0:0:0:0:
446,380,115916,1,8,0:0:0:0:
443,163,116223,5,2,0:3:0:0:
511,219,116377,2,0,L|351:189,1,159.999995117188,4|0,0:3|0:0,0:0:0:0:
285,125,116839,2,0,L|199:145,2,79.9999975585938,8|2|2,0:0|0:0|0:3,0:0:0:0:
334,51,117300,2,0,P|372:20|414:52,1,79.9999975585938,2|0,0:0|0:0,0:0:0:0:
338,55,117608,2,0,L|78:23,1,239.999992675781,4|2,0:3|0:3,0:0:0:0:
23,66,118223,6,0,P|18:121|111:159,1,159.999995117188,4|4,0:3|0:3,0:0:0:0:
183,188,118685,2,0,P|204:150|244:125,1,79.9999975585938,10|0,0:0|0:0,0:0:0:0:
322,128,118993,1,6,0:3:0:0:
322,128,119147,6,0,P|297:180|251:389,1,266.666666666667,2|0,0:0|0:3,0:0:0:0:
443,68,120531,5,2,0:0:0:0:
443,68,120685,1,2,0:0:0:0:
443,68,120839,1,2,0:0:0:0:
443,68,120993,2,0,P|476:52|502:3,2,66.6666666666667,10|10|10,1:3|1:3|1:3,0:0:0:0:
355,130,121454,2,0,B|374:91|374:91|436:98|459:153|448:197,1,159.999995117188,10|2,1:3|0:3,0:0:0:0:
431,249,121916,5,2,1:1:0:0:
260,349,122223,1,4,0:3:0:0:
206,283,122377,2,0,L|229:182,2,79.9999975585938,10|2|6,0:0|0:0|0:3,0:0:0:0:
133,334,122839,2,0,P|87:329|74:279,1,79.9999975585938,2|0,0:0|0:0,0:0:0:0:
139,338,123147,2,0,L|385:277,1,239.999992675781,6|6,0:3|0:3,0:0:0:0:
420,208,123762,5,2,1:1:0:0:
245,14,124223,1,8,0:2:0:0:
245,14,124377,2,0,L|229:100,1,79.9999975585938,2|6,0:0|0:3,0:0:0:0:
143,114,124685,2,0,P|108:94|112:37,1,79.9999975585938,2|0,0:0|0:0,0:0:0:0:
147,118,124993,2,0,L|112:360,1,239.999992675781,6|4,0:3|0:3,0:0:0:0:
26,384,125608,5,2,1:1:0:0:
230,349,125916,1,4,0:3:0:0:
230,349,126070,2,0,L|211:258,2,79.9999975585938,10|2|6,0:0|0:0|0:3,0:0:0:0:
314,365,126531,2,0,P|343:331|330:288,1,79.9999975585938,2|2,0:0|0:0,0:0:0:0:
318,369,126839,2,0,L|468:166,1,239.999992675781,6|6,0:3|0:3,0:0:0:0:
512,110,127454,5,2,1:1:0:0:
262,18,127762,1,6,0:3:0:0:
262,18,127916,2,0,L|179:48,2,79.9999975585938,10|2|6,0:0|0:0|0:3,0:0:0:0:
351,35,128377,2,0,P|361:74|333:112,1,79.9999975585938,10|10,1:3|1:3,0:0:0:0:
265,138,128685,1,10,1:3:0:0:
265,138,128839,2,0,B|275:176|275:176|333:148|396:190,1,159.999995117188,10|2,1:3|0:3,0:0:0:0:
423,262,129326,5,2,0:3:0:0:
175,261,129787,1,2,0:3:0:0:
290,305,130095,2,0,P|250:327|130:342,2,160,2|2|2,0:3|0:3|0:3,0:0:0:0:
328,232,131172,5,2,0:3:0:0:
11,197,131633,1,2,0:3:0:0:
85,93,131941,2,0,P|71:128|45:261,1,160,2|2,0:3|0:3,0:0:0:0:
67,327,132556,1,2,0:3:0:0:
262,342,133018,6,0,L|280:260,1,79.9999975585938,2|0,0:0|0:0,0:0:0:0:
364,281,133326,1,0,0:0:0:0:
364,281,133479,2,0,L|345:378,2,79.9999975585938,0|0|2,0:0|0:0|0:3,0:0:0:0:
429,219,133941,6,0,B|411:184|411:184|332:153|332:153|315:119,1,159.999995117188
347,44,134402,2,0,B|381:27|381:27|463:52|463:52|497:35,1,159.999995117188,0|2,0:0|0:3,0:0:0:0:
498,41,134864,6,0,L|514:146,1,79.9999975585938,2|2,0:3|0:0,0:0:0:0:
255,200,135326,6,0,L|239:305,2,79.9999975585938,2|2|2,0:3|0:0|0:3,0:0:0:0:
244,115,135787,6,0,B|212:89|212:89|126:105|126:105|103:148,1,159.999995117188,2|2,0:0|0:3,0:0:0:0:
122,219,136249,2,0,B|153:244|153:244|239:228|239:228|262:185,1,159.999995117188,2|2,0:0|0:3,0:0:0:0:
325,150,136700,5,4,0:3:0:0:
323,94,144107,6,0,L|302:11,2,79.9999975585938,12|12|14,1:3|1:3|1:3,0:0:0:0:
366,192,144568,2,0,P|399:140|427:132,2,79.9999975585938,14|12|12,1:3|1:3|1:3,0:0:0:0:
379,298,145030,2,0,P|324:270|296:276,2,79.9999975585938,12|12|12,1:3|1:3|1:3,0:0:0:0:
408,380,145491,5,4,1:2:0:0:
235,207,145953,2,0,L|267:120,1,79.9999975585938,12|12,1:3|1:3,0:0:0:0:
149,209,146260,1,12,1:3:0:0:
149,209,146414,2,0,L|108:126,1,79.9999975585938,12|12,1:3|1:3,0:0:0:0:
96,281,146722,1,12,1:3:0:0:
96,281,146876,2,0,L|14:248,1,79.9999975585938,12|12,1:3|1:3,0:0:0:0:
27,162,147183,1,12,1:3:0:0:
113,137,147337,5,4,1:2:0:0:
342,43,147799,1,12,1:3:0:0:
342,43,147953,2,0,P|297:60|294:100,1,79.9999975585938,12|12,1:3|1:3,0:0:0:0:
212,128,148260,5,4,1:2:0:0:
303,349,148722,1,12,1:3:0:0:
303,349,148876,2,0,P|348:332|351:292,1,79.9999975585938,12|12,1:3|1:3,0:0:0:0:
411,232,149183,5,4,1:2:0:0:
159,337,149645,2,0,L|81:304,1,79.9999975585938,14|14,1:3|1:3,0:0:0:0:
105,220,149953,1,14,1:3:0:0:
188,242,150107,2,0,L|269:206,1,79.9999975585938,14|14,1:3|1:3,0:0:0:0:
315,135,150414,1,14,1:3:0:0:
356,126,150568,1,14,1:3:0:0:
394,141,150722,1,14,1:3:0:0:
417,174,150876,1,14,1:3:0:0:
427,214,151030,2,0,P|415:271|326:348,1,159.999995117188,4|0,1:2|0:0,0:0:0:0:
254,320,151460,6,0,B|264:309|264:309|234:223|234:223|224:212|224:212|234:225|234:225|323:258|323:258|329:244,2,239.999992675781,2|0|0,1:0|0:0|0:0,0:0:0:0:
452,27,153152,5,2,0:3:0:0:
452,27,153306,2,0,L|277:52,1,159.999995117188,0|2,3:0|0:0,0:0:0:0:
212,74,153767,2,0,P|231:119|269:122,2,79.9999975585938,8|2|2,3:2|0:0|0:3,0:0:0:0:
144,21,154229,1,0,3:0:0:0:
144,21,154383,2,0,P|97:24|81:56,1,79.9999975585938,0|2,3:0|3:0,0:0:0:0:
13,101,154690,1,8,3:2:0:0:
45,258,154998,6,0,B|19:204|19:204|90:147|90:147|90:131|90:131|95:146|95:146|210:173|210:173|236:150|236:150,1,319.999990234375,2|0,0:1|0:0,0:0:0:0:
481,324,156844,5,2,0:3:0:0:
481,324,156998,2,0,P|494:278|399:240,1,159.999995117188,0|2,3:0|0:0,0:0:0:0:
343,293,157460,2,0,L|357:376,2,79.9999975585938,8|2|2,3:2|0:0|0:3,0:0:0:0:
327,208,157921,1,10,1:3:0:0:
318,177,158075,1,10,1:3:0:0:
295,159,158229,1,10,1:3:0:0:
267,154,158383,2,0,P|221:168|204:197,1,79.9999975585938,2|0,1:3|0:0,0:0:0:0:
224,282,158690,6,0,B|159:335|159:335|136:245|136:245|61:256|61:256|43:229|43:229|1:210|1:210,1,319.999990234375,2|8,0:1|0:0,0:0:0:0:
0,131,159460,2,0,P|28:101|79:90,1,79.9999975585938,0|6,3:0|3:0,0:0:0:0:
134,38,159767,1,0,3:0:0:0:
155,72,159921,1,0,3:0:0:0:
197,92,160075,1,6,3:0:0:0:
242,90,160229,1,8,3:2:0:0:
317,190,160536,6,0,B|334:184|334:184|346:132|346:132|409:100|409:100|427:250|427:250|446:268,1,319.999990234375,2|8,0:1|0:0,0:0:0:0:
498,336,161306,2,0,P|456:369|427:367,1,79.9999975585938,0|6,3:0|3:0,0:0:0:0:
370,309,161613,1,0,3:0:0:0:
327,303,161767,1,0,3:0:0:0:
289,332,161921,1,6,3:0:0:0:
286,376,162075,1,10,3:2:0:0:
260,248,162383,6,0,B|225:186|225:186|137:211|137:211|122:176|122:176|68:154,1,239.999992675781,2|4,0:1|0:3,0:0:0:0:
25,96,162998,2,0,P|3:53|17:17,1,79.9999975585938,8|0,3:2|3:0,0:0:0:0:
97,7,163306,1,2,3:0:0:0:
97,7,163460,2,0,P|118:49|104:85,1,79.9999975585938,0|0,3:0|3:0,0:0:0:0:
85,161,163767,1,2,3:0:0:0:
145,222,163921,5,8,0:0:0:0:
318,17,164449,1,2,0:3:0:0:
318,17,164602,2,0,L|302:110,1,79.9999975585938
350,176,164910,2,0,B|321:173|308:186|308:186|328:130|420:94,1,159.999995117188,2|2,0:3|0:3,0:0:0:0:
482,135,165372,1,2,0:0:0:0:
482,135,165525,1,2,0:0:0:0:
482,135,165679,1,2,0:0:0:0:
482,135,165833,2,0,B|484:181|448:209|440:194|402:218|420:281,1,159.999995117188,0|0,3:0|0:3,0:0:0:0:
483,328,166290,6,0,P|465:268|382:95,3,239.999992675781,2|0|2|0,0:0|0:0|0:0|0:0,0:0:0:0:
237,165,168136,6,0,B|202:130|221:73|255:44|314:61|314:61|297:90|305:123,2,239.999992675781,2|0|2,0:0|0:0|0:0,0:0:0:0:
349,369,169520,6,0,P|323:321|240:251,1,159.999995117188,2|0,0:0|0:0,0:0:0:0:
237,261,169982,2,0,B|273:326|360:335|356:241|453:280,1,239.999992675781,2|0,0:0|0:0,0:0:0:0:
346,153,170751,5,0,0:0:0:0:
346,153,170905,2,0,P|396:130|351:57,1,159.999995117188,2|0,0:0|0:0,0:0:0:0:
350,157,171366,2,0,P|376:109|459:39,1,159.999995117188,2|0,0:0|0:0,0:0:0:0:
462,49,171828,2,0,B|426:114|339:123|343:29|246:68,1,239.999992675781,2|0,0:0|0:0,0:0:0:0:
31,216,172597,1,0,0:0:0:0:
31,216,172751,6,0,P|35:124|74:56,1,159.999995117188,2|0,0:0|0:0,0:0:0:0:
150,86,173213,2,0,P|146:178|107:246,1,159.999995117188,2|0,0:0|0:0,0:0:0:0:
61,301,173628,6,0,B|75:284|75:284|249:270,1,159.999995117188,2|0,1:3|0:0,0:0:0:0:
288,325,174089,1,2,1:3:0:0:
483,160,174551,2,0,L|444:-7,1,159.999995117188,2|0,1:3|0:0,0:0:0:0:
364,25,175012,2,0,L|400:180,1,159.999995117188,2|0,1:3|0:0,0:0:0:0:
456,244,175474,6,0,B|475:258|475:258|311:290,1,159.999995117188,2|0,1:3|0:0,0:0:0:0:
271,344,175935,1,2,1:3:0:0:
14,154,176397,2,0,P|24:95|91:8,1,159.999995117188,2|0,1:3|0:0,0:0:0:0:
163,50,176858,2,0,P|153:109|86:196,1,159.999995117188,2|0,1:3|0:0,0:0:0:0:
29,239,177320,6,0,B|40:268|40:268|189:298,1,159.999995117188,2|0,1:3|0:0,0:0:0:0:
233,349,177781,1,2,1:3:0:0:
407,194,178089,1,0,0:0:0:0:
407,194,178243,6,0,L|374:352,1,159.999995117188,2|0,1:3|0:0,0:0:0:0:
453,323,178704,2,0,L|313:216,1,159.999995117188,2|0,1:3|0:0,0:0:0:0:
318,143,179166,6,0,B|311:124|311:124|171:193,1,159.999995117188,2|0,1:3|0:0,0:0:0:0:
156,263,179628,1,2,1:3:0:0:
8,145,179935,1,0,0:0:0:0:
8,145,180089,2,0,P|22:208|107:192,1,159.999995117188,2|0,1:3|0:0,0:0:0:0:
146,124,180551,2,0,P|132:61|47:77,1,159.999995117188,2|0,1:3|0:0,0:0:0:0:
12,149,181012,6,0,B|3:179|3:179|75:309,1,159.999995117188,6|0,1:2|0:0,0:0:0:0:
133,343,181474,5,2,1:3:0:0:
146,124,181781,1,2,0:0:0:0:
193,202,181935,1,2,1:3:0:0:
272,72,182243,1,2,0:0:0:0:
274,159,182397,1,2,1:3:0:0:
408,123,182704,1,2,0:0:0:0:
356,193,182858,6,0,B|346:213|346:213|437:329,1,159.999995117188,2|0,1:3|0:0,0:0:0:0:
497,372,183320,1,2,1:3:0:0:
286,361,183628,5,2,0:0:0:0:
352,302,183781,1,2,1:3:0:0:
199,335,184089,1,2,0:0:0:0:
208,249,184243,1,2,1:3:0:0:
111,343,184551,1,2,0:0:0:0:
61,276,184704,6,0,B|48:250|48:250|112:63,1,213.333333333333,2|0,1:3|0:0,0:0:0:0:
75,261,186551,6,0,B|67:245|67:245|114:116,1,139.999995727539,2|0,0:3|0:0,0:0:0:0:
