osu file format v14

[General]
AudioFilename: audio.mp3
AudioLeadIn: 0
PreviewTime: 94
Countdown: 0
SampleSet: Soft
StackLeniency: 0.5
Mode: 0
LetterboxInBreaks: 0
WidescreenStoryboard: 0

[Editor]
Bookmarks: 11171,25940,55479,70248,85017,92402,107171,129325,136710,151479,166248
DistanceSpacing: 1
BeatDivisor: 6
GridSize: 16
TimelineZoom: 0.6000001

[Metadata]
Title:BLKKK SKKKN HEAD
TitleUnicode:BLKKK SKKKN HEAD
Artist:Kanye West
ArtistUnicode:Kanye West
Creator:jamesjan3
Version:BLKKKD OUT
Source:
Tags:jamesjan mimari ancelysia ancel wafer kami no kotoba goopert hip hop hip-hop trap rap english yeezus black skinhead skin skn head daft punk
BeatmapID:2922331
BeatmapSetID:1418400

[Difficulty]
HPDrainRate:5
CircleSize:3.4
OverallDifficulty:8.7
ApproachRate:9.2
SliderMultiplier:2
SliderTickRate:1

[Events]
//Background and Video events
0,0,"2449737.jpg",0,0
//Break Periods
2,70583,71353
2,74276,75045
2,151813,152582
2,155505,156274
//Storyboard Layer 0 (Background)
//Storyboard Layer 1 (Fail)
//Storyboard Layer 2 (Pass)
//Storyboard Layer 3 (Foreground)
//Storyboard Layer 4 (Overlay)
//Storyboard Sound Samples

[TimingPoints]
108,468.75,4,2,1,50,1,0
108,-20,4,2,1,50,0,0
1514,-22.7790432801822,4,2,1,50,0,0
1983,-20,4,2,1,50,0,0
3800,461.538461538462,4,2,1,50,1,0
3800,-20,4,2,0,80,0,0
5184,-66.6666666666667,4,2,0,80,0,0
11154,461.538461538462,4,2,1,50,1,0
11154,-66.6666666666667,4,3,0,80,0,0
12077,-100,4,3,0,80,0,0
12384,-66.6666666666667,4,3,0,80,0,0
12539,-100,4,3,0,80,0,0
12846,-66.6666666666667,4,3,0,80,0,0
13769,-50,4,3,0,80,0,0
14230,-66.6666666666667,4,3,0,80,0,0
15769,-100,4,3,0,80,0,0
16077,-66.6666666666667,4,3,0,80,0,0
18077,-50,4,2,0,80,0,0
18538,-100,4,3,0,80,0,0
18846,-66.6666666666667,4,3,0,80,0,0
19307,-57.1428571428571,4,3,0,80,0,0
19461,-54.7945205479452,4,3,0,80,0,0
19769,-50,4,3,0,80,0,0
20384,-100,4,3,0,80,0,0
20692,-66.6666666666667,4,3,0,80,0,0
21153,-57.1428571428571,4,3,0,80,0,0
21307,-54.7945205479452,4,3,0,80,0,0
21615,-50,4,3,0,80,0,0
22230,-50,4,2,0,80,0,0
27307,-40,4,2,0,80,0,0
27615,-50,4,2,0,80,0,0
27769,-50,4,2,1,80,0,0
28077,-50,4,2,0,80,0,0
28692,-44.4444444444445,4,2,0,80,0,0
29000,-50,4,2,0,80,0,0
29153,-40,4,2,0,80,0,0
29461,-50,4,2,0,80,0,0
29615,-50,4,2,1,80,0,0
29923,-50,4,2,0,80,0,0
30846,-40,4,2,0,80,0,0
31307,-50,4,2,0,80,0,0
33307,-50,4,2,1,80,0,0
33615,-50,4,2,0,80,0,0
34538,-40,4,2,0,80,0,0
35000,-40,4,2,0,80,0,0
35153,-50,4,2,1,80,0,0
35461,-50,4,2,0,80,0,0
36384,-40,4,2,0,80,0,0
37050,461.538461538462,4,2,1,50,1,0
37050,-57.1428571428571,4,2,0,80,0,0
39664,-57.1428571428571,4,2,2,80,0,0
39818,-57.1428571428571,4,2,2,80,0,0
40126,-66.6666666666667,4,2,2,80,0,0
40692,461.538461538462,4,2,1,50,1,0
40692,-50,4,2,0,80,0,0
41615,-80,4,2,0,80,0,0
41923,-37.037037037037,4,2,0,80,0,0
42384,-50,4,2,1,80,0,0
42538,-50,4,2,0,80,0,0
43461,-80,4,2,0,80,0,0
43769,-37.037037037037,4,2,0,80,0,0
44230,-50,4,2,1,80,0,0
44384,-44.4444444444445,4,2,0,80,0,0
45307,-80,4,2,0,80,0,0
45615,-37.037037037037,4,2,0,80,0,0
46230,-50,4,2,0,80,0,0
47923,-50,4,2,1,80,0,0
48077,-50,4,2,0,80,0,0
49000,-40,4,2,0,80,0,0
49307,-50,4,2,0,80,0,0
49461,-57.1428571428571,4,2,0,80,0,0
49769,-50,4,2,1,80,0,0
49923,-57.1428571428571,4,2,0,80,0,0
50846,-40,4,2,0,80,0,0
51153,-50,4,2,0,80,0,0
51307,-57.1428571428571,4,2,0,80,0,0
52692,-40,4,2,0,80,0,0
53000,-50,4,2,0,80,0,0
53615,-40,4,2,0,80,0,0
53923,-50,4,2,0,80,0,0
55461,-333.333333333333,4,2,0,80,0,0
55538,-333.333333333333,4,2,1,20,0,0
57153,-333.333333333333,4,2,0,80,0,0
57384,-333.333333333333,4,2,1,20,0,0
59153,-333.333333333333,4,2,0,80,0,0
59230,-333.333333333333,4,2,1,20,0,0
60846,-333.333333333333,4,2,0,80,0,0
61077,-333.333333333333,4,2,1,20,0,0
62877,461.538461538462,4,2,1,50,1,0
62877,-50,4,3,0,100,0,0
69800,-40,4,3,0,100,0,0
70230,461.538461538462,4,2,1,50,1,0
70230,-33.3333333333333,4,2,0,100,0,0
70538,-33.3333333333333,4,2,0,80,0,0
72077,-50,4,2,0,80,0,0
73692,-33.3333333333333,4,2,0,80,0,0
75769,-50,4,2,0,80,0,0
77153,-40,4,2,0,80,0,0
77461,-33.3333333333333,4,2,0,80,0,0
78230,-44.4444444444445,4,2,0,80,0,0
79307,-33.3333333333333,4,2,0,80,0,0
80077,-40,4,2,0,80,0,0
81153,-28.5714285714286,4,2,0,80,0,0
82691,-44.4444444444445,4,2,0,80,0,0
83186,461.538461538462,4,2,1,80,1,0
83186,-100,4,2,0,80,0,0
83262,-100,4,2,0,20,0,0
83647,-100,4,2,0,80,0,0
83878,-100,4,2,0,20,0,0
83955,-100,4,2,0,80,0,0
84032,-100,4,2,0,20,0,0
84416,-100,4,2,0,80,0,0
84493,-100,4,2,0,20,0,0
84570,-40,4,2,0,80,0,0
85040,465.116279069767,4,2,1,50,1,0
85040,-11.8704662502097,4,2,1,80,0,0
86435,-22.8463288249184,4,2,1,80,0,0
86900,-27.5070145432574,4,2,1,80,0,0
87365,-27.9130588126462,4,2,1,80,0,0
87830,-28.4260609784329,4,2,1,80,0,0
89193,-27.4271915786815,4,2,1,80,0,0
89655,-20.8709866919322,4,2,1,80,0,0
90117,-22.0710792160279,4,2,1,80,0,0
91040,-22.0710792160279,4,2,0,80,0,0
91193,-22.8463288249184,4,2,0,80,0,0
91463,461.538461538462,4,2,1,50,1,0
92386,461.538461538462,4,2,1,50,1,0
92386,-333.333333333333,4,2,0,80,0,0
92462,-333.333333333333,4,2,1,20,0,0
94077,-333.333333333333,4,2,0,80,0,0
94308,-333.333333333333,4,2,1,20,0,0
96077,-333.333333333333,4,2,0,80,0,0
96154,-333.333333333333,4,2,1,20,0,0
97770,-333.333333333333,4,2,0,80,0,0
98001,-333.333333333333,4,2,1,20,0,0
99795,461.538461538462,4,2,1,50,1,0
99795,-50,4,3,0,100,0,0
106718,-36.3636363636364,4,3,0,100,0,0
107147,461.538461538462,4,2,1,50,1,0
107147,-40,4,2,0,100,0,0
107609,-40,4,2,0,80,0,0
108532,-50,4,2,0,80,0,0
108994,-50,4,2,1,80,0,0
109071,-50,4,2,0,80,0,0
109917,-40,4,2,0,80,0,0
110378,-50,4,2,0,80,0,0
110840,-50,4,2,1,80,0,0
111301,-50,4,2,0,80,0,0
111763,-40,4,2,0,80,0,0
112224,-50,4,2,0,80,0,0
117301,-40,4,2,0,80,0,0
117609,-50,4,2,0,80,0,0
119147,-66.6666666666667,4,2,0,80,0,0
119917,-250,4,2,0,80,0,0
120532,-50,4,2,0,80,0,0
121917,-50,4,2,1,80,0,0
122224,-50,4,2,0,80,0,0
122840,-40,4,2,0,80,0,0
123301,-44.4444444444445,4,2,0,80,0,0
123609,-50,4,2,0,80,0,0
123763,-50,4,2,1,80,0,0
124071,-50,4,2,0,80,0,0
124685,-40,4,2,0,80,0,0
125146,-44.4444444444445,4,2,0,80,0,0
125608,-50,4,2,1,80,0,0
125916,-50,4,2,0,80,0,0
126531,-40,4,2,0,80,0,0
126839,-50,4,2,0,80,0,0
127454,-50,4,2,1,80,0,0
127762,-50,4,2,0,80,0,0
128839,-40,4,2,0,80,0,0
129326,461.538461538462,4,2,1,50,1,0
129326,-100,4,2,2,80,0,0
129402,-100,4,2,0,20,0,0
129787,-100,4,2,0,80,0,0
129864,-100,4,2,0,20,0,0
130095,-100,4,2,2,80,0,0
130172,-100,4,2,0,20,0,0
130556,-100,4,2,0,80,0,0
130633,-100,4,2,0,20,0,0
130710,-100,4,2,0,80,0,0
130787,-100,4,2,0,20,0,0
131018,-100,4,2,0,80,0,0
131095,-100,4,2,0,20,0,0
131171,-100,4,2,2,80,0,0
131248,-100,4,2,0,20,0,0
131633,-100,4,2,0,80,0,0
131710,-100,4,2,0,20,0,0
131941,-100,4,2,2,80,0,0
132018,-100,4,2,0,20,0,0
132402,-100,4,2,0,80,0,0
132479,-100,4,2,0,20,0,0
132556,-100,4,2,0,80,0,0
132633,-100,4,2,0,20,0,0
132864,-100,4,2,0,80,0,0
132941,-100,4,2,0,20,0,0
133018,-40,4,2,0,80,0,0
136700,461.538461538462,4,2,1,50,1,0
136700,-333.333333333333,4,2,0,80,0,0
136777,-333.333333333333,4,2,1,20,0,0
138392,-333.333333333333,4,2,0,80,0,0
138623,-333.333333333333,4,2,1,20,0,0
140392,-333.333333333333,4,2,0,80,0,0
140469,-333.333333333333,4,2,1,20,0,0
142085,-333.333333333333,4,2,0,80,0,0
142316,-333.333333333333,4,2,1,20,0,0
144107,461.538461538462,4,2,1,50,1,0
144107,-40,4,3,0,100,0,0
151459,-33.3333333333333,4,2,0,100,0,0
151460,461.538461538462,4,2,1,50,1,0
151460,-33.3333333333333,4,2,0,80,0,0
153305,-50,4,2,0,80,0,0
154690,-100,4,2,0,80,0,0
154998,-33.3333333333333,4,2,0,80,0,0
156998,-50,4,2,0,80,0,0
158382,-40,4,2,0,80,0,0
158690,-33.3333333333333,4,2,0,80,0,0
159459,-44.4444444444445,4,2,0,80,0,0
160228,-100,4,2,0,80,0,0
160536,-33.3333333333333,4,2,0,80,0,0
161305,-40,4,2,0,80,0,0
162075,-100,4,2,0,80,0,0
162382,-33.3333333333333,4,2,0,80,0,0
162998,-66.6666666666667,4,2,0,80,0,0
163921,-50,4,2,0,80,0,0
164449,461.538461538462,4,2,1,50,1,0
164449,-66.6666666666667,4,2,0,80,0,0
164910,-66.6666666666667,4,2,0,80,0,0
165217,-66.6666666666667,4,2,0,80,0,0
165679,-66.6666666666667,4,2,0,80,0,0
165756,-66.6666666666667,4,2,0,20,0,0
165833,-66.6666666666667,4,2,0,80,0,0
166290,461.538461538462,4,2,1,50,1,0
166290,-27.2300633333705,4,2,0,80,0,0
166751,-27.3020812088127,4,2,0,80,0,0
167212,-23.0671713447635,4,2,0,80,0,0
168136,-23.9296210662844,4,2,0,80,0,0
168597,-23.9296210662844,4,2,0,80,0,0
169059,-26.7146278927358,4,2,0,80,0,0
170443,-29.1932089980569,4,2,0,80,0,0
170674,-29.2546192977155,4,2,0,5,0,0
170751,-29.2546192977155,4,2,0,80,0,0
170905,-27.9397559054302,4,2,0,80,0,0
171366,-27.0216371762614,4,2,0,80,0,0
172443,-22.7000751567854,4,2,0,80,0,0
172751,-19.9065339809171,4,2,0,80,0,0
173212,-20.285728080066,4,2,0,80,0,0
173628,461.538461538462,4,2,1,50,1,0
173628,-22.2401529874038,4,2,0,80,0,0
174090,-25.4531910142908,4,2,0,80,0,0
174551,-29.4275908844374,4,2,0,80,0,0
175013,-36.33025278092,4,2,0,80,0,0
175474,-21.4499545301208,4,2,0,80,0,0
175936,-24.1940792177245,4,2,0,80,0,0
176397,-28.1793221917991,4,2,0,80,0,0
176859,-35.0241899401601,4,2,0,80,0,0
177320,-21.4231845917126,4,2,0,80,0,0
177782,-24.5156312138148,4,2,0,80,0,0
178090,-66.6666666666667,4,2,0,80,0,0
178243,-28.6965834556644,4,2,0,80,0,0
178705,-34.3017273703809,4,2,0,80,0,0
179166,-22.0740145510285,4,2,0,80,0,0
179628,-24.8211477199134,4,2,0,80,0,0
180090,-29.4460895320274,4,2,0,80,0,0
180397,-80,4,2,0,80,0,0
180551,-34.7246368167968,4,2,0,80,0,0
181013,-22.3971636192317,4,2,0,80,0,0
181474,-24.7333259548136,4,2,0,80,0,0
181936,-28.8061811205471,4,2,0,80,0,0
182397,-42.99721280017,4,2,0,80,0,0
182859,-21.4852870629671,4,2,0,80,0,0
183320,-24.554662995447,4,2,0,80,0,0
183782,-28.2267245613462,4,2,0,80,0,0
184243,-33.2756778779901,4,2,0,80,0,0
184705,-200,4,2,0,80,0,0

[Colours]
Combo1 : 21,21,21
Combo2 : 178,178,178
Combo3 : 222,222,222
Combo4 : 155,155,0
Combo5 : 235,224,92

[HitObjects]
132,238,108,38,0,B|133:236|134:236|134:236|133:234|133:234|135:238|135:238|134:235|134:235|135:235|136:234|136:234|135:232|135:232|138:235|138:235|137:233|137:233|138:233|139:232|139:232|138:230|138:230|140:234|140:234|140:232|140:232|141:231|141:230|141:230|141:228|141:228|143:232|143:232|142:230|142:230|143:229|144:229|144:229|144:227|144:227|146:231|146:231|145:228|145:228|146:228|147:228|147:228|146:226|146:226|148:229|148:229|148:227|148:227|149:227|150:226|150:226|149:224|149:224|151:228|151:228|151:226|151:226|152:225|153:225|153:225|152:223|152:223|154:227|154:227|154:225|154:225|155:224|156:224|156:224|155:222|155:222|157:225|157:225|157:224|157:224|158:223|159:223|159:223|158:221|158:221|160:224|160:224|159:223|159:223|161:222|161:222|161:220|161:220|162:224|162:224|162:222|162:222|164:221|164:221|164:219|164:219|165:223|165:223|165:221|165:221|167:221|167:221|168:218|168:218|168:223|168:223|169:220|169:220|170:220|170:220|171:218|171:218|171:222|171:222|172:220|172:220|173:220|174:219|174:219|174:218|174:218|174:221|174:221|175:219|175:219|177:219|178:219|178:219|178:217|178:217|178:221|178:221|179:219|179:219|180:219|181:219|181:219|181:217|181:217|181:221|181:221|182:219|182:219|183:219|184:219|184:219|184:217|184:217|184:221|184:221|185:219|185:219|186:219|187:219|187:219|188:217|188:217|187:221|187:221|188:219|188:219|189:219|190:219|190:219|191:217|191:217|190:221|190:221|191:219|191:219|192:219|193:219|193:219|194:217|194:217|193:221|193:221|194:219|194:219|196:219|196:219|197:217|197:217|197:221|197:221|197:219|197:219|199:220|199:220|200:218|200:218|200:222|200:222|200:220|200:220|202:220|202:220|203:219|203:219|203:222|203:222|203:220|203:220|205:221|205:221|206:219|206:219|205:223|205:223|206:221|206:221|208:221|208:222|208:222|210:220|210:220|208:224|208:224|209:222|209:222|211:222|212:223|212:223|213:221|213:221|211:224|211:224|212:223|212:223|213:223|214:223|214:223|216:222|216:222|214:226|214:226|215:224|215:224|216:224|217:225|217:225|219:223|219:223|217:227|217:227|218:225|218:225|219:225|221:226|221:226|222:224|222:224|221:228|221:228|222:226|222:226|223:227|224:227|224:227|225:225|225:225|223:229|223:229|225:228|225:228|226:228|227:228|227:228|228:227|228:227|226:230|226:230|228:229|228:229|229:230|230:230|230:230|231:229|231:229|229:232|229:232|230:230|230:230|231:231|232:232|232:232|234:230|234:230|231:234|231:234|233:232|233:232|234:233|235:233|235:233|236:232|236:232|234:235|234:235|236:234|236:234|236:235|237:235|237:235|239:234|239:234|237:238|237:238|238:236|238:236|239:236|240:238|240:238|241:236|241:236|239:240|239:240|240:239|240:239|241:239|242:240|242:240|244:239|244:239|241:242|241:242|243:241|243:241|243:242|244:242|244:242|246:241|246:241|243:244|243:244|245:243|245:243|246:244|246:244|248:243|248:243|245:246|245:246|247:245|247:245|248:246|248:247|248:247|250:246|250:246|247:248|247:248|249:247|249:247|250:248|250:249|250:249|252:248|252:248|249:251|249:251|251:250|251:250|252:251|252:251|254:251|254:251|251:253|251:253|253:252|253:252|254:253|254:254|254:254|256:253|256:253|253:255|253:255|255:255|255:255|255:256|256:256|256:256|258:256|258:256|255:258|255:258|256:257|256:257|257:258|258:259|258:259|259:258|259:258|256:260|256:260|258:260|258:260|259:261|259:262|259:262|261:261|261:261|258:263|258:263|260:262|260:262|260:263|261:264|261:264|263:264|263:264|259:266|259:266|261:265|261:265|262:266|262:267|262:267|264:266|264:266|261:268|261:268|263:268|263:268|263:269|264:269|264:269|266:269|266:269|262:271|262:271|264:270|264:270|266:271|266:272|266:272|268:272|268:272|263:273|263:273|266:273|266:273|267:274|267:275|267:275|269:274|269:274|266:276|266:276|268:276|268:276|269:277|269:277|271:277|271:277|267:279|267:279|269:278|269:278|270:279|270:280|270:280|272:280|272:280|269:283|269:283|271:281|271:281|271:283|272:284|272:284|274:283|274:283|270:285|270:285|272:285|272:285|273:286|273:287|273:287|275:286|275:286|272:288|272:288|274:287|274:287|274:288|275:289|275:289|277:289|277:289|273:291|273:291|275:290|275:290|276:291|276:292|276:292|278:291|278:291|275:293|275:293|277:293|277:293|277:294|278:295|278:295|280:294|280:294|276:296|276:296|278:295|278:295|279:297|279:297|281:296|281:296|278:299|278:299|280:298|280:298|281:299|281:300|281:300|283:299|283:299|280:301|280:301|282:300|282:300|282:302|283:302|283:302|285:301|285:301|282:304|282:304|283:303|283:303|284:304|285:305|285:305|287:304|287:304|283:306|283:306|285:305|285:305|286:306|287:307|287:307|289:306|289:306|285:309|285:309|287:308|287:308|288:309|289:309|289:309|290:308|290:308|288:311|288:311|289:310|289:310|290:311|291:312|291:312|293:311|293:311|290:313|290:313|292:312|292:312|292:313|293:314|293:314|295:312|295:312|292:316|292:316|294:314|294:314|295:315|295:316|295:316|297:315|297:315|295:317|295:317|296:316|296:316|297:317|298:318|298:318|299:316|299:316|297:319|297:319|299:318|299:318|300:319|300:319|302:318|302:318|300:321|300:321|301:320|301:320|302:321|303:321|303:321|304:320|304:320|302:323|302:323|304:322|304:322|305:322|305:323|305:323|307:321|307:321|305:325|305:325|306:323|306:323|307:324|308:324|308:324|311:323|311:323|308:328|308:328|310:325|310:325|311:327|312:327|312:327|313:324|313:324|312:329|312:329|313:327|313:327|314:328|315:328|315:328|316:325|316:325|314:330|314:330|316:329|316:329|317:329|318:329|318:329|319:328|319:328|317:331|317:331|318:330|318:330|320:330|320:330|322:329|322:329|320:332|320:332|321:331|321:331|323:331|323:331|325:330|325:330|323:334|323:334|324:332|324:332|326:332|326:332|327:330|327:330|326:334|326:334|327:333|327:333|329:333|329:333|330:331|330:331|329:335|329:335|330:333|330:333|332:334|333:334|333:334|333:332|333:332|333:336|333:336|334:334|334:334|335:334|336:334|336:334|336:333|336:333|336:336|336:336|337:335|337:335|338:335|339:335|339:335|339:333|339:333|339:337|339:337|340:335|340:335|341:335|342:335|342:335|343:333|343:333|342:338|342:338|343:335|343:335|344:335|345:335|345:335|346:334|346:334|345:337|345:337|346:336|346:336|347:336|348:336|348:336|349:334|349:334|349:338|349:338|349:336|349:336|350:336|351:336|351:336|352:334|352:334|352:338|352:338|352:336|352:336|355:336|355:336|356:334|356:334|356:338|356:338|356:336|356:336|358:336|358:336|359:334|359:334|359:338|359:338|360:336|360:336|361:336|362:335|362:335|362:333|362:333|362:338|362:338|363:335|363:335|364:335|365:335|365:335|365:333|365:333|366:337|366:337|366:335|366:335|368:335|368:335|368:333|368:333|369:336|369:336|369:335|369:335|371:334|371:334|371:333|371:333|372:336|372:336|372:334|372:334|373:334|374:334|374:334|374:332|374:332|375:336|375:336|375:334|375:334|372:332|377:333|377:333|377:331|377:331|378:336|378:336|378:333|378:333|381:334|381:334|381:332|381:332,2,1000,2|0|2,0:0|0:0|0:0,0:0:0:0:
512,123,1514,6,0,B|512:120|512:118|512:118|507:116|507:116|516:114|516:114|512:112|512:112|509:106|509:108|509:108|505:106|505:106|512:104|512:104|507:102|507:102|505:98|505:100|505:100|501:98|501:98|507:94|507:94|503:94|503:94|501:92|499:90|499:90|495:92|495:92|501:85|501:85|495:85|495:85|493:85|493:83|493:83|487:85|487:85|493:79|493:79|487:79|487:79|485:79|483:79|483:79|479:81|479:81|483:73|483:73|479:75|479:75|472:75|474:75|474:75|470:79|470:79|472:71|472:71|468:73|468:73|466:73|464:73|464:73|460:77|460:77|460:69|460:69|458:73|458:73|452:75|454:75|454:75|452:79|452:79|450:71|450:71|448:77|448:77|446:77|444:77|444:77|444:83|444:83|439:75|439:75|437:81|437:81|435:83|435:83|435:87|435:87|429:81|429:81|429:87|429:87|425:92|427:90|427:90|429:94|429:94|423:90|423:90|423:94|423:94|421:100|421:98|421:98|423:102|423:102|417:98|417:98|419:104|419:104|417:106|417:106|421:110|421:110|413:108|413:108|415:112|415:112|415:114|415:116|415:116|419:120|419:120|411:120|411:120|415:123|415:123|415:125|415:127|415:127|419:129|419:129|411:131|411:131|415:133|415:133|417:135|417:137|417:137|421:139|421:139|415:141|415:141|419:143|419:143|421:145|421:147|421:147|427:147|427:147|419:151|419:151|425:151|425:151|429:155|427:155|427:155|431:153|431:153|427:160|427:160|431:160|431:160|433:160|435:162|435:162|439:160|439:160|435:166|435:166|439:166|439:166|446:168|444:166|444:166|448:164|448:164|446:172|446:172|450:168|450:168|452:170|454:170|454:170|456:166|456:166|456:174|456:174|460:170|460:170|462:170|464:170|464:170|466:166|466:166|466:174|466:174|470:170|470:170|472:170|474:170|474:170|474:166|474:166|479:172|479:172|479:168|479:168|481:168|483:166|483:166|485:162|485:162|489:168|489:168|489:164|489:164|491:162|493:162|493:162|491:155|491:155|497:162|497:162|497:158|497:158|501:151|503:149,1,585.333335454559
463,122,1983,54,0,B|461:119|461:119|459:119|459:119|463:117|463:117|460:118|460:118|459:116|459:116|457:116|457:116|461:114|461:114|459:115|459:115|458:113|458:113|456:113|456:113|459:111|459:111|457:112|457:112|456:110|456:110|454:110|454:110|457:107|457:107|455:109|455:109|454:105|454:105|452:106|452:106|456:104|456:104|454:105|454:105|453:102|453:102|451:103|451:103|454:101|454:101|452:102|452:102|451:99|451:99|448:100|448:100|453:98|453:98|451:98|451:98|448:96|448:96|446:97|446:97|451:95|451:95|448:95|448:95|447:92|447:92|445:93|445:93|448:91|448:91|446:91|446:91|445:89|445:89|443:90|443:90|447:88|447:88|445:88|445:88|444:86|444:86|442:86|442:86|445:85|445:85|443:85|443:85|442:83|442:83|440:83|440:83|443:82|443:82|441:82|441:82|440:79|440:79|438:79|438:79|442:77|442:77|440:78|440:78|439:76|439:76|437:76|437:76|440:74|440:74|438:75|438:75|437:73|437:73|434:73|434:73|439:71|439:71|437:72|437:72|434:70|434:70|432:70|432:70|437:68|437:68|434:69|434:69|433:65|433:65|431:66|431:66|434:64|434:64|432:65|432:65|431:62|431:62|429:63|429:63|433:61|433:61|431:62|431:62|429:59|429:59|427:60|427:60|431:58|431:58|429:58|429:58|428:56|428:56|426:57|426:57|429:55|429:55|427:55|427:55|426:52|426:52|424:54|424:54|428:51|428:51|426:51|426:51|425:49|425:49|423:50|423:50|426:48|426:48|424:48|424:48|423:46|423:46|420:46|420:46|424:45|424:45|421:45|421:45|420:43|420:43|418:43|418:43|423:42|423:42|420:42|420:42|419:39|419:39|417:39|417:39|420:37|420:37|418:38|418:38|417:36|417:36|415:36|415:36|419:34|419:34|417:35|417:35|415:33|415:33|413:33|413:33|417:31|417:31|415:32|415:32|414:30|414:30|414:32|414:32|412:29|412:29|413:31|413:31|411:32|411:32|411:34|411:34|409:31|409:31|410:33|410:33|407:34|407:34|407:36|407:36|405:32|405:32|406:34|406:34|404:36|404:36|404:38|404:38|402:34|402:34|403:36|403:36|401:37|401:37|401:39|401:39|399:36|399:36|400:38|400:38|398:39|398:39|398:42|398:42|396:38|396:38|397:41|397:41|395:42|395:42|395:44|395:44|392:39|392:39|393:42|393:42|391:44|391:44|391:46|391:46|389:42|389:42|390:44|390:44|387:45|387:45|388:47|388:47|386:44|386:44|387:46|387:46|384:47|384:47|385:49|385:49|383:46|383:46|384:48|384:48|380:49|380:49|382:51|382:51|379:48|379:48|380:50|380:50|377:51|377:51|378:54|378:54|376:49|376:49|377:51|377:51|374:54|374:54|375:56|375:56|373:51|373:51|374:54|374:54|371:55|371:55|372:57|372:57|370:54|370:54|371:56|371:56|368:57|368:57|369:59|369:59|366:56|366:56|368:58|368:58|364:59|364:59|365:61|365:61|363:57|363:57|364:59|364:59|361:61|361:61|362:63|362:63|360:59|360:59|361:61|361:61|358:62|358:62|359:64|359:64|357:61|357:61|358:63|358:63|355:64|355:64|356:66|356:66|354:63|354:63|355:65|355:65|351:66|351:66|352:69|352:69|350:65|350:65|351:68|351:68|348:69|348:69|349:71|349:71|347:66|347:66|348:69|348:69|345:71|345:71|346:73|346:73|344:69|344:69|345:71|345:71|342:72|342:72|343:74|343:74|341:71|341:71|341:73|341:73|338:74|338:74|339:76|339:76|337:73|337:73|337:75|337:75|335:76|335:76|336:78|336:78|334:74|334:74|334:76|334:76|332:78|332:78|333:80|333:80|331:76|331:76|331:78|331:78|329:79|329:79|330:82|330:82|328:78|328:78|328:80|328:80|325:82|325:82|327:84|327:84|324:80|324:80|324:83|324:83|322:84|322:84|323:86|323:86|321:83|321:83|321:85|321:85|319:86|319:86|320:88|320:88|318:84|318:84|318:86|318:86|318:87,1,666.666666666667,2|0,0:0|0:0,0:0:0:0:
303,167,2451,2,0,B|303:169|303:169|305:169|305:169|302:170|302:170|304:170|304:170|305:172|305:172|307:172|307:172|303:174|303:174|305:173|305:173|306:175|306:175|308:175|308:175|305:177|305:177|307:176|307:176|308:179|308:179|310:179|310:179|306:181|306:181|308:180|308:180|310:183|310:183|312:182|312:182|308:184|308:184|310:183|310:183|311:186|311:186|314:185|314:185|310:187|310:187|312:187|312:187|314:190|314:190|316:188|316:188|311:191|311:191|314:191|314:191|316:193|316:193|318:192|318:192|314:194|314:194|316:194|316:194|316:196|316:196|319:195|319:195|315:197|315:197|317:197|317:197|318:199|318:199|320:199|320:199|316:201|316:201|318:201|318:201|319:203|319:203|321:203|321:203|318:205|318:205|320:204|320:204|321:206|321:206|324:206|324:206|319:208|319:208|321:207|321:207|324:209|324:209|326:209|326:209|321:212|321:212|324:210|324:210|325:213|325:213|327:213|327:213|324:215|324:215|326:214|326:214|327:217|327:217|329:216|329:216|325:218|325:218|327:217|327:217|328:220|328:220|330:219|330:219|327:221|327:221|329:221|329:221|329:224|329:224|332:224|332:224|328:225|328:225|330:226|330:226|331:228|331:228|334:227|334:227|329:228|329:228|331:229|331:229|332:231|332:231|335:230|335:230|331:232|331:232|334:232|334:232|335:235|335:235|337:235|337:235|332:236|332:236|335:236|335:236|337:238|337:238|339:238|339:238|335:239|335:239|337:239|337:239|338:241|338:241|340:241|340:241|337:243|337:243|339:242|339:242|340:244|340:244|342:244|342:244|338:247|338:247|340:246|340:246|341:248|341:248|343:248|343:248|340:250|340:250|342:249|342:249|343:251|343:251|346:251|346:251|342:253|342:253|345:252|345:252|345:255|345:255|347:254|347:254|342:257|342:257|345:255|345:255|346:259|346:259|348:258|348:258|345:260|345:260|347:260|347:260|349:259|349:259|348:257|348:257|350:260|350:260|350:258|350:258|352:257|352:257|351:254|351:254|353:259|353:259|353:257|353:257|356:254|356:254|356:252|356:252|357:257|357:257|357:254|357:254|359:254|359:254|359:252|359:252|360:255|360:255|361:253|361:253|363:252|363:252|362:250|362:250|364:253|364:253|364:251|364:251|367:250|367:250|365:248|365:248|368:252|368:252|368:250|368:250|370:248|370:248|369:245|369:245|371:250|371:250|371:248|371:248|373:247|373:247|376:249|376:249|374:248|374:248|374:245|374:245|376:244|376:244|375:242|375:242|378:245|378:245|378:243|378:243|380:242|380:242|379:240|379:240|381:243|381:243|381:241|381:241|383:240|383:240|382:238|382:238|384:242|384:242|384:240|384:240|386:238|386:238|385:236|385:236|387:240|387:240|387:238|387:238|390:238|390:238|389:235|389:235|391:239|391:239|391:237|391:237|393:235|393:235|392:233|392:233|394:237|394:237|394:234|394:234|396:233|396:233|395:231|395:231|397:235|397:235|397:233|397:233|400:231|400:231|398:229|398:229|401:233|401:233|401:231|401:231|403:230|403:230|402:228|402:228|404:231|404:231|404:229|404:229|406:228|406:228|405:226|405:226|407:229|407:229|407:227|407:227|409:226|409:226|409:223|409:223|410:227|410:227|411:224|411:224|414:223|414:223|413:221|413:221|414:226|414:226|415:223|415:223|417:222|417:222|416:219|416:219|418:224|418:224|418:222|418:222|420:221|420:221|419:219|419:219|421:222|421:222|421:220|421:220|424:219|424:219|422:217|422:217|425:220|425:220|425:218|425:218|427:217|427:217|426:214|426:214|428:219|428:219|428:217|428:217|430:214|430:214|429:212|429:212|431:217|431:217|431:214|431:214|433:213|433:213|432:211|432:211|435:214|435:214|435:212|435:212|437:211|437:211|436:209|436:209|438:212|438:212|438:210|438:210|440:209|440:209|439:207|439:207|441:210|441:210|441:208|441:208|443:207|443:207|442:205|442:205|444:209|444:209|444:207|444:207|447:206|447:206|446:203|446:203|448:208|448:208|448:206|448:206|449:204,1,666.666666666667
384,143,2920,6,0,B|380:141|380:141|379:145|379:145|380:138|380:138|379:141|379:141|377:140|375:139|375:139|374:142|374:142|376:135|376:135|374:139|374:139|373:137|371:137|371:137|369:140|369:140|371:134|371:134|370:137|370:137|368:136|366:136|366:136|363:139|363:139|365:133|365:133|365:136|365:136|363:134|361:134|361:134|360:137|360:137|362:131|362:131|360:134|360:134|359:132|357:132|357:132|355:135|355:135|355:128|355:128|356:132|356:132|354:133|352:132|352:132|351:134|351:134|352:128|352:128|350:130|350:130|348:130|347:131|347:131|346:131|346:131|347:127|347:127|345:130|345:130|342:128|341:128|341:128|341:132|341:132|342:125|342:125|339:130|339:130|339:130|337:127|337:127|335:130|335:130|336:124|336:124|336:127|336:127|334:128|332:128|332:128|330:130|330:130|331:125|331:125|330:126|330:126|328:126|327:127|327:127|325:128|325:128|327:124|327:124|325:127|325:127|322:126|322:126|321:129|321:129|321:123|321:123|320:126|320:126|317:124|317:124|315:129|315:129|316:121|316:121|317:124|317:124|314:124|314:124|310:129|310:129|311:122|311:122|312:124|312:124|309:126|309:126|306:127|306:127|308:121|308:121|305:124|305:124|303:125|301:125|301:125|301:128|301:128|302:120|302:120|300:124|300:124|298:125|296:126|296:126|296:129|296:129|295:122|295:122|295:126|295:126|293:125|292:125|292:125|293:128|293:128|291:122|291:122|290:125|290:125|288:125|287:124|287:124|285:128|285:128|285:123|285:123|285:124|285:124|283:126|282:127|282:127|282:127|282:127|281:122|281:122|280:126|280:126|279:126|277:126|277:126|278:130|278:130|276:123|276:123|275:126|275:126|274:126|272:127|272:127|271:131|271:131|269:125|269:125|270:128|270:128|269:127|267:128|267:128|267:131|267:131|266:124|266:124|266:129|266:129|264:130|262:129|262:129|261:132|261:132|260:125|260:125|261:129|261:129|259:130|257:131|257:131|258:133|258:133|253:127|253:127|256:130|256:130|254:130|253:132|253:132|253:137|253:137|248:128|248:128|251:132|251:132|249:132|247:134|247:134|248:138|248:138|246:131|246:131|246:134|246:134|244:133|242:135|242:135|243:139|243:139|241:132|241:132|241:135|241:135|240:138|238:136|238:136|240:140|240:140|236:133|236:133|237:137|237:137|235:139|234:137|234:137|232:141|232:141|231:136|231:136|232:139|232:139|230:140|229:142|229:142|230:145|230:145|227:137|227:137|227:140|227:140|224:144|222:144|222:144|225:147|225:147|222:142|222:142|223:145|223:145|219:145|220:146|220:146|219:149|219:149|216:143|216:143|218:146|218:146|217:148|215:147|215:147|217:151|217:151|213:146|213:146|214:149|214:149|211:151|211:151|212:154|212:154|210:149|210:149|211:153|211:153|208:152|207:154|207:154|207:157|207:157|205:152|205:152|206:154|206:154|204:155|202:157|202:157|202:158|202:158|201:153|201:153|201:157|201:157|199:159|199:161|199:161|200:162|200:162|198:156|198:156|199:161|199:161|197:162|195:162|195:162|196:165|196:165|192:161|192:161|195:165|195:165|191:165|191:165|194:169|194:169|189:163|189:163|190:166|190:166|189:169|189:170|189:170|190:174|190:174|185:166|185:166|188:170|188:170|184:171|183:174|183:174|187:175|187:175|181:171|181:171|184:175|184:175|182:176|181:176|181:176|183:181|183:181|177:175|177:175|179:177|179:177|178:180|177:180|177:180|179:183|179:183|174:177|174:177|175:180|175:180|176:182|174:184|174:184|175:187|175:187|171:183|171:183|171:186|171:186|172:187|171:187|171:187|172:191|172:191|168:186|168:186|169:189|169:189|169:191|166:193|166:193|171:195|171:195|164:190|164:190|166:194|166:194|166:196|164:195|164:195|166:199|166:199|161:195|161:195|164:197|164:197|163:199|161:200|161:200|164:203|164:203|158:198|158:198|161:202|161:202|159:203|159:204|159:204|161:208|161:208|154:205|154:205|157:204|157:204|154:208|156:210|156:210|158:211|158:211|151:206|151:206|154:211|154:211|154:211|151:213|151:213|155:216|155:216|150:212|150:212|152:214|152:214|151:216|151:218|151:218|151:219|151:219|146:215|146:215|149:219|149:219|147:220|147:220|151:225|151:225|143:221|143:221|146:223|146:223|146:225|144:226|144:226|147:229|147:229|141:224|141:224|144:228|144:228|142:229|142:230|142:230|142:232|142:232|139:230|139:230|141:233|141:233|140:235|138:235|138:235|142:237|142:237|135:234|135:234|138:236|138:236|138:238|138:238|139:241|139:241|133:239|133:239|136:241|136:241|136:242|134:244|134:244|137:247|137:247|131:242|131:242|134:245|134:245|132:248|132:248|133:250|133:250|128:247|128:247|130:250|130:250|130:251|129:254|129:254|132:255|132:255|125:252|125:252|129:256|129:256|127:257|127:257|128:261|128:261|122:258|122:258|126:258|126:258|125:260|123:261|123:261|128:265|128:265|121:259|121:259|123:263|123:263|122:264|123:266|123:266|124:269|124:269|117:265|117:265|120:267|120:267|119:269|120:271|120:271|121:272|121:272|116:268|116:268|118:272|118:272|117:273|115:274|115:274|119:278|119:278|112:275|112:275|115:276|115:276|113:278|114:280|114:280|115:282|115:282|108:277|108:277|112:282|112:282|110:282|110:283|110:283|115:286|115:286|107:283|107:283|110:285|110:285|108:287|107:287|107:287|111:290|111:290|104:284|104:284|107:289|107:289|105:289|104:292|104:292|106:294|106:294|100:291|100:291|103:293|103:293|101:296|101:296|105:298|105:298|98:295|98:295|99:296|99:296|100:299|100:300|100:300|100:302|100:302|97:299|97:299|97:302|97:302|95:302|95:302|98:307|98:307|92:301|92:301|93:304|93:304|93:306|91:308|91:308|93:309|93:309|89:305|89:305|89:309|89:309|88:309|88:310|88:310|91:312|91:312|85:310|85:310|87:311|87:311|87:313|85:314|85:314|86:318|86:318|83:312|83:312|83:316|83:316|82:317|80:317|80:317|83:320|83:320|77:315|77:315|80:320|80:320|78:320|78:320|78:323|78:323|75:318|75:318|75:321|75:321|73:325|73:325|75:327|75:327|71:322|71:322|71:325|71:325|72:327|70:328|70:328|70:330|70:330|65:324|65:324|69:329|69:329|65:329|64:330|64:330|66:333|66:333|64:327|64:327|64:332|64:332|60:331|61:332|61:332|61:334|61:334|57:332|57:332|60:333|60:333|58:336|57:336|57:336|58:340|58:340|54:332|54:332|55:336|55:336|53:337|52:338|52:338|54:341|54:341|50:335|50:335|48:337|48:337|47:339|47:339|49:342|49:342|44:339|44:339|47:341|47:341|46:342|44:342|44:342|42:346|42:346|40:340|40:340|42:343|42:343|41:344|39:344|39:344|37:347|37:347|36:341|36:341|36:345|36:345|34:345|33:345|33:345|34:349|34:349|33:342|33:342|31:347|31:347|29:347|28:347|28:347|27:352|27:352|28:346|28:346|26:350|26:350|25:348|24:350|24:350|22:353|22:353|21:347|21:347|22:350|22:350|21:351|19:351|19:351|17:354|17:354|16:349|16:349|17:352|17:352|16:352|14:353|14:353|13:355|13:355|12:350|12:350|13:353|13:353|11:353|9:354|9:354|7:349|7:349|6:354|6:354|4:355|3:356|3:356|4:359|4:359|3:354|3:354|1:356|1:356|-10:356|0:357|0:357|1:356,1,1666.66666666667,2|0,0:0|0:0,0:0:0:0:
205,363,3801,37,4,1:3:0:0:
301,336,3954,1,4,1:3:0:0:
211,367,4108,1,4,1:3:0:0:
330,255,4262,69,4,1:3:0:0:
167,236,4416,1,4,1:3:0:0:
336,260,4570,1,4,1:3:0:0:
130,151,4724,53,4,1:3:0:0:
371,108,4877,1,4,1:3:0:0:
136,156,5031,1,4,1:3:0:0:
255,0,5185,6,0,P|250:71|258:229,1,200.000007629395,4|0,1:2|0:0,0:0:0:0:
317,262,5646,53,4,1:3:0:0:
335,174,5800,1,4,1:3:0:0:
322,268,5954,1,4,1:3:0:0:
399,120,6108,5,4,1:3:0:0:
417,299,6261,1,4,1:3:0:0:
392,117,6415,1,4,1:3:0:0:
491,340,6569,53,4,1:3:0:0:
503,71,6723,1,4,1:3:0:0:
496,344,6877,1,4,1:3:0:0:
512,192,7031,6,0,P|406:207|309:228,1,200.000007629395,4|0,1:2|0:0,0:0:0:0:
243,280,7492,53,4,1:3:0:0:
125,67,7646,1,4,1:3:0:0:
248,88,7800,1,4,1:3:0:0:
0,192,7954,6,0,P|106:177|203:156,1,200.000007629395,4|0,1:2|0:0,0:0:0:0:
248,88,8415,53,4,1:3:0:0:
366,300,8569,1,4,1:3:0:0:
243,280,8723,1,4,1:3:0:0:
491,176,8877,6,0,P|385:191|288:212,1,200.000007629395,4|0,1:2|0:0,0:0:0:0:
100,238,9338,53,4,1:3:0:0:
184,218,9492,1,4,1:3:0:0:
159,300,9646,1,4,1:3:0:0:
125,156,9800,5,4,1:3:0:0:
75,320,9954,1,4,1:3:0:0:
243,280,10108,1,4,1:3:0:0:
21,215,10261,53,4,1:3:0:0:
249,165,10415,1,4,1:3:0:0:
180,380,10569,1,4,1:3:0:0:
125,156,10723,6,0,P|230:136|335:128,1,200.000007629395,4|0,1:2|0:0,0:0:0:0:
473,231,11154,6,0,P|427:255|383:172,1,150.000005722046,2|0,1:3|2:0,0:0:0:0:
382,182,11461,1,0,1:0:0:0:
512,384,11615,5,8,0:2:0:0:
503,380,11923,2,0,L|495:328,1,50.0000019073487,2|0,1:3|2:0,0:0:0:0:
409,250,12077,22,0,L|300:278,1,100
306,282,12384,2,0,L|300:343,1,50.0000019073487,2|0,1:3|2:0,0:0:0:0:
145,368,12538,5,8,0:2:0:0:
137,363,12846,2,0,L|131:310,1,50.0000019073487,2|0,1:3|2:0,0:0:0:0:
117,230,13000,2,0,P|163:206|207:289,1,150.000005722046,2|0,1:3|2:0,0:0:0:0:
208,279,13308,1,0,1:0:0:0:
43,275,13461,6,0,B|15:246|15:246|33:127,1,150.000005722046,8|0,0:2|0:0,0:0:0:0:
39,144,13769,2,0,L|26:229,1,66.6666666666667,2|0,0:0|2:0,0:0:0:0:
405,367,14230,6,0,L|465:345,1,50.0000019073487,2|0,1:3|2:0,0:0:0:0:
512,221,14384,21,8,0:2:0:0:
503,227,14692,2,0,L|443:205,1,50.0000019073487,2|0,0:0|2:0,0:0:0:0:
396,141,14846,2,0,P|407:69|481:61,1,150.000005722046,2|0,1:3|2:0,0:0:0:0:
479,68,15153,1,0,1:0:0:0:
278,0,15307,5,8,0:2:0:0:
270,8,15615,2,0,L|261:67,1,50.0000019073487,2|0,1:3|2:0,0:0:0:0:
202,123,15769,6,0,L|85:147,1,100
114,137,16077,2,0,L|185:150,1,50.0000019073487,2|0,1:3|2:0,0:0:0:0:
337,177,16230,5,8,0:2:0:0:
344,184,16538,2,0,L|334:245,1,50.0000019073487,2|0,1:3|2:0,0:0:0:0:
280,294,16692,2,0,P|214:270|228:204,1,150.000005722046,2|0,1:3|2:0,0:0:0:0:
243,200,17000,1,0,1:0:0:0:
252,384,17153,21,8,0:2:0:0:
260,379,17461,2,0,L|254:309,1,50.0000019073487,2|0,1:3|2:0,0:0:0:0:
243,200,17615,5,8,1:3:0:0:
117,302,17769,1,8,1:3:0:0:
47,143,17923,1,8,1:3:0:0:
322,231,18077,6,0,B|341:250|341:250|358:221|358:221|333:200|333:200|288:196|228:265|257:332,1,266.666666666667,10|2,1:3|0:3,0:0:0:0:
334,358,18538,6,0,B|382:361|382:361|386:365|386:365|440:368,1,100,2|0,1:2|2:0,0:0:0:0:
443,362,18846,2,0,B|457:304,1,50.0000019073487,0|0,1:0|0:0,0:0:0:0:
322,231,19000,22,0,B|383:197|383:197|386:189|386:189|455:152,1,150.000005722046,10|0,1:2|2:0,0:0:0:0:
459,144,19307,2,0,L|456:77,1,58.3333338896433,0|0,1:0|0:0,0:0:0:0:
193,207,19461,6,0,B|265:126|265:126|264:116|264:116|324:37,1,182.499997389317,2|0,0:2|2:0,0:0:0:0:
300,54,19769,2,0,L|256:-9,1,66.6666666666667,0|0,1:0|0:0,0:0:0:0:
256,304,19923,5,8,0:2:0:0:
256,304,20384,6,0,B|237:324|237:324|138:341,1,100,2|0,1:2|2:0,0:0:0:0:
151,334,20692,2,0,L|136:278,1,50.0000019073487,0|0,1:0|0:0,0:0:0:0:
37,121,20846,22,0,B|49:155|49:155|170:207,1,150.000005722046,10|0,1:2|2:0,0:0:0:0:
165,197,21153,2,0,L|201:148,1,58.3333338896433,0|0,1:0|0:0,0:0:0:0:
373,198,21307,6,0,B|327:189|327:189|234:50,1,182.499997389317,2|0,1:2|2:0,0:0:0:0:
259,69,21615,2,0,L|343:47,1,66.6666666666667,0|0,1:0|0:0,0:0:0:0:
256,304,21769,5,8,0:2:0:0:
256,304,22230,6,0,B|326:242|403:311|342:328|437:381|506:337,1,266.666666666667,2|0,1:3|1:0,0:0:0:0:
459,148,22692,22,0,B|379:185|408:310|493:275|512:238|484:212,1,200,8|0,1:2|0:0,0:0:0:0:
490,228,23000,1,0,1:0:0:0:
505,73,23153,6,0,B|497:9|400:7|351:51|412:117|298:141,1,266.666666666667,2|0,1:3|1:0,0:0:0:0:
144,49,23615,6,0,B|145:-6|236:-34|300:56,1,200,8|0,1:2|0:0,0:0:0:0:
298,67,23923,1,0,1:0:0:0:
267,232,24077,6,0,B|192:275|136:199|166:196|113:123|30:168,1,266.666666666667,2|0,1:3|1:0,0:0:0:0:
240,148,24538,22,0,B|179:138|145:194|168:185|131:249|80:251,1,200,8|0,1:2|0:0,0:0:0:0:
69,244,24846,1,0,1:0:0:0:
452,141,25000,5,8,1:3:0:0:
267,232,25153,1,8,1:3:0:0:
148,63,25307,1,8,1:3:0:0:
340,97,25461,6,0,B|366:82|366:82|341:68|341:68|304:87|304:87|337:158|317:206|247:243,1,266.666666666667,10|2,1:3|0:3,0:0:0:0:
240,148,25923,6,0,P|310:152|436:254,1,200,6|0,3:0|0:0,0:0:0:0:
380,307,26230,2,0,P|340:258|370:230,1,66.6666666666667,0|0,1:0|0:0,0:0:0:0:
286,65,26384,1,8,0:2:0:0:
368,27,26538,21,2,0:0:0:0:
240,148,26692,1,4,0:3:0:0:
374,31,26846,6,0,B|426:178|426:178|436:204|408:224,1,200,2|0,0:0|0:0,0:0:0:0:
333,175,27153,1,6,0:3:0:0:
469,247,27307,2,0,P|448:311|433:218,1,250,10|0,0:0|0:0,0:0:0:0:
469,247,27615,2,0,P|481:273|477:315,1,66.6666666666667,2|0,0:3|0:0,0:0:0:0:
256,384,27769,37,2,1:1:0:0:
12,60,28077,38,0,L|81:45,1,66.6666666666667,4|0,0:3|0:0,0:0:0:0:
191,19,28230,5,10,0:0:0:0:
149,92,28384,1,2,0:0:0:0:
207,152,28538,2,0,P|228:121|234:85,1,66.6666666666667,4|0,0:3|0:0,0:0:0:0:
77,45,28692,38,0,B|48:59|51:88|51:88|66:205|66:205|71:237|111:242,1,225.000008583069,10|0,0:3|0:0,0:0:0:0:
162,254,29000,1,4,0:3:0:0:
162,254,29153,2,0,P|152:159|100:239,1,250,8|0,1:2|0:0,0:0:0:0:
31,279,29461,2,0,P|56:310|103:321,1,66.6666666666667,4|0,0:3|0:0,0:0:0:0:
256,384,29615,37,2,1:1:0:0:
502,54,29923,5,4,0:3:0:0:
340,123,30077,2,0,P|262:92|213:33,1,133.333333333333,10|2,0:0|0:0,0:0:0:0:
352,254,30384,1,2,0:3:0:0:
422,310,30538,6,0,B|447:302|442:267|442:267|422:112,1,200,2|0,0:0|0:0,0:0:0:0:
376,53,30846,2,0,P|305:62|341:123,2,166.666666666667,6|8|0,0:3|0:0|0:0,0:0:0:0:
462,259,31307,2,0,P|433:286|422:315,1,66.6666666666667,6|0,0:3|0:0,0:0:0:0:
274,376,31461,5,4,0:3:0:0:
155,216,31615,1,2,0:0:0:0:
245,255,31769,1,6,0:3:0:0:
81,273,31923,5,10,0:0:0:0:
224,168,32077,1,2,0:0:0:0:
341,296,32230,1,4,0:3:0:0:
484,140,32384,22,0,P|449:82|364:68,1,133.333333333333,8|8,1:3|1:3,0:0:0:0:
128,98,32692,1,8,1:3:0:0:
268,19,32846,6,0,B|300:14|300:14|316:31|316:31|269:42|269:42|206:102|247:192,1,266.666666666667,8|2,1:3|0:3,0:0:0:0:
256,384,33307,37,2,1:1:0:0:
0,15,33615,6,0,L|8:83,1,66.6666666666667,4|0,0:3|0:0,0:0:0:0:
47,247,33769,5,10,1:2:0:0:
125,203,33923,1,0,0:0:0:0:
103,122,34077,2,0,P|63:142|50:171,1,66.6666666666667,6|0,1:3|0:0,0:0:0:0:
51,251,34230,6,0,B|187:267|187:267|225:271|244:228,1,200,2|0,0:0|0:0,0:0:0:0:
337,122,34538,2,0,P|251:109|285:175,2,166.666666666667,0|8|0,1:0|0:0|0:0,0:0:0:0:
257,159,35000,2,0,P|243:187|238:240,1,83.3333333333333,2|0,0:3|0:0,0:0:0:0:
256,384,35153,21,2,1:1:0:0:
500,0,35461,6,0,L|490:82,1,66.6666666666667,4|0,0:3|0:0,0:0:0:0:
464,141,35615,5,10,0:0:0:0:
395,98,35769,1,0,0:0:0:0:
468,145,35923,2,0,P|475:183|467:220,1,66.6666666666667,6|0,0:3|0:0,0:0:0:0:
395,367,36077,6,0,B|364:354|366:322|366:322|374:180,1,200,2|0,0:0|0:0,0:0:0:0:
395,98,36384,2,0,P|460:72|464:149,2,166.666666666667,4|8|0,0:3|0:0|0:0,0:0:0:0:
227,268,36846,1,0,3:0:0:0:
231,273,37050,6,0,P|279:239|249:158,1,116.666667779287,2|0,0:3|0:0,0:0:0:0:
104,123,37356,1,2,0:0:0:0:
124,244,37511,38,0,L|-31:196,1,116.666667779287,2|2,0:3|0:0,0:0:0:0:
278,185,37818,1,2,0:0:0:0:
258,382,37972,54,0,P|229:317|239:248,1,116.666667779287,2|0,0:3|0:0,0:0:0:0:
402,86,38279,1,2,0:0:0:0:
478,123,38434,6,0,P|450:174|392:168,2,116.666667779287,2|2|2,0:3|0:0|0:0,0:0:0:0:
292,36,38896,54,0,P|232:51|211:113,1,116.666667779287,2|0,0:3|0:0,0:0:0:0:
175,340,39203,1,2,0:0:0:0:
206,251,39357,6,0,P|175:190|107:154,1,116.666667779287,2|0,0:3|0:0,0:0:0:0:
36,318,39665,6,0,L|108:303,1,58.3333338896433,2|0,0:1|0:0,0:0:0:0:
283,344,39819,6,0,B|259:325|259:325|159:342,1,116.666667779287,2|0,0:1|0:0,0:0:0:0:
404,282,40126,54,0,P|465:230|392:273,1,250.000009536744,2|0,0:1|0:0,0:0:0:0:
202,251,40692,54,0,L|38:232,1,133.333333333333,2|0,1:3|0:0,0:0:0:0:
211,33,41000,2,0,P|236:63|242:101,1,66.6666666666667,4|0,0:3|0:0,0:0:0:0:
264,179,41153,5,10,0:0:0:0:
80,156,41307,1,2,0:0:0:0:
143,336,41461,1,2,1:3:0:0:
386,199,41615,6,0,B|405:162|405:162|449:162,1,83.3333333333333
456,242,41923,2,0,B|439:240|439:240|356:86,2,180.000000686646,6|8|0,0:3|0:0|0:0,0:0:0:0:
256,384,42384,5,2,1:1:0:0:
18,276,42538,6,0,P|48:213|120:197,1,133.333333333333,4|2,0:3|0:0,0:0:0:0:
119,347,42846,2,0,L|102:273,1,66.6666666666667,4|0,0:3|0:0,0:0:0:0:
96,110,43000,5,8,0:0:0:0:
220,191,43153,1,2,0:0:0:0:
204,48,43307,1,6,0:3:0:0:
436,117,43461,6,0,B|416:122|409:143|409:143|391:126|369:130,1,83.3333333333333
381,51,43769,2,0,B|397:59|397:59|423:236,2,180.000000686646,4|8|0,0:3|0:0|0:0,0:0:0:0:
256,384,44230,21,2,1:1:0:0:
51,262,44384,6,0,P|65:190|130:126,1,150.000005722046,4|2,0:3|0:0,0:0:0:0:
136,267,44692,2,0,P|156:236|164:179,1,75.000002861023,4|0,0:3|0:0,0:0:0:0:
175,64,44846,5,10,0:0:0:0:
237,263,45000,1,2,0:0:0:0:
40,174,45153,1,4,0:3:0:0:
419,248,45307,6,0,B|421:207|421:207|374:200,1,83.3333333333333,2|0,0:0|0:0,0:0:0:0:
343,277,45615,2,0,B|363:285|363:285|516:231,1,180.000000686646,4|8,0:3|0:0,0:0:0:0:
174,224,46077,2,0,B|146:220|141:200|141:200|172:197|174:223,1,90.0000003433228
258,255,46230,6,0,B|264:211|264:211|292:181|292:181|292:144|292:144|308:116|308:116|287:86|287:86|281:57|281:57|259:45|259:45|230:61|230:61|210:90|210:90|221:127|221:127|248:154|248:154|245:175,2,400,2|2|6,0:3|0:3|1:3,0:0:0:0:
182,296,47307,1,6,1:3:0:0:
342,244,47461,1,6,1:3:0:0:
103,135,47615,21,6,1:3:0:0:
416,194,47769,1,6,1:3:0:0:
256,384,47923,53,2,1:1:0:0:
246,162,48077,6,0,P|269:71|310:5,1,133.333333333333,4|0,0:3|0:0,0:0:0:0:
199,232,48384,2,0,P|191:273|178:302,1,66.6666666666667,4|0,0:3|0:0,0:0:0:0:
62,379,48538,5,8,0:0:0:0:
101,214,48692,1,2,0:0:0:0:
283,278,48846,1,4,0:3:0:0:
404,126,49000,6,0,B|378:3|378:3|309:119,1,250,2|0,0:0|0:0,0:0:0:0:
322,129,49307,2,0,B|355:148|355:148|413:131,1,66.6666666666667,6|0,0:3|0:0,0:0:0:0:
498,137,49461,2,0,P|463:207|455:266,1,116.666667779287,8|0,0:0|0:0,0:0:0:0:
256,384,49769,21,2,1:1:0:0:
36,235,49923,5,4,0:3:0:0:
137,210,50077,1,2,0:0:0:0:
44,242,50230,1,4,0:3:0:0:
232,178,50384,5,10,0:0:0:0:
68,143,50538,1,2,0:0:0:0:
114,307,50692,1,6,0:3:0:0:
400,225,50846,6,0,B|410:206|410:206|358:114|358:114|339:216|339:216|357:233,1,250,2|0,0:0|0:0,0:0:0:0:
359,257,51153,2,0,B|386:276|386:276|412:245,1,66.6666666666667,4|0,0:3|0:0,0:0:0:0:
488,177,51307,2,0,P|466:93|428:48,1,116.666667779287,8|2,0:0|0:0,0:0:0:0:
253,30,51615,6,0,P|237:59|207:77,1,58.3333338896433
22,131,51769,22,0,L|42:12,1,116.666667779287,4|2,0:3|0:0,0:0:0:0:
142,212,52077,1,4,0:3:0:0:
118,102,52230,5,8,0:0:0:0:
79,330,52384,1,2,0:0:0:0:
249,177,52538,1,4,0:3:0:0:
400,241,52692,6,0,B|342:210|331:144|331:144|343:216|300:265,1,250,2|0,0:0|0:0,0:0:0:0:
322,278,53000,2,0,L|411:261,1,66.6666666666667,6|0,0:3|0:0,0:0:0:0:
512,219,53153,5,8,0:0:0:0:
421,80,53307,1,2,0:0:0:0:
505,136,53461,2,0,P|467:147|438:191,1,66.6666666666667,2|0,0:0|0:0,0:0:0:0:
194,215,53615,22,0,B|173:163|220:100|220:100|291:148|275:210,1,250,2|0,3:2|0:0,0:0:0:0:
271,220,53923,2,0,P|241:232|199:229,1,66.6666666666667,4|0,0:3|0:0,0:0:0:0:
103,363,54077,5,10,3:2:0:0:
11,273,54230,2,0,P|91:271|169:298,1,133.333333333333,0|4,0:0|0:3,0:0:0:0:
384,375,54538,5,10,1:3:0:0:
271,220,54692,1,10,1:3:0:0:
455,123,54846,1,10,1:3:0:0:
386,221,55000,6,0,B|368:233|368:233|373:267|373:267|406:247|406:247|405:141|310:123,1,266.666666666667,2|2,1:3|0:3,0:0:0:0:
230,132,55461,38,0,L|228:147,20,9.99999969482423,4|0|0|0|0|0|0|0|0|0|0|0|0|0|0|0|0|0|0|0|0,0:3|0:0|0:0|0:0|0:0|0:0|0:0|0:0|0:0|0:0|0:0|0:0|0:0|0:0|0:0|0:0|0:0|0:0|0:0|0:0|0:0,0:0:0:0:
173,74,57153,1,4,0:3:0:0:
400,22,57307,6,0,L|398:12,20,9.99999969482423,4|0|0|0|0|0|0|0|0|0|0|0|0|0|0|0|0|0|0|0|0,0:3|0:0|0:0|0:0|0:0|0:0|0:0|0:0|0:0|0:0|0:0|0:0|0:0|0:0|0:0|0:0|0:0|0:0|0:0|0:0|0:0,0:0:0:0:
230,132,59153,6,0,L|227:147,20,9.99999969482423,4|0|0|0|0|0|0|0|0|0|0|0|0|0|0|0|0|0|0|0|0,0:3|0:0|0:0|0:0|0:0|0:0|0:0|0:0|0:0|0:0|0:0|0:0|0:0|0:0|0:0|0:0|0:0|0:0|0:0|0:0|0:0,0:0:0:0:
173,74,60846,1,4,0:3:0:0:
400,22,61000,54,0,L|398:12,20,9.99999969482423,4|0|0|0|0|0|0|0|0|0|0|0|0|0|0|0|0|0|0|0|0,0:3|0:0|0:0|0:0|0:0|0:0|0:0|0:0|0:0|0:0|0:0|0:0|0:0|0:0|0:0|0:0|0:0|0:0|0:0|0:0|0:0,0:0:0:0:
479,342,62877,37,12,1:3:0:0:
397,243,63031,1,12,1:3:0:0:
397,374,63184,1,14,1:3:0:0:
318,199,63338,5,14,1:3:0:0:
220,336,63492,1,12,1:3:0:0:
226,167,63646,1,12,1:3:0:0:
51,238,63800,53,12,1:3:0:0:
218,80,63954,1,12,1:3:0:0:
0,118,64108,1,12,1:3:0:0:
278,16,64261,6,0,P|259:106|245:294,1,266.666666666667,6|0,1:2|0:0,0:0:0:0:
46,325,64723,53,12,1:3:0:0:
115,243,64877,1,12,1:3:0:0:
110,384,65030,1,14,1:3:0:0:
194,199,65184,5,14,1:3:0:0:
292,336,65338,1,12,1:3:0:0:
258,138,65492,1,12,1:3:0:0:
426,239,65646,53,12,1:3:0:0:
319,75,65800,1,12,1:3:0:0:
512,246,65954,1,12,1:3:0:0:
254,7,66108,6,0,P|264:108|266:290,1,266.666666666667,6|0,1:2|0:0,0:0:0:0:
177,311,66569,53,12,1:3:0:0:
148,80,66723,1,12,1:3:0:0:
265,352,66877,1,12,1:3:0:0:
15,111,67031,6,0,P|120:117|311:155,1,266.666666666667,6|0,1:2|0:0,0:0:0:0:
475,46,67492,53,12,1:3:0:0:
346,303,67646,1,12,1:3:0:0:
390,76,67800,1,12,1:3:0:0:
504,275,67954,6,0,P|399:269|208:231,1,266.666666666667,6|0,1:2|0:0,0:0:0:0:
111,224,68415,53,14,1:3:0:0:
306,138,68569,1,14,1:3:0:0:
282,349,68723,1,14,1:3:0:0:
263,67,68877,5,14,1:3:0:0:
71,296,69031,1,14,1:3:0:0:
364,347,69184,1,14,1:3:0:0:
108,370,69338,53,14,1:3:0:0:
180,63,69492,1,14,1:3:0:0:
409,277,69646,1,14,1:3:0:0:
287,0,69800,6,0,P|261:126|251:347,1,333.333333333333,6|0,1:2|0:0,0:0:0:0:
254,337,70230,6,0,B|266:354|266:354|299:359|299:359|296:352|296:352|337:350|337:350|356:371|356:371|433:364,1,200.000007629395,2|0,1:0|0:0,0:0:0:0:
504,39,71923,5,2,0:3:0:0:
388,102,72077,2,0,P|317:70|321:0,2,133.333333333333,0|2|2,3:0|0:0|0:0,0:0:0:0:
504,39,72538,37,8,3:2:0:0:
370,186,72692,1,2,0:0:0:0:
512,320,72846,1,2,0:3:0:0:
287,275,73000,5,2,3:2:0:0:
372,312,73153,1,2,3:2:0:0:
296,366,73307,1,2,3:2:0:0:
372,56,73461,5,8,3:2:0:0:
372,56,73769,22,0,B|385:55|385:55|390:65|390:65|341:57|341:57|288:73|288:73|296:79|296:79|237:72|237:72|221:85|221:85,2,200.000007629395,2|0|0,3:1|0:0|0:0,0:0:0:0:
54,263,75615,5,2,0:3:0:0:
173,125,75769,2,0,P|162:52|122:-18,2,133.333333333333,0|2|0,3:0|0:0|0:0,0:0:0:0:
197,347,76230,5,8,3:2:0:0:
275,253,76384,1,2,0:0:0:0:
380,317,76538,1,2,0:3:0:0:
334,145,76692,5,10,1:3:0:0:
285,384,76846,1,10,1:3:0:0:
340,153,77000,1,10,1:3:0:0:
152,244,77153,38,0,B|132:246|132:246|117:203|146:145|215:147,1,166.666666666667,10|0,3:3|3:0,3:0:0:0:
380,316,77461,6,0,B|371:322|371:322|313:317|313:317|312:313|312:313|234:338|234:338|189:319|189:319|113:330|113:330|101:344|101:344|176:329|176:329|218:298|218:298|283:298|283:298|300:286|300:286|353:301|353:301|386:275,1,600.000022888185,2|4,0:1|0:3,0:0:0:0:
490,139,78077,1,8,0:0:0:0:
198,101,78230,6,0,P|236:151|325:160,1,150.000005722046,0|2,0:0|0:3,0:0:0:0:
461,61,78538,1,0,3:0:0:0:
286,65,78692,1,0,3:0:0:0:
234,257,78846,1,2,3:0:0:0:
20,35,79000,21,8,3:2:0:0:
20,35,79307,6,0,B|29:24|29:24|38:35|38:35|9:117|9:117|20:129|20:129|39:172|39:172|14:196|14:196|21:260|21:260|16:267|16:267|27:371|27:371|20:338|20:338|46:190|46:190|69:170,1,600.000022888185,2|0,0:1|0:0,0:0:0:0:
259,17,79923,1,10,3:2:0:0:
174,140,80077,6,0,P|248:109|343:97,1,166.666666666667,0|2,0:0|0:3,0:0:0:0:
486,263,80384,1,0,3:0:0:0:
329,200,80538,1,0,3:0:0:0:
363,3,80692,1,2,3:3:0:0:
432,336,80846,5,8,3:2:0:0:
432,336,81153,22,0,B|423:327|423:327|417:322|417:322|448:246|448:246|446:242|446:242|457:172|457:172|451:167|451:167|444:74|444:74|443:84|443:84|407:171|407:171|414:179|414:179|426:231|426:231|422:235|422:235|444:284,1,466.666671117147,2|0,0:1|0:0,0:0:0:0:
326,370,81615,5,4,0:3:0:0:
7,247,81769,5,8,3:2:0:0:
131,293,81923,1,0,3:0:0:0:
97,373,82077,1,2,3:0:0:0:
323,68,82230,5,0,3:0:0:0:
111,137,82384,1,0,3:0:0:0:
171,217,82538,1,2,3:0:0:0:
100,0,82691,22,0,B|89:24|70:43|70:43|77:134|183:154|224:91,1,225.000008583069,8|0,0:0|0:0,0:0:0:0:
202,111,83000,1,2,0:3:0:0:
19,194,83186,6,0,L|8:237,1,33.3333333333333,2|0,0:3|0:0,0:0:0:0:
481,291,83647,6,0,P|499:312|464:368,1,100,2|0,0:3|0:0,0:0:0:0:
460,376,83955,2,0,L|418:364,1,33.3333333333333,2|0,0:3|0:0,0:0:0:0:
254,97,84416,6,0,L|263:49,1,33.3333333333333,2|0,0:3|0:0,0:0:0:0:
272,59,84570,22,0,B|334:86|312:189|239:189|199:158|155:236|151:278|200:309,1,333.333333333333,2|2,3:0|0:3,0:0:0:0:
329,284,85040,6,0,B|329:283|329:283|325:283|325:283|333:281|333:281|328:281|328:281|328:280|328:280|324:280|324:280|332:278|332:278|328:278|328:278|328:277|328:277|323:277|323:277|331:275|331:275|327:275|327:275|327:274|327:274|323:274|323:274|330:272|330:272|326:272|326:272|326:271|326:271|322:271|322:271|330:269|330:269|326:269|326:269|326:268|325:268|325:268|321:268|321:268|329:266|329:266|325:266|325:266|325:265|325:265|320:265|320:265|328:263|328:263|324:263|324:263|324:262|324:262|320:262|320:262|327:260|327:260|323:260|323:260|323:259|323:259|319:259|319:259|326:257|326:257|322:257|322:257|322:256|322:256|318:256|318:256|325:254|325:254|321:254|321:254|321:253|321:253|317:254|317:254|324:251|324:251|320:251|320:251|320:250|320:250|316:251|316:251|323:248|323:248|319:248|319:248|319:247|319:247|315:248|315:248|322:245|322:245|318:246|318:246|318:245|317:245|317:245|313:245|313:245|321:242|321:242|317:243|317:243|316:242|316:242|312:243|312:243|319:239|319:239|315:240|315:240|315:239|315:239|311:240|311:240|318:236|318:236|314:237|314:237|313:236|313:236|309:237|309:237|317:234|317:234|313:235|313:235|312:234|312:234|308:235|308:235|315:231|315:231|311:232|311:232|311:231|310:231|310:231|307:232|307:232|313:228|313:228|309:229|309:229|309:228|309:228|305:230|305:230|312:225|312:225|308:227|308:227|307:226|307:226|303:227|303:227|310:223|310:223|306:224|306:224|305:223|305:223|302:225|302:225|308:220|308:220|304:222|304:222|304:221|304:221|300:222|300:222|306:217|306:217|302:219|302:219|302:218|302:218|298:220|298:220|304:215|304:215|301:217|301:217|300:216|300:216|296:218|296:218|302:213|302:213|299:214|299:214|298:214|298:214|294:215|294:215|300:210|300:210|297:212|297:212|296:212|296:211|296:211|292:213|292:213|298:208|298:208|294:210|294:210|294:209|294:209|290:211|290:211|296:206|296:206|292:208|292:208|292:207|292:207|288:209|288:209|294:203|294:203|290:206|290:206|290:205|289:205|289:205|286:207|286:207|291:201|291:201|288:204|288:204|287:203|287:203|284:206|284:206|289:199|289:199|285:202|285:202|285:201|285:201|281:204|281:204|286:198|286:198|283:200|283:200|282:199|282:199|279:202|279:202|284:196|284:196|280:198|280:198|277:201|277:201|281:194|281:194|278:197|278:197|278:196|277:196|277:196|274:199|274:199|278:192|278:192|275:195|275:195|274:195|274:195|272:198|272:198|275:191|275:191|273:194|273:194|272:193|272:193|269:196|269:196|273:189|273:189|270:192|270:192|269:192|269:192|266:195|266:195|270:188|270:188|267:191|267:191|266:191|266:191|264:194|264:194|267:187|267:187|264:190|264:190|264:189|263:189|263:189|261:193|261:193|264:185|264:185|262:189|262:189|261:188|261:188|258:191|258:191|261:184|261:184|259:187|259:187|258:187|258:187|255:190|255:190|258:183|258:183|256:186|256:186|255:186|255:186|253:189|253:189|255:182|255:182|253:185|253:185|252:185|252:185|250:188|250:188|252:181|252:181|250:184|250:184|249:184|249:184|247:188|247:188|249:180|249:180|247:183|247:183|246:183|246:183|244:187|244:187|247:179|247:179|244:182|244:182|243:182|243:182|241:186|241:186|244:178|244:178|241:181|241:181|240:181|240:181|238:185|238:185|241:177|241:177|239:180|239:180|238:180|238:180|235:184|235:184|238:176|238:176|236:179|236:179|235:179|235:179|232:182|232:182|235:175|235:175|233:178|233:178|232:178|232:178|229:181|229:181|232:174|232:174|230:177|230:177|229:177|229:177|227:180|227:180|230:173|230:173|227:176|227:176|226:176|226:176|224:179|224:179|227:172|227:172|224:175|224:175|223:174|223:174|221:177|221:177|224:171|224:171|222:174|222:174|221:173|221:173|218:176|218:176|222:169|222:169|219:172|219:172|218:172|218:172|215:175|215:175|219:168|219:168|216:171|216:171|215:171|215:170|215:170|212:173|212:173|216:166|216:166|213:169|213:169|212:169|212:169|210:172|210:172|214:165|214:165|211:168|211:168|210:168|210:167|210:167|207:170|207:170|211:163|211:163|208:166|208:166|207:166|207:166|204:168|204:168|209:162|209:162|206:165|206:165|205:164|205:164|202:167|202:167|206:160|206:160|203:163|203:163|202:162|202:162|199:165|199:165|204:158|204:158|201:161|201:161|200:161|200:160|200:160|196:163|196:163|201:157|201:157|198:159|198:159|197:159|197:159|194:161|194:161|199:155|199:155|196:157|196:157|195:157|195:157|192:159|192:159|197:153|197:153|193:155|193:155|193:154|193:154|189:157|189:157|195:151|195:151|191:153|191:153|190:152|190:152|187:155|187:155|192:149|192:149|189:151|189:151|188:150|188:150|185:152|185:152|190:147|190:147|187:149|187:149|186:148|186:148|182:150|182:150|188:145|188:145|185:147|185:147|184:146|184:146|180:148|180:148|186:142|186:142|183:144|183:144|182:144|182:144|178:145|178:145|185:140|185:140|181:142|181:142|180:141|180:141|176:143|176:143|182:138|182:138|179:140|179:140|178:139|178:139|174:140|174:140|181:136|181:136|177:137|177:137|176:136|176:136|172:138|172:138|179:133|179:133|175:135|175:135|175:134|175:134|171:135|171:135|177:131|177:131|173:132|173:132|173:131|173:131|169:132|169:132|175:128|175:128|172:130|172:130|171:129|171:129|167:130|167:130|174:126|174:126|170:127|170:127|170:126|170:126|166:127|166:127|172:123|172:123|169:124|169:124|168:124|168:123|168:123|164:124|164:124|171:121|171:121|167:122|167:122|167:121|167:121|163:121|163:121|170:118|170:118|166:119|166:119|165:118|165:118|161:119|161:119|168:115|168:115|164:116|164:116|164:115|164:115|160:116|160:116|167:112|167:112|163:113|163:113|163:112|163:112|159:113|159:113|166:110|166:110|162:110|162:110|162:109|162:109|157:110|157:110|165:107|165:107|161:107|161:107|160:107|160:107|156:107|156:107|164:104|164:104|160:105|160:105|159:104|159:104|155:104|155:104|163:101|163:101|159:102|159:102|158:101|158:101|154:101|154:101|162:98|162:98|158:99|158:99|158:98|158:98|153:98|153:98|161:95|161:95|157:96|157:96|157:95|157:95|153:95|153:95|160:93|160:93|156:93|156:93|156:92|156:92|152:91|152:91|160:90|160:90|156:90|156:90|155:89|155:89|151:88|151:88|159:87|159:87|155:87|155:87|155:86|155:86|151:85|151:85|158:84|158:84|154:84|154:84|154:83|154:83|150:82|150:82|158:81|158:81|154:81|154:81|154:80|154:79|154:79|150:79|150:79|158:78|158:78|153:77|153:77|153:76|153:76|149:76|149:76|157:75|157:75|153:74|153:74|153:73|153:73|149:73|149:73|157:72|157:72|153:71|153:71|153:70|153:70|149:69|149:69|157:69|157:69|153:68|153:68|153:67|153:66,2,1684.85378826819
339,59,86435,6,0,B|339:56|339:54|339:54|334:52|334:52|343:50|343:50|339:48|339:48|336:42|336:44|336:44|332:42|332:42|339:40|339:40|334:38|334:38|332:34|332:36|332:36|328:34|328:34|334:30|334:30|330:30|330:30|328:28|326:26|326:26|322:28|322:28|328:21|328:21|322:21|322:21|320:21|320:19|320:19|314:21|314:21|320:15|320:15|314:15|314:15|312:15|310:15|310:15|306:17|306:17|310:9|310:9|306:11|306:11|299:11|301:11|301:11|297:15|297:15|299:7|299:7|295:9|295:9|293:9|291:9|291:9|287:13|287:13|287:5|287:5|285:9|285:9|279:11|281:11|281:11|279:15|279:15|277:7|277:7|275:13|275:13|273:13|271:13|271:13|271:19|271:19|266:11|266:11|264:17|264:17|262:19|262:19|262:23|262:23|256:17|256:17|256:23|256:23|252:28|254:26|254:26|256:30|256:30|250:26|250:26|250:30|250:30|248:36|248:34|248:34|250:38|250:38|244:34|244:34|246:40|246:40|244:42|244:42|248:46|248:46|240:44|240:44|242:48|242:48|242:50|242:52|242:52|246:56|246:56|238:56|238:56|242:59|242:59|242:61|242:63|242:63|246:65|246:65|238:67|238:67|242:69|242:69|244:71|244:73|244:73|248:75|248:75|242:77|242:77|246:79|246:79|248:81|248:83|248:83|254:83|254:83|246:87|246:87|252:87|252:87|256:91|254:91|254:91|258:89|258:89|254:96|254:96|258:96|258:96|260:96|262:98|262:98|266:96|266:96|262:102|262:102|266:102|266:102|273:104|271:102|271:102|275:100|275:100|273:108|273:108|277:104|277:104|279:106|281:106|281:106|283:102|283:102|283:110|283:110|287:106|287:106|289:106|291:106|291:106|293:102|293:102|293:110|293:110|297:106|297:106|299:106|301:106|301:106|301:102|301:102|306:108|306:108|306:104|306:104|308:104|310:102|310:102|312:98|312:98|316:104|316:104|316:100|316:100|318:98|320:98|320:98|318:91|318:91|324:98|324:98|324:94|324:94|328:87|330:85,1,583.609449368634
290,57,86900,54,0,B|290:56|291:57|291:57|291:54|291:54|292:58|292:58|294:56|294:56|296:53|296:53|296:58|296:58|298:56|298:56|298:55|298:55|300:53|300:53|301:57|301:57|302:55|302:55|303:55|303:55|304:53|304:53|305:56|305:56|306:54|306:54|307:53|307:54|307:54|308:51|308:51|309:55|309:55|310:52|310:52|311:52|311:52|312:50|312:50|313:53|313:53|314:51|314:51|315:51|315:51|315:48|315:48|317:52|317:52|317:49|317:49|319:49|320:49|320:49|319:47|319:47|322:50|322:50|321:48|321:48|323:47|323:47|323:45|323:45|325:48|325:48|326:46|326:46|327:45|327:45|326:43|326:43|329:46|329:46|329:43|329:43|330:43|330:43|330:41|330:41|332:44|332:44|332:41|332:41|333:41|333:41|334:38|334:38|336:41|336:41|336:39|336:39|337:38|337:38|337:35|337:35|339:39|339:39|340:36|340:36|339:35|340:35|340:35|340:32|340:32|342:36|342:36|343:33|343:33|343:32|343:32|343:30|343:30|345:33|345:33|345:30|345:30|346:29|346:29|346:27|346:27|349:30|349:30|348:27|348:27|348:27|349:26|349:26|348:24|348:24|352:27|352:27|351:23|351:23|351:23|351:23|351:21|351:21|354:23|354:23|353:20|353:20|354:20|354:20|354:18|354:18|356:19|356:19|356:17|356:17|357:17|357:17|355:14|355:14|359:16|359:16|358:15|358:15|358:13|359:13|359:13|358:11|358:11|361:12|361:12|360:11|360:11|361:10|361:10|360:7|360:7|364:9|364:9|362:7|362:7|363:6|363:6|362:3|362:3|366:5|366:5|364:3|364:3|365:1|366:0|366:0|368:1|368:1|365:2|365:2|367:3|367:3|366:4|367:5|367:5|370:5|370:5|365:6|365:6|368:8|368:8|368:9|368:9|370:10|370:10|366:10|366:10|369:12|369:12|368:12|369:13|369:13|372:14|372:14|367:14|367:14|369:15|369:15|370:16|370:16|372:18|372:18|369:18|369:18|371:19|371:19|371:20|371:20|373:21|373:21|369:22|369:22|372:23|372:23|373:24|373:24|375:25|375:25|371:26|371:26|374:27|374:27|374:28|375:28|375:28|376:29|376:29|374:30|374:30|375:31|375:31|376:32|376:32|376:32|379:33|379:33|375:34|375:34|377:35|377:35|378:36|378:36|381:37|381:37|377:38|377:38|380:39|380:39|380:39|380:39|383:40|383:40|379:41|379:41|382:42|382:42|382:43|382:43|384:44|384:44|382:46|382:46|383:46|383:46|384:47|384:47|387:47|387:47|383:49|383:49|386:49|386:49|386:50|387:51|387:51|389:50|389:50|386:52|386:52|388:52|388:52|389:53|390:53|390:53|392:53|392:53|389:55|389:55|392:56|392:56|392:57|392:57|394:56|394:56|391:59|391:59|394:59|394:59|394:60|394:60|397:59|397:59|395:62|395:62|397:62|397:62|398:63|398:63|400:62|400:62|398:65|398:65|400:65|400:65|401:65|401:65|403:65|403:65|400:68|400:68|403:67|403:67|404:68|404:68|406:68|406:68|403:71|403:71|406:70|406:70|407:71|407:71|409:70|409:70|407:73|407:73|409:73|409:73|410:73|410:73|413:73|413:73|410:76|410:76|413:75|413:75|414:76|414:76|416:75|416:75|414:78|414:78|416:77|416:77|417:78|418:78|418:78|420:77|420:77|417:80|417:80|420:80|420:80|421:80,1,484.724831926855,2|0,2:0|0:0,0:0:0:0:
409,167,87365,2,0,B|408:167|407:166|407:166|407:169|407:169|406:165|406:165|404:167|404:167|404:166|404:166|402:170|402:170|402:165|402:165|400:167|400:167|400:168|400:168|399:170|399:170|397:166|397:166|396:168|396:168|395:168|395:168|394:170|394:170|393:167|393:167|392:169|392:169|391:169|391:169|390:172|390:172|389:168|389:168|388:170|388:170|387:171|387:171|386:173|386:173|385:170|385:170|384:172|384:172|383:172|383:172|382:174|382:174|381:171|381:171|380:173|380:173|379:174|379:174|379:176|379:176|377:172|377:172|376:174|376:174|375:175|375:175|375:178|375:178|373:175|373:175|373:177|373:177|372:177|372:177|371:179|371:179|369:177|369:177|369:178|369:178|367:179|367:179|368:182|368:182|365:178|365:178|365:181|365:181|364:182|364:182|365:184|365:184|362:181|362:181|362:183|362:183|361:184|361:184|361:186|361:186|358:183|358:183|359:186|359:186|358:187|358:187|358:190|358:190|355:187|355:187|356:189|356:189|355:189|355:189|354:192|354:192|352:189|352:189|353:192|353:192|352:192|352:192|353:195|353:195|349:192|349:192|350:194|350:194|349:195|350:196|350:196|350:198|350:198|347:195|347:195|347:197|347:197|346:198|347:199|347:199|347:201|347:201|344:198|344:198|344:200|344:200|344:202|344:202|344:204|344:204|341:202|341:202|341:205|341:205|341:206|341:206|342:207|342:207|338:206|338:206|340:207|340:207|339:208|339:208|340:211|340:211|336:208|336:208|337:211|337:211|337:212|337:212|337:214|337:214|334:212|334:212|335:215|335:215|334:216|334:216|335:218|335:218|332:215|332:215|333:218|333:218|332:219|332:219|333:221|333:221|330:219|330:219|330:222|330:222|330:222|330:222|328:220|328:220|332:220|332:220|330:219|330:219|330:218|330:218|327:216|327:216|331:216|331:216|329:215|329:215|328:214|328:214|326:213|326:213|330:212|330:212|328:211|328:211|328:210|328:210|325:209|325:209|329:208|329:208|327:207|327:207|326:206|326:206|324:205|324:205|328:203|328:203|325:203|325:203|325:202|325:202|323:201|323:201|327:199|327:199|324:199|324:199|323:198|323:198|321:197|321:197|325:196|325:196|322:195|322:195|322:194|322:194|320:193|320:193|324:192|324:192|321:191|321:191|320:190|320:190|317:190|317:190|321:188|321:188|319:187|319:187|319:187|318:186|318:186|316:186|316:186|319:184|319:184|317:184|317:184|317:183|316:182|316:182|314:183|314:183|317:181|317:181|314:180|314:180|314:179|314:179|312:179|312:179|315:177|315:177|313:176|313:176|312:175|312:175|309:175|309:175|313:173|313:173|310:173|310:173|310:172|310:172|307:172|307:172|310:170|310:170|307:170|307:170|307:169|307:169|304:169|304:169|307:167|307:167|305:167|305:167|304:166|304:166|302:166|302:166|305:163|305:163|303:164|303:164|301:163|301:163|299:163|299:163|302:161|302:161|300:161|300:161|298:159|298:159|296:160|296:160|299:158|299:158|297:158|297:158|295:157|295:157|293:157|293:157|295:154|295:154|293:156|293:156|292:154|292:154|290:154|290:154|292:152|292:152|290:152|290:152|289:151|289:151|286:152|286:152|289:149|289:149|287:149|287:149|285:149|285:149|284:150|284:150|286:146|286:146|283:147|283:147|282:146|282:146|280:148|280:148|282:144|282:144|280:144|280:144|278:143|276:143,1,477.673691423562
203,88,87830,6,0,B|204:88|204:88|206:86|206:86|206:90|206:90|207:88|207:88|208:88|208:88|211:87|211:87|210:91|210:91|211:89|211:89|213:90|213:90|215:87|215:87|214:92|214:92|216:91|216:91|217:91|217:91|219:88|219:88|218:92|218:92|221:91|221:91|222:91|222:91|224:90|224:90|222:93|222:93|225:91|225:91|226:92|226:92|228:91|228:91|227:95|227:95|229:92|229:92|230:92|230:92|232:91|232:91|231:95|231:95|234:94|234:94|235:94|235:94|236:92|236:92|236:96|236:96|238:94|238:94|239:95|239:95|242:93|242:93|240:96|240:96|242:95|242:95|243:95|243:95|246:94|246:94|245:98|245:98|246:96|246:96|248:96|248:96|250:94|250:94|249:99|249:99|250:97|250:97|253:96|253:96|254:95|254:95|254:99|254:99|256:98|256:98|257:98|257:98|258:96|258:96|258:100|258:100|260:98|260:98|262:99|262:99|263:97|263:97|262:101|262:101|264:99|264:99|266:99|266:99|267:98|267:98|267:102|267:102|269:100|269:100|270:100|270:100|272:98|272:98|272:103|272:103|273:101|273:101|275:102|275:102|277:99|277:99|276:103|276:103|277:102|277:102|279:102|279:102|281:101|281:101|280:104|280:104|282:103|282:103|283:103|283:103|285:101|285:101|285:106|285:106|287:103|287:103|288:103|288:103|290:102|290:102|289:106|289:106|291:104|291:104|292:104|292:104|294:103|294:103|293:107|293:107|296:105|296:105|297:106|297:106|298:104|298:104|297:108|297:108|300:106|300:106|301:106|301:106|303:105|303:105|302:108|302:108|304:107|304:107|305:107|305:107|308:105|308:105|307:110|307:110|308:108|308:108|309:108|309:108|312:106|312:106|311:110|311:110|313:109|313:109|314:109|314:109|316:107|316:107|315:111|315:111|317:110|317:110|319:110|319:110|320:108|320:108|320:112|320:112|322:110|322:110|323:110|323:110|325:109|325:109|324:112|324:112|326:111|326:111|328:111|328:111|329:110|329:110|329:114|329:114|330:111|330:111|332:112|332:112|333:111|333:111|333:114|333:114|335:113|335:113|337:113|337:113|338:111|338:111|338:115|338:115|339:114|339:114|341:114|341:114|343:112|343:112|342:116|342:116|343:115|343:115|345:115|345:115|347:113|347:113|347:117|347:117|348:115|348:115|349:115|349:115|352:114|352:114|351:118|351:118|353:115|353:115|355:116|355:116|356:115|356:115|355:119|355:119|357:117|357:117|359:117|359:117|360:115|360:115|359:119|359:119|362:118|362:118|363:118|363:118|365:117|365:117|363:120|363:120|366:118|366:118|367:119|367:119|369:118|369:118|369:121|369:121|370:119|370:119|371:119|371:119|374:118|374:118|373:122|373:122|375:121|375:121|376:121|376:121|378:118|378:118|377:123|377:123|379:121|379:121|380:122|380:122|383:120|383:120|381:123|381:123|384:122|384:122|385:122|385:122|387:121|387:121|386:125|386:125|388:122|388:122|389:123|389:123|391:121|391:121|390:126|390:126|392:123|392:123|394:124|394:124|395:122|395:122|395:126|395:126|397:125|397:125|398:125|398:125|399:123|399:123|400:127|400:127|401:125|401:125|403:126|403:126|405:124|405:124|404:127|404:127|405:126|405:126|407:126|407:126|409:125|409:125|408:129|408:129|410:127|410:127|411:127|411:127|413:125|413:125|413:130|413:130|414:128|414:128|416:129|416:129|418:126|418:126|417:130|417:130|419:129|419:129|421:129|421:129|422:128|422:128|421:131|421:131|423:129|423:129|425:130|425:130|426:128|426:128|426:133|426:133|428:130|428:130|429:130|429:130|431:129|431:129|431:133|431:133|432:131|432:131|434:132|434:132|435:130|435:130|435:134|435:134|437:132|437:132|438:133|438:133|440:130|440:130|439:134|439:134|441:133|441:133|442:133|442:133|445:132|445:132|443:135|443:135|445:134|445:134|446:134|446:134|449:132|449:132|448:137|448:137|450:134|450:134|451:134|451:134|453:133|453:133|452:137|452:137|455:136|455:136|456:136|456:136|457:134|457:134|456:138|456:138|459:136|459:136|460:137|460:137|462:135|462:135|461:139|461:139|463:137|463:137|464:137|464:137|466:136|466:136|466:140|466:140|467:138|467:138|469:138|469:138|471:136|471:136|470:140|470:140|471:139|471:139|473:140|473:140|475:137|475:137|474:141|474:141|476:140|476:140|478:140|478:140|479:138|479:138|479:142|479:142|480:141|480:141|482:141|482:141|484:139|484:139|483:143|483:143|485:141|485:141|487:141|487:141|488:140|488:140|488:144|488:144|489:142|489:142|491:142|491:142|493:141|493:141|492:145|492:145|494:143|494:143|497:144,2,703.579745998353,2|2|2,0:0|2:0|0:0,0:0:0:0:
38,273,89226,54,0,B|37:274|37:274|37:276|37:276|35:273|35:273|35:276|35:276|34:276|34:276|34:279|34:279|31:276|31:276|32:278|32:278|31:279|31:279|31:282|31:282|28:279|28:279|29:281|29:281|28:282|28:282|28:285|28:285|25:282|25:282|26:284|26:284|25:285|25:285|26:288|26:288|23:285|23:285|23:288|23:288|22:289|22:289|23:291|23:291|20:289|20:289|21:291|21:291|20:292|20:292|21:294|21:294|18:292|18:292|19:294|19:294|18:295|18:296|18:296|19:298|19:298|16:296|16:296|17:298|17:298|16:299|16:299|17:301|17:301|14:300|14:300|15:302|15:302|15:303|15:303|16:305|16:305|12:304|12:304|14:306|14:306|13:306|13:307|13:307|15:309|15:309|11:308|11:308|12:310|12:310|12:311|12:311|14:313|14:313|10:312|10:312|12:314|12:314|12:315|12:315|13:317|13:317|10:316|10:316|11:318|11:318|11:319|11:319|13:321|13:321|9:321|9:321|11:322|11:322|11:323|11:323|13:325|13:325|9:325|9:325|11:326|11:326|11:328|11:328|13:329|13:329|10:329|10:329|12:331|12:331|12:332|12:332|14:333|14:333|10:333|10:333|12:335|12:335|12:336|12:336|15:337|15:337|11:338|11:338|13:339|13:339|13:340|13:340|16:341|16:341|12:342|12:342|14:343|14:343|14:344|15:344|15:344|17:345|17:345|13:346|13:346|15:347|15:347|16:348|16:348|18:348|18:348|14:350|14:350|17:351|17:351|17:352|17:352|20:352|20:352|16:354|16:354|19:355|19:355|19:356|19:356|21:356|21:356|18:358|18:358|20:358|20:358|21:361|22:362|22:362|22:360|22:360|24:363|24:363|24:360|24:360|25:360|25:360|25:357|25:357|28:360|28:360|28:358|28:358|29:357|29:357|29:354|29:354|31:357|31:357|31:355|31:355|32:354|32:354|32:352|32:352|34:355|34:355|34:352|34:352|35:352|35:351|35:351|35:349|35:349|37:352|37:352|37:349|37:349|38:349|38:349|38:346|38:346|41:349|41:349|40:346|40:346|41:346|41:346|40:343|40:343|43:346|43:346|43:343|43:343|44:343|44:343|43:340|43:340|46:343|46:343|46:340|46:340|46:339|46:339|46:337|46:337|49:339|49:339|48:337|48:337|49:336|49:336|48:333|48:333|51:336|51:336|50:333|50:333|51:333|51:332|51:332|50:330|50:330|53:332|53:332|53:330|53:330|53:329|53:329|52:327|52:327|56:328|56:328|55:326|55:326|55:325|55:325|54:323|54:323|57:324|57:324|56:322|56:322|57:321|57:321|55:319|55:319|59:320|59:320|58:318|58:318|58:317|58:317|56:315|56:315|60:316|60:316|59:315|59:315|59:314|59:313|59:313|57:312|57:312|61:312|61:312|60:311|60:311|60:310|60:309|60:309|58:308|58:308|62:308|62:308|60:307|60:307|60:305|60:305|58:304|58:304|62:304|62:304|60:303|60:303|60:301|60:301|58:300|58:300|62:300|62:300|60:299|60:299|60:297|60:297|58:296|58:296|62:296|62:296|60:294|60:294|60:293|60:293|58:292|58:292|62:291|62:291|59:290|59:290|59:289|59:289|57:288|57:288|61:287|61:287|59:286|59:286|58:285|58:285|56:284|56:284|60:283|60:283|57:282|57:282|57:281|57:281|55:280|55:280|58:279|58:279|56:278|56:278|56:277|55:276,1,486.13558569093
64,192,89691,6,0,B|64:191|64:191|62:189|62:189|66:190|66:190|64:188|64:188|64:187|64:187|63:185|63:185|66:186|66:186|65:184|65:184|65:183|65:183|63:181|63:181|67:182|67:182|66:180|66:180|66:179|66:179|64:177|64:177|68:178|68:178|66:176|66:176|67:175|67:175|65:173|65:173|69:174|69:174|67:172|67:172|68:171|68:171|66:169|66:169|70:170|70:170|69:168|69:168|69:167|69:167|68:165|68:165|71:166|71:166|70:164|70:164|70:163|70:163|69:161|69:161|73:162|73:162|72:160|72:160|72:159|72:159|71:157|71:157|74:159|74:159|73:156|73:156|74:156|74:156|72:153|72:153|76:155|76:155|75:153|75:153|75:152|75:152|74:150|74:150|78:151|78:151|77:149|77:149|77:148|77:148|76:146|76:146|80:148|80:148|79:146|79:146|79:145|80:145|80:145|79:142|79:142|82:144|82:144|81:142|81:142|82:142|82:141|82:141|81:139|81:139|84:141|84:141|84:139|84:139|84:138|84:138|83:135|83:135|87:138|87:138|86:135|86:135|87:135|87:135|86:132|86:132|89:135|89:135|89:132|89:132|89:129|89:129|92:132|92:132|91:129|91:129|92:129|92:128|92:128|92:126|92:126|94:129|94:129|94:126|94:126|95:126|95:126|94:123|94:123|97:126|97:126|97:123|97:123|98:123|98:123|97:120|97:120|100:123|100:123|100:121|100:121|100:120|101:120|101:120|101:118|101:118|103:121|103:121|103:118|103:118|104:118|104:117|104:117|104:115|104:115|106:118|106:118|106:116|106:116|107:115|107:115|107:112|107:112|109:116|109:116|110:113|110:113|111:110|111:110|113:114|113:114|113:111|113:111|114:111|114:111|114:108|114:108|116:112|116:112|116:109|116:109|117:109|117:108|117:108|118:106|118:106|120:110|120:110|120:107|120:107|121:107|121:107|122:104|122:104|123:108|123:108|124:105|124:105|125:105|125:105|125:103|125:103|127:106|127:106|127:104|127:104|128:104|128:103|128:103|129:101|129:101|130:105|130:105|131:102|131:102|132:102|132:102|133:100|133:100|134:103|134:103|135:101|135:101|136:101|136:101|137:98|137:98|138:102|138:102|139:100|139:100|140:99|140:99|141:97|141:97|142:101|142:101|143:99|143:99|143:98|144:98|144:98|145:96|145:96|146:100|146:100|147:97|147:97|148:97|148:97|148:95|148:95|150:99|150:99|150:96|150:96|151:96|151:96|152:94|152:94|153:98|153:98|154:95|154:95|155:95|155:95|156:93|156:93|157:97|157:97|158:94|158:94|159:94|159:94|160:92|160:92|161:95|161:95|162:93|162:93|163:93|163:93|164:90|164:90|165:94|165:94|166:92|166:92|167:92|167:92|168:89|168:89|169:93|169:93|170:91|170:91|171:90|171:90|172:88|172:88|173:92|173:92|174:89|174:89|175:89|175:89|175:87|175:87|177:90|177:90|178:88|178:88|179:85|179:85|181:89|181:89|181:86|181:86|182:86|182:86|183:83|183:83|185:87|185:87|185:85|185:85|186:84|186:84|186:82|186:82|188:85|188:85|189:83|189:83|189:82|190:82|190:82|190:80|190:80|192:83|192:83|192:81|192:81|193:80|193:80|193:78|193:78|195:81|195:81|196:79|196:79|196:78|197:78|197:78|197:76|197:76|199:79|199:79|199:76|199:76|200:76|200:76|200:73|200:73|202:77|202:77|202:74|202:74|203:74|203:73|203:73|203:71|203:71|206:74|206:74|206:71|206:71|206:68|206:68|209:71|209:71|209:69|209:69|209:68|210:68|210:68|209:66|209:66|212:69|212:69|212:66|212:66|212:65|213:65|213:65|212:63|212:63|215:66|215:66|215:63|215:63|215:62|215:62|215:60|215:60|218:63|218:63|218:60|218:60|218:59|218:59|218:57|218:57|221:60|221:60|220:57|220:57|221:57|221:56|221:56|220:54|220:54|223:56|223:56|223:54|223:54|223:53|224:53|224:53|223:51|223:51|226:53|226:53|225:51|225:51|226:50|226:50|225:48|225:48|228:50|228:50|228:47|228:47|228:44|228:44|231:46|231:46|230:44|230:44|230:43|231:43|231:43|230:41|230:41|233:43|233:43|232:41|232:41|233:40|233:40|232:37|232:37|235:39|235:39|234:37|234:37|235:36|235:36|234:34|234:34|237:36|237:36|236:33|236:33|237:33|237:33|236:30|236:30|239:32|239:32|238:30|238:30|239:29|238:29,1,638.845358588102,2|0,0:0|0:0,0:0:0:0:
96,0,90156,2,0,B|97:1|97:1|99:2|99:2|95:4|95:4|98:4|98:4|99:5|99:5|101:6|101:6|97:8|97:8|100:8|100:8|100:10|100:10|103:10|103:10|99:12|99:12|102:12|102:12|102:14|102:14|105:14|105:14|101:16|101:16|104:16|104:16|104:18|104:18|107:18|107:18|103:20|103:20|105:20|105:20|106:22|106:22|109:22|109:22|105:24|105:24|107:24|107:24|108:26|108:26|110:26|110:26|107:28|107:28|109:29|109:29|110:30|110:30|112:30|112:30|109:32|109:32|111:33|111:33|112:34|112:34|114:34|114:34|111:36|111:36|113:37|113:37|114:38|114:38|116:39|116:39|113:40|113:40|115:41|115:41|116:42|116:42|118:43|118:43|114:44|114:44|117:45|117:45|117:46|117:46|120:47|120:47|116:48|116:48|119:49|119:49|119:50|119:50|122:51|122:51|118:52|118:52|121:53|121:53|121:54|121:54|124:55|124:55|120:57|120:57|123:57|123:57|123:58|123:58|126:59|126:59|122:61|122:61|124:61|124:61|125:62|125:62|127:63|127:63|124:65|124:65|126:65|126:65|127:67|127:67|129:67|129:67|126:69|126:69|128:69|128:69|129:71|129:71|131:71|131:71|128:73|128:73|130:73|130:73|131:75|131:75|133:75|133:75|130:77|130:77|132:77|132:77|133:79|133:79|135:79|135:79|131:81|131:81|134:81|134:81|135:83|135:83|137:83|137:83|133:85|133:85|136:86|136:86|136:87|136:87|139:87|139:87|135:89|135:89|138:90|138:90|138:91|138:91|141:91|141:91|137:93|137:93|140:94|140:94|140:95|140:95|143:96|143:96|139:97|139:97|141:98|141:98|142:99|142:99|145:100|145:100|141:101|141:101|143:102|143:102|144:103|144:103|146:104|146:104|143:105|143:105|145:106|145:106|146:107|146:107|148:108|148:108|145:109|145:109|147:110|147:110|148:111|148:111|150:112|150:112|147:114|147:114|149:114|149:114|150:115|150:115|152:116|152:116|149:118|149:118|151:118|151:118|152:119|152:119|154:120|154:120|150:122|150:122|153:122|153:122|153:124|153:124|156:124|156:124|152:126|152:126|155:126|155:126|155:128|155:128|158:128|158:128|154:130|154:130|157:130|157:130|157:132|157:132|160:132|160:132|156:134|156:134|159:134|159:134|159:136|159:136|162:136|162:136|158:138|158:138|160:139|160:139|161:140|161:140|163:140|163:140|160:142|160:142|162:143|162:143|163:144|163:144|165:144|165:144|162:146|162:146|164:147|164:147|165:148|165:148|167:149|167:149|164:150|164:150|166:151|166:151|167:152|167:152|169:153|169:153|166:154|166:154|168:155|168:155|169:156|169:156|171:157|171:157|167:158|167:158|170:159|170:159|171:160|171:160|173:161|173:161|169:162|169:162|172:163|172:163|172:164|172:164|175:165|175:165|171:167|171:167|174:167|174:167|174:168|174:168|177:169|177:169|173:171|173:171|176:171|176:171|176:172|176:172|179:173|179:173|175:175|175:175|177:175|177:175|178:177|178:177|181:177|181:177|177:179|177:179|179:179|179:179|180:181|180:181|182:181|182:181|179:183|179:183|181:183|181:183|182:185|182:185|184:185|184:185|181:187|181:187|183:187|183:187|184:189|184:189|186:189|186:189|183:191|183:191|185:191|185:191|186:193|186:193|188:193|188:193|185:195|185:195|187:196|187:196|188:197|188:197|190:197|190:197|186:199|186:199|189:200|189:200|189:201|189:201|192:201|192:201|188:203|188:203|191:204|191:204|191:205|191:205|194:206|194:206|190:207|190:207|193:208|193:208|193:209|193:209|196:210|196:210|192:211|192:211|195:212|195:212|196:215|196:215|198:213|198:213|197:217|197:217|199:216|199:216|200:216|200:216|202:214|202:214|201:218|201:218|203:216|203:216|204:216|204:216|206:215|206:215|205:219|205:219|207:217|207:217|208:217|208:217|210:215|210:215|210:219|210:219|211:217|211:217|212:217|212:217|214:215|214:215|214:219|214:219|215:217|215:217|216:217|217:217|217:217|218:215|218:215|218:219|218:219|220:217|220:217|221:217|221:217|222:215|222:215|222:219|222:219|224:217|224:217|225:217|225:217|226:215|226:215|227:219|227:219|228:217|228:217|229:217|229:217|231:215|231:215|231:219|231:219|232:217|232:217|233:217|233:217|235:215|235:215|235:218|235:218|236:216|236:216|237:216|238:216|238:216|239:214|239:214|239:218|239:218|241:216|241:216|241:215|242:215|242:215|243:213|243:213|244:217|244:217|245:215|245:215|246:214|246:214|247:212|247:212|248:216|248:216|249:214|249:214|250:213|250:213|251:211|251:211|252:215|252:215|253:212|253:212|254:212|254:212|255:210|255:210|256:213|256:213|257:211|257:211|258:211|258:211|258:208|258:208|260:212|260:212|261:209|261:209|262:209|262:209|262:206|262:206|264:210|264:210|264:208|264:208|265:207|265:207|266:205|266:205|268:208|268:208|268:206|268:206|269:205|269:205|269:203|269:203|271:206|271:206|272:204|272:204|272:203|272:203|273:201|273:201|275:204|275:204|275:201|275:201|276:201|276:201|276:198|276:198|278:202|278:202|278:199|278:199|279:198|279:198|279:196|279:196|282:199|282:199|282:196|282:196|282:193|282:193|285:196|285:196|285:194|285:194|285:193|285:193|285:190|285:190|288:193|288:193|288:191|288:191|288:190|288:190|288:188|288:188|291:190|291:190|290:188|290:188|291:187|291:187|291:185|291:185|294:187|294:187|293:185|293:185|294:184|294:184|293:181|293:181|296:184|296:184|296:181|296:181|296:178|296:178|299:181|299:181|298:178|298:178|299:177|299:177|298:175|298:175|301:177|301:177|300:175|300:175|301:174|301:174|300:172|300:172|303:174|303:174|302:171|302:171|303:170|303:170|302:168|302:168|306:170|306:170|305:168|305:168|305:166|305:166|304:164|304:164|307:166|307:166|306:164|306:164|307:163|307:163|306:161|306:161|309:162|309:162|308:160|308:160|309:159|309:159|307:157|307:157|311:158|311:158|310:156|310:156|310:155|311:154,2,906.163186230536,2|2|2,0:0|0:0|0:3,0:0:0:0:
388,25,91463,53,10,3:0:0:0:
512,102,91617,1,10,3:0:0:0:
368,187,91771,1,10,3:0:0:0:
418,107,91925,5,10,3:0:0:0:
434,345,92079,1,10,3:0:0:0:
231,253,92232,1,10,3:0:0:0:
367,243,92386,6,0,L|381:239,20,9.99999969482423,4|0|0|0|0|0|0|0|0|0|0|0|0|0|0|0|0|0|0|0|0,0:3|0:0|0:0|0:0|0:0|0:0|0:0|0:0|0:0|0:0|0:0|0:0|0:0|0:0|0:0|0:0|0:0|0:0|0:0|0:0|0:0,0:0:0:0:
301,188,94078,1,4,0:3:0:0:
168,360,94232,22,0,L|154:356,20,9.99999969482423,4|0|0|0|0|0|0|0|0|0|0|0|0|0|0|0|0|0|0|0|0,0:3|0:0|0:0|0:0|0:0|0:0|0:0|0:0|0:0|0:0|0:0|0:0|0:0|0:0|0:0|0:0|0:0|0:0|0:0|0:0|0:0,0:0:0:0:
367,243,96078,22,0,L|381:239,20,9.99999969482423,4|0|0|0|0|0|0|0|0|0|0|0|0|0|0|0|0|0|0|0|0,0:3|0:0|0:0|0:0|0:0|0:0|0:0|0:0|0:0|0:0|0:0|0:0|0:0|0:0|0:0|0:0|0:0|0:0|0:0|0:0|0:0,0:0:0:0:
301,188,97771,1,4,0:3:0:0:
168,360,97924,6,0,L|154:356,20,9.99999969482423,4|0|0|0|0|0|0|0|0|0|0|0|0|0|0|0|0|0|0|0|0,0:3|0:0|0:0|0:0|0:0|0:0|0:0|0:0|0:0|0:0|0:0|0:0|0:0|0:0|0:0|0:0|0:0|0:0|0:0|0:0|0:0,0:0:0:0:
19,99,99795,53,12,1:3:0:0:
30,256,99949,1,12,1:3:0:0:
112,132,100103,1,14,1:3:0:0:
174,323,100256,5,14,1:3:0:0:
199,117,100410,1,12,1:3:0:0:
279,309,100564,1,12,1:3:0:0:
345,76,100718,53,12,1:3:0:0:
364,330,100872,1,12,1:3:0:0:
445,91,101026,1,12,1:3:0:0:
512,216,101179,6,0,P|409:194|239:192,1,266.666666666667,6|0,1:2|0:0,0:0:0:0:
0,235,101641,53,12,1:3:0:0:
51,140,101795,1,12,1:3:0:0:
67,304,101949,1,12,1:3:0:0:
153,177,102103,5,12,1:3:0:0:
166,326,102256,1,12,1:3:0:0:
253,78,102410,1,12,1:3:0:0:
317,242,102564,53,12,1:3:0:0:
360,72,102718,1,12,1:3:0:0:
429,326,102872,1,12,1:3:0:0:
501,163,103026,6,0,P|392:192|213:210,1,266.666666666667,6|0,1:2|0:0,0:0:0:0:
0,20,103487,53,12,1:3:0:0:
230,130,103641,1,12,1:3:0:0:
13,278,103795,1,12,1:3:0:0:
62,135,103949,6,0,P|169:160|316:216,1,266.666666666667,6|0,1:2|0:0,0:0:0:0:
512,290,104410,53,12,1:3:0:0:
322,110,104564,1,12,1:3:0:0:
235,363,104718,1,12,1:3:0:0:
447,195,104872,6,0,P|323:243|193:275,1,266.666666666667,6|0,1:2|0:0,0:0:0:0:
86,213,105333,53,14,1:3:0:0:
276,127,105487,1,14,1:3:0:0:
328,338,105641,1,14,1:3:0:0:
102,33,105795,5,14,1:3:0:0:
193,275,105949,1,14,1:3:0:0:
450,209,106103,1,14,1:3:0:0:
90,316,106256,53,14,1:3:0:0:
317,44,106410,1,14,1:3:0:0:
234,375,106564,1,14,1:3:0:0:
423,127,106718,6,0,B|431:109|431:109|293:145|89:241,1,366.666670163473,6|0,1:2|0:0,0:0:0:0:
11,222,107147,22,0,B|1:216|1:216|33:184|33:184|29:180|29:180|64:152|64:152|111:141|111:141|161:74,1,166.666666666667,2|0,1:0|0:0,0:0:0:0:
317,44,107455,1,4,0:3:0:0:
200,24,107609,5,10,0:0:0:0:
266,130,107763,1,2,0:0:0:0:
191,225,107917,1,6,0:3:0:0:
156,140,108071,22,0,B|246:112|285:177|247:180|312:228|381:203,1,250,2|0,0:0|0:0,0:0:0:0:
384,196,108378,1,6,0:3:0:0:
191,225,108532,2,0,P|239:137|299:58,1,200,8|0,0:0|0:0,0:0:0:0:
309,58,108840,2,0,B|330:84|330:84|315:131,1,66.6666666666667,6|0,0:3|0:0,0:0:0:0:
256,384,108994,5,2,1:1:0:0:
131,355,109147,6,0,P|83:307|95:232,1,133.333333333333,2|4,0:0|0:3,0:0:0:0:
204,107,109455,1,8,0:0:0:0:
191,225,109609,1,2,0:0:0:0:
67,156,109763,2,0,B|98:146|98:146|130:168,1,66.6666666666667,6|0,0:3|0:0,0:0:0:0:
277,272,109917,6,0,B|371:274|390:200|353:208|402:144|475:149,1,250,2|0,0:0|0:0,0:0:0:0:
477,157,110224,1,6,0:3:0:0:
428,284,110378,2,0,P|379:196|348:98,1,200,8|0,0:0|0:0,0:0:0:0:
357,98,110686,2,0,P|374:120|368:163,1,66.6666666666667,6|0,0:3|0:0,0:0:0:0:
256,383,110840,37,2,1:1:0:0:
123,14,111301,5,8,0:0:0:0:
205,1,111455,1,2,0:0:0:0:
117,21,111609,2,0,P|101:72|102:114,1,66.6666666666667,6|0,0:3|0:0,0:0:0:0:
130,274,111763,6,0,B|132:180|58:161|66:198|2:149|7:76,1,250,2|0,0:0|0:0,0:0:0:0:
15,72,112071,1,6,0:3:0:0:
10,253,112224,2,0,P|75:198|130:93,1,200,8|0,0:0|0:0,0:0:0:0:
139,90,112532,2,0,B|174:94|174:94|201:133,1,66.6666666666667,6|0,0:3|0:0,0:0:0:0:
491,217,112686,5,0,3:0:0:0:
491,217,113609,5,10,1:3:0:0:
305,98,113763,1,10,1:3:0:0:
496,1,113917,1,10,1:3:0:0:
420,110,114071,38,0,B|409:135|409:135|429:133|429:133|446:101|446:101|432:30|324:37|300:109,1,266.666666666667,10|2,1:3|0:3,0:0:0:0:
229,138,114532,6,0,P|259:219|277:356,1,200,4|0,0:3|0:0,0:0:0:0:
270,342,114840,1,4,0:3:0:0:
79,283,114994,6,0,P|120:259|180:335,1,133.333333333333,10|0,0:0|0:0,0:0:0:0:
111,370,115301,1,6,0:3:0:0:
5,232,115455,2,0,P|19:166|108:47,1,200,2|0,0:0|0:0,0:0:0:0:
99,67,115763,2,0,P|102:90|141:120,1,66.6666666666667,6|0,0:3|0:0,0:0:0:0:
256,0,115917,37,8,0:0:0:0:
249,8,116224,2,0,L|238:97,1,66.6666666666667,2|0,0:3|0:0,0:0:0:0:
293,297,116378,6,0,P|222:266|215:152,1,200,4|0,0:3|0:0,0:0:0:0:
223,151,116686,2,0,B|254:157|254:157|271:208,1,66.6666666666667
313,379,116840,5,8,0:0:0:0:
359,222,116994,1,2,0:0:0:0:
512,286,117147,1,2,0:3:0:0:
368,138,117301,22,0,B|283:128|261:215|288:204|252:276|172:261,1,250,2|0,0:0|0:0,0:0:0:0:
168,255,117609,2,0,B|151:228|151:228|171:190,1,66.6666666666667,4|0,0:3|0:0,0:0:0:0:
256,0,117763,5,8,0:0:0:0:
261,7,118070,2,0,L|272:96,1,66.6666666666667,2|0,0:3|0:0,0:0:0:0:
357,280,118224,6,0,P|360:194|384:78,1,200,4|0,0:3|0:0,0:0:0:0:
395,80,118532,2,0,P|413:105|402:154,1,66.6666666666667,4|0,0:3|0:0,0:0:0:0:
257,274,118686,6,0,P|180:238|170:169,1,133.333333333333,10|0,0:0|0:0,0:0:0:0:
269,73,118994,1,6,0:3:0:0:
125,112,119147,38,0,B|115:81|83:55|83:55|124:74|124:74|133:41|133:41|149:69|149:69|182:38|182:38|159:76|162:106,1,300.000011444092,2|0,0:0|0:0,0:0:0:0:
260,375,119917,6,0,P|265:348|244:292,1,80,2|0,0:3|0:0,0:0:0:0:
178,253,120532,6,0,B|121:259|121:259|119:262|119:262|46:271,2,133.333333333333,2|2|2,0:0|0:0|0:0,0:0:0:0:
512,183,120994,21,10,1:3:0:0:
312,236,121147,1,10,1:3:0:0:
482,340,121301,1,10,1:3:0:0:
229,154,121455,6,0,B|206:136|206:136|245:130|245:130|270:159|270:159|226:188|203:258|264:314,1,266.666666666667,10|2,1:3|0:3,0:0:0:0:
256,384,121917,37,2,1:1:0:0:
10,9,122224,6,0,L|26:84,1,66.6666666666667,4|0,0:3|0:0,0:0:0:0:
86,170,122378,5,10,0:0:0:0:
208,26,122532,1,2,0:0:0:0:
81,178,122686,2,0,P|34:178|2:141,1,66.6666666666667,6|0,0:3|0:0,0:0:0:0:
118,83,122840,6,0,B|197:51|241:129|212:126|265:186|339:151,1,250,2|0,0:0|0:0,0:0:0:0:
344,145,123147,1,6,0:3:0:0:
176,216,123301,2,0,P|212:148|330:38,1,225.000008583069,8|0,0:0|0:0,0:0:0:0:
323,53,123609,2,0,L|315:124,1,66.6666666666667,6|0,0:3|0:0,0:0:0:0:
256,384,123763,21,2,1:1:0:0:
512,2,124071,6,0,L|501:81,1,66.6666666666667,4|0,0:3|0:0,0:0:0:0:
488,229,124223,5,8,0:2:0:0:
356,136,124377,1,2,0:0:0:0:
381,0,124532,2,0,P|402:24|407:57,1,66.6666666666667,6|0,0:3|0:0,0:0:0:0:
374,217,124685,6,0,B|291:238|257:155|285:161|239:96|162:122,1,250,2|0,0:0|0:0,0:0:0:0:
163,130,124993,1,6,0:3:0:0:
356,136,125146,2,0,P|246:181|145:236,1,225.000008583069,8|0,0:0|0:0,0:0:0:0:
151,240,125454,2,0,B|138:277|138:277|168:323,1,75.000002861023,4|0,0:3|0:0,0:0:0:0:
256,384,125608,21,2,1:1:0:0:
134,64,125916,6,0,L|51:41,1,66.6666666666667,4|0,0:3|0:0,0:0:0:0:
6,113,126070,5,10,0:0:0:0:
225,25,126223,1,2,0:0:0:0:
4,121,126377,2,0,P|13:163|53:190,1,66.6666666666667,6|0,0:3|0:0,0:0:0:0:
183,177,126531,6,0,B|94:179|123:260|33:263,1,166.666666666667,2|2,0:0|0:0,0:0:0:0:
235,242,126839,2,0,B|262:226|262:226|262:189,1,66.6666666666667,6|0,0:3|0:0,0:0:0:0:
256,0,126993,5,8,0:0:0:0:
249,10,127300,2,0,L|257:83,1,66.6666666666667,6|0,0:3|0:0,0:0:0:0:
256,384,127454,5,2,1:1:0:0:
387,56,127762,6,0,L|470:33,1,66.6666666666667,6|0,0:3|0:0,0:0:0:0:
510,108,127916,5,10,0:0:0:0:
287,25,128069,1,2,0:0:0:0:
512,116,128223,2,0,P|503:158|463:185,1,66.6666666666667,6|0,0:3|0:0,0:0:0:0:
174,251,128377,5,10,1:3:0:0:
396,142,128531,1,10,1:3:0:0:
390,381,128685,1,10,1:3:0:0:
316,261,128839,6,0,B|264:213|247:128|291:51|291:51|319:94|319:94|278:143|278:143,1,333.333333333333,10|2,1:3|0:3,0:0:0:0:
177,120,129326,38,0,L|149:64,1,33.3333333333333,2|0,0:3|0:0,0:0:0:0:
57,200,129788,6,0,L|12:185,1,33.3333333333333,2|0,0:3|0:0,0:0:0:0:
37,297,130096,6,0,L|-9:303,1,33.3333333333333,2|0,0:3|0:0,0:0:0:0:
45,341,130557,22,0,L|7:370,1,33.3333333333333,2|0,0:3|0:0,0:0:0:0:
51,352,131019,6,0,L|36:388,1,33.3333333333333,2|0,0:3|0:0,0:0:0:0:
337,164,131172,6,0,L|363:122,1,33.3333333333333,2|0,0:3|0:0,0:0:0:0:
434,231,131634,6,0,L|470:204,1,33.3333333333333,2|0,0:3|0:0,0:0:0:0:
459,285,131942,22,0,L|501:288,1,33.3333333333333,2|0,0:3|0:0,0:0:0:0:
461,325,132403,6,0,L|490:348,1,33.3333333333333,2|0,0:3|0:0,0:0:0:0:
459,346,132557,6,0,L|474:377,1,33.3333333333333,2|0,0:3|0:0,0:0:0:0:
149,124,133019,6,0,B|87:71|87:71|168:19,1,166.666666666667,2|0,0:0|0:0,0:0:0:0:
301,36,133326,1,0,0:0:0:0:
225,82,133480,22,0,L|411:63,2,166.666666666667,0|0|2,0:0|0:0|0:3,0:0:0:0:
413,171,133942,6,0,B|360:185|360:185|312:312|312:312|244:330,1,250,2|0,0:0|0:0,0:0:0:0:
228,319,134249,2,0,B|210:283|210:283|240:237,1,83.3333333333333
413,171,134403,6,0,B|360:185|360:185|312:312|312:312|244:330,1,250,2|0,0:0|0:0,0:0:0:0:
228,319,134711,2,0,B|210:283|210:283|240:237,1,83.3333333333333,2|0,0:3|0:0,0:0:0:0:
225,82,134865,6,0,L|376:66,1,125,2|0,0:3|0:0,0:0:0:0:
349,68,135326,22,0,L|163:49,2,166.666666666667,2|2|2,0:3|0:0|0:3,0:0:0:0:
84,285,135788,6,0,B|122:246|122:246|256:268|256:268|306:218,1,250,2|0,0:0|0:0,0:0:0:0:
304,198,136095,2,0,B|281:164|281:164|226:167,1,83.3333333333333,2|0,0:3|0:0,0:0:0:0:
84,285,136249,6,0,B|122:246|122:246|256:268|256:268|306:218,1,250,2|0,0:0|0:0,0:0:0:0:
304,198,136557,2,0,B|281:164|281:164|226:167,1,83.3333333333333,2|0,0:3|0:0,0:0:0:0:
74,125,136700,6,0,L|60:121,20,9.99999969482423,4|0|0|0|0|0|0|0|0|0|0|0|0|0|0|0|0|0|0|0|0,0:3|0:0|0:0|0:0|0:0|0:0|0:0|0:0|0:0|0:0|0:0|0:0|0:0|0:0|0:0|0:0|0:0|0:0|0:0|0:0|0:0,0:0:0:0:
137,66,138393,1,4,0:3:0:0:
79,289,138546,22,0,L|76:298,20,9.99999969482423,4|0|0|0|0|0|0|0|0|0|0|0|0|0|0|0|0|0|0|0|0,0:3|0:0|0:0|0:0|0:0|0:0|0:0|0:0|0:0|0:0|0:0|0:0|0:0|0:0|0:0|0:0|0:0|0:0|0:0|0:0|0:0,0:0:0:0:
74,125,140392,6,0,L|60:121,20,9.99999969482423,4|0|0|0|0|0|0|0|0|0|0|0|0|0|0|0|0|0|0|0|0,0:3|0:0|0:0|0:0|0:0|0:0|0:0|0:0|0:0|0:0|0:0|0:0|0:0|0:0|0:0|0:0|0:0|0:0|0:0|0:0|0:0,0:0:0:0:
137,66,142085,1,4,0:3:0:0:
79,289,142238,6,0,L|76:298,20,9.99999969482423,4|0|0|0|0|0|0|0|0|0|0|0|0|0|0|0|0|0|0|0|0,0:3|0:0|0:0|0:0|0:0|0:0|0:0|0:0|0:0|0:0|0:0|0:0|0:0|0:0|0:0|0:0|0:0|0:0|0:0|0:0|0:0,0:0:0:0:
348,2,144107,37,12,1:3:0:0:
154,42,144260,1,12,1:3:0:0:
354,10,144414,1,14,1:3:0:0:
99,138,144568,5,14,1:3:0:0:
399,199,144722,1,12,1:3:0:0:
104,146,144876,1,12,1:3:0:0:
424,275,145030,53,12,1:3:0:0:
77,338,145183,1,12,1:3:0:0:
429,281,145337,1,12,1:3:0:0:
254,380,145491,6,0,P|249:284|252:47,1,333.333333333333,4|0,1:2|0:0,0:0:0:0:
182,5,145953,53,12,1:3:0:0:
339,59,146107,1,12,1:3:0:0:
116,59,146260,1,12,1:3:0:0:
365,139,146414,5,12,1:3:0:0:
123,211,146568,1,12,1:3:0:0:
417,199,146722,1,12,1:3:0:0:
111,293,146876,53,12,1:3:0:0:
433,349,147030,1,12,1:3:0:0:
61,360,147183,1,12,1:3:0:0:
254,380,147337,6,0,P|259:284|256:47,1,333.333333333333,4|0,1:2|0:0,0:0:0:0:
342,0,147799,53,12,1:3:0:0:
352,296,147953,1,12,1:3:0:0:
162,55,148107,1,12,1:3:0:0:
512,193,148260,6,0,P|345:188|178:194,1,333.333333333333,4|0,1:2|0:0,0:0:0:0:
65,287,148722,53,12,1:3:0:0:
255,46,148876,1,12,1:3:0:0:
245,342,149030,1,12,1:3:0:0:
0,193,149183,6,0,P|166:188|333:194,1,333.333333333333,4|0,1:2|0:0,0:0:0:0:
409,119,149645,53,14,1:3:0:0:
245,342,149799,1,14,1:3:0:0:
133,88,149953,1,14,1:3:0:0:
155,352,150107,5,14,1:3:0:0:
457,190,150261,1,14,1:3:0:0:
172,13,150415,1,14,1:3:0:0:
446,275,150568,53,14,1:3:0:0:
85,312,150722,1,14,1:3:0:0:
256,0,150876,1,14,1:3:0:0:
258,379,151030,6,0,B|244:276|252:92|252:92|263:134|293:144,1,333.333333333333,4|0,1:2|0:0,0:0:0:0:
334,195,151460,6,0,B|354:184|354:184|380:189|380:189|380:204|380:204|419:194|419:194|417:197|417:197|466:202|466:202|473:210|473:210|511:210,1,200.000007629395,2|0,1:0|0:0,0:0:0:0:
40,228,153152,5,2,0:3:0:0:
156,112,153306,2,0,P|128:28|84:-6,2,133.333333333333,0|2|2,3:0|0:0|0:0,0:0:0:0:
144,213,153767,21,8,3:2:0:0:
1,41,153921,1,2,0:0:0:0:
236,51,154075,1,2,0:3:0:0:
203,309,154229,5,0,3:0:0:0:
255,193,154383,1,0,3:0:0:0:
365,259,154536,1,2,3:0:0:0:
469,51,154690,5,8,3:2:0:0:
469,51,154998,6,0,B|476:57|476:57|488:41|488:41|458:41|458:41|432:39|432:39|397:27|397:27|397:23|397:23|344:43|344:43|309:31,2,200.000007629395,2|0|0,0:1|0:0|0:0,0:0:0:0:
479,232,156844,21,2,0:3:0:0:
339,275,156998,2,0,P|357:197|423:190,2,133.333333333333,0|2|2,3:0|0:0|0:0,0:0:0:0:
440,357,157459,5,8,3:2:0:0:
474,148,157613,1,2,0:0:0:0:
286,122,157767,1,2,0:3:0:0:
339,275,157921,5,10,1:3:0:0:
141,146,158075,1,10,1:3:0:0:
328,45,158228,1,10,1:3:0:0:
259,203,158382,6,0,B|248:226|248:226|235:213|235:213|255:171|255:171|295:157|367:205|332:297,1,250,2|0,1:3|0:0,0:0:0:0:
273,329,158690,22,0,B|263:320|263:320|218:321|218:321|212:331|212:331|171:321|171:321|172:328|172:328|105:328|105:328|101:331|101:331|42:289|42:289|32:288|32:288|43:224|43:224|45:232|45:232|114:296|114:296|272:348,1,600.000022888185,2|4,0:1|0:3,0:0:0:0:
460,363,159305,5,8,0:0:0:0:
445,189,159459,2,0,P|345:248|340:310,1,150.000005722046,0|6,3:0|3:0,0:0:0:0:
175,359,159767,5,0,3:0:0:0:
263,170,159921,1,0,3:0:0:0:
429,277,160075,1,6,3:0:0:0:
491,5,160229,6,0,L|414:21,1,66.6666666666667,8|0,3:2|0:0,0:0:0:0:
491,5,160536,22,0,B|480:13|480:13|340:0|340:0|336:5|336:5|247:26|247:26|115:13|115:13|137:3|137:3|208:34|208:34|265:77|265:77|276:84|276:84|315:61,1,600.000022888185,2|4,0:1|0:3,0:0:0:0:
445,95,161151,5,8,0:0:0:0:
356,200,161306,2,0,P|274:184|184:130,1,166.666666666667,0|6,3:0|3:0,0:0:0:0:
0,23,161613,5,0,3:0:0:0:
222,65,161767,1,0,3:0:0:0:
154,284,161921,1,6,3:0:0:0:
84,30,162075,6,0,L|150:10,1,66.6666666666667,10|0,3:2|3:0,0:0:0:0:
84,30,162382,22,0,B|72:45|72:45|67:87|67:87|54:104|54:104|82:195|82:195|75:197|75:197|55:285|55:285|26:195|26:195|109:111,1,400.00001525879,2|0,0:1|0:0,0:0:0:0:
151,107,162844,5,4,0:3:0:0:
257,340,162998,5,8,3:2:0:0:
234,240,163151,1,0,3:0:0:0:
140,264,163305,1,2,3:0:0:0:
349,244,163459,5,0,3:0:0:0:
368,107,163613,1,0,3:0:0:0:
512,125,163767,1,2,3:0:0:0:
304,18,163921,22,0,B|267:13|267:13|230:65|239:123|267:182,1,200,8|0,0:0|0:0,0:0:0:0:
271,172,164228,1,2,0:3:0:0:
349,244,164449,6,0,L|448:213,2,100.000003814697,2|0|0,0:0|0:0|0:0,0:0:0:0:
178,256,164910,2,0,B|179:278|197:299|197:299|200:221|285:160,1,200.000007629395,2|2,0:3|0:3,0:0:0:0:
467,98,165371,5,2,0:0:0:0:
474,115,165525,1,2,0:0:0:0:
474,136,165679,1,2,0:0:0:0:
466,152,165833,2,0,P|324:151|252:179,1,200.000007629395,2|0,3:2|0:3,0:0:0:0:
174,215,166290,6,0,B|173:216|173:216|174:218|174:218|171:216|171:216|171:218|171:218|171:219|171:219|171:221|171:221|168:219|168:219|169:221|169:221|168:222|168:222|169:225|169:225|166:222|166:222|166:225|166:225|166:226|166:226|167:228|167:228|163:226|163:226|164:228|164:228|164:229|164:229|165:232|165:232|161:230|161:230|162:232|162:232|162:233|162:233|163:235|163:235|159:233|159:233|160:236|160:236|160:237|160:237|161:239|161:239|158:238|158:238|159:240|159:240|158:241|158:241|160:243|160:243|156:242|156:242|158:244|158:244|157:244|157:245|157:245|159:247|159:247|155:246|155:246|157:248|157:248|156:248|156:249|156:249|158:251|158:251|154:250|154:250|156:252|156:252|156:253|156:253|158:255|158:255|154:254|154:254|155:256|155:256|155:257|155:257|157:259|157:259|153:259|153:259|155:260|155:260|155:261|155:261|157:263|157:263|153:263|153:263|155:264|155:264|156:265|156:265|158:267|158:267|154:267|154:267|156:268|156:268|156:269|156:269|158:271|158:271|154:271|154:271|157:272|157:272|157:274|157:274|159:274|159:274|155:275|155:275|158:276|158:276|158:278|158:278|160:278|160:278|157:280|157:280|159:280|159:280|159:281|159:281|162:282|162:282|158:284|158:284|160:284|160:284|161:285|161:285|163:286|163:286|159:287|159:287|162:288|162:288|162:289|162:289|165:289|165:289|161:291|161:291|164:292|164:292|164:293|164:293|167:293|167:293|163:295|163:295|166:295|166:295|166:296|166:296|169:297|169:297|166:299|166:299|168:299|168:299|169:300|169:300|171:300|171:300|168:302|168:302|170:302|170:302|172:305|173:306|173:306|173:304|173:304|175:307|175:307|176:305|176:305|176:304|177:304|177:304|177:302|177:302|179:305|179:305|179:303|179:303|180:302|180:302|180:299|180:299|182:303|182:303|183:300|183:300|184:300|184:300|184:297|184:297|186:300|186:300|186:298|186:298|187:297|187:297|187:295|187:295|189:298|189:298|189:295|189:295|190:295|190:295|190:292|190:292|193:295|193:295|193:293|193:293|194:292|194:292|194:289|194:289|196:293|196:293|196:290|196:290|197:289|197:289|197:287|197:287|199:290|199:290|199:287|199:287|200:286|200:286|200:284|200:284|202:287|202:287|202:284|202:284|203:283|203:283|202:281|202:281|205:283|205:283|205:281|205:281|205:280|205:280|205:278|205:278|208:280|208:280|207:278|207:278|208:277|208:277|207:275|207:275|210:277|210:277|210:274|210:274|210:273|210:273|209:271|209:271|213:273|213:273|212:271|212:271|212:270|212:270|211:268|211:268|214:269|214:269|213:267|213:267|214:267|214:266|214:266|212:264|212:264|216:265|216:265|215:263|215:263|215:262|215:262|214:260|214:260|218:261|218:261|216:259|216:259|216:258|216:258|215:256|215:256|219:257|219:257|217:255|217:255|217:254|217:254|215:252|215:252|220:253|220:253|218:251|218:251|218:250|218:250|216:248|216:248|220:248|220:248|218:247|218:247|218:246|218:246|216:244|216:244|220:244|220:244|218:243|218:243|218:241|218:241|216:240|216:240|220:240|220:240|217:238|217:238|217:237|217:237|215:236|215:236|219:235|219:235|217:234|217:234|216:233|216:233|214:232|214:232|218:231|218:231|216:230|216:230|216:229|216:229|213:228|213:228|217:227|217:227|215:226|215:226|214:225,1,489.654896454819,2|0,0:0|0:0,0:0:0:0:
231,143,166751,2,0,B|232:142|232:142|231:140|231:140|234:142|234:142|234:140|234:140|234:139|234:139|234:137|234:137|237:139|237:139|236:137|236:137|237:136|237:136|236:133|236:133|239:136|239:136|239:133|239:133|239:132|239:132|238:130|238:130|242:132|242:132|241:130|241:130|241:129|241:129|240:126|240:126|244:128|244:128|243:126|243:126|243:125|243:125|242:123|242:123|246:125|246:125|245:122|245:122|245:121|245:121|244:119|244:119|247:120|247:120|246:118|246:118|247:117|247:117|245:115|245:115|249:116|249:116|247:114|247:114|248:114|248:113|248:113|246:111|246:111|250:112|250:112|248:110|248:110|249:110|249:109|249:109|247:107|247:107|251:108|251:108|249:106|249:106|249:105|249:105|247:103|247:103|251:104|251:104|250:102|250:102|250:101|250:101|248:99|248:99|252:99|252:99|250:98|250:98|250:97|250:97|248:95|248:95|252:95|252:95|250:94|250:94|249:93|249:93|247:91|247:91|251:91|251:91|249:90|249:90|249:89|249:89|247:87|247:87|251:87|251:87|248:86|248:86|248:84|248:84|246:84|246:84|250:83|250:83|247:82|247:82|247:80|247:80|245:80|245:80|248:78|248:78|246:78|246:78|246:77|246:77|243:76|243:76|247:74|247:74|245:74|245:74|244:73|244:73|242:72|242:72|246:71|246:71|243:70|243:70|243:69|243:69|240:69|240:69|244:67|244:67|241:66|241:66|241:65|241:65|238:65|238:65|242:63|242:63|239:63|239:63|239:62|239:62|236:61|236:61|239:59|239:59|237:59|237:59|236:58|236:58|234:58|234:58|237:56|237:56|235:56|235:56|233:53|232:52|232:52|232:54|232:54|230:51|230:51|229:53|229:53|229:54|228:54|228:54|228:56|228:56|226:53|226:53|226:55|226:55|225:56|225:56|225:59|225:59|223:55|223:55|222:58|222:58|221:58|221:58|221:61|221:61|219:58|219:58|219:60|219:60|218:61|218:61|218:63|218:63|216:60|216:60|216:63|216:63|215:63|215:63|215:66|215:66|212:63|212:63|212:65|212:65|211:66|211:66|212:68|212:68|209:65|209:65|209:68|209:68|208:68|208:69|208:69|208:71|208:71|206:68|206:68|206:71|206:71|205:71|205:72|205:72|205:74|205:74|203:71|203:71|203:74|203:74|202:75|202:75|203:77|203:77|200:75|200:75|200:77|200:77|199:78|199:78|200:80|200:80|197:78|197:78|198:80|198:80|197:81|197:81|198:83|198:83|195:81|195:81|195:84|195:84|195:85|195:85|196:87|196:87|192:85|192:85|193:87|193:87|193:88|193:88|194:90|194:90|190:89|190:89|191:91|191:91|191:92|191:92|192:94|192:94|189:92|189:92|190:94|190:94|190:95|190:95|191:98|191:98|187:96|187:96|189:98|189:98|188:99|188:100|188:100|190:102|190:102|186:101|186:101|188:103|188:103|187:104|187:104|189:106|189:106|185:105|185:105|187:107|187:107|187:108|187:108|189:109|189:109|185:109|185:109|187:111|187:111|187:112|187:112|188:113|188:113|185:113|185:113|187:115|187:115|187:116|187:116|189:117|189:117|185:118|185:118|187:119|187:119|187:120|187:120|189:121|189:121|185:122|185:122|187:123|187:123|188:124|188:124|190:125|190:125|186:126|186:126|188:127|188:127|188:128|188:128|191:129|191:129|187:130|187:130|189:131|189:131|189:132|190:133,1,488.363276776713
214,224,167213,54,0,B|215:224|215:224|217:223|217:223|216:227|216:227|218:225|218:225|219:225|219:225|221:224|221:224|220:228|220:228|222:226|222:226|223:226|223:226|225:225|225:225|224:228|224:228|226:227|226:227|227:227|227:227|229:225|229:225|229:229|229:229|230:227|230:227|231:227|231:227|233:225|233:225|233:229|233:229|234:227|234:227|235:227|235:227|237:225|237:225|237:229|237:229|238:227|238:227|239:227|240:227|240:227|241:225|241:225|241:229|241:229|242:227|242:227|243:227|244:227|244:227|245:225|245:225|245:229|245:229|247:227|247:227|247:226|248:226|248:226|249:224|249:224|249:228|249:228|251:226|251:226|252:226|252:226|253:223|253:223|254:227|254:227|255:225|255:225|256:225|256:225|257:222|257:222|258:226|258:226|259:224|259:224|260:224|260:224|260:221|260:221|262:225|262:225|262:223|262:223|263:222|263:222|264:220|264:220|266:223|266:223|266:221|266:221|267:221|267:221|268:218|268:218|269:222|269:222|270:219|270:219|271:219|271:219|271:217|271:217|273:220|273:220|274:218|274:218|274:217|274:217|275:215|275:215|277:218|277:218|277:216|277:216|278:215|278:215|278:213|278:213|280:216|280:216|280:213|280:213|281:213|281:213|281:210|281:210|284:213|284:213|284:211|284:211|285:210|285:210|285:208|285:208|287:211|287:211|287:209|287:209|288:208|288:208|288:205|288:205|290:208|290:208|290:206|290:206|291:205|291:205|291:203|291:203|294:206|294:206|293:203|293:203|294:203|294:202|294:202|294:200|294:200|296:203|296:203|296:200|296:200|297:200|297:200|296:197|296:197|299:200|299:200|299:197|299:197|300:197|300:197|299:194|299:194|302:197|302:197|302:194|302:194|302:193|302:193|302:191|302:191|305:194|305:194|304:191|304:191|305:191|305:190|305:190|304:188|304:188|307:190|307:190|307:188|307:188|307:187|307:187|307:185|307:185|310:187|310:187|309:185|309:185|310:184|310:184|309:181|309:181|312:184|312:184|312:181|312:181|312:180|312:180|311:178|311:178|315:180|315:180|314:178|314:178|314:177|314:177|314:175|314:175|317:177|317:177|316:175|316:175|316:174|317:174|317:174|316:171|316:171|319:174|319:174|318:171|318:171|319:171|319:170|319:170|318:168|318:168|322:170|322:170|321:168|321:168|321:167|321:167|321:165|321:165|324:167|324:167|323:165|323:165|323:164|324:164|324:164|323:161|323:161|326:164|326:164|325:161|325:161|326:161|326:160|326:160|325:158|325:158|328:160|328:160|328:158|328:158|328:157|328:157|328:155|328:155|331:157|331:157|330:155|330:155|331:154|331:154|330:151|330:151|333:154|333:154|333:152|333:152|333:151|334:151|334:151|333:148|333:148|336:151|336:151|336:148|336:148|336:145|336:145|339:148|339:148|338:145|338:145|339:145|339:145|339:142|339:142|341:145|341:145|341:143|341:143|342:142|342:142|342:139|342:139|344:142|344:142|344:140|344:140|345:139|345:139|345:137|345:137|347:140|347:140|347:137|347:137|348:137|348:136|348:136|348:134|348:134|350:137|350:137|350:135|350:135|351:134|351:134|351:131|351:131|354:135|354:135|354:132|354:132|355:129|355:129|357:132|357:132|357:130|357:130|358:129|358:129|358:127|358:127|360:130|360:130|360:128|360:128|361:127|361:127|362:125|362:125|364:128|364:128|364:126|364:126|365:125|365:125|365:123|365:123|367:126|367:126|368:124|368:124|368:123|369:123|369:123|369:121|369:121|371:124|371:124|371:122|371:122|372:122|372:122|373:119|373:119|375:123|375:123|375:120|375:120|376:120|376:120|377:118|377:118|378:121|378:121|379:119|379:119|380:119|380:119|381:116|381:116|382:120|382:120|383:118|383:118|384:118|384:117|384:117|385:115|385:115|386:119|386:119|387:117|387:117|388:116|388:116|389:114|389:114|390:118|390:118|391:116|391:116|392:116|392:116|393:113|393:113|394:117|394:117|395:115|395:115|396:115|396:115|397:113|397:113|398:117|398:117|400:114|400:114|402:112|402:112|402:116|402:116|409:115,1,578.022041687721,2|0,0:0|0:0,0:0:0:0:
231,143,167674,2,0,B|230:142|230:142|227:143|227:143|229:139|229:139|227:140|227:140|226:140|226:140|224:141|224:141|226:137|226:137|223:138|223:138|222:138|222:138|220:139|220:139|222:136|222:136|220:136|220:136|219:136|219:136|216:138|216:138|217:134|217:134|216:135|216:135|215:135|215:135|212:137|212:137|213:133|213:133|212:134|212:134|211:134|211:134|209:136|209:136|210:132|210:132|208:133|208:133|207:133|206:133|206:133|205:135|205:135|206:131|206:131|204:132|204:132|203:132|202:132|202:132|201:134|201:134|202:130|202:130|199:131|199:131|199:132|198:132|198:132|197:133|197:133|198:130|198:130|195:131|195:131|194:131|194:131|193:133|193:133|193:129|193:129|191:131|191:131|190:131|190:131|188:133|188:133|189:129|189:129|187:131|187:131|186:131|186:131|185:133|185:133|184:129|184:129|184:131|184:131|183:132|183:132|181:133|181:133|180:130|180:130|179:132|179:132|179:132|179:132|177:134|177:134|177:130|177:130|175:133|175:133|174:133|174:133|174:135|174:135|172:131|172:131|171:133|171:133|171:134|171:134|169:135|169:135|168:132|168:132|168:134|168:134|166:135|166:135|166:137|166:137|165:133|165:133|164:136|164:136|163:136|163:136|162:139|162:139|160:135|160:135|160:137|160:137|158:138|158:138|158:140|158:140|157:136|157:136|156:138|156:138|155:139|155:139|154:142|154:142|153:138|153:138|152:140|152:140|151:141|151:141|151:143|151:143|149:139|149:139|149:142|149:142|148:142|148:143|148:143|147:145|147:145|146:142|146:142|145:144|145:144|144:144|144:144|144:147|144:147|142:144|142:144|141:147|141:147|140:146|140:146|141:149|141:149|139:146|139:146|138:149|138:149|137:150|137:150|137:152|137:152|135:148|135:148|135:151|135:151|134:151|134:152|134:152|134:154|134:154|132:151|132:151|131:153|131:153|131:154|131:154|131:156|131:156|128:153|128:153|129:156|129:156|127:156|127:156|128:159|128:159|125:156|125:156|125:159|125:159|124:160|124:160|125:162|125:162|122:159|122:159|122:161|122:161|122:162|122:162|121:164|121:164|119:161|119:161|119:163|119:163|119:164|118:164|118:164|118:167|118:167|116:164|116:164|116:167|116:167|115:167|115:167|115:167|116:170|116:170|112:167|112:167|113:169|113:169|112:170|112:170|112:172|112:172|109:169|109:169|110:171|110:171|110:172|109:172|109:172|109:175|109:175|107:171|107:171|107:175|107:175|106:174|106:175|106:175|106:178|106:178|104:175|104:175|103:177|103:177|103:178|103:178|103:180|103:180|100:177|100:177|101:179|101:179|99:180|99:180|100:183|100:183|97:179|97:179|97:181|97:181|97:182|96:182|96:182|96:185|96:185|94:181|94:181|93:184|93:184|92:187|92:187|90:184|90:184|90:187|90:187|89:186|89:186|89:189|89:189|87:186|87:186|87:188|87:188|86:189|86:189|85:191|85:191|84:188|84:188|83:190|83:190|82:191|82:191|81:193|81:193|80:189|80:189|80:192|80:192|79:192|78:193|78:193|78:195|78:195|77:191|77:191|76:193|76:193|75:194|75:194|74:197|74:197|72:192|72:192|71:195|71:195|70:198|70:198|69:194|69:194|68:196|68:196|67:197|67:197|66:199|66:199|65:196|65:196|65:197|65:197|63:198|63:198|62:200|62:200|61:196|61:196|60:198|60:198|59:199|59:199|59:201|59:201|57:198|57:198|56:199|56:199|56:200|55:200|55:200|54:202|54:202|53:198|53:198|52:200|52:200|51:200|51:200|50:203|50:203|49:198|49:198|48:201|48:201|47:201|47:201|46:203|46:203|45:200|45:200|44:201|44:201|43:201|43:201|41:204|41:204|41:199|41:199|40:201|40:201|39:201|39:202|39:202|37:204|37:204|37:199|37:199|36:201|36:201|34:202|34:202|33:203|33:203|33:199|33:199|32:201|32:201|31:201|31:201|29:203|29:203|29:199|29:199|27:201|27:201|26:201|26:201|25:202|25:202|25:198|25:198|22:201|22:201|20:202|20:202|21:198|21:198|14:197,1,578.022041687721
17,114,168136,6,0,B|17:112|17:112|14:110|14:110|19:110|19:110|18:109|18:109|18:106|18:106|15:104|15:104|20:105|20:105|18:103|18:103|18:102|18:102|15:99|15:99|20:99|20:99|19:98|19:98|19:96|19:96|17:94|17:94|21:95|21:95|19:92|19:92|19:91|19:91|18:89|18:89|21:90|21:90|20:88|20:88|20:85|20:85|18:84|18:84|22:84|22:84|20:82|20:82|20:81|20:81|19:78|19:78|24:79|24:79|21:77|21:77|21:75|21:75|19:74|19:74|24:74|24:74|21:71|21:71|21:70|21:70|20:68|20:68|25:69|25:69|22:67|22:67|22:65|22:65|20:63|20:63|25:63|25:63|22:62|22:62|24:59|24:59|21:57|21:57|26:58|26:58|24:56|24:56|24:55|24:55|21:52|21:52|26:52|26:52|24:51|24:51|25:49|25:49|22:48|22:48|27:48|27:48|25:45|25:45|25:44|25:44|22:42|22:42|27:43|27:43|26:41|26:41|26:38|26:38|24:37|24:37|28:37|28:37|26:35|26:35|26:34|26:34|24:31|24:31|28:32|28:32|27:30|27:30|27:27|27:27|27:24|27:24|29:28|29:28|29:24|29:24|31:24|31:24|31:21|31:21|33:24|33:24|33:22|33:22|34:22|34:21|34:21|34:18|34:18|38:22|38:22|38:20|38:20|38:18|39:18|39:18|39:16|39:16|41:20|41:20|41:17|41:17|42:16|42:16|44:14|44:14|46:17|46:17|46:15|46:15|47:14|47:14|48:11|48:11|49:16|49:16|51:12|51:12|52:12|52:12|53:9|53:9|54:14|54:14|55:11|55:11|56:11|56:11|58:8|58:8|59:12|59:12|60:10|60:10|61:9|61:9|62:7|62:7|63:11|63:11|65:9|65:9|66:9|66:9|67:5|67:5|68:11|68:11|69:8|69:8|71:8|71:8|72:5|72:5|73:10|73:10|74:8|74:8|75:8|75:8|78:5|78:5|78:10|78:10|79:8|79:8|80:8|80:8|82:5|82:5|82:10|82:10|83:8|83:8|85:9|85:9|87:7|87:7|86:11|86:11|88:9|88:9|89:9|89:9|92:8|92:8|91:12|91:12|93:10|93:10|94:10|94:10|96:9|96:9|95:14|95:14|98:11|98:11|99:11|99:12|99:12|102:10|102:10|100:15|100:15|102:14|102:14|103:14|103:14|107:12|107:12|105:17|105:17|107:16|107:16|108:16|108:16|110:15|110:15|108:20|108:20|112:18|112:18|113:18|113:18|115:18|115:18|113:22|113:22|115:21|115:21|116:22|116:22|119:21|119:21|116:24|116:24|119:24|119:24|120:24|120:24|122:24|122:24|120:28|120:28|122:28|122:28|123:28|123:28|126:28|126:28|122:31|122:31|126:31|126:31|129:31|129:31|126:35|126:35|128:35|128:35|129:36|129:36|133:36|133:36|128:38|128:38|132:39|132:39|135:41|135:41|130:43|130:43|134:43|134:43|134:44|134:44|136:45|136:45|133:47|133:47|135:48|135:48|136:49|136:49|139:50|139:50|134:51|134:51|138:52|138:52|138:54|138:54|140:55|140:55|136:56|136:56|139:57|139:57|139:58|139:58|141:59|141:59|136:61|136:61|140:62|140:62|140:64|140:65,1,557.189496509103,2|0,0:0|0:0,0:0:0:0:
145,150,168597,2,0,B|147:147|147:147|149:149|149:149|144:149|144:149|145:150|145:150|145:153|145:153|148:155|148:155|143:154|143:154|145:156|145:156|145:157|145:157|148:160|148:160|143:160|143:160|144:161|144:161|144:163|144:163|147:165|147:165|142:164|142:164|144:167|144:167|144:168|144:168|145:170|145:170|142:169|142:169|143:171|143:171|143:174|143:174|145:175|145:175|141:175|141:175|143:177|143:177|143:178|143:178|144:181|144:181|139:180|139:180|142:182|142:182|142:184|142:184|144:185|144:185|139:185|139:185|142:188|142:188|142:189|142:189|143:191|143:191|138:190|138:190|141:192|141:192|141:194|141:194|143:196|143:196|138:196|138:196|141:197|141:197|139:200|139:200|142:202|142:202|137:201|137:201|139:203|139:203|139:204|139:204|142:207|142:207|137:207|137:207|139:208|139:208|138:210|138:210|141:211|141:211|136:211|136:211|138:214|138:214|138:215|138:215|141:217|141:217|136:216|136:216|137:218|137:218|137:221|137:221|139:222|139:222|135:222|135:222|137:224|137:224|137:225|137:225|139:228|139:228|135:227|135:227|136:229|136:229|136:232|136:232|136:235|136:235|134:231|134:231|134:235|134:235|132:235|132:235|132:238|132:238|130:235|130:235|130:237|130:237|129:237|129:238|129:238|129:241|129:241|125:237|125:237|125:239|125:239|125:241|124:241|124:241|124:243|124:243|122:239|122:239|122:242|122:242|121:243|121:243|119:245|119:245|117:242|117:242|117:244|117:244|116:245|116:245|115:248|115:248|114:243|114:243|112:247|112:247|111:247|111:247|110:250|110:250|109:245|109:245|108:248|108:248|107:248|107:248|105:251|105:251|104:247|104:247|103:249|103:249|102:250|102:250|101:252|101:252|100:248|100:248|98:250|98:250|97:250|97:250|96:254|96:254|95:248|95:248|94:251|94:251|92:251|92:251|91:254|91:254|90:249|90:249|89:251|89:251|88:251|88:251|85:254|85:254|85:249|85:249|84:251|84:251|83:251|83:251|81:254|81:254|81:249|81:249|80:251|80:251|78:250|78:250|76:252|76:252|77:248|77:248|75:250|75:250|74:250|74:250|71:251|71:251|72:247|72:247|70:249|70:249|69:249|69:249|67:250|67:250|68:245|68:245|65:248|65:248|64:248|64:247|64:247|61:249|61:249|63:244|63:244|61:245|61:245|60:245|60:245|56:247|56:247|58:242|58:242|56:243|56:243|55:243|55:243|53:244|53:244|55:239|55:239|51:241|51:241|50:241|50:241|48:241|48:241|50:237|50:237|48:238|48:238|47:237|47:237|44:238|44:238|47:235|47:235|44:235|44:235|43:235|43:235|41:235|41:235|43:231|43:231|41:231|41:231|40:231|40:231|37:231|37:231|41:228|41:228|37:228|37:228|34:228|34:228|37:224|37:224|35:224|35:224|34:223|34:223|30:223|30:223|35:221|35:221|31:220|31:220|28:218|28:218|33:216|33:216|29:216|29:216|29:215|29:215|27:214|27:214|30:212|30:212|28:211|28:211|27:210|27:210|24:209|24:209|29:208|29:208|25:207|25:207|25:205|25:205|23:204|23:204|27:203|27:203|24:202|24:202|24:201|24:201|22:200|22:200|27:198|27:198|23:197|23:197|23:195|27:198,1,557.189496509103
17,114,169059,54,0,B|18:114|18:114|19:111|19:111|20:115|20:115|21:113|21:113|22:113|22:113|23:111|23:111|24:114|24:114|25:112|25:112|26:112|26:112|28:110|28:110|28:114|28:114|29:111|29:111|30:111|31:111|31:111|32:109|32:109|32:113|32:113|34:111|34:111|35:111|35:111|36:109|36:109|36:113|36:113|38:111|38:111|38:110|39:110|39:110|40:108|40:108|41:112|41:112|42:110|42:110|43:110|43:110|45:108|45:108|45:112|45:112|46:110|46:110|47:110|47:110|49:108|49:108|49:112|49:112|50:110|50:110|51:110|51:110|53:108|53:108|53:112|53:112|54:110|54:110|55:111|56:111|56:111|57:109|57:109|57:113|57:113|58:111|58:111|59:111|59:111|61:109|61:109|61:113|61:113|62:112|62:112|63:112|63:112|65:110|65:110|65:114|65:114|66:112|66:112|67:113|67:113|69:111|69:111|68:115|68:115|70:113|70:113|71:114|71:114|73:112|73:112|72:116|72:116|74:115|74:115|75:115|75:115|77:114|77:114|76:117|76:117|78:116|78:116|79:116|79:116|81:115|81:115|80:119|80:119|82:118|82:118|83:118|83:118|85:117|85:117|83:121|83:121|85:120|85:120|86:120|86:120|89:119|89:119|87:123|87:123|89:122|89:122|90:122|90:122|92:121|92:121|90:125|90:125|92:124|92:124|93:124|93:125|93:125|96:124|96:124|93:127|93:127|95:126|95:126|96:127|96:127|99:127|99:127|96:130|96:130|99:129|99:129|99:130|99:130|102:130|102:130|99:132|99:132|101:132|101:132|102:132|102:133|102:133|105:133|105:133|102:135|102:135|104:135|104:135|105:135|105:136|105:136|107:136|107:136|104:138|104:138|107:138|107:138|107:139|107:139|110:139|110:139|107:141|107:141|109:141|109:141|110:142|110:142|112:142|112:142|109:145|109:145|111:145|111:145|112:145|112:146|112:146|114:146|114:146|111:148|111:148|113:148|113:148|114:149|114:149|117:150|117:150|113:152|113:152|115:152|115:152|116:152|116:153|116:153|118:153|118:153|115:155|115:155|117:156|117:156|118:157|118:157|120:157|120:157|116:159|116:159|119:159|119:159|119:160|119:160|122:161|122:161|118:162|118:162|120:163|120:163|121:164|121:164|123:165|123:165|119:166|119:166|122:167|122:167|122:168|122:168|125:169|125:169|121:170|121:170|123:171|123:171|123:172|123:172|126:173|126:173|122:174|122:174|124:175|124:175|125:175|125:176|125:176|127:176|127:176|123:178|123:178|126:179|126:179|126:180|126:180|128:180|128:180|125:182|125:182|127:182|127:182|127:183|127:183|130:184|130:184|126:185|126:185|128:186|128:186|128:187|129:187|129:187|131:188|131:188|127:189|127:189|130:190|130:190|130:191|130:191|132:192|132:192|129:193|129:193|131:194|131:194|131:195|131:195|134:196|134:196|130:197|130:197|132:198|132:198|133:199|133:199|135:199|135:199|132:201|132:201|134:202|134:202|134:203|134:203|137:203|137:203|133:205|133:205|136:205|136:205|136:206|136:206|139:207|139:207|135:209|135:209|138:209|138:209|138:210|138:210|140:210|140:210|137:212|137:212|139:213|139:213|140:213|140:213|143:214|143:214|139:216|139:216|142:216|142:216|142:217|142:217|145:217|145:217|141:219|141:219|144:219|144:219|144:220|144:220|147:220|147:220|144:223|144:223|146:223|146:223|147:223|147:223|149:223|149:223|146:226|146:226|149:226|149:226|152:226|152:226|149:229|149:229|152:229|152:229|155:229|155:229|152:232|152:232|154:232|154:232|155:232|155:232|158:232|158:232|155:235|155:235|157:234|157:234|158:235|158:235|161:234|161:234|158:238|158:238|161:237|161:237|162:238|162:238|164:237|164:237|162:240|162:240|164:239|164:239|165:240|165:240|167:239|167:239|165:242|165:242|167:242|167:242|168:242|168:242|171:241|171:241|169:245|169:245|171:244|171:244|172:244|172:244|174:243|174:243|172:247|172:247|175:245|175:245|175:246|176:246|176:246|178:245|178:245|176:248|176:248|178:247|178:247|179:248|179:248|182:246|182:246|180:250|180:250|182:249|182:249|183:249|183:249|185:248|185:248|184:251|184:251|186:250|186:250|187:250|187:250|189:249|189:249|188:253|188:253|190:251|190:251|191:251|191:251|193:250|193:250|192:254|192:254|194:252|194:252|195:252|195:252|197:251|197:251|196:255|196:255|198:253|198:253|199:253|199:253|201:251|201:251|200:255|200:255|202:254|202:254|203:254|203:254|205:252|205:252|204:256|204:256|206:254|206:254|207:254|207:254|209:252|209:252|209:256|209:256|210:254|210:254|211:254|211:254|213:253|213:253|213:256|213:256|214:254|214:254|215:254|215:254|217:252|217:252|217:256|217:256|218:254|218:254|219:254|219:254|221:252|221:252|221:256|221:256|222:254|222:254|224:254|224:254|225:252|225:252|225:256|225:256|227:254|227:254|228:254|228:254|229:252|229:252|229:255|229:255|231:253|231:253|232:253|232:253|233:251|233:251|234:255|234:255|235:253|235:253|236:252|236:252|237:250|237:250|238:254|238:254|239:252|239:252|240:252|240:252|241:249|241:249|242:253|242:253|243:251|243:251|244:251,2,748.653540795821,2|2|2,0:0|0:0|0:0,0:0:0:0:
328,26,170443,6,0,B|326:28|327:28|327:28|327:30|327:30|324:27|324:27|325:30|325:30|324:31|324:31|324:34|324:34|321:31|321:31|322:34|322:34|321:35|321:35|321:38|321:38|318:36|318:36|319:38|319:38|318:39|318:40|318:40|319:42|319:42|315:40|315:40|316:42|316:42|315:43|315:44|315:44|316:46|316:46|312:44|312:44|313:46|313:46|312:49|312:48|312:48|313:50|313:50|310:48|310:48|311:50|311:50|310:51|310:52|310:52|310:54|310:54|307:52|307:52|308:55|308:55|307:56|307:56|308:59|308:59|305:57|305:57|306:59|306:59|305:60|305:61|305:61|306:63|306:63|302:61|302:61|303:63|303:63|303:64|302:65|302:65|303:67|303:67|300:66|300:66|301:68|301:68|300:69|300:70|300:70|301:72|301:72|297:70|297:70|299:72|299:72|298:73|298:74|298:74|299:76|299:76|295:75|295:75|297:77|297:77|296:78|296:79|296:79|297:81|297:81|293:79|293:79|295:81|295:81|293:84|294:83|294:83|295:85|295:85|291:84|291:84|293:86|293:86|292:87|292:88|292:88|293:90|293:90|290:89|290:89|291:91|291:91|290:92|290:93|290:93|292:95|292:95|288:93|288:93|289:95|289:95|289:96|289:97|289:97|290:99|290:99|286:98|286:98|288:100|288:100|287:103|287:102|287:102|288:104|288:104|285:103|285:103|286:105|286:105|285:108|286:107|286:107|287:109|287:109|283:108|283:108|285:110|285:110|284:113|284:112|284:112|286:114|286:114|282:113|282:113|283:115|283:115|283:118|283:117|283:117|285:118|285:118|281:118|281:118|282:119|282:119|282:120|282:121|282:121|284:123|284:123|280:122|280:122|281:124|281:124|281:125|281:126|281:126|283:128|283:128|279:127|279:127|280:129|280:129|280:130|280:131|280:131|282:133|282:133|278:132|278:132|279:134|279:134|279:137|279:136|279:136|281:138|281:138|277:137|277:137|279:139|279:139|278:142|278:141|278:141|280:143|280:143|276:142|276:142|278:144|278:144|278:145|278:146|278:146|280:148|280:148|276:147|276:147|278:149|278:149|278:150|277:151|277:151|279:153|279:153|275:152|275:152|277:154|277:154|277:157|277:156|277:156|279:158|279:158|275:157|275:157|277:159|277:159|277:162|277:161|277:161|279:163|279:163|275:162|275:162|277:164|277:164|277:165,1,342.54543178639
279,179,170751,2,0,B|279:182|279:181|279:181|281:182|281:182|278:183|278:183|280:184|280:184|280:187|280:186|280:186|282:187|282:187|279:188|279:188|281:189|281:189|281:190|281:191|281:191|284:191|284:191|280:193|280:193|282:193|282:193|282:194|283:195|283:195|285:196|285:196|281:197|281:197|284:198|284:198|284:199|285:200|285:200|287:201|287:201|283:202|283:202|286:203|286:203|287:205|287:204|287:204|289:205|289:205|285:207|285:207|288:207|288:207|288:208|289:209|289:209|291:209|291:209|288:211|288:211|290:211|290:211|292:214|291:213|291:213|294:213|294:213|291:215|291:215|293:216|293:216|294:216|294:217|294:217|297:217|297:217|293:220|293:220|296:220|296:220|297:220|297:221|297:221|300:221|300:221|297:224|297:224|299:223|299:223|300:224,1,113.942124030656
466,182,170905,54,0,B|465:181|465:181|463:182|463:182|465:179|465:179|462:179|462:179|459:180|459:180|462:176|462:176|459:177|459:177|458:176|458:176|456:177|456:177|458:174|458:174|456:174|456:174|455:174|455:173|455:173|453:174|453:174|455:171|455:171|453:171|453:171|452:171|452:171|450:171|450:171|452:168|452:168|450:169|450:169|449:168|449:168|447:168|447:168|450:165|450:165|447:166|447:166|447:165|446:165|446:165|444:165|444:165|447:162|447:162|444:162|444:162|443:161|443:161|441:161|441:161|444:159|444:159|442:159|442:159|441:159|441:158|441:158|438:158|438:158|442:156|442:156|439:156|439:156|439:155|438:155|438:155|436:155|436:155|439:152|439:152|437:152|437:152|436:151|436:151|434:151|434:151|437:149|437:149|435:149|435:149|435:148|434:148|434:148|432:147|432:147|435:145|435:145|433:145|433:145|432:144|432:144|430:143|430:143|433:142|433:142|431:141|431:141|431:140|431:140|428:140|428:140|432:138|432:138|430:138|430:138|429:136|429:136|427:136|427:136|431:134|431:134|428:134|428:134|428:132|428:132|426:132|426:132|429:131|429:131|427:130|427:130|427:128|427:128|425:128|425:128|428:127|428:127|426:126|426:126|426:124|426:124|424:123|424:123|427:123|427:123|425:122|425:122|425:120|425:120|423:119|423:119|427:119|427:119|425:117|425:117|424:116|424:116|422:115|422:115|426:114|426:114|424:113|424:113|424:112|424:112|422:111|422:111|426:110|426:110|424:109|424:109|424:108|424:108|422:106|422:106|426:106|426:106|424:105|424:105|424:104|424:104|422:102|422:102|426:102|426:102|424:101|424:101|424:100|424:100|422:98|422:98|426:98|426:98|424:96|424:96|424:95|424:95|426:97|426:97|422:96|422:96|424:98|424:98|424:99|424:99|425:101|425:101|421:100|421:100|423:102|423:102|423:103|423:103|425:105|425:105|420:104|420:104|422:106|422:106|422:107|422:107|424:109|424:109|420:108|420:108|421:110|421:110|421:111|421:111|423:113|423:113|419:112|419:112|420:114|420:114|420:115|420:115|421:117|421:117|418:116|418:116|419:118|419:118|419:119|419:119|420:121|420:121|416:120|416:120|418:122|418:122|417:123|417:123|418:125|418:125|415:124|415:124|416:126|416:126|416:127|415:127|415:127|417:129|417:129|413:128|413:128|414:130|414:130|414:131|414:131|415:133|415:133|411:131|411:131|412:133|412:133|412:134|412:135|412:135|413:137|413:137|409:135|409:135|410:137|410:137|410:138|409:138|409:138|410:140|410:140|407:138|407:138|408:140|408:140|407:141|407:141|408:144|408:144|405:141|405:141|405:144|405:144|405:145|405:145|405:147|405:147|402:145|402:145|403:147|403:147|402:148|402:148|402:150|402:150|400:148|400:148|400:150|400:150|399:151|399:151|399:153|399:153|397:151|397:151|397:153|397:153|396:154|396:154|396:156|396:156|394:154|394:154|394:156|394:156|393:157|393:157|393:159|393:159|391:156|391:156|391:159|391:159|390:160|390:160|390:162|390:162|387:159|387:159|387:161|387:161|387:162|386:162|386:162|386:164|386:164|384:161|384:161|384:164|384:164|383:164|383:164|383:167|383:167|381:163|381:163|381:166|381:166|380:166|380:166|379:169|379:169|377:165|377:165|377:168|377:168|376:168|376:168|376:171|376:171|374:167|374:167|373:170|373:170|371:171|370:172,1,477.217262995783,2|0,0:0|0:0,0:0:0:0:
409,249,171366,6,0,B|409:250|409:250|410:252|410:252|407:251|407:251|408:253|408:253|408:254|408:254|409:256|409:256|406:255|406:255|407:257|407:257|407:258|407:258|408:260|408:260|404:259|404:259|406:261|406:261|406:262|405:262|405:262|407:264|407:264|403:263|403:263|404:265|404:265|404:266|404:266|405:268|405:268|402:267|402:267|403:269|403:269|403:270|403:270|404:272|404:272|400:271|400:271|401:273|401:273|401:274|401:274|402:276|402:276|399:274|399:274|400:276|400:276|399:277|399:278|399:278|400:280|400:280|397:278|397:278|398:280|398:280|398:281|397:281|397:281|398:283|398:283|395:281|395:281|396:284|396:284|395:285|395:285|396:287|396:287|393:285|393:285|394:287|394:287|393:288|393:288|394:291|394:291|391:288|391:288|391:291|391:291|391:292|391:292|392:294|392:294|388:292|388:292|389:294|389:294|389:295|388:295|388:295|389:297|389:297|386:295|386:295|387:297|387:297|386:298|386:298|387:301|387:301|383:298|383:298|384:301|384:301|383:301|383:301|384:304|384:304|381:301|381:301|381:304|381:304|380:304|380:304|381:307|381:307|378:304|378:304|378:306|378:306|378:307|377:307|377:307|378:310|378:310|375:307|375:307|375:309|375:309|375:310|374:310|374:310|374:312|374:312|372:309|372:309|372:312|372:312|371:312|371:312|371:315|371:315|369:312|369:312|369:314|369:314|368:315|368:315|367:317|367:317|365:314|365:314|365:317|365:317|364:317|364:317|364:320|364:320|362:316|362:316|362:319|362:319|361:319|360:319|360:319|360:322|360:322|358:318|358:318|358:321|358:321|357:321|357:321|356:324|356:324|355:320|355:320|354:323|354:323|353:323|353:323|352:325|352:325|351:322|351:322|350:324|350:324|349:325|349:325|348:327|348:327|347:323|347:323|346:325|346:325|346:326|345:326|345:326|345:328|345:328|343:324|343:324|343:327|343:327|342:327|341:327|341:327|340:329|340:329|340:325|340:325|339:328|339:328|338:328|337:328|337:328|336:330|336:330|336:326|336:326|335:328|335:328|334:328|333:328|333:328|332:331|332:331|332:327|332:327|331:329|331:329|330:329|329:329|329:329|328:331|328:331|328:327|328:327|327:329|327:329|326:329|325:329|325:329|324:331|324:331|324:327|324:327|323:329|323:329|322:329|321:329|321:329|320:331|320:331|320:327|320:327|318:329|318:329|317:329|317:329|316:331|316:331|316:327|316:327|314:329|314:329|313:329|313:329|311:330|311:330|312:326|312:326|310:328|310:328|309:328|309:328|307:330|307:330|308:326|308:326|306:327|306:327|305:327|305:327|303:329|303:329|304:325|304:325|302:326|302:326|301:326|301:326|299:327|299:327|300:324|300:324|298:325|298:325|297:325|297:325|295:326|295:326|297:322|297:322|294:324|294:324|293:323|293:323|291:324|291:324|293:321|293:321|291:322|291:322|290:321|290:321|287:323|287:323|289:319|289:319|287:320|287:320|286:320|286:320|284:321|284:321|286:317|286:317|283:318|283:318|282:317|282:317|280:318|280:318|282:315|282:315|280:316|280:316|279:315|279:315|277:316|277:316|279:313|279:313|277:313|277:313|276:313|276:313|273:313|273:313|276:310|276:310|273:311|273:311|272:310|272:310|270:311|270:311|273:308|273:308|270:308|270:308|269:307|269:307|267:308|267:308|269:305|269:305|267:305|267:305|266:305|266:305|264:305|264:305|267:302|267:302|264:303|264:303|263:302|263:302|261:302|261:302|264:299|264:299|261:299|261:299|260:299|260:299|258:299|258:299|261:296|261:296|258:296|258:296|258:295|258:295|255:295|255:295|258:293|258:293|256:293|256:293|255:292|255:292|253:292|253:292|256:290|256:290|253:290|253:290|253:289|253:289|250:288|250:288|253:286|253:286|251:286|251:286|250:284|249:283|249:283|250:281|250:281|251:284|251:284|252:282|252:282|253:282|253:281|253:281|253:279|253:279|255:283|255:283|256:280|256:280|257:280|257:280|257:277|257:277|259:281|259:281|259:278|259:278|260:278|260:278|261:275|261:275|263:279|263:279|263:276|263:276|264:276|264:276|264:273|264:273|266:277|266:277|266:274|266:274|267:274|267:274|267:271|267:271|270:274|270:274|270:272|270:272|270:271|271:271|271:271|271:268|271:268|273:271|273:271|273:269|273:269|274:269|274:268|274:268|274:266|274:266|277:269|277:269|276:266|276:266|277:266|277:265|277:265|277:263|277:263|280:266|280:266|279:263|279:263|280:263|280:262|280:262|280:260|280:260|283:263|283:263|282:260|282:260|283:260|283:259|283:259|282:257|282:257|285:259|285:259|285:257|285:257|286:256|286:256|285:254|285:254|288:256|288:256|287:254|287:254|288:253|288:253|287:251|287:251|290:253|290:253|289:250|289:250|290:249|290:249|289:247|289:247|292:249|292:249|291:247|291:247|292:246|292:246|291:243|291:243|294:245|294:245|293:243|293:243|294:242|294:242|293:240|293:240|296:241|296:241|295:239|295:239|295:238|295:238|294:236|294:236|298:237|298:237|296:235|296:235|297:234|297:234|295:232|295:232|299:233|299:233|298:231|298:231|298:230|298:230|296:228|296:228|300:229|300:229|299:227|299:227|299:225|299:224,2,740.147631784115,2|2|0,0:0|0:0|0:0,0:0:0:0:
214,28,172443,54,0,B|213:29|213:30|213:30|214:32|214:32|211:30|211:30|212:32|212:32|211:33|211:34|211:34|213:36|213:36|209:35|209:35|210:37|210:37|210:40|210:39|210:39|212:41|212:41|208:41|208:41|210:42|210:42|210:43|210:44|210:44|212:45|212:45|208:46|208:46|211:47|211:47|211:48|211:49|211:49|214:49|214:49|210:51|210:51|212:52|212:52|214:54|213:53|213:53|216:53|216:53|212:56|212:56|215:56|215:56|216:57|216:57|219:57|219:57|216:60|216:60|218:59|218:59|221:61|220:61|220:61|222:60|222:60|220:63|220:63|223:62|223:62|223:63|224:63|224:63|226:62|226:62|225:65|225:65|227:64|227:64|228:64|229:64|229:64|231:63|231:63|230:66|230:66|232:65|232:65|235:65|234:65|234:65|235:63|235:63|236:67|236:67|237:64|237:64|238:64|239:64|239:64|240:62|240:62|241:65|241:65|242:63|242:63|244:62|244:62|244:60|244:60|246:63|246:63|246:61|246:61|249:59|248:60|248:60|248:57|248:57|250:60|250:60|250:58|250:58|251:57|251:56|251:56|251:54|251:54|254:56|254:56|253:54|253:54|254:53|254:52|254:52|253:50|253:50|257:52|257:52|255:49|255:49|256:47|256:48|256:48|254:46|254:46|258:46|258:46|257:45|257:45|257:44|257:43|257:43|255:41|255:41|259:41|259:41|257:40|257:40|257:39|257:38|257:38|254:37|254:37|258:36|258:36|256:35|256:35|255:32|255:33|255:33|253:32|253:32|256:31|256:31|254:30|254:30|254:29|253:29|253:29|251:28|251:28|254:26|254:26|251:26|251:26|251:25|250:25|250:25|247:25|247:25|250:22|250:22|248:23|248:23|245:21|246:22|246:22|244:23|244:23|246:19|246:19|243:20|243:20|242:19|242:19|240:21|240:21|241:17|241:17|239:18|239:18|238:18|237:18|237:18|235:20|235:20|235:16|235:16|234:18|234:18|231:18|232:18|232:18|231:20|231:20|230:16|230:16|229:18|229:18|226:19|226:19|224:20,1,293.684783888211
229,34,172751,6,0,B|228:34|228:34|226:36|226:36|227:32|227:32|225:33|225:33|224:33|224:33|222:35|222:35|223:31|223:31|221:33|221:33|220:33|220:33|218:35|218:35|218:31|218:31|217:33|217:33|216:33|216:33|214:35|214:35|214:31|214:31|213:33|213:33|212:33|211:33|211:33|210:35|210:35|210:31|210:31|208:33|208:33|207:33|207:33|206:35|206:35|206:31|206:31|204:33|204:33|203:33|203:33|202:35|202:35|201:31|201:31|200:34|200:34|199:34|199:34|198:36|198:36|197:32|197:32|196:34|196:34|195:35|195:35|194:37|194:37|193:33|193:33|192:35|192:35|191:36|191:36|190:38|190:38|189:34|189:34|188:36|188:36|188:37|187:37|187:37|186:39|186:39|185:35|185:35|184:38|184:38|183:38|183:38|183:41|183:41|181:37|181:37|180:39|180:39|180:40|180:40|179:42|179:42|177:38|177:38|177:41|177:41|176:41|176:41|175:44|175:44|173:40|173:40|173:43|173:43|172:43|172:43|172:46|172:46|170:42|170:42|169:45|169:45|168:48|168:48|166:45|166:45|166:47|166:47|165:48|165:48|165:50|165:50|163:47|163:47|163:49|163:49|162:50|162:50|162:53|162:53|159:49|159:49|159:52|159:52|159:55|159:55|156:52|156:52|156:54|156:54|156:55|156:55|156:58|156:58|153:55|153:55|153:57|153:57|153:58|153:58|153:60|153:60|150:58|150:58|151:60|151:60|150:61|150:61|150:63|150:63|147:61|147:61|148:63|148:63|147:64|147:64|148:66|148:66|145:64|145:64|145:66|145:66|145:67|145:67|145:70|145:70|142:67|142:67|143:70|143:70|142:70|142:70|143:73|143:73|140:71|140:71|140:73|140:73|140:74|140:74|141:76|141:76|137:74|137:74|138:76|138:76|138:77|138:77|139:80|139:80|135:78|135:78|136:80|136:80|136:81|136:81|137:83|137:83|133:81|133:81|134:83|134:83|134:84|134:84|135:87|135:87|131:85|131:85|132:87|132:87|132:88|132:88|133:90|133:90|130:88|130:88|131:91|131:91|130:91|130:92|130:92|131:94|131:94|128:92|128:92|129:94|129:94|129:95|129:95|130:97|130:97|126:96|126:96|127:98|127:98|127:99|127:99|128:101|128:101|124:99|124:99|126:102|126:102|125:102|125:103|125:103|126:105|126:105|123:103|123:103|124:105|124:105|124:106|123:106|123:106|125:109|125:109|121:107|121:107|122:109|122:109|122:110|122:110|123:112|123:112|119:111|119:111|120:113|120:113|120:114|120:114|121:116|121:116|117:114|117:114|118:116|118:116|118:117|118:117|119:120|119:120|115:118|115:118|116:120|116:120|116:121|116:121|117:123|117:123|113:121|113:121|114:123|114:123|114:124|114:124|115:127|115:127|111:125|111:125|112:127|112:127|112:128|112:128|112:130|112:130|109:128|109:128|110:130|110:130|109:131|109:131|110:133|110:133|107:131|107:131|107:133|107:133|107:134|107:134|107:137|107:137|104:134|104:134|105:137|105:137|104:137|104:137|104:140|104:140|101:137|101:137|102:140|102:140|101:140|101:140|102:143|102:143|99:140|99:140|99:142|99:142|99:143|98:143|98:143|99:146|99:146|96:143|96:143|96:145|96:145|96:146|95:146|95:146|95:149|95:149|93:146|93:146|93:148|93:148|92:148|92:149|92:149|92:151|92:151|90:148|90:148|90:150|90:150|89:151|89:151|89:154|89:154|87:150|87:150|86:153|86:153|85:156|85:156|83:153|83:153|83:155|83:155|82:156|82:156|82:158|82:158|80:155|80:155|80:157|80:157|79:158|79:158|78:160|78:160|76:157|76:157|76:159|76:159|75:159|75:159|74:162|74:162|73:158|73:158|72:161|72:161|71:161|71:161|71:164|71:164|69:160|69:160|68:162|68:162|68:163|67:163|67:163|67:165|67:165|65:161|65:161|65:164|65:164|64:164|63:164|63:164|63:166|63:166|61:162|61:162|61:165|61:165|60:165|59:165|59:165|58:167|58:167|58:164|58:164|57:166|57:166|56:166|56:166|54:168|54:168|54:164|54:164|53:166|53:166|52:166|52:166|50:169|50:169|50:165|50:165|48:167|48:167|47:167|47:167|46:169|46:169|46:165|46:165|44:167|44:167|43:167|43:167|42:169|42:169|42:165|42:165|40:167|40:167|39:167|39:167|38:169|38:169|38:165|38:165|36:167|36:167|35:167|35:167|33:168|33:168|34:164|34:164|32:166|32:166|31:166|31:166|29:168|29:168|30:164|30:164|28:165|28:165|27:165|27:165|25:167|25:167|26:163|26:163|24:164|24:164|23:164,1,669.796828825905,2|0,0:0|0:0,0:0:0:0:
9,76,173212,2,0,B|10:75|10:75|10:73|10:73|12:76|12:76|13:74|13:74|14:73|14:73|14:71|14:71|16:74|16:74|16:72|16:72|17:72|17:71|17:71|18:69|18:69|19:73|19:73|20:70|20:70|21:70|21:70|21:67|21:67|23:71|23:71|24:68|24:68|25:68|25:68|25:65|25:65|27:70|27:70|28:67|28:67|29:67|29:67|30:64|30:64|31:68|31:68|32:66|32:66|32:65|33:65|33:65|34:63|34:63|35:67|35:67|36:65|36:65|36:64|37:64|37:64|38:62|38:62|39:66|39:66|40:64|40:64|41:63|41:63|42:61|42:61|43:65|43:65|44:63|44:63|45:63|45:63|46:61|46:61|47:65|47:65|48:63|48:63|49:62|49:62|50:60|50:60|51:64|51:64|52:62|52:62|53:62|53:62|54:60|54:60|55:64|55:64|56:62|56:62|57:62|57:62|59:60|59:60|59:64|59:64|60:62|60:62|61:62|61:62|63:61|63:61|63:64|63:64|64:63|64:63|65:63|65:63|67:61|67:61|67:65|67:65|68:63|68:63|69:63|69:63|71:62|71:62|71:65|71:65|72:64|72:64|73:64|73:64|75:62|75:62|74:66|74:66|76:65|76:65|77:65|77:65|79:63|79:63|78:67|78:67|80:66|80:66|81:66|81:66|83:65|83:65|82:68|82:68|84:67|84:67|85:67|85:67|87:66|87:66|86:70|86:70|88:68|88:68|89:69|89:69|91:67|91:67|90:71|90:71|92:70|92:70|93:70|93:70|95:69|95:69|93:73|93:73|95:72|95:72|96:72|96:72|99:71|99:71|97:75|97:75|99:74|99:74|100:74|100:74|102:73|102:73|100:77|100:77|103:76|103:76|106:75|106:75|104:79|104:79|106:78|106:78|107:79|107:79|109:78|109:78|107:81|107:81|109:80|109:80|110:81|110:81|113:80|113:80|110:83|110:83|112:83|112:83|113:83|113:83|116:83|116:83|113:86|113:86|116:85|116:85|116:86|116:86|119:86|119:86|116:89|116:89|119:88|119:88|120:89|120:89|122:88|122:88|119:91|119:91|122:91|122:91|125:91|125:91|122:94|122:94|125:94|125:94|128:94|128:94|125:97|125:97|128:96|128:96|128:97|128:97|131:97|131:97|128:100|128:100|131:99|131:99|131:100|131:100|134:99|134:99|131:102|131:102|134:102|134:102|134:103|134:103|137:102|137:102|134:105|134:105|137:105|137:105|140:105|140:105|137:108|137:108|140:107|140:107|140:108|140:108|143:108|143:108|140:111|140:111|143:110|143:110|143:111|144:111|144:111|146:110|146:110|144:113|144:113|146:113|146:113|147:113|147:113|149:113|149:113|147:116|147:116|149:115|149:115|150:116|150:116|152:115|152:115|150:118|150:118|152:117|152:117|153:118|153:118|156:117|156:117|154:120|154:120|156:120|156:120|157:120|157:120|159:119|159:119|157:123|157:123|159:122|159:122|160:122|160:122|163:121|163:121|161:125|161:125|163:124|163:124|164:124|164:124|166:123|166:123|164:127|164:127|167:125|167:125|167:126|168:126|168:126|170:125|170:125|168:128|168:128|170:127|170:127|171:127|171:127|173:126|173:126|172:130|172:130|174:128|174:128|175:129|175:129|177:127|177:127|176:131|176:131|178:130|178:130|179:130|179:130|181:128|181:128|180:132|180:132|182:131|182:131|183:131|183:131|185:129|185:129|184:133|184:133|186:132|186:132|187:132|187:132|189:130|189:130|188:134|188:134|190:133|190:133|191:133|191:133|193:131|193:131|192:135|192:135|194:133|194:133|195:133|195:133|197:132|197:132|196:135|196:135|198:134|198:134|199:134|199:134|201:132|201:132|201:136|201:136|202:134|202:134|203:134|203:134|205:132|205:132|205:136|205:136|206:134|206:134|207:134|207:134|209:132|209:132|209:136|209:136|210:134|210:134|211:134|211:133|211:133|213:131|213:131|213:135|213:135|214:133|214:133|215:133|215:133|216:131|216:131|217:135|217:135|218:133|218:133|219:132|219:132|220:130|220:130|221:134|221:134|222:132|222:132|223:131|223:131|224:129|224:129|225:133|225:133|226:131|226:131|227:130|227:130|228:128|228:128|229:132|229:132|230:129|230:129|231:129|231:129|232:126|232:126|233:130|233:130|234:128|234:128|235:127|235:127|236:125|236:125|237:128|237:128|238:126|238:126|238:125|239:125|239:125|239:123|239:123|241:126|241:126|241:124|241:124|242:123|242:123|242:121|242:121|245:124|245:124|245:121|245:121|247:120|248:119|248:119|249:119,1,657.276548354973,2|0,0:0|0:0,0:0:0:0:
338,124,173628,54,0,B|338:121|338:122|338:122|336:120|336:120|340:121|340:121|338:119|338:119|338:118|338:117|338:117|336:116|336:116|340:116|340:116|338:114|338:114|338:111|338:112|338:112|336:111|336:111|340:111|340:111|338:109|338:109|338:106|338:107|338:107|336:106|336:106|340:105|340:105|338:104|338:104|338:103|338:102|338:102|335:101|335:101|339:100|339:100|337:99|337:99|337:98|337:97|337:97|334:96|334:96|338:95|338:95|336:94|336:94|335:92|335:92|333:92|333:92|337:91|337:91|335:90|335:90|334:87|334:88|334:88|332:87|332:87|335:86|335:86|333:85|333:85|332:82|332:83|332:83|330:82|330:82|334:81|334:81|331:80|331:80|331:79|330:79|330:79|328:78|328:78|331:76|331:76|329:76|329:76|329:75|328:74|328:74|326:74|326:74|329:72|329:72|327:72|327:72|326:71|326:70|326:70|323:70|323:70|326:68|326:68|324:67|324:67|323:67|323:66|323:66|320:66|320:66|323:63|323:63|321:63|321:63|320:63|320:62|320:62|317:62|317:62|320:59|320:59|318:59|318:59|316:57|317:58|317:58|314:58|314:58|317:56|317:56|315:56|315:56|312:54|313:54|313:54|311:55|311:55|313:52|313:52|311:52|311:52|309:50|309:51|309:51|307:52|307:52|310:49|310:49|307:49|307:49|306:48|306:48|303:49|303:49|306:45|306:45|303:46|303:46|301:44|302:45|302:45|299:46|299:46|301:42|301:42|299:43|299:43|298:43|297:42|297:42|295:43|295:43|297:40|297:40|295:41|295:41|292:39|293:40|293:40|291:41|291:41|293:37|293:37|290:38|290:38|288:37|289:38|289:38|287:39|287:39|288:35|288:35|286:36|286:36|283:35|284:36|284:36|282:37|282:37|283:33|283:33|281:35|281:35|280:34|279:34|279:34|277:36|277:36|279:32|279:32|277:33|277:33|274:32|275:33|275:33|273:34|273:34|274:30|274:30|272:32|272:32|271:32|270:32|270:32|268:33|268:33|269:29|269:29|267:31|267:31|263:31|262:30,1,299.758129831322,2|0,1:3|0:0,0:0:0:0:
323,271,173936,1,0,0:0:0:0:
186,205,174090,6,0,B|186:202|186:203|186:203|184:202|184:202|188:201|188:201|186:200|186:200|185:197|186:198|186:198|184:197|184:197|187:197|187:197|185:195|185:195|186:192|186:193|186:193|184:191|184:191|188:192|188:192|186:190|186:190|186:187|186:188|186:188|184:186|184:186|188:187|188:187|186:185|186:185|186:184|187:183|187:183|185:181|185:181|189:182|189:182|187:180|187:180|187:179|187:178|187:178|186:176|186:176|190:177|190:177|188:175|188:175|189:173|189:174|189:174|187:171|187:171|191:173|191:173|190:171|190:171|191:168|190:169|190:169|189:167|189:167|193:168|193:168|191:166|191:166|192:165|192:164|192:164|191:162|191:162|195:164|195:164|193:161|193:161|194:161|194:160|194:160|193:157|193:157|197:159|197:159|196:157|196:157|196:156|197:155|197:155|196:153|196:153|199:155|199:155|198:153|198:153|200:150|199:151|199:151|198:149|198:149|202:151|202:151|201:149|201:149|202:148|202:147|202:147|202:145|202:145|205:147|205:147|204:145|204:145|206:142|205:143|205:143|205:141|205:141|208:143|208:143|207:141|207:141|208:140|209:140|209:140|208:137|208:137|211:140|211:140|211:138|211:138|213:136|212:136|212:136|212:134|212:134|215:137|215:137|215:134|215:134|217:132|216:133|216:133|216:131|216:131|219:134|219:134|219:131|219:131|220:130|220:130|220:128|220:128|222:131|222:131|223:128|223:128|224:127|224:127|225:125|225:125|227:128|227:128|227:126|227:126|228:125|229:125|229:125|229:123|229:123|231:126|231:126|231:124|231:124|232:123|233:123|233:123|234:120|234:120|235:124|235:124|236:122|236:122|239:121|238:121|238:121|239:119|239:119|240:122|240:122|241:120|241:120|242:120|242:119|242:119|243:117|243:117|244:121|244:121|245:119|245:119|248:118,1,261.918701136606,2|2,1:3|0:0,0:0:0:0:
199,335,174397,1,0,0:0:0:0:
323,271,174551,54,0,B|323:268|323:269|323:269|321:267|321:267|325:268|325:268|323:266|323:266|323:265|323:264|323:264|321:263|321:263|325:263|325:263|323:261|323:261|323:260|323:259|323:259|321:258|321:258|325:257|325:257|323:256|323:256|323:255|323:254|323:254|321:253|321:253|324:252|324:252|322:251|322:251|322:250|322:249|322:249|320:248|320:248|323:247|323:247|321:246|321:246|321:245|321:244|321:244|318:243|318:243|322:242|322:242|320:241|320:241|319:239|319:240|319:240|317:239|317:239|321:237|321:237|318:237|318:237|318:236|317:235|317:235|315:234|315:234|319:233|319:233|316:232|316:232|316:231|315:230|315:230|313:230|313:230|316:228|316:228|314:228|314:228|312:225|313:226|313:226|310:226|310:226|314:224|314:224|311:224|311:224|309:221|310:222|310:222|307:222|307:222|311:220|311:220|308:220|308:220|306:217|307:218|307:218|304:218|304:218|307:216|307:216|305:216|305:216|303:214|304:214|304:214|301:215|301:215|304:212|304:212|302:212|302:212|299:210|300:211|300:211|298:211|298:211|300:208|300:208|298:209|298:209|296:207|296:208|296:208|294:208|294:208|296:205|296:205|294:206|294:206|293:205|292:205|292:205|290:205|290:205|292:202|292:202|290:203|290:203|289:202|288:202|288:202|286:203|286:203|288:199|288:199|285:200|285:200|284:200|284:200|282:201|282:201|283:197|283:197|281:198|281:198|280:198|279:198|279:198|277:199|277:199|279:195|279:195|276:196|276:196|275:196|275:196|272:197|272:197|274:193|274:193|272:195|272:195|271:195,1,226.544773819913,2|0,1:3|0:0,0:0:0:0:
288,358,174859,1,0,0:0:0:0:
199,335,175013,6,0,B|199:334|199:333|199:333|197:332|197:332|201:331|201:331|199:330|199:330|198:327|198:328|198:328|197:327|197:327|201:327|201:327|199:325|199:325|199:322|199:323|199:323|197:321|197:321|201:322|201:322|199:320|199:320|199:317|199:318|199:318|198:316|198:316|202:317|202:317|200:315|200:315|201:312|200:313|200:313|199:311|199:311|203:312|203:312|201:310|201:310|202:308|202:309|202:309|201:306|201:306|204:308|204:308|203:306|203:306|204:303|204:304|204:304|203:302|203:302|206:303|206:303|205:301|205:301|206:300|206:299|206:299|205:297|205:297|209:299|209:299|208:297|208:297|208:296|209:295|209:295|208:293|208:293|211:295|211:295|211:293|211:293|213:291|212:291|212:291|211:289|211:289|214:292|214:292|214:289|214:289|216:287|215:288|215:288|215:285|215:285|218:288|218:288|217:286|217:286|220:284|219:284|219:284|219:282|219:282|221:285|221:285|221:283|221:283|222:282|223:281|223:281|223:279|223:279|225:282|225:282|226:280|226:280|228:278|227:279|227:279|228:276|228:276|229:280|229:280|230:278|230:278|231:277|232:277|232:277|232:274|232:274|234:278|234:278|234:276|234:276|235:275|236:275|236:275|237:273|237:273|238:276|238:276|239:274|239:274|243:273,2,183.501796887245,2|2|0,1:3|0:0|0:0,0:0:0:0:
484,131,175474,54,0,B|484:130|484:130|481:128|481:128|485:128|485:128|483:127|483:127|483:125|483:125|481:124|481:124|485:123|485:123|482:122|482:122|482:121|482:121|480:120|480:120|484:119|484:119|482:118|482:118|481:116|481:116|479:115|479:115|483:114|483:114|481:113|481:113|480:112|480:112|478:111|478:111|482:110|482:110|480:109|480:109|480:107|480:107|477:106|477:106|481:106|481:106|479:104|479:104|479:103|479:103|477:102|477:102|481:101|481:101|478:100|478:100|478:99|478:99|476:97|476:97|480:97|480:97|477:96|477:96|477:94|477:94|475:93|475:93|479:92|479:92|477:91|477:91|476:90|476:90|474:89|474:89|478:88|478:88|476:87|476:87|476:85|476:85|473:84|473:84|477:83|477:83|475:82|475:82|475:81|475:81|473:80|473:80|476:79|476:79|474:78|474:78|474:76|474:76|472:75|472:75|476:75|476:75|473:74|473:74|473:72|473:72|471:71|471:71|475:70|475:70|473:69|473:69|472:68|472:68|470:67|470:67|474:66|474:66|472:65|472:65|471:63|471:63|469:62|469:62|473:61|473:61|471:60|471:60|471:59|471:59|468:58|468:58|472:57|472:57|470:56|470:56|470:54|470:54|468:53|468:53|472:53|472:53|469:51|469:51|469:50|469:50|467:49|467:49|471:48|471:48|469:47|469:47|468:46|468:46|466:44|466:44|470:44|470:44|468:43|468:43|467:41|467:41|465:40|465:40|469:39|469:39|467:38|467:38|467:37|467:37|464:36|464:36|468:35|468:35|466:34|466:34|466:32|466:32|464:31|464:31|467:30|467:30|465:29|465:29|465:28|465:28|463:27|463:27|467:26|467:26|464:25|464:25|464:23|464:23|462:22|462:22|466:22|466:22|464:20|464:20|463:19|463:19|461:18|461:18|465:17|465:17|463:16|463:16|463:15|463:15|460:13|460:13|464:13|464:13|462:12|462:12|462:10|462:10|459:9|459:9|463:8|463:8|461:7|461:7|461:6|461:6|459:5|459:5|463:4|463:4|460:3|460:3|460:0,1,310.800969638657,2|0,1:3|0:0,0:0:0:0:
243,11,175782,1,0,0:0:0:0:
398,134,175936,6,0,B|397:133|397:133|394:134|394:134|396:131|396:131|394:132|394:132|393:131|393:131|390:132|390:132|392:129|392:129|390:130|390:130|389:129|389:129|386:130|386:130|388:127|388:127|386:128|386:128|385:127|385:127|382:128|382:128|384:125|384:125|382:126|382:126|381:125|381:125|378:126|378:126|380:123|380:123|378:124|378:124|377:123|377:123|374:124|374:124|376:121|376:121|374:122|374:122|373:121|373:121|370:122|370:122|372:119|372:119|370:120|370:120|369:119|369:119|366:120|366:120|368:117|368:117|366:118|366:118|365:117|365:117|362:118|362:118|364:115|364:115|362:116|362:116|361:115|361:115|358:116|358:116|360:113|360:113|358:114|358:114|357:113|357:113|354:114|354:114|356:111|356:111|354:112|354:112|353:111|353:111|350:112|350:112|352:108|352:108|350:110|350:110|349:109|349:109|346:110|346:110|348:106|348:106|346:108|346:108|345:107|345:107|342:108|342:108|344:104|344:104|342:106|342:106|341:105|341:105|338:106|338:106|340:102|340:102|338:103|338:103|337:103|337:103|334:104|334:104|336:100|336:100|334:101|334:101|333:101|333:101|330:102|330:102|332:98|332:98|330:99|330:99|329:99|329:99|326:100|326:100|328:96|328:96|326:97|326:97|325:97|325:97|322:98|322:98|324:94|324:94|322:95|322:95|321:95|321:95|318:96|318:96|320:92|320:92|318:93|318:93|317:93|317:93|314:94|314:94|316:90|316:90|314:91|314:91|313:91|313:91|310:92|310:92|312:88|312:88|310:89|310:89|309:89|309:89|306:90|306:90|308:86|308:86|306:87|306:87|305:87|305:87|302:88|302:88|304:84|304:84|302:85|302:85|301:84|301:84|298:86|298:86|300:82|300:82|298:83|298:83|294:81,1,275.549512351807,2|2,1:3|0:0,0:0:0:0:
145,183,176243,1,0,0:0:0:0:
315,186,176397,54,0,B|314:187|314:187|313:189|313:189|312:185|312:185|311:188|311:188|309:188|309:188|309:190|309:190|307:187|307:187|307:189|307:189|305:190|305:190|304:192|304:192|303:188|303:188|302:191|302:191|301:191|301:191|300:194|300:194|299:190|299:190|298:192|298:192|297:193|297:193|296:195|296:195|295:191|295:191|294:194|294:194|293:194|293:194|292:197|292:197|290:193|290:193|290:195|290:195|288:196|288:196|288:198|288:198|286:194|286:194|285:197|285:197|284:197|284:197|283:200|283:200|282:196|282:196|281:198|281:198|280:199|280:199|279:201|279:201|278:197|278:197|277:200|277:200|276:200|276:200|275:203|275:203|274:199|274:199|273:201|273:201|271:202|271:202|271:204|271:204|269:201|269:201|269:203|269:203|267:203|267:203|266:206|266:206|265:202|265:202|264:204|264:204|263:205|263:205|262:207|262:207|261:204|261:204|260:206|260:206|259:207|259:207|258:209|258:209|257:205|257:205|256:208|256:208|255:208|255:208|254:210|254:210|252:207|252:207|252:209|252:209|250:210|250:210|250:212|250:212|248:208|248:208|248:211|248:211|246:211|246:211|245:214|245:214|244:210|244:210|243:212|243:212|242:213|242:213|241:215|241:215|240:211|240:211|239:214|239:214|238:214|238:214|237:217|237:217|236:213|236:213|235:215|235:215|233:216|233:216|233:218|233:218|231:214|231:214|231:217|231:217|229:217|229:217|229:220|229:220|227:216|227:216|226:218|226:218|225:219|225:219|224:221|224:221|223:218|223:218|222:220|222:220|221:220,1,236.580102090603,2|0,1:3|0:0,0:0:0:0:
201,356,176705,1,0,0:0:0:0:
323,273,176859,6,0,B|322:274|322:274|323:277|323:277|320:275|320:275|321:277|321:277|320:278|320:278|321:281|321:281|318:279|318:279|319:281|319:281|318:282|318:282|319:285|319:285|316:283|316:283|317:285|317:285|316:286|316:286|317:289|317:289|314:287|314:287|315:289|315:289|314:290|314:290|315:293|315:293|312:291|312:291|313:293|313:293|312:294|312:294|313:297|313:297|310:295|310:295|311:297|311:297|310:298|310:298|311:301|311:301|308:299|308:299|309:301|309:301|308:302|308:302|309:305|309:305|306:303|306:303|307:305|307:305|306:306|306:306|307:309|307:309|304:307|304:307|305:309|305:309|304:310|304:310|305:313|305:313|302:311|302:311|303:313|303:313|302:314|302:314|303:317|303:317|300:315|300:315|301:317|301:317|300:318|300:318|301:321|301:321|298:319|298:319|299:321|299:321|298:322|298:322|299:325|299:325|296:323|296:323|297:325|297:325|296:326|296:326|297:329|297:329|294:327|294:327|295:329|295:329|294:331|294:331|295:333|295:333|292:331|292:331|293:333|293:333|292:335|292:335|293:337|293:337|290:335|290:335|291:337|291:337|290:339|290:339|291:341|291:341|288:339|288:339|289:341|289:341|288:343|288:343|289:345|289:345|286:343|286:343|287:345|287:345|286:347|286:347|286:348,1,190.344635466427,2|2,1:3|0:0,0:0:0:0:
365,383,177166,1,0,0:0:0:0:
50,331,177320,54,0,B|49:330|49:330|47:330|47:330|50:327|50:327|48:327|48:327|47:326|47:326|44:326|44:326|48:324|48:324|45:324|45:324|44:322|44:322|42:322|42:322|45:320|45:320|43:320|43:320|42:319|42:319|39:318|39:318|43:316|43:316|40:316|40:316|39:315|39:315|37:315|37:315|40:313|40:313|38:312|38:312|37:311|37:311|34:311|34:311|38:309|38:309|35:309|35:309|34:307|34:307|32:307|32:307|35:305|35:305|33:305|33:305|32:304|32:304|29:304|29:304|33:301|33:301|30:301|30:301|29:300|29:300|27:300|27:300|30:298|30:298|28:297|28:297|27:296|27:296|25:296|25:296|28:294|28:294|25:294|25:294|25:292|25:292|22:292|22:292|25:290|25:290|23:290|23:290|22:289|22:289|20:289|20:289|23:286|23:286|20:286|20:286|20:285|20:285|17:285|17:285|20:283|20:283|18:283|18:283|17:281|17:281|15:281|15:281|18:279|18:279|16:279|16:279|15:278|15:278|15:275|15:275|18:278|18:278|17:275|17:275|18:274|18:274|18:272|18:272|21:275|21:275|20:272|20:272|21:271|21:271|21:269|21:269|24:271|24:271|23:269|23:269|24:268|24:268|24:265|24:265|27:268|27:268|26:265|26:265|27:264|27:264|27:262|27:262|30:265|30:265|29:262|29:262|30:261|30:261|30:259|30:259|33:261|33:261|32:259|32:259|33:258|33:258|33:255|33:255|36:258|36:258|35:256|35:256|36:254|36:254|36:252|36:252|39:255|39:255|38:252|38:252|39:251|39:251|39:249|39:249|42:251|42:251|42:249|42:249|43:248|43:248|42:245|42:245|45:248|45:248|45:246|45:246|46:245|46:245|45:242|45:242|48:245|48:245|48:242|48:242|49:241|49:241|48:239|48:239|51:241|51:241|51:239|51:239|52:238|52:238|51:235|51:235|54:238|54:238|54:236|54:236|55:235|55:235|54:232|54:232|57:235|57:235|57:232|57:232|58:231|58:231|57:229|57:229|60:232|60:232|60:229|60:229|62:226,1,311.189339667343,2|0,1:3|0:0,0:0:0:0:
129,371,177628,1,0,0:0:0:0:
213,244,177782,6,0,B|212:245|212:245|213:248|213:248|210:246|210:246|211:248|211:248|210:249|210:249|211:252|211:252|208:250|208:250|209:252|209:252|208:253|208:253|209:255|209:255|206:254|206:254|207:256|207:256|206:257|206:257|207:259|207:259|204:258|204:258|205:260|205:260|204:261|204:261|205:263|205:263|202:262|202:262|203:264|203:264|202:265|202:265|203:267|203:267|200:266|200:266|201:268|201:268|200:269|200:269|201:271|201:271|197:270|197:270|199:272|199:272|198:273|198:273|199:275|199:275|195:273|195:273|196:276|196:276|196:277|196:277|197:279|197:279|193:277|193:277|194:280|194:280|194:281|194:281|195:283|195:283|191:281|191:281|192:284|192:284|192:285|192:285|193:287|193:287|189:285|189:285|190:288|190:288|190:289|190:289|191:291|191:291|187:289|187:289|188:292|188:292|187:292|187:292|185:293|185:293|186:290|186:290|184:291|184:291|183:291|183:291|181:292|181:292|182:289|182:289|180:290|180:290|178:290|178:290|176:292|176:292|177:288|177:288|175:289|175:289|174:289|174:289|172:291|172:291|173:287|173:287|171:288|171:288|170:288|170:288|168:290|168:290|169:286|169:286|167:287|167:287|165:287|165:287|163:289|163:289|164:285|164:285|162:286|162:286|161:286|161:286|159:288|159:288|160:284|160:284|158:285|158:285|156:285|156:285|155:287|155:287|155:283|155:283|154:284|154:284|152:284|152:284|150:286|150:286|151:282|151:282|149:284|149:284|148:283|148:283|146:285|146:285|147:281|147:281|145:283|145:283|143:282|143:282|142:284|142:284|142:280|142:280|140:282|140:282|139:281|139:281|137:283|137:283|138:279|138:279|136:281|136:281|135:280|135:280|133:282|133:282|134:278|134:278|132:280|132:280|130:279|130:279|128:281|128:281|129:277|129:277|127:279|127:279|126:279,1,271.935349006565,2|2,1:3|0:0,0:0:0:0:
225,156,178090,1,0,0:0:0:0:
84,145,178243,54,0,B|85:145|85:145|87:143|87:143|87:147|87:147|88:145|88:145|90:145|90:145|91:143|91:143|92:146|92:146|93:144|93:144|94:144|94:144|96:142|96:142|96:146|96:146|97:144|97:144|99:144|99:144|100:142|100:142|100:146|100:146|102:144|102:144|103:144|103:144|105:142|105:142|105:146|105:146|106:144|106:144|108:143|108:143|109:141|109:141|109:145|109:145|111:143|111:143|112:143|112:143|114:141|114:141|114:145|114:145|115:143|115:143|117:143|117:143|118:141|118:141|118:145|118:145|120:143|120:143|121:143|121:143|122:141|122:141|123:144|123:144|124:142|124:142|126:142|126:142|127:140|127:140|127:144|127:144|129:142|129:142|130:142|130:142|132:143|132:143|129:144|129:144|131:145|131:145|131:146|131:146|134:147|134:147|130:148|130:148|132:149|132:149|133:151|133:151|135:151|135:151|131:153|131:153|134:153|134:153|134:155|134:155|136:156|136:156|133:157|133:157|135:158|135:158|135:159|135:159|138:160|138:160|134:161|134:161|136:162|136:162|137:163|137:163|139:164|139:164|135:165|135:165|138:166|138:166|138:168|138:168|141:168|141:168|137:170|137:170|139:170|139:170|140:172|140:172|142:173|142:173|138:174|138:174|140:175|140:175|141:176|141:176|143:177|143:177|139:178|139:178|142:179|142:179|142:180|142:180|145:181|145:181|141:182|141:182|143:183|143:183|144:185|144:185|146:185|146:185|142:187|142:187|145:187|145:187|145:189|145:189|147:190|147:190|144:191|144:191|146:192|146:192|147:194,1,232.315701668098,2|0,1:3|0:0,0:0:0:0:
0,158,178551,1,0,0:0:0:0:
47,290,178705,6,0,B|46:289|46:289|44:288|44:288|47:286|47:286|45:286|45:286|44:285|44:285|42:285|42:285|45:283|45:283|43:282|43:282|42:281|42:281|39:281|39:281|43:279|43:279|40:278|40:278|40:277|40:277|37:277|37:277|41:275|41:275|38:275|38:275|37:273|37:273|35:273|35:273|38:271|38:271|36:271|36:271|35:269|35:269|33:269|33:269|36:267|36:267|34:267|34:267|33:266|33:266|30:265|30:265|34:263|34:263|31:263|31:263|31:262|31:262|28:261|28:261|32:259|32:259|29:259|29:259|28:257|28:257|28:255|28:255|30:257|30:257|30:255|30:255|31:254|31:254|31:251|31:251|34:254|34:254|33:252|33:252|35:251|35:251|34:248|34:248|37:251|37:251|37:249|37:249|38:248|38:248|38:245|38:245|40:248|40:248|40:246|40:246|41:245|41:245|41:242|41:242|44:245|44:245|43:243|43:243|44:242|44:242|44:239|44:239|47:242|47:242|46:240|46:240|48:239|48:239|47:236|47:236|50:239|50:239|50:237|50:237|51:236|51:236|51:233|51:233|53:236|53:236|53:233|53:233|54:232|54:232|54:230|54:230|57:233|57:233|56:230|56:230|57:229|57:229|57:227|57:227|60:230|60:230|60:227|60:227|61:226,1,194.353671891849,2|2,1:3|0:0,0:0:0:0:
99,355,179013,1,0,0:0:0:0:
318,108,179166,54,0,B|318:105|318:106|318:106|316:104|316:104|320:105|320:105|318:103|318:103|318:102|318:101|318:101|316:100|316:100|320:99|320:99|318:98|318:98|318:97|318:96|318:96|316:95|316:95|320:94|320:94|318:93|318:93|317:90|317:91|317:91|315:90|315:90|319:89|319:89|317:88|317:88|317:87|317:86|317:86|314:85|314:85|318:84|318:84|316:83|316:83|316:82|315:81|315:81|313:81|313:81|317:79|317:79|314:79|314:79|313:76|314:77|314:77|311:76|311:76|315:75|315:75|312:74|312:74|312:73|312:72|312:72|309:72|309:72|313:70|313:70|310:70|310:70|310:69|309:68|309:68|307:68|307:68|310:66|310:66|308:65|308:65|307:64|307:64|304:64|304:64|307:61|307:61|305:61|305:61|304:60|304:60|301:60|301:60|304:57|304:57|302:57|302:57|300:55|301:56|301:56|298:56|298:56|301:53|301:53|299:54|299:54|298:53|297:52|297:52|295:53|295:53|297:50|297:50|295:50|295:50|294:50|293:49|293:49|291:50|291:50|294:46|294:46|291:47|291:47|289:45|290:46|290:46|287:47|287:47|289:43|289:43|287:44|287:44|286:44|285:43|285:43|283:44|283:44|285:41|285:41|283:42|283:42|282:41|281:41|281:41|279:42|279:42|281:38|281:38|278:39|278:39|276:38|277:39|277:39|274:40|274:40|276:36|276:36|274:37|274:37|273:37|272:37|272:37|270:38|270:38|271:34|271:34|269:36|269:36|268:36|267:35|267:35|265:37|265:37|266:33|266:33|264:35|264:35|263:34|262:34|262:34|260:36|260:36|261:32|261:32|259:34|259:34|256:33|257:34|257:34|256:35|256:35|256:31|256:31|254:33|254:33|253:33|252:33|252:33|251:35|251:35|251:31|251:31|249:33|249:33|248:33|247:33|247:33|246:35|246:35|246:31|246:31|244:33|244:33|241:34|242:34|242:34|241:36|241:36|241:32|241:32|240:34|240:34|239:34|238:34|238:34|236:36|236:36|236:33|236:33|235:35|235:35|231:36|230:36,1,302.014237204352,2|0,1:3|0:0,0:0:0:0:
134,182,179474,1,0,0:0:0:0:
254,176,179628,6,0,B|251:177|252:177|252:177|251:179|251:179|250:175|250:175|249:178|249:178|247:179|247:178|247:178|247:181|247:181|245:177|245:177|245:180|245:180|244:180|243:181|243:181|243:183|243:183|241:180|241:180|240:182|240:182|240:183|239:183|239:183|239:186|239:186|236:182|236:182|236:185|236:185|235:186|235:186|235:189|235:189|232:186|232:186|232:188|232:188|232:189|231:189|231:189|231:192|231:192|229:189|229:189|229:192|229:192|227:194|228:193|228:193|228:196|228:196|225:193|225:193|226:195|226:195|224:198|224:197|224:197|225:199|225:199|222:197|222:197|223:199|223:199|222:200|222:201|222:201|223:203|223:203|219:201|219:201|220:204|220:204|220:205|219:205|219:205|220:208|220:208|217:206|217:206|218:208|218:208|218:209|217:210|217:210|219:212|219:212|215:211|215:211|216:213|216:213|216:214|216:215|216:215|217:217|217:217|213:216|213:216|215:218|215:218|214:221|214:220|214:220|216:221|216:221|212:221|212:221|214:223|214:223|214:226|214:225|214:225|216:226|216:226|212:226|212:226|213:228|213:228|213:229|213:230|213:230|215:231|215:231|211:231|211:231|213:233|213:233|213:234|214:235|214:235|216:236|216:236|212:236|212:236|214:237|214:237|214:240|214:239|214:239|216:241|216:241|212:241|212:241|215:242|215:242|215:243|215:244|215:244|217:245|217:245|214:246|214:246|216:247|216:247|216:248|216:249|216:249|219:250|219:250|215:251|215:251|217:252|217:252|218:253|218:254|218:254|221:254|221:254|217:256|217:256|220:256|220:256|221:259|220:258|220:258|223:259|223:259|220:261|220:261|222:261|222:261|223:262|223:263|223:263|226:263|226:263|222:265|222:265|225:265|225:265|225:266|226:267|226:267|229:266|229:266|225:269|225:269|228:269|228:269|229:270,1,268.588173499183,2|2,1:3|0:0,0:0:0:0:
402,293,179936,1,0,0:0:0:0:
343,198,180090,54,0,B|345:200|345:199|345:199|347:199|347:199|345:202|345:202|347:201|347:201|348:202|349:202|349:202|351:201|351:201|349:205|349:205|351:204|351:204|352:204|353:205|353:205|355:203|355:203|353:207|353:207|356:206|356:206|357:207|357:207|359:205|359:205|358:209|358:209|360:208|360:208|363:208|362:208|362:208|364:207|364:207|363:210|363:210|365:209|365:209|366:209|367:209|367:209|369:208|369:208|368:211|368:211|370:210|370:210|371:210|372:210|372:210|373:208|373:208|373:212|373:212|375:210|375:210|376:210|377:210|377:210|378:208|378:208|378:212|378:212|380:210|380:210|381:210|382:210|382:210|383:208|383:208|384:211|384:211|385:209|385:209|388:209|387:209|387:209|388:207|388:207|389:210|389:210|390:208|390:208|392:207|391:208|391:208|392:205|392:205|394:209|394:209|394:207|394:207|397:205|396:206|396:206|397:203|397:203|398:207|398:207|399:204|399:204|401:203|401:204|401:204|401:201|401:201|403:204|403:204|403:202|403:202|404:201|405:201|405:201|405:198|405:198|407:202|407:202|407:199|407:199|408:198|409:198|409:198|408:195|408:195|411:198|411:198|411:196|411:196|412:195|412:194|412:194|412:192|412:192|415:195|415:195|414:192|414:192|416:190|415:191|415:191|415:188|415:188|418:191|418:191|417:188|417:188|418:187|418:187|417:184|417:184|421:186|421:186|420:184|420:184|420:183|421:182|421:182|420:180|420:180|423:182|423:182|422:180|422:180|423:177|423:178|423:178|421:176|421:176|425:177|425:177|424:175|424:175|424:174,1,226.40245366804,2|0,1:3|0:0,0:0:0:0:
396,52,180397,1,0,0:0:0:0:
318,108,180551,6,0,B|319:105|319:106|319:106|317:104|317:104|321:105|321:105|319:103|319:103|320:100|320:101|320:101|318:100|318:100|322:100|322:100|320:98|320:98|320:97|320:96|320:96|318:95|318:95|322:95|322:95|320:93|320:93|320:90|320:91|320:91|318:90|318:90|322:90|322:90|320:88|320:88|320:85|320:86|320:86|318:85|318:85|321:85|321:85|319:83|319:83|319:81|319:82|319:82|316:81|316:81|320:80|320:80|318:79|318:79|318:78|317:77|317:77|315:76|315:76|319:75|319:75|316:74|316:74|315:71|315:72|315:72|313:72|313:72|317:70|317:70|314:70|314:70|314:69|313:68|313:68|311:68|311:68|314:66|314:66|312:65|312:65|310:63|310:64|310:64|308:64|308:64|311:61|311:61|308:61|308:61|307:60|307:60|305:60|305:60|308:57|308:57|305:58|305:58|303:56|304:56|304:56|301:57|301:57|304:54|304:54|301:55|301:55|301:54|300:53|300:53|297:54|297:54|300:51|300:51|297:52|297:52|295:50|296:51|296:51|293:52|293:52|295:48|295:48|293:49|293:49|292:49|291:48|291:48|289:50|289:50|291:46|291:46|288:47|288:47|286:46|287:47|287:47|285:48|285:48|286:44|286:44|284:46|284:46|280:45,1,191.98664918626,2|2,1:3|0:0,0:0:0:0:
230,114,180859,1,0,0:0:0:0:
405,305,181013,54,0,B|405:304|405:303|405:303|403:302|403:302|407:301|407:301|405:300|405:300|404:299|404:298|404:298|402:297|402:297|406:296|406:296|404:295|404:295|404:292|404:293|404:293|402:292|402:292|406:292|406:292|404:290|404:290|404:289|404:288|404:288|402:287|402:287|406:287|406:287|404:285|404:285|404:282|404:283|404:283|402:282|402:282|406:282|406:282|403:280|403:280|403:277|403:278|403:278|401:277|401:277|405:277|405:277|403:275|403:275|403:272|403:273|403:273|402:272|402:272|405:272|405:272|404:270|404:270|404:267|404:268|404:268|402:267|402:267|406:267|406:267|404:265|404:265|404:264|404:263|404:263|402:262|402:262|406:262|406:262|404:260|404:260|404:259|404:258|404:258|402:257|402:257|406:257|406:257|404:255|404:255|404:254|404:253|404:253|403:252|403:252|407:252|407:252|405:250|405:250|405:247|405:248|405:248|403:247|403:247|407:247|407:247|405:245|405:245|406:242|405:243|405:243|404:242|404:242|408:242|408:242|406:241|406:241|406:238|406:239|406:239|404:237|404:237|408:237|408:237|407:236|407:236|407:233|407:234|407:234|405:232|405:232|409:232|409:232|407:231|407:231|407:230|408:229|408:229|406:227|406:227|410:228|410:228|408:226|408:226|408:225|409:224|409:224|407:222|407:222|411:223|411:223|409:221|409:221|409:220|410:219|410:219|408:217|408:217|412:218|412:218|410:216|410:216|411:213|411:214|411:214|409:212|409:212|413:213|413:213|411:211|411:211|412:208|412:209|412:209|410:207|410:207|414:208|414:208|413:206|413:206|413:204|413:204|412:202|412:202|415:204|415:204|414:202|414:202|415:199|414:200|414:200|413:198|413:198|417:199|417:199|415:197|415:197|416:194|416:195|416:195|415:193|415:193|418:194|418:194|417:192|417:192|418:189|417:190|417:190|416:188|416:188|420:189|420:189|418:187|418:187|419:186|419:185|419:185|418:183|418:183|421:185|421:185|420:183|420:183|420:182|421:181|421:181|419:179|419:179|423:180|423:180|422:178|422:178|423:175|424:173,1,297.65673814796,6|0,1:2|0:0,0:0:0:0:
230,114,181320,1,0,0:0:0:0:
303,310,181474,6,0,B|303:307|303:308|303:308|301:306|301:306|305:307|305:307|303:305|303:305|303:302|303:303|303:303|301:302|301:302|305:302|305:302|303:300|303:300|303:297|303:298|303:298|301:297|301:297|305:297|305:297|303:295|303:295|303:292|303:293|303:293|301:292|301:292|305:291|305:291|303:290|303:290|302:287|302:288|302:288|300:287|300:287|304:286|304:286|302:285|302:285|302:284|302:283|302:283|300:282|300:282|304:281|304:281|302:280|302:280|301:277|301:278|301:278|299:277|299:277|303:276|303:276|301:275|301:275|301:272|301:273|301:273|299:272|299:272|302:272|302:272|300:270|300:270|300:267|300:268|300:268|298:267|298:267|302:267|302:267|299:266|299:266|299:265|299:264|299:264|297:263|297:263|301:262|301:262|298:261|298:261|298:258|298:259|298:259|296:258|296:258|299:257|299:257|297:256|297:256|296:253|297:254|297:254|294:253|294:253|298:252|298:252|296:251|296:251|296:250|295:249|295:249|293:248|293:248|297:247|297:247|294:246|294:246|294:245|294:244|294:244|291:244|291:244|295:242|295:242|293:242|293:242|292:239|292:240|292:240|290:239|290:239|294:238|294:238|291:237|291:237|291:236|290:235|290:235|288:234|288:234|292:233|292:233|289:232|289:232|289:231|289:230|289:230|286:230|286:230|290:228|290:228|287:228|287:228|286:225|287:226|287:226|284:225|284:225|288:224|288:224|285:223|285:223|285:222|285:221|285:221|282:221|282:221|286:219|286:219|283:219|283:219|282:216|282:217|282:217|280:216|280:216|284:215|284:215|281:214|281:214|281:213|280:212|280:212|278:212|278:212|281:210|281:210|279:210|279:210|277:207|278:208|278:208|275:208|275:208|279:206|279:206|276:205|276:205|275:204|275:204|273:203|273:203|276:201|276:201|274:201|274:201|272:199,1,269.541861956802,2|2,1:3|0:0,0:0:0:0:
339,130,181782,1,0,0:0:0:0:
166,316,181936,54,0,B|166:313|166:314|166:314|164:313|164:313|168:312|168:312|165:311|165:311|165:308|165:309|165:309|163:308|163:308|167:307|167:307|165:306|165:306|165:303|165:304|165:304|163:303|163:303|167:302|167:302|165:301|165:301|165:300|165:299|165:299|163:298|163:298|167:298|167:298|165:296|165:296|165:295|165:294|165:294|163:292|163:292|167:293|167:293|165:291|165:291|165:288|165:289|165:289|163:287|163:287|167:288|167:288|165:286|165:286|166:283|166:284|166:284|164:282|164:282|168:283|168:283|166:281|166:281|166:278|166:279|166:279|164:277|164:277|168:278|168:278|167:276|167:276|167:275|167:274|167:274|165:272|165:272|169:273|169:273|168:271|168:271|168:270|168:269|168:269|166:267|166:267|170:268|170:268|169:266|169:266|169:263|169:264|169:264|168:262|168:262|172:264|172:264|170:262|170:262|170:261|171:260|171:260|169:258|169:258|173:259|173:259|171:257|171:257|172:256|172:255|172:255|171:253|171:253|174:254|174:254|173:252|173:252|173:251|174:250|174:250|172:248|172:248|176:249|176:249|175:247|175:247|175:246|176:246|176:246|174:243|174:243|178:245|178:245|177:243|177:243|177:242|178:241|178:241|176:239|176:239|180:240|180:240|179:238|179:238|180:236|180:236|179:234|179:234|182:236|182:236|181:234|181:234|182:233|182:232|182:232|181:230|181:230|185:232|185:232|184:229|184:229|185:227|185:228|185:228|184:225|184:225|187:228|187:228|186:225|186:225|187:224|187:224|187:221|187:221|190:223|190:223|189:221|189:221|190:220,1,231.431819895924,2|0,1:3|0:0,0:0:0:0:
0,171,182243,1,0,0:0:0:0:
64,307,182397,6,0,B|64:306|64:305|64:305|62:304|62:304|66:303|66:303|64:302|64:302|64:299|64:300|64:300|62:299|62:299|66:298|66:298|64:297|64:297|64:296|64:295|64:295|61:294|61:294|65:293|65:293|63:292|63:292|63:289|63:290|63:290|61:289|61:289|65:288|65:288|63:287|63:287|62:284|62:285|62:285|60:284|60:284|64:283|64:283|62:282|62:282|61:279|61:280|61:280|59:279|59:279|63:279|63:279|61:277|61:277|60:275|60:276|60:276|58:275|58:275|62:274|62:274|60:273|60:273|59:270|59:271|59:271|57:270|57:270|61:269|61:269|58:268|58:268|57:265|58:266|58:266|55:265|55:265|59:264|59:264|57:263|57:263|57:262|56:261|56:261|54:261|54:261|58:259|58:259|55:259|55:259|54:256|54:257|54:257|52:256|52:256|56:255|56:255|53:254|53:254|53:253|53:252|53:252|50:252|50:252|54:250|54:250|51:249|51:249|50:247|51:248|51:248|48:247|48:247|52:245|52:245|49:245|49:245|48:243|48:242,1,155.04880973681,2|2,1:3|0:0,0:0:0:0:
108,184,182705,1,0,0:0:0:0:
281,384,182859,54,0,B|280:383|280:383|277:384|277:384|279:381|279:381|277:382|277:382|276:381|276:381|274:382|274:382|276:378|276:378|273:379|273:379|272:379|272:379|270:380|270:380|272:376|272:376|269:377|269:377|268:376|268:376|266:377|266:377|268:374|268:374|266:375|266:375|264:374|264:374|262:375|262:375|264:372|264:372|262:372|262:372|260:372|260:372|258:373|258:373|260:369|260:369|258:370|258:370|257:369|257:369|254:370|254:370|256:367|256:367|254:368|254:368|253:367|253:367|250:368|250:368|252:365|252:365|250:366|250:366|249:365|249:365|247:366|247:366|249:362|249:362|246:363|246:363|245:362|245:362|243:363|243:363|245:360|245:360|242:361|242:361|241:360|241:360|239:361|239:361|241:358|241:358|239:359|239:359|237:358|237:358|235:359|235:359|237:355|237:355|235:356|235:356|233:356|233:356|231:357|231:357|233:353|233:353|231:354|231:354|230:353|230:353|227:354|227:354|229:351|229:351|227:352|227:352|226:351|226:351|223:352|223:352|225:348|225:348|223:349|223:349|222:349|222:349|219:350|219:350|222:346|222:346|219:347|219:347|218:346|218:346|216:347|216:347|218:344|218:344|215:345|215:345|214:344|214:344|212:345|212:345|214:342|214:342|211:343|211:343|210:342|210:342|208:343|208:343|210:339|210:339|208:340|208:340|206:339|206:339|204:340|204:340|206:337|206:337|204:338|204:338|202:337|202:337|200:338|200:338|202:335|202:335|200:336|200:336|199:335|199:335|196:336|196:336|198:332|198:332|196:333|196:333|195:333|195:333|192:333|192:333|194:330|194:330|192:331|192:331|191:330|191:330|189:331|189:331|191:328|191:328|188:329|188:329|187:328|187:328|185:329|185:329|187:325|187:325|184:326|184:326|183:326|183:326|181:327|181:327|183:323|183:323|181:324|181:324|179:323|179:323|177:324|177:324|179:321|179:321|177:322|177:322|175:321|175:321|173:322|173:322|175:319|175:319|173:319|173:319|172:319|172:319|169:320|169:320|171:316|171:316|169:317|169:317|166:316,1,310.289857758409,2|0,1:3|0:0,0:0:0:0:
351,117,183166,1,0,0:0:0:0:
305,293,183320,6,0,B|306:292|306:292|306:289|306:289|309:292|309:292|308:290|308:290|309:289|309:289|309:286|309:286|312:289|312:289|312:287|312:287|313:286|313:286|312:283|312:283|315:286|315:286|315:284|315:284|316:283|316:283|316:280|316:280|318:283|318:283|318:281|318:281|319:280|319:280|319:277|319:277|322:280|322:280|321:278|321:278|323:277|323:277|322:274|322:274|325:277|325:277|325:275|325:275|326:274|326:274|326:271|326:271|328:274|328:274|328:272|328:272|329:270|329:270|329:268|329:268|332:271|332:271|331:268|331:268|332:267|332:267|332:265|332:265|335:268|335:268|335:265|335:265|336:264|336:264|335:262|335:262|338:265|338:265|338:262|338:262|339:261|339:261|339:259|339:259|341:262|341:262|341:259|341:259|342:258|342:258|342:256|342:256|345:259|345:259|344:256|344:256|346:255|346:255|345:253|345:253|348:256|348:256|348:253|348:253|349:252|349:252|349:250|349:250|351:252|351:252|351:250|351:250|352:249|352:249|352:246|352:246|355:249|355:249|354:247|354:247|355:246|355:246|355:243|355:243|358:246|358:246|358:244|358:244|359:243|359:243|358:240|358:240|361:243|361:243|361:241|361:241|362:240|362:240|362:237|362:237|364:240|364:240|364:238|364:238|365:237|365:237|365:234|365:234|368:237|368:237|367:235|367:235|369:234|369:234|368:231|368:231|371:234|371:234|371:232|371:232|372:231|372:231|372:228|372:228|374:231|374:231|374:228|374:228|375:227|375:227|375:225|375:225|378:228|378:228|377:225|377:225|378:224|378:224|378:222|378:222|381:225|381:225|381:222|381:222|382:221|382:221|381:219|381:219|384:222|384:222|384:219|384:219|385:218|385:218|385:216|385:216|387:219|387:219|387:216|387:216|390:213,1,271.503084016308,2|2,1:3|0:0,0:0:0:0:
176,58,183628,1,0,0:0:0:0:
248,220,183782,54,0,B|247:219|247:219|244:219|244:219|247:216|247:216|245:217|245:217|244:216|244:216|241:216|241:216|244:213|244:213|242:214|242:214|241:213|241:213|238:213|238:213|241:210|241:210|238:211|238:211|237:210|237:210|235:210|235:210|238:207|238:207|235:207|235:207|234:206|234:206|232:207|232:207|234:204|234:204|232:204|232:204|231:203|231:203|228:204|228:204|231:201|231:201|229:201|229:201|228:200|228:200|225:201|225:201|228:198|228:198|226:198|226:198|224:197|224:197|222:197|222:197|225:195|225:195|222:195|222:195|221:194|221:194|219:194|219:194|222:191|222:191|219:192|219:192|218:191|218:191|216:191|216:191|218:188|218:188|216:189|216:189|215:188|215:188|212:188|212:188|215:185|215:185|213:186|213:186|212:185|212:185|209:185|209:185|212:182|212:182|209:182|209:182|208:181|208:181|206:182|206:182|209:179|209:179|206:179|206:179|205:178|205:178|203:179|203:179|206:176|206:176|203:176|203:176|202:175|202:175|200:176|200:176|202:173|202:173|200:173|200:173|199:172|199:172|196:172|196:172|199:170|199:170|197:170|197:170|196:169|196:169|193:169|193:169|196:166|196:166|193:167|193:167|192:166|192:166|190:166|190:166|193:163|193:163|190:164|190:164|189:163|189:163|187:163|187:163|189:160|189:160|187:161|187:161|186:160|186:160|183:160|183:160|186:157|186:157|184:157|184:157|183:156|183:156|180:157|180:157|183:154|183:154|181:154|181:154|179:153|179:153|177:154|177:154|180:151|180:151|177:151|177:151|176:150,1,236.182802807704,2|0,1:3|0:0,0:0:0:0:
383,28,184090,1,0,0:0:0:0:
262,90,184243,6,0,B|263:89|263:89|261:86|261:86|265:88|265:88|264:86|264:86|264:84|264:84|263:82|263:82|267:84|267:84|265:82|265:82|266:80|266:80|264:78|264:78|268:80|268:80|267:77|267:77|267:76|267:76|266:74|266:74|270:75|270:75|268:73|268:73|269:72|269:72|268:70|268:70|271:71|271:71|270:69|270:69|271:68|271:68|269:66|269:66|273:67|273:67|272:65|272:65|272:63|272:63|271:61|271:61|275:63|275:63|273:61|273:61|274:59|274:59|272:57|272:57|276:59|276:59|275:56|275:56|275:55|275:55|274:53|274:53|278:54|278:54|276:52|276:52|277:51|277:51|276:49|276:49|279:50|279:50|278:48|278:48|279:47|279:47|277:45|277:45|281:46|281:46|280:44|280:44|280:43|280:43|279:40|279:40|283:42|283:42|281:40|281:40|282:38|282:38|280:36|280:36|284:38|284:38|283:36|283:36|283:34|283:34|282:32|282:32|286:33|286:33|284:31|284:31|285:30|285:30|284:28|284:28|287:29|287:29|286:27|286:27|287:26|287:26|285:24|285:24|289:25|289:25|288:23|288:23|288:22|288:22|287:19|287:19|291:21|291:21|289:19|289:19|290:17|290:17|288:15|288:15|292:17|292:17|291:15|291:15|292:12,1,200.346532116068,2|2,1:3|0:0,0:0:0:0:
176,58,184551,1,0,0:0:0:0:
460,222,184705,54,0,B|504:154|504:154|417:151,1,166.666666666667,2|0,1:3|0:0,0:0:0:0:
454,212,186551,6,0,B|484:164|484:164|424:161,1,116.666666666667,2|0,0:3|0:0,0:0:0:0:
