osu file format v14

[General]
AudioFilename: audio.mp3
AudioLeadIn: 0
PreviewTime: 144365
Countdown: 0
SampleSet: Drum
StackLeniency: 0.2
Mode: 0
LetterboxInBreaks: 0
WidescreenStoryboard: 0

[Editor]
Bookmarks: 90281,117323,144365,171408,198450,225492,252534,279577,320140,347182
DistanceSpacing: 1.2
BeatDivisor: 16
GridSize: 4
TimelineZoom: 2.200006

[Metadata]
Title:All of the Lights
TitleUnicode:All of the Lights
Artist:Kanye West
ArtistUnicode:Kanye West
Creator:Bullhax
Version:Spotlight
Source:
Tags:hip hop rap 2010 my beautiful dark twisted fantasy yeezy ye rihanna elly jackson kid cudi fergie drake alicia keys elton john
BeatmapID:1435864
BeatmapSetID:679115

[Difficulty]
HPDrainRate:6
CircleSize:4.5
OverallDifficulty:8.5
ApproachRate:9
SliderMultiplier:2
SliderTickRate:1

[Events]
//Background and Video events
0,0,"dallas.jpg",0,0
//Break Periods
//Storyboard Layer 0 (Background)
//Storyboard Layer 1 (Fail)
//Storyboard Layer 2 (Pass)
//Storyboard Layer 3 (Foreground)
//Storyboard Layer 4 (Overlay)
//Storyboard Sound Samples

[TimingPoints]
56570,1250,4,3,1,60,1,0
61570,-100,4,3,1,60,0,0
62374,422.535211267606,4,2,1,60,1,0
63219,422.535211267606,4,2,1,60,1,0
63219,-133.333333333333,4,2,1,60,0,0
76528,-117.647058823529,4,2,1,60,0,0
89627,-80,4,3,1,60,0,0
90261,-80,4,3,1,60,0,1
117303,-117.647058823529,4,3,1,60,0,0
143817,-80,4,3,1,60,0,0
144345,-80,4,3,1,60,0,1
145190,-50,4,3,1,60,0,1
149416,-80,4,3,1,60,0,1
151951,-50,4,3,1,60,0,1
156176,-80,4,3,1,60,0,1
171388,-117.647058823529,4,3,1,60,0,0
197796,-80,4,3,1,60,0,0
198430,-80,4,3,1,60,0,1
199275,-50,4,3,1,60,0,1
203500,-80,4,3,1,60,0,1
206035,-50,4,3,1,60,0,1
210261,-80,4,3,1,60,0,1
225472,-117.647058823529,4,2,1,60,0,0
251669,-117.647058823529,4,2,1,60,0,0
252514,-100,4,3,1,60,0,0
265968,-83.3333333333333,4,3,1,60,0,0
266390,-71.4285714285714,4,3,1,60,0,0
266813,-62.5,4,3,1,60,0,0
267236,-55.5555555555556,4,3,1,60,0,0
267658,-50,4,3,1,60,0,0
268081,-45.4545454545455,4,3,1,60,0,0
268503,-41.6666666666667,4,3,1,60,0,0
268926,-38.4615384615385,4,3,1,60,0,0
269348,-35.7142857142857,4,3,1,60,0,0
269771,-33.3333333333333,4,3,1,60,0,0
270193,-31.25,4,3,1,60,0,0
272795,-83.3333333333333,4,3,1,60,0,0
273217,-71.4285714285714,4,3,1,60,0,0
273640,-62.5,4,3,1,60,0,0
274063,-55.5555555555556,4,3,1,60,0,0
274485,-50,4,3,1,60,0,0
274908,-45.4545454545455,4,3,1,60,0,0
275330,-41.6666666666667,4,3,1,60,0,0
275753,-38.4615384615385,4,3,1,60,0,0
276175,-35.7142857142857,4,3,1,60,0,0
276598,-33.3333333333333,4,3,1,60,0,0
277020,-31.25,4,3,1,60,0,0
277866,-100,4,3,1,60,0,0
279557,-100,4,2,1,60,0,0
293078,-111.111111111111,4,2,1,60,0,0
319486,-80,4,3,1,60,0,0
320120,-80,4,3,1,60,0,1
347373,-117.647058823529,4,2,1,60,0,0
360049,-200,4,2,1,60,0,0
360578,-200,4,2,1,60,0,0

[Colours]
Combo1 : 124,224,233
Combo2 : 250,217,103
Combo3 : 233,228,139
Combo4 : 187,238,242

[HitObjects]
256,192,56570,12,0,61882,0:0:0:0:
400,55,62374,5,2,0:0:0:0:
365,319,62585,1,2,0:0:0:0:
400,55,62796,1,2,0:0:0:0:
365,319,63007,1,2,0:0:0:0:
147,115,63219,6,0,L|152:201,1,75.0000028610231,2|0,0:0|0:0,0:0:0:0:
244,274,63641,1,0,0:0:0:0:
139,304,63852,1,0,0:0:0:0:
220,375,64064,1,0,0:0:0:0:
325,345,64275,1,0,0:0:0:0:
240,69,64486,2,0,L|235:143,1,75.0000028610231,2|0,0:0|0:0,0:0:0:0:
328,22,64909,6,0,L|332:96,1,75.0000028610231,2|0,0:0|0:0,0:0:0:0:
448,272,65331,1,0,0:0:0:0:
351,290,65542,1,0,0:0:0:0:
333,193,65754,1,0,0:0:0:0:
430,175,65965,1,0,0:0:0:0:
24,103,66176,2,0,L|28:28,1,75.0000028610231,2|0,0:0|0:0,0:0:0:0:
135,205,66599,6,0,L|130:130,1,75.0000028610231,2|0,0:0|0:0,0:0:0:0:
232,33,67021,1,0,0:0:0:0:
326,21,67233,1,0,0:0:0:0:
399,117,67444,1,0,0:0:0:0:
490,108,67655,1,0,0:0:0:0:
327,249,67866,2,0,L|322:174,1,75.0000028610231,2|0,0:0|0:0,0:0:0:0:
231,330,68289,6,0,L|235:255,1,75.0000028610231,2|0,0:0|0:0,0:0:0:0:
212,81,68711,1,0,0:0:0:0:
306,114,68923,1,0,0:0:0:0:
271,214,69134,1,0,0:0:0:0:
177,181,69345,1,0,0:0:0:0:
425,340,69557,2,0,L|429:265,1,75.0000028610231,2|0,0:0|0:0,0:0:0:0:
87,340,69979,6,0,L|83:265,1,75.0000028610231,2|0,0:0|0:0,0:0:0:0:
151,50,70402,1,0,0:0:0:0:
240,55,70613,1,0,0:0:0:0:
291,144,70824,1,0,0:3:0:0:
201,146,71035,1,0,0:3:0:0:
482,55,71247,2,0,L|407:59,1,75.0000028610231,2|0,0:0|0:0,0:0:0:0:
75,162,71669,6,0,L|150:166,1,75.0000028610231,2|0,0:0|0:0,0:0:0:0:
346,341,72092,1,0,0:0:0:0:
371,254,72303,1,0,0:0:0:0:
318,180,72514,1,0,0:0:0:0:
343,93,72726,1,0,0:0:0:0:
166,310,72937,2,0,P|114:326|76:320,1,75.0000028610231,2|0,0:0|0:0,0:0:0:0:
420,174,73359,6,0,P|457:174|491:188,1,75.0000028610231,2|0,0:0|0:0,0:0:0:0:
46,166,73782,1,0,0:0:0:0:
73,80,73993,1,0,0:0:0:0:
131,148,74204,1,0,0:0:0:0:
111,236,74416,1,0,0:0:0:0:
322,45,74627,2,0,P|306:97|312:135,1,75.0000028610231,2|0,0:0|0:0,0:0:0:0:
249,363,75049,5,2,0:0:0:0:
202,94,75261,1,2,0:0:0:0:
249,363,75472,1,2,0:0:0:0:
202,94,75683,1,2,0:0:0:0:
320,187,75895,5,0,0:0:0:0:
247,267,76106,1,0,0:0:0:0:
430,268,76317,1,0,0:0:0:0:
112,209,76528,2,0,P|49:196|23:176,1,85.0000016212464,2|0,0:0|0:0,0:0:0:0:
236,161,76951,1,2,0:0:0:0:
202,249,77162,2,0,P|159:297|128:309,1,85.0000016212464,2|0,0:0|0:0,0:0:0:0:
302,242,77585,2,0,L|291:326,1,85.0000016212464,2|0,0:0|0:0,0:0:0:0:
136,185,78007,2,0,L|154:40,1,127.50000243187,2|0,0:0|0:0,0:0:0:0:
152,16,78430,6,0,P|113:33|71:35,1,85.0000016212464,2|0,0:0|0:0,0:0:0:0:
235,73,78852,1,0,0:0:0:0:
318,33,79064,1,0,0:0:0:0:
52,131,79275,2,0,P|34:169|32:211,1,85.0000016212464,2|0,0:0|0:0,0:0:0:0:
135,100,79697,1,2,0:0:0:0:
121,188,79909,6,0,P|130:229|154:263,1,85.0000016212464,2|0,0:0|0:0,0:0:0:0:
388,143,80331,1,2,0:0:0:0:
298,153,80542,1,2,0:0:0:0:
217,329,80754,2,0,P|255:346|297:348,1,85.0000016212464,2|0,0:0|0:0,0:0:0:0:
276,254,81176,1,2,0:0:0:0:
466,334,81388,2,0,P|424:335|386:354,1,85.0000016212464,2|0,0:0|0:0,0:0:0:0:
102,296,81810,6,0,L|124:112,1,170.000003242493,2|0,0:0|0:0,0:0:0:0:
122,128,82655,1,2,0:0:0:0:
253,111,82866,1,2,0:0:0:0:
380,179,83078,1,2,0:0:0:0:
233,191,83289,6,0,P|234:148|252:110,1,85.0000016212464,2|0,0:0|0:0,0:0:0:0:
337,56,83711,1,2,0:0:0:0:
286,266,83923,2,0,P|247:283|205:285,1,85.0000016212464,2|0,0:0|0:0,0:0:0:0:
359,204,84345,2,0,P|401:205|439:223,1,85.0000016212464,2|0,0:0|0:0,0:0:0:0:
205,285,84768,2,0,L|225:153,1,127.50000243187,2|0,0:0|0:0,0:0:0:0:
231,123,85190,6,0,P|192:140|150:142,1,85.0000016212464,2|0,0:0|0:0,0:0:0:0:
304,75,85613,1,0,0:0:0:0:
318,172,85824,1,2,0:0:0:0:
224,34,86035,1,2,0:0:0:0:
378,9,86247,1,2,0:0:0:0:
396,161,86458,1,2,0:0:0:0:
150,142,86669,6,0,P|132:103|130:61,1,85.0000016212464,2|0,0:0|0:0,0:0:0:0:
104,263,87092,1,2,0:0:0:0:
186,297,87303,1,2,0:0:0:0:
180,207,87514,1,2,0:0:0:0:
100,175,87726,1,2,0:0:0:0:
265,238,87937,1,2,0:0:0:0:
113,357,88148,1,2,0:0:0:0:
371,216,88359,6,0,P|413:214|451:196,1,85.0000016212464,2|0,0:0|0:0,0:0:0:0:
362,25,88782,1,2,0:0:0:0:
451,195,88993,1,2,0:0:0:0:
497,48,89204,1,2,0:0:0:0:
451,195,89416,1,2,0:0:0:0:
131,75,89627,5,2,0:0:0:0:
205,87,89733,1,2,0:0:0:0:
278,99,89838,1,2,0:0:0:0:
352,111,89944,1,2,0:0:0:0:
425,124,90049,1,2,0:0:0:0:
499,137,90155,1,2,0:0:0:0:
452,196,90261,6,0,P|387:234|321:226,1,125,4|0,0:0|0:0,0:0:0:0:
246,177,90578,2,0,L|268:333,1,125,2|2,0:0|0:0,0:0:0:0:
169,250,90895,2,0,P|132:243|88:250,1,62.5,4|0,0:0|0:0,0:0:0:0:
167,25,91106,2,0,L|145:181,1,125,8|0,0:0|0:0,0:0:0:0:
434,72,91528,1,4,0:0:0:0:
471,325,91740,1,2,0:0:0:0:
397,315,91845,1,2,0:0:0:0:
335,358,91951,6,0,P|283:323|222:321,1,125,4|0,0:0|0:0,0:0:0:0:
151,346,92268,1,2,0:0:0:0:
234,53,92479,1,2,0:0:0:0:
303,81,92585,2,0,P|340:88|384:81,1,62.5,4|0,0:0|0:0,0:0:0:0:
255,253,92796,2,0,L|234:96,1,125,8|0,0:0|0:0,0:0:0:0:
18,195,93219,1,4,0:0:0:0:
429,213,93430,1,2,0:0:0:0:
458,144,93535,1,2,0:0:0:0:
434,72,93641,6,0,L|296:84,1,125,4|0,0:0|0:0,0:0:0:0:
241,50,93958,1,2,0:0:0:0:
466,283,94169,1,2,0:0:0:0:
397,315,94275,2,0,L|283:303,1,62.5,4|0,0:0|0:0,0:0:0:0:
246,128,94486,1,8,0:0:0:0:
485,189,94697,1,0,0:0:0:0:
251,204,94909,1,4,0:0:0:0:
41,148,95120,1,2,0:0:0:0:
108,183,95226,1,2,0:0:0:0:
183,171,95331,6,0,L|173:251,1,62.5,6|2,0:0|0:0,0:0:0:0:
163,376,95542,1,4,0:0:0:0:
206,314,95648,2,0,P|257:279|318:277,1,125,2|2,0:0|0:0,0:0:0:0:
384,315,95965,1,4,0:0:0:0:
335,49,96176,1,8,0:0:0:0:
488,149,96388,1,2,0:0:0:0:
414,162,96493,1,2,0:0:0:0:
339,175,96599,1,6,0:0:0:0:
265,188,96704,1,2,0:0:0:0:
191,201,96810,1,2,0:0:0:0:
117,215,96916,1,2,0:0:0:0:
142,144,97021,5,4,0:0:0:0:
314,250,97233,1,0,0:0:0:0:
383,276,97338,2,0,P|420:283|464:276,1,62.5,2|0,0:0|0:0,0:0:0:0:
215,130,97549,1,2,0:0:0:0:
164,74,97655,2,0,P|127:67|83:74,1,62.5,4|0,0:0|0:0,0:0:0:0:
352,50,97866,2,0,L|337:191,1,125,8|0,0:0|0:0,0:0:0:0:
496,28,98289,1,4,0:0:0:0:
215,130,98500,1,2,0:0:0:0:
222,204,98606,1,2,0:0:0:0:
174,261,98711,5,4,0:0:0:0:
444,105,98923,1,0,0:0:0:0:
369,107,99028,2,0,P|307:105|256:70,1,125,2|2,0:0|0:0,0:0:0:0:
220,3,99345,1,4,0:0:0:0:
300,330,99557,1,8,0:0:0:0:
148,190,99768,1,0,0:0:0:0:
442,184,99979,1,4,0:0:0:0:
256,70,100190,1,2,0:0:0:0:
183,90,100296,1,2,0:0:0:0:
111,77,100402,6,0,P|112:138|147:189,1,125,4|0,0:0|0:0,0:0:0:0:
222,195,100719,1,2,0:0:0:0:
180,256,100824,1,0,0:0:0:0:
168,330,100930,1,2,0:0:0:0:
110,283,101035,1,4,0:0:0:0:
413,303,101247,1,8,0:0:0:0:
34,283,101458,1,0,0:0:0:0:
322,351,101669,1,0,0:0:0:0:
357,55,101880,2,0,B|365:142|365:141,1,62.5,2|2,0:0|0:0,0:0:0:0:
154,261,102092,6,0,B|146:348|146:347,1,62.5,6|2,0:0|0:0,0:0:0:0:
278,27,102303,2,0,B|286:114|286:113,1,62.5,0|2,0:0|0:0,0:0:0:0:
431,20,102514,2,0,B|439:107|439:106,1,62.5,0|2,0:0|0:0,0:0:0:0:
200,20,102726,2,0,B|208:107|208:106,1,62.5,4|0,0:0|0:0,0:0:0:0:
228,358,102937,1,8,0:0:0:0:
35,197,103148,1,2,0:0:0:0:
106,173,103254,1,2,0:0:0:0:
180,172,103359,1,12,0:0:0:0:
252,193,103465,1,2,0:0:0:0:
314,234,103571,1,2,0:0:0:0:
348,300,103676,1,2,0:0:0:0:
389,237,103782,5,0,0:0:0:0:
146,237,103993,1,0,0:0:0:0:
180,172,104099,2,0,P|215:121|216:59,1,125,2|2,0:0|0:0,0:0:0:0:
164,5,104416,1,4,0:0:0:0:
377,112,104627,2,0,L|392:277,1,125,8|0,0:0|0:0,0:0:0:0:
502,97,105049,1,4,0:0:0:0:
246,266,105261,1,2,0:0:0:0:
268,195,105366,1,2,0:0:0:0:
245,123,105472,5,4,0:0:0:0:
68,300,105683,1,0,0:0:0:0:
136,330,105789,2,0,L|212:326,1,62.5,2|0,0:0|0:0,0:0:0:0:
193,69,106000,1,2,0:0:0:0:
125,99,106106,2,0,L|49:95,1,62.5,4|0,0:0|0:0,0:0:0:0:
346,303,106317,2,0,L|357:178,1,125,8|0,0:0|0:0,0:0:0:0:
107,207,106740,1,4,0:0:0:0:
429,154,106951,1,2,0:0:0:0:
357,178,107057,1,2,0:0:0:0:
291,142,107162,5,4,0:0:0:0:
23,70,107373,1,0,0:0:0:0:
89,34,107479,1,2,0:0:0:0:
161,58,107585,2,0,L|153:172,1,62.5,0|2,0:0|0:0,0:0:0:0:
267,338,107796,2,0,L|262:275,1,62.5,4|0,0:0|0:0,0:0:0:0:
245,61,108007,1,8,0:0:0:0:
168,344,108219,1,0,0:0:0:0:
396,223,108430,1,4,0:0:0:0:
10,205,108641,5,2,0:0:0:0:
81,226,108747,1,2,0:0:0:0:
151,200,108852,1,6,0:0:0:0:
185,132,108958,1,2,0:0:0:0:
185,56,109064,1,0,0:0:0:0:
250,92,109169,1,2,0:0:0:0:
324,81,109275,1,0,0:0:0:0:
294,149,109380,1,2,0:0:0:0:
327,216,109486,1,4,0:0:0:0:
39,105,109697,1,8,0:0:0:0:
327,216,109909,5,2,0:0:0:0:
294,149,110014,1,2,0:0:0:0:
324,81,110120,1,6,0:0:0:0:
391,46,110226,1,2,0:0:0:0:
460,73,110331,1,2,0:0:0:0:
486,143,110437,1,2,0:0:0:0:
412,133,110542,5,4,0:0:0:0:
185,56,110754,1,0,0:0:0:0:
185,132,110859,2,0,P|176:162|161:188,1,62.5,2|0,0:0|0:0,0:0:0:0:
412,133,111071,1,2,0:0:0:0:
412,209,111176,2,0,P|420:239|435:265,1,62.5,4|0,0:0|0:0,0:0:0:0:
90,323,111388,2,0,L|249:314,1,125,8|0,0:0|0:0,0:0:0:0:
82,129,111810,1,4,0:0:0:0:
355,324,112021,1,2,0:0:0:0:
286,293,112127,1,2,0:0:0:0:
214,315,112233,5,4,0:0:0:0:
194,69,112444,1,0,0:0:0:0:
250,117,112549,2,0,L|230:250,1,125,2|2,0:0|0:0,0:0:0:0:
286,293,112866,1,4,0:0:0:0:
12,56,113078,2,0,P|62:91|124:92,1,125,8|0,0:0|0:0,0:0:0:0:
338,22,113500,1,4,0:0:0:0:
286,293,113711,1,2,0:0:0:0:
354,262,113817,1,2,0:0:0:0:
428,268,113923,5,4,0:0:0:0:
19,224,114134,1,0,0:0:0:0:
87,255,114240,1,2,0:0:0:0:
159,239,114345,2,0,P|185:254|215:262,1,62.5,0|2,0:0|0:0,0:0:0:0:
67,71,114557,2,0,P|66:102|74:132,1,62.5,4|0,0:0|0:0,0:0:0:0:
354,262,114768,2,0,P|381:246|403:224,1,62.5,8|0,0:0|0:0,0:0:0:0:
49,205,114979,2,0,P|64:232|86:254,1,62.5
160,38,115190,1,4,0:0:0:0:
425,152,115402,5,2,0:0:0:0:
350,159,115507,1,2,0:0:0:0:
274,163,115613,1,6,0:0:0:0:
198,167,115719,1,2,0:0:0:0:
123,171,115824,1,0,0:0:0:0:
162,234,115930,1,2,0:0:0:0:
144,306,116035,1,0,0:0:0:0:
217,290,116141,1,2,0:0:0:0:
280,330,116247,1,4,0:0:0:0:
234,97,116458,1,8,0:0:0:0:
350,359,116669,5,2,0:0:0:0:
423,344,116775,1,2,0:0:0:0:
465,281,116880,1,14,0:0:0:0:
468,206,116986,1,2,0:0:0:0:
424,144,117092,1,2,0:0:0:0:
352,121,117197,1,2,0:0:0:0:
408,71,117303,6,0,P|334:48|277:120,1,170.000003242493,4|0,0:0|0:0,0:0:0:0:
287,214,117937,1,4,0:0:0:0:
177,278,118148,1,0,0:0:0:0:
276,346,118359,1,0,0:0:0:0:
390,289,118571,2,0,L|480:280,1,85.0000016212464,4|0,0:0|0:0,0:0:0:0:
289,213,118993,2,0,L|94:178,1,170.000003242493,4|0,0:0|0:0,0:0:0:0:
223,126,119627,1,4,0:0:0:0:
204,272,119838,1,0,0:0:0:0:
50,251,120049,1,0,0:0:0:0:
78,91,120261,2,0,P|117:75|159:71,1,85.0000016212464,4|0,0:0|0:0,0:0:0:0:
344,137,120683,6,0,L|512:116,1,170.000003242493,4|0,0:0|0:0,0:0:0:0:
425,234,121317,1,4,0:0:0:0:
379,35,121528,1,0,0:0:0:0:
327,234,121740,1,0,0:0:0:0:
162,75,121951,2,0,L|247:85,1,85.0000016212464,4|0,0:0|0:0,0:0:0:0:
50,251,122373,1,4,0:0:0:0:
50,251,124064,6,0,P|110:260|211:210,1,170.000003242493,4|0,0:0|0:0,0:0:0:0:
150,70,124697,1,4,0:0:0:0:
203,355,124909,1,0,0:0:0:0:
318,293,125120,1,0,0:0:0:0:
58,166,125331,2,0,L|47:273,1,85.0000016212464,4|0,0:0|0:0,0:0:0:0:
293,82,125754,2,0,P|376:76|449:117,1,170.000003242493,4|0,0:0|0:0,0:0:0:0:
230,307,126388,1,4,0:0:0:0:
254,165,126599,1,0,0:0:0:0:
202,40,126810,1,0,0:0:0:0:
420,226,127021,2,0,P|381:242|339:246,1,85.0000016212464,4|0,0:0|0:0,0:0:0:0:
116,175,127444,6,0,L|134:345,1,170.000003242493,4|0,0:0|0:0,0:0:0:0:
230,307,128078,1,4,0:0:0:0:
31,261,128289,1,0,0:0:0:0:
230,307,128500,1,0,0:0:0:0:
280,94,128711,2,0,L|253:214,1,85.0000016212464,4|0,0:0|0:0,0:0:0:0:
0,63,129134,2,0,P|72:21|156:27,1,170.000003242493,4|0,0:0|0:0,0:0:0:0:
118,140,129768,1,4,0:0:0:0:
355,341,129979,1,0,0:0:0:0:
136,359,130190,1,0,0:0:0:0:
337,122,130402,2,0,L|321:238,1,85.0000016212464,4|0,0:0|0:0,0:0:0:0:
27,256,130824,6,0,L|221:282,1,170.000003242493,4|0,0:0|0:0,0:0:0:0:
384,305,131458,1,4,0:0:0:0:
211,201,131669,1,0,0:0:0:0:
477,229,131880,1,0,0:0:0:0:
290,379,132092,2,0,L|278:294,1,85.0000016212464,4|0,0:0|0:0,0:0:0:0:
417,45,132514,2,0,L|391:239,1,170.000003242493,4|0,0:0|0:0,0:0:0:0:
269,24,133148,1,4,0:0:0:0:
477,229,133359,1,0,0:0:0:0:
501,18,133571,1,0,0:0:0:0:
211,201,133782,2,0,P|239:169|256:130,1,85.0000016212464,4|0,0:0|0:0,0:0:0:0:
0,88,134204,6,0,P|72:129|156:123,1,170.000003242493,4|0,0:0|0:0,0:0:0:0:
269,24,134838,1,4,0:0:0:0:
128,236,135049,1,0,0:0:0:0:
128,31,135261,1,0,0:0:0:0:
315,266,135472,2,0,L|302:352,1,85.0000016212464,4|0,0:0|0:0,0:0:0:0:
299,30,135895,2,0,L|312:116,1,85.0000016212464,4|0,0:0|0:0,0:0:0:0:
71,255,136317,1,0,0:0:0:0:
179,289,136528,1,4,0:0:0:0:
193,71,136740,1,0,0:0:0:0:
301,105,136951,1,0,0:0:0:0:
274,379,137162,2,0,L|285:272,1,85.0000016212464,4|0,0:0|0:0,0:0:0:0:
23,170,137585,6,0,L|213:147,1,170.000003242493,4|0,0:0|0:0,0:0:0:0:
28,50,138219,1,4,0:0:0:0:
119,259,138430,1,0,0:0:0:0:
192,34,138641,1,0,0:0:0:0:
226,238,138852,2,0,L|317:253,1,85.0000016212464,4|0,0:0|0:0,0:0:0:0:
119,259,139275,1,4,0:0:0:0:
416,160,139486,1,0,0:0:0:0:
404,354,139697,1,0,0:0:0:0:
404,354,139803,1,0,0:0:0:0:
404,354,139909,1,4,0:0:0:0:
219,350,140120,1,0,0:0:0:0:
404,354,140331,1,0,0:0:0:0:
154,277,140542,2,0,L|56:291,1,85.0000016212464,4|0,0:0|0:0,0:0:0:0:
309,296,140965,5,4,0:0:0:0:
270,8,141176,1,0,0:0:0:0:
351,29,141388,1,0,0:0:0:0:
418,115,141599,1,4,0:0:0:0:
407,257,141810,1,0,0:0:0:0:
271,329,142021,1,0,0:0:0:0:
89,247,142233,1,4,0:0:0:0:
157,57,142444,1,0,0:0:0:0:
380,60,142655,5,4,0:0:0:0:
313,330,142866,1,0,0:0:0:0:
65,137,143078,1,0,0:0:0:0:
436,147,143289,1,4,0:0:0:0:
80,289,143500,1,0,0:0:0:0:
435,252,143711,1,2,0:0:0:0:
372,210,143817,1,2,0:0:0:0:
353,137,143923,1,6,0:0:0:0:
302,191,144028,1,2,0:0:0:0:
229,212,144134,1,2,0:0:0:0:
158,185,144240,1,2,0:0:0:0:
124,118,144345,5,4,0:0:0:0:
327,64,144557,1,0,0:0:0:0:
353,137,144662,2,0,L|443:146,1,62.5,2|0,0:0|0:0,0:0:0:0:
158,185,144873,1,2,0:0:0:0:
132,258,144979,2,0,L|42:267,1,62.5,4|0,0:0|0:0,0:0:0:0:
239,96,145190,6,0,L|264:327,1,200,8|0,0:0|0:0,0:0:0:0:
420,129,145613,2,0,L|395:360,1,200,4|2,0:0|0:0,0:0:0:0:
198,95,146035,6,0,L|173:326,1,200,4|0,0:0|0:0,0:0:0:0:
434,105,146458,2,0,L|459:336,1,200,0|4,0:0|0:0,0:0:0:0:
157,77,146880,6,0,L|182:308,1,200,8|0,0:0|0:0,0:0:0:0:
442,77,147303,2,0,L|417:308,1,200,4|2,0:0|0:0,0:0:0:0:
135,68,147726,6,0,L|110:299,1,200,4|0,0:0|0:0,0:0:0:0:
440,55,148148,2,0,L|465:286,1,200,0|4,0:0|0:0,0:0:0:0:
98,84,148571,6,0,L|123:315,1,200,8|0,0:0|0:0,0:0:0:0:
440,78,148993,2,0,L|415:309,1,200,4|2,0:0|0:0,0:0:0:0:
78,90,149416,6,0,L|84:157,1,62.5,6|0,0:0|0:0,0:0:0:0:
18,383,149627,1,0,0:0:0:0:
66,324,149733,2,0,P|116:288|178:289,1,125,2|2,0:0|0:0,0:0:0:0:
250,301,150049,1,4,0:0:0:0:
191,31,150261,1,8,0:0:0:0:
176,290,150472,1,2,0:0:0:0:
250,301,150578,1,2,0:0:0:0:
322,281,150683,1,6,0:0:0:0:
365,219,150789,1,2,0:0:0:0:
364,143,150895,1,2,0:0:0:0:
316,85,151000,1,2,0:0:0:0:
390,74,151106,5,4,0:0:0:0:
143,102,151317,1,0,0:0:0:0:
101,164,151423,2,0,L|97:240,1,62.5,2|0,0:0|0:0,0:0:0:0:
364,143,151634,1,2,0:0:0:0:
406,205,151740,2,0,L|410:281,1,62.5,4|0,0:0|0:0,0:0:0:0:
116,28,151951,6,0,L|371:46,1,200,8|0,0:0|0:0,0:0:0:0:
36,277,152373,2,0,L|291:259,1,200,4|2,0:0|0:0,0:0:0:0:
45,101,152796,6,0,L|244:86,1,200,4|0,0:0|0:0,0:0:0:0:
93,318,153219,2,0,L|348:336,1,200,0|4,0:0|0:0,0:0:0:0:
66,38,153641,6,0,L|321:56,1,200,8|0,0:0|0:0,0:0:0:0:
33,338,154064,2,0,L|288:320,1,200,12|2,0:0|0:0,0:0:0:0:
28,87,154486,6,0,L|283:69,1,200,4|0,0:0|0:0,0:0:0:0:
60,289,154909,2,0,L|260:303,1,200,0|4,0:0|0:0,0:0:0:0:
79,143,155331,5,8,0:0:0:0:
463,208,155542,1,0,0:0:0:0:
22,268,155754,2,0,L|221:253,1,200,4|2,0:0|0:0,0:0:0:0:
186,47,156176,6,0,L|178:122,1,62.5,6|2,0:0|0:0,0:0:0:0:
429,31,156388,2,0,L|437:106,1,62.5,0|2,0:0|0:0,0:0:0:0:
357,351,156599,2,0,L|365:276,1,62.5,0|2,0:0|0:0,0:0:0:0:
311,24,156810,2,0,L|303:99,1,62.5,4|0,0:0|0:0,0:0:0:0:
463,309,157021,1,8,0:0:0:0:
27,320,157233,1,2,0:0:0:0:
97,295,157338,1,2,0:0:0:0:
169,274,157444,1,6,0:0:0:0:
240,253,157549,1,2,0:0:0:0:
312,232,157655,1,2,0:0:0:0:
384,211,157761,1,2,0:0:0:0:
331,158,157866,5,4,0:0:0:0:
75,111,158078,1,0,0:0:0:0:
46,179,158183,2,0,P|39:216|46:260,1,62.5,2|0,0:0|0:0,0:0:0:0:
331,158,158395,1,2,0:0:0:0:
287,99,158500,2,0,P|258:74|216:58,1,62.5,4|0,0:0|0:0,0:0:0:0:
476,79,158711,2,0,L|466:218,1,125,8|0,0:0|0:0,0:0:0:0:
145,50,159134,1,12,0:0:0:0:
176,349,159345,1,2,0:0:0:0:
169,274,159451,1,2,0:0:0:0:
162,198,159557,5,4,0:0:0:0:
358,200,159768,1,0,0:0:0:0:
285,215,159873,2,0,L|148:196,1,125,2|2,0:0|0:0,0:0:0:0:
169,274,160190,1,4,0:0:0:0:
358,124,160402,1,8,0:0:0:0:
368,340,160613,1,0,0:0:0:0:
425,27,160824,1,12,0:0:0:0:
121,78,161035,1,2,0:0:0:0:
194,95,161141,1,2,0:0:0:0:
264,69,161247,5,4,0:0:0:0:
47,111,161458,2,0,L|55:180,1,62.5,0|2,0:0|0:0,0:0:0:0:
340,81,161669,2,0,L|332:150,1,62.5,0|2,0:0|0:0,0:0:0:0:
75,372,161880,2,0,L|62:248,1,125,4|8,0:0|0:0,0:0:0:0:
219,361,162303,1,0,0:0:0:0:
396,234,162514,1,4,0:0:0:0:
157,220,162726,5,2,0:0:0:0:
231,211,162831,1,2,0:0:0:0:
299,242,162937,1,6,0:0:0:0:
342,302,163042,1,2,0:0:0:0:
357,375,163148,1,4,0:0:0:0:
413,325,163254,1,2,0:0:0:0:
485,343,163359,1,0,0:0:0:0:
467,269,163465,1,2,0:0:0:0:
482,195,163571,1,4,0:0:0:0:
89,264,163782,1,8,0:0:0:0:
505,123,163993,5,2,0:0:0:0:
475,54,164099,1,2,0:0:0:0:
404,27,164204,1,6,0:0:0:0:
333,53,164310,1,2,0:0:0:0:
292,116,164416,1,2,0:0:0:0:
305,189,164521,1,2,0:0:0:0:
233,165,164627,5,4,0:0:0:0:
20,111,164838,1,0,0:0:0:0:
47,181,164944,2,0,L|38:255,1,62.5,2|0,0:0|0:0,0:0:0:0:
405,145,165155,1,2,0:0:0:0:
378,215,165261,2,0,L|387:289,1,62.5,4|0,0:0|0:0,0:0:0:0:
116,37,165472,1,8,0:0:0:0:
254,42,165683,1,0,0:0:0:0:
83,340,165895,1,12,0:0:0:0:
412,353,166106,1,2,0:0:0:0:
341,327,166211,1,2,0:0:0:0:
266,334,166317,5,4,0:0:0:0:
6,352,166528,1,0,0:0:0:0:
31,277,166634,2,0,L|24:206,1,62.5,2|0,0:0|0:0,0:0:0:0:
294,259,166845,1,2,0:0:0:0:
269,184,166951,2,0,L|276:113,1,62.5,4|0,0:0|0:0,0:0:0:0:
126,146,167162,1,8,0:0:0:0:
448,191,167373,1,0,0:0:0:0:
24,214,167585,1,12,0:0:0:0:
326,8,167796,1,2,0:0:0:0:
336,82,167902,1,2,0:0:0:0:
344,156,168007,5,4,0:0:0:0:
90,75,168219,2,0,L|81:163,1,62.5,0|2,0:0|0:0,0:0:0:0:
409,110,168430,2,0,L|497:101,1,62.5,0|2,0:0|0:0,0:0:0:0:
170,112,168641,2,0,L|176:174,1,62.5,4|0,0:0|0:0,0:0:0:0:
436,257,168852,1,8,0:0:0:0:
294,22,169064,1,0,0:0:0:0:
280,284,169275,1,4,0:0:0:0:
469,104,169486,5,2,0:0:0:0:
394,111,169592,1,2,0:0:0:0:
319,118,169697,1,6,0:0:0:0:
244,126,169803,1,2,0:0:0:0:
169,134,169909,1,4,0:0:0:0:
212,194,170014,1,2,0:0:0:0:
233,266,170120,1,0,0:0:0:0:
158,258,170226,1,2,0:0:0:0:
92,293,170331,1,4,0:0:0:0:
403,53,170542,1,8,0:0:0:0:
65,363,170754,5,2,0:0:0:0:
92,293,170859,1,2,0:0:0:0:
158,258,170965,1,2,0:0:0:0:
233,266,171071,1,2,0:0:0:0:
293,311,171176,1,2,0:0:0:0:
329,377,171282,1,2,0:0:0:0:
368,313,171388,6,0,L|184:334,1,170.000003242493,4|0,0:0|0:0,0:0:0:0:
451,365,172021,1,4,0:0:0:0:
356,67,172233,1,0,0:0:0:0:
492,180,172444,1,0,0:0:0:0:
183,102,172655,1,4,0:0:0:0:
356,67,172866,1,0,0:0:0:0:
95,45,173078,2,0,L|106:214,1,170.000003242493,4|0,0:0|0:0,0:0:0:0:
253,296,173711,1,4,0:0:0:0:
217,119,173923,1,0,0:0:0:0:
107,217,174134,1,0,0:0:0:0:
384,201,174345,1,4,0:0:0:0:
217,119,174557,1,0,0:0:0:0:
133,329,174768,5,4,0:0:0:0:
338,334,174979,1,0,0:0:0:0:
96,170,175190,2,0,P|86:118|93:75,1,85.0000016212464,0|4,0:0|0:0,0:0:0:0:
202,281,175613,2,0,P|161:315|121:331,1,85.0000016212464
263,144,176035,2,0,P|330:167|376:204,1,127.50000243187,4|0,0:0|0:0,0:0:0:0:
397,229,176458,1,4,0:0:0:0:
312,356,176669,1,0,0:0:0:0:
424,346,176880,1,0,0:0:0:0:
512,274,177092,1,0,0:0:0:0:
284,335,177303,1,0,0:0:0:0:
440,365,177514,1,0,0:0:0:0:
494,238,177726,1,0,0:0:0:0:
262,308,177937,1,0,0:0:0:0:
335,30,178148,5,4,0:0:0:0:
335,30,178571,1,0,0:0:0:0:
174,57,178782,1,4,0:0:0:0:
465,140,178993,1,0,0:0:0:0:
335,30,179204,1,0,0:0:0:0:
360,268,179416,2,0,L|371:365,1,85.0000016212464,4|0,0:0|0:0,0:0:0:0:
157,173,179838,2,0,L|172:344,1,170.000003242493,4|0,0:0|0:0,0:0:0:0:
29,192,180472,1,4,0:0:0:0:
105,62,180683,1,0,0:0:0:0:
256,105,180895,1,0,0:0:0:0:
29,192,181106,1,4,0:0:0:0:
154,206,181317,1,0,0:0:0:0:
0,88,181528,5,4,0:0:0:0:
105,62,181740,1,0,0:0:0:0:
215,39,181951,1,0,0:0:0:0:
72,163,182162,1,4,0:0:0:0:
179,135,182373,1,0,0:0:0:0:
37,269,182585,1,0,0:0:0:0:
215,39,182796,2,0,L|312:58,1,85.0000016212464,4|0,0:0|0:0,0:0:0:0:
160,241,183219,2,0,L|297:214,1,127.50000243187,4|0,0:0|0:0,0:0:0:0:
319,206,183641,1,0,0:0:0:0:
279,314,183852,1,4,0:0:0:0:
225,140,184064,1,0,0:0:0:0:
407,184,184275,1,0,0:0:0:0:
186,348,184486,1,4,0:0:0:0:
123,157,184697,1,0,0:0:0:0:
343,26,184909,6,0,L|351:206,1,170.000003242493,4|0,0:0|0:0,0:0:0:0:
245,345,185542,1,4,0:0:0:0:
223,143,185754,1,0,0:0:0:0:
355,298,185965,1,0,0:0:0:0:
101,247,186176,2,0,L|106:369,1,85.0000016212464,4|0,0:0|0:0,0:0:0:0:
468,361,186599,2,0,L|460:191,1,170.000003242493,4|0,0:0|0:0,0:0:0:0:
217,289,187233,1,4,0:0:0:0:
362,331,187444,1,0,0:0:0:0:
209,136,187655,1,0,0:0:0:0:
453,102,187866,2,0,L|449:17,1,85.0000016212464,4|0,0:0|0:0,0:0:0:0:
119,218,188289,6,0,L|34:214,1,85.0000016212464,4|0,0:0|0:0,0:0:0:0:
245,28,188711,2,0,L|160:24,1,85.0000016212464,0|4,0:0|0:0,0:0:0:0:
278,296,189134,1,0,0:0:0:0:
260,151,189345,1,0,0:0:0:0:
512,311,189557,2,0,L|427:307,1,85.0000016212464,4|0,0:0|0:0,0:0:0:0:
40,117,189979,2,0,L|218:130,1,170.000003242493,4|0,0:0|0:0,0:0:0:0:
373,149,190613,1,4,0:0:0:0:
111,222,190824,1,0,0:0:0:0:
128,34,191035,1,0,0:0:0:0:
373,149,191247,2,0,L|457:152,1,85.0000016212464,4|0,0:0|0:0,0:0:0:0:
203,205,191669,6,0,L|191:375,1,170.000003242493,4|0,0:0|0:0,0:0:0:0:
278,353,192303,1,4,0:0:0:0:
212,98,192514,1,0,0:0:0:0:
101,341,192726,1,0,0:0:0:0:
120,164,192937,2,0,L|110:249,1,85.0000016212464,4|0,0:0|0:0,0:0:0:0:
449,144,193359,2,0,L|436:313,1,170.000003242493,4|0,0:0|0:0,0:0:0:0:
436,313,194204,1,0,0:0:0:0:
350,306,194416,1,0,0:0:0:0:
371,132,194627,2,0,L|360:216,1,85.0000016212464
385,20,195049,5,4,0:0:0:0:
355,23,195261,1,0,0:0:0:0:
318,15,195472,1,0,0:0:0:0:
264,39,195683,1,4,0:0:0:0:
169,16,195895,1,0,0:0:0:0:
31,79,196106,1,0,0:0:0:0:
297,128,196317,1,4,0:0:0:0:
88,19,196528,1,0,0:0:0:0:
180,295,196740,5,4,0:0:0:0:
183,9,196951,1,0,0:0:0:0:
83,355,197162,1,0,0:0:0:0:
282,1,197373,1,4,0:0:0:0:
0,361,197585,1,0,0:0:0:0:
373,35,197796,1,2,0:0:0:0:
408,101,197902,1,2,0:0:0:0:
413,175,198007,1,6,0:0:0:0:
376,240,198113,1,2,0:0:0:0:
308,273,198219,1,2,0:0:0:0:
234,261,198324,1,2,0:0:0:0:
260,331,198430,5,4,0:0:0:0:
158,67,198641,1,0,0:0:0:0:
86,90,198747,2,0,L|11:83,1,62.5,2|0,0:0|0:0,0:0:0:0:
308,273,198958,1,2,0:0:0:0:
380,296,199064,2,0,L|455:289,1,62.5,4|0,0:0|0:0,0:0:0:0:
143,145,199275,6,0,P|148:251|190:336,1,200,8|0,0:0|0:0,0:0:0:0:
425,106,199697,2,0,P|419:212|377:297,1,200,4|2,0:0|0:0,0:0:0:0:
184,57,200120,6,0,P|141:146|138:246,1,200,4|0,0:0|0:0,0:0:0:0:
384,19,200542,2,0,P|426:108|429:208,1,200,0|4,0:0|0:0,0:0:0:0:
117,138,200965,6,0,P|122:244|164:329,1,200,8|0,0:0|0:0,0:0:0:0:
450,105,201388,2,0,P|444:211|402:296,1,200,12|2,0:0|0:0,0:0:0:0:
158,49,201810,6,0,P|115:138|112:238,1,200,4|0,0:0|0:0,0:0:0:0:
408,17,202233,2,0,P|450:106|453:206,1,200,0|4,0:0|0:0,0:0:0:0:
94,135,202655,6,0,P|99:241|141:326,1,200,8|0,0:0|0:0,0:0:0:0:
477,102,203078,2,0,P|471:208|429:293,1,200,4|0,0:0|0:0,0:0:0:0:
53,143,203500,6,0,P|43:172|42:204,1,62.5,6|2,0:0|0:0,0:0:0:0:
135,29,203711,1,0,0:0:0:0:
198,69,203817,2,0,P|270:81|336:28,1,125,2|2,0:0|0:0,0:0:0:0:
371,9,204134,1,4,0:0:0:0:
16,25,204345,1,8,0:0:0:0:
216,307,204557,1,2,0:0:0:0:
280,343,204662,1,2,0:0:0:0:
354,333,204768,1,6,0:0:0:0:
393,270,204873,1,2,0:0:0:0:
383,195,204979,1,2,0:0:0:0:
324,148,205085,1,2,0:0:0:0:
393,120,205190,5,4,0:0:0:0:
200,234,205402,1,0,0:0:0:0:
144,283,205507,2,0,L|77:276,1,62.5,2|0,0:0|0:0,0:0:0:0:
215,31,205719,1,2,0:0:0:0:
271,80,205824,2,0,L|338:73,1,62.5,4|0,0:0|0:0,0:0:0:0:
213,308,206035,6,0,P|319:303|404:261,1,200,8|0,0:0|0:0,0:0:0:0:
163,89,206458,2,0,P|269:95|354:137,1,200,4|2,0:0|0:0,0:0:0:0:
189,304,206880,6,0,P|278:347|378:350,1,200,4|0,0:0|0:0,0:0:0:0:
134,102,207303,2,0,P|223:60|323:57,1,200,0|4,0:0|0:0,0:0:0:0:
165,299,207726,6,0,P|271:294|356:252,1,200,8|0,0:0|0:0,0:0:0:0:
109,101,208148,2,0,P|215:107|300:149,1,200,4|2,0:0|0:0,0:0:0:0:
143,285,208571,6,0,P|232:328|332:331,1,200,4|0,0:0|0:0,0:0:0:0:
91,115,208993,2,0,P|180:73|280:70,1,200,0|4,0:0|0:0,0:0:0:0:
26,319,209416,5,8,0:0:0:0:
134,24,209627,1,0,0:0:0:0:
451,284,209838,2,0,P|345:278|260:236,1,200,4|2,0:0|0:0,0:0:0:0:
354,25,210261,6,0,L|362:116,1,62.5,6|2,0:0|0:0,0:0:0:0:
51,117,210472,2,0,L|43:208,1,62.5,4|2,0:0|0:0,0:0:0:0:
448,79,210683,2,0,L|440:170,1,62.5,0|2,0:0|0:0,0:0:0:0:
274,47,210895,2,0,L|266:138,1,62.5,4|0,0:0|0:0,0:0:0:0:
280,355,211106,1,8,0:0:0:0:
11,249,211317,1,2,0:0:0:0:
86,245,211423,1,2,0:0:0:0:
157,265,211528,1,10,0:0:0:0:
216,311,211634,1,2,0:0:0:0:
282,346,211740,1,2,0:0:0:0:
355,335,211845,1,2,0:0:0:0:
309,275,211951,5,4,0:0:0:0:
138,46,212162,1,0,0:0:0:0:
211,62,212268,1,2,0:0:0:0:
105,315,212479,1,2,0:0:0:0:
32,331,212585,1,0,0:0:0:0:
288,77,212796,2,0,L|413:101,1,125,8|0,0:0|0:0,0:0:0:0:
159,123,213219,1,4,0:0:0:0:
483,120,213430,1,2,0:0:0:0:
429,173,213535,1,2,0:0:0:0:
402,244,213641,5,4,0:0:0:0:
109,185,213852,1,0,0:0:0:0:
81,115,213958,1,2,0:0:0:0:
435,29,214169,1,2,0:0:0:0:
410,100,214275,1,0,0:0:0:0:
56,43,214486,2,0,P|117:42|168:7,1,125,8|0,0:0|0:0,0:0:0:0:
137,255,214909,1,4,0:0:0:0:
410,100,215120,1,2,0:0:0:0:
429,173,215226,1,2,0:0:0:0:
483,226,215331,5,4,0:0:0:0:
243,41,215542,2,0,L|159:31,1,62.5,0|2,0:0|0:0,0:0:0:0:
137,255,215754,2,0,L|74:262,1,62.5,0|2,0:0|0:0,0:0:0:0:
369,223,215965,1,4,0:0:0:0:
30,87,216176,1,8,0:0:0:0:
218,111,216388,1,0,0:0:0:0:
123,367,216599,1,12,0:0:0:0:
383,341,216810,5,2,0:0:0:0:
340,279,216916,1,2,0:0:0:0:
338,204,217021,1,6,0:0:0:0:
375,138,217127,1,2,0:0:0:0:
435,93,217233,1,0,0:0:0:0:
367,61,217338,1,2,0:0:0:0:
319,2,217444,1,0,0:0:0:0:
292,71,217549,1,2,0:0:0:0:
222,99,217655,1,4,0:0:0:0:
502,277,217866,1,8,0:0:0:0:
146,96,218078,5,2,0:0:0:0:
74,117,218183,1,2,0:0:0:0:
35,181,218289,1,6,0:0:0:0:
50,254,218395,1,2,0:0:0:0:
112,294,218500,1,2,0:0:0:0:
187,290,218606,1,2,0:0:0:0:
154,357,218711,5,4,0:0:0:0:
292,71,218923,1,0,0:0:0:0:
367,61,219028,1,2,0:0:0:0:
304,364,219240,1,2,0:0:0:0:
229,354,219345,1,0,0:0:0:0:
215,82,219557,2,0,L|76:102,1,125,8|0,0:0|0:0,0:0:0:0:
445,52,219979,1,4,0:0:0:0:
154,357,220190,1,2,0:0:0:0:
187,290,220296,1,2,0:0:0:0:
171,216,220402,5,4,0:0:0:0:
463,349,220613,1,0,0:0:0:0:
479,275,220719,1,2,0:0:0:0:
109,271,220930,1,2,0:0:0:0:
93,197,221035,1,4,0:0:0:0:
500,199,221247,1,8,0:0:0:0:
124,352,221458,1,0,0:0:0:0:
80,123,221669,1,4,0:0:0:0:
423,211,221880,1,2,0:0:0:0:
350,190,221986,1,2,0:0:0:0:
313,124,222092,5,4,0:0:0:0:
124,352,222303,2,0,P|132:322|147:296,1,62.5,0|2,0:0|0:0,0:0:0:0:
307,47,222514,2,0,P|277:56|246:57,1,62.5,0|2,0:0|0:0,0:0:0:0:
14,6,222726,1,4,0:0:0:0:
377,74,222937,1,8,0:0:0:0:
218,272,223148,1,0,0:0:0:0:
173,35,223359,1,4,0:0:0:0:
425,316,223571,5,2,0:0:0:0:
352,334,223676,1,2,0:0:0:0:
277,320,223782,1,6,0:0:0:0:
218,272,223888,1,2,0:0:0:0:
206,198,223993,1,0,0:0:0:0:
133,218,224099,1,2,0:0:0:0:
65,186,224204,1,0,0:0:0:0:
60,261,224310,1,2,0:0:0:0:
24,327,224416,1,4,0:0:0:0:
11,24,224627,1,8,0:0:0:0:
100,327,224838,5,2,0:0:0:0:
174,336,224944,1,2,0:0:0:0:
241,367,225049,1,6,0:0:0:0:
316,370,225155,1,2,0:0:0:0:
375,323,225261,1,2,0:0:0:0:
383,248,225366,1,2,0:0:0:0:
351,179,225472,5,0,0:0:0:0:
65,151,225683,2,0,L|120:147,4,42.5000008106232
425,203,226317,1,2,0:0:0:0:
249,219,226528,1,2,0:0:0:0:
230,41,226740,2,0,L|240:140,1,85.0000016212464,2|0,0:0|0:0,0:0:0:0:
388,202,227162,1,2,0:0:0:0:
280,215,227373,1,2,0:0:0:0:
366,26,227585,2,0,L|376:125,1,85.0000016212464,2|0,0:0|0:0,0:0:0:0:
149,71,228007,2,0,L|162:206,1,127.50000243187
166,229,228430,1,2,0:0:0:0:
388,202,228641,1,2,0:0:0:0:
366,26,228852,5,0,0:0:0:0:
166,229,229064,1,2,0:0:0:0:
162,197,229169,1,2,0:0:0:0:
157,165,229275,1,2,0:0:0:0:
249,219,229486,1,2,0:0:0:0:
82,238,229697,1,2,0:0:0:0:
387,201,229909,1,2,0:0:0:0:
384,170,230014,1,2,0:0:0:0:
379,138,230120,1,2,0:0:0:0:
455,193,230331,1,2,0:0:0:0:
319,209,230542,2,0,P|255:193|225:162,1,85.0000016212464,2|0,0:0|0:0,0:0:0:0:
481,272,230965,1,0,0:0:0:0:
217,342,231176,2,0,P|199:278|210:236,1,85.0000016212464
369,92,231599,2,0,P|326:90|287:107,1,85.0000016212464
201,260,232021,1,0,0:0:0:0:
126,60,232233,6,0,P|83:62|44:45,1,85.0000016212464
269,16,232655,1,0,0:0:0:0:
153,164,232866,1,0,0:0:0:0:
450,151,233078,2,0,B|455:109|455:109|446:67,1,85.0000016212464,2|2,0:0|0:0,0:0:0:0:
288,242,233500,2,0,L|436:234,1,127.50000243187,2|0,0:0|0:0,0:0:0:0:
459,237,233923,2,0,B|468:279|468:279|462:320,1,85.0000016212464,2|2,0:0|0:0,0:0:0:0:
278,158,234345,2,0,L|452:148,1,170.000003242493,2|0,0:0|0:0,0:0:0:0:
318,50,234979,1,0,0:0:0:0:
243,243,235190,2,0,B|234:285|234:285|239:326,1,85.0000016212464,2|2,0:0|0:0,0:0:0:0:
98,298,235613,5,0,0:0:0:0:
205,99,235824,1,2,0:0:0:0:
173,103,235930,1,2,0:0:0:0:
141,108,236035,1,2,0:0:0:0:
296,83,236247,1,2,0:0:0:0:
52,123,236458,1,2,0:0:0:0:
340,186,236669,1,2,0:0:0:0:
365,190,236775,1,2,0:0:0:0:
391,194,236880,1,2,0:0:0:0:
267,173,237092,1,2,0:0:0:0:
463,206,237303,2,0,P|462:275|383:353,1,170.000003242493,2|0,0:0|0:0,0:0:0:0:
267,173,237937,2,0,P|325:113|408:107,1,170.000003242493
214,296,238571,1,0,0:0:0:0:
214,296,238993,5,0,0:0:0:0:
341,290,239204,1,0,0:0:0:0:
344,251,239310,1,0,0:0:0:0:
333,213,239416,1,0,0:0:0:0:
303,188,239521,1,0,0:0:0:0:
267,173,239627,1,0,0:0:0:0:
53,323,239838,2,0,L|159:334,1,85.0000016212464,2|2,0:0|0:0,0:0:0:0:
157,170,240261,2,0,L|143:302,1,127.50000243187,2|0,0:0|0:0,0:0:0:0:
137,331,240683,2,0,L|221:339,1,85.0000016212464,2|2,0:0|0:0,0:0:0:0:
239,170,241106,2,0,L|220:347,1,170.000003242493,2|0,0:0|0:0,0:0:0:0:
321,289,241740,1,0,0:0:0:0:
72,161,241951,2,0,L|156:169,1,85.0000016212464
53,323,242373,5,0,0:0:0:0:
156,169,242585,1,2,0:0:0:0:
160,126,242690,1,2,0:0:0:0:
164,84,242796,1,2,0:0:0:0:
72,161,243007,1,2,0:0:0:0:
173,2,243219,1,2,0:0:0:0:
310,177,243430,1,2,0:0:0:0:
313,140,243535,1,2,0:0:0:0:
316,105,243641,1,2,0:0:0:0:
239,170,243852,1,2,0:0:0:0:
481,207,244064,2,0,P|438:205|399:222,1,85.0000016212464,2|0,0:0|0:0,0:0:0:0:
376,359,244486,1,0,0:0:0:0:
418,120,244697,2,0,P|434:81|432:39,1,85.0000016212464
310,177,245120,2,0,P|267:179|229:162,1,85.0000016212464
400,221,245542,1,0,0:0:0:0:
122,130,245754,6,0,P|128:212|187:271,1,170.000003242493
229,162,246388,1,0,0:0:0:0:
215,351,246599,2,0,L|304:343,1,85.0000016212464,2|2,0:0|0:0,0:0:0:0:
329,192,247021,2,0,B|337:283|337:283|321:319,1,127.50000243187,2|0,0:0|0:0,0:0:0:0:
337,349,247444,2,0,L|421:341,1,85.0000016212464,2|2,0:0|0:0,0:0:0:0:
405,186,247866,2,0,B|412:277|412:277|462:342,1,170.000003242493,2|0,0:0|0:0,0:0:0:0:
499,240,248500,1,0,0:0:0:0:
250,269,248711,2,0,L|165:276,1,85.0000016212464,2|2,0:0|0:0,0:0:0:0:
405,186,249134,5,0,0:0:0:0:
152,174,251035,5,2,0:0:0:0:
152,174,251141,1,2,0:0:0:0:
152,174,251247,1,2,0:0:0:0:
152,174,251458,1,2,0:0:0:0:
152,174,251669,2,0,B|143:216|143:216|148:257,1,85.0000016212464,2|2,0:0|0:0,0:0:0:0:
152,174,252092,2,0,B|158:216|158:216|149:257,1,85.0000016212464,2|2,0:0|0:0,0:0:0:0:
81,26,252514,6,0,L|242:41,1,150,4|0,0:0|0:0,0:0:0:0:
271,45,252937,1,0,0:0:0:0:
23,104,253148,1,4,0:0:0:0:
269,131,253359,2,0,P|321:117|350:73,1,100,8|0,0:0|0:0,0:0:0:0:
191,90,253782,2,0,P|177:142|228:217,1,150,4|0,0:0|0:0,0:0:0:0:
264,219,254204,2,0,L|114:205,1,150,4|0,0:0|0:0,0:0:0:0:
77,202,254627,1,0,0:0:0:0:
269,131,254838,1,4,0:0:0:0:
25,104,255049,1,8,0:0:0:0:
146,117,255261,1,0,0:0:0:0:
62,337,255472,2,0,P|131:314|193:352,1,150,12|0,0:0|0:0,0:0:0:0:
195,314,255895,6,0,L|202:140,1,150,4|0,0:0|0:0,0:0:0:0:
202,129,256317,1,0,0:0:0:0:
288,226,256528,1,4,0:0:0:0:
6,206,256740,1,8,0:0:0:0:
98,117,256951,1,0,0:0:0:0:
129,241,257162,1,4,0:0:0:0:
221,152,257373,1,0,0:0:0:0:
6,206,257585,1,4,0:0:0:0:
129,241,257796,1,0,0:0:0:0:
98,117,258007,1,0,0:0:0:0:
190,28,258219,1,4,0:0:0:0:
252,276,258430,1,8,0:0:0:0:
129,241,258641,1,0,0:0:0:0:
375,311,258852,1,4,0:0:0:0:
229,354,259064,1,0,0:0:0:0:
316,96,259275,6,0,P|369:103|413:74,1,100,4|0,0:0|0:0,0:0:0:0:
224,110,259697,2,0,P|277:117|321:88,1,100,0|4,0:0|0:0,0:0:0:0:
132,124,260120,2,0,P|185:131|229:102,1,100,8|0,0:0|0:0,0:0:0:0:
51,266,260542,1,4,0:0:0:0:
34,159,260754,1,0,0:0:0:0:
279,249,260965,1,4,0:0:0:0:
163,260,261176,1,0,0:0:0:0:
206,138,261388,1,0,0:0:0:0:
279,249,261599,1,4,0:0:0:0:
32,282,261810,1,8,0:0:0:0:
75,153,262021,1,0,0:0:0:0:
241,361,262233,1,12,0:0:0:0:
110,377,262444,1,0,0:0:0:0:
130,92,262655,6,0,P|86:68|38:77,1,100,4|0,0:0|0:0,0:0:0:0:
361,96,263078,1,0,0:0:0:0:
206,138,263289,1,4,0:0:0:0:
361,96,263500,1,8,0:0:0:0:
325,218,263711,1,0,0:0:0:0:
241,16,263923,1,4,0:0:0:0:
361,96,264134,1,0,0:0:0:0:
206,262,264345,1,4,0:0:0:0:
206,138,264557,1,0,0:0:0:0:
442,192,264768,1,0,0:0:0:0:
419,313,264979,1,4,0:0:0:0:
361,96,265190,1,8,0:0:0:0:
419,313,265402,1,0,0:0:0:0:
361,96,265613,1,4,0:0:0:0:
442,192,265824,1,0,0:0:0:0:
345,28,266035,6,0,L|362:168,1,119.999996337891,4|0,0:0|0:0,0:0:0:0:
274,28,266458,2,0,L|290:166,1,139.999995727539,0|4,0:0|0:0,0:0:0:0:
201,28,266880,2,0,L|221:194,1,160,8|0,0:0|0:0,0:0:0:0:
124,32,267303,2,0,L|146:220,1,179.999994506836,4|0,0:0|0:0,0:0:0:0:
345,28,267726,6,0,L|372:252,1,200,4|0,0:0|0:0,0:0:0:0:
274,28,268148,2,0,L|303:272,1,220.000006713867,0|4,0:0|0:0,0:0:0:0:
201,28,268571,2,0,L|233:295,1,239.999992675781,8|0,0:0|0:0,0:0:0:0:
124,32,268993,2,0,L|156:302,1,259.999988098145,12|0,0:0|0:0,0:0:0:0:
345,28,269416,6,0,L|382:334,1,279.999991455078,4|0,0:0|0:0,0:0:0:0:
274,27,269838,2,0,L|314:363,1,300.000011444092,0|4,0:0|0:0,0:0:0:0:
201,28,270261,2,0,L|245:393,1,320,8|0,0:0|0:0,0:0:0:0:
124,32,270683,1,4,0:0:0:0:
351,242,270895,1,0,0:0:0:0:
82,340,271106,5,4,0:0:0:0:
231,341,271317,1,0,0:0:0:0:
11,188,271528,1,0,0:0:0:0:
82,340,271740,1,4,0:0:0:0:
109,60,271951,1,8,0:0:0:0:
11,188,272162,1,0,0:0:0:0:
276,74,272373,1,4,0:0:0:0:
109,60,272585,1,0,0:0:0:0:
372,342,272796,6,0,L|386:222,1,119.999996337891,4|0,0:0|0:0,0:0:0:0:
301,342,273219,2,0,L|317:203,1,139.999995727539,0|4,0:0|0:0,0:0:0:0:
228,342,273641,2,0,L|247:183,1,160,8|0,0:0|0:0,0:0:0:0:
151,338,274064,2,0,L|172:159,1,179.999994506836,4|0,0:0|0:0,0:0:0:0:
372,342,274486,6,0,L|396:143,1,200,4|0,0:0|0:0,0:0:0:0:
301,342,274909,2,0,L|327:123,1,220.000006713867,0|4,0:0|0:0,0:0:0:0:
228,342,275331,2,0,L|256:103,1,239.999992675781,8|0,0:0|0:0,0:0:0:0:
151,338,275754,2,0,L|182:79,1,259.999988098145,12|0,0:0|0:0,0:0:0:0:
372,342,276176,6,0,L|405:64,1,279.999991455078,4|0,0:0|0:0,0:0:0:0:
301,342,276599,2,0,L|337:44,1,300.000011444092,0|4,0:0|0:0,0:0:0:0:
228,342,277021,2,0,L|266:24,1,320,8|0,0:0|0:0,0:0:0:0:
372,342,277444,1,4,0:0:0:0:
266,24,277655,1,0,0:0:0:0:
195,94,277866,5,4,0:0:0:0:
170,180,278078,1,0,0:0:0:0:
208,261,278289,1,0,0:0:0:0:
288,300,278500,1,4,0:0:0:0:
377,289,278711,1,8,0:0:0:0:
426,213,278923,1,0,0:0:0:0:
411,124,279134,1,4,0:0:0:0:
494,156,279345,1,0,0:0:0:0:
103,122,279557,5,2,0:0:0:0:
100,136,279979,1,2,0:0:0:0:
103,122,280824,1,2,0:0:0:0:
100,136,281247,1,2,0:0:0:0:
189,102,282937,5,2,0:0:0:0:
195,134,283359,1,2,0:0:0:0:
223,216,284204,5,2,0:0:0:0:
144,204,284627,1,2,0:0:0:0:
429,153,286317,5,2,0:0:0:0:
432,167,286740,1,2,0:0:0:0:
429,153,287585,1,2,0:0:0:0:
432,167,288007,1,2,0:0:0:0:
332,141,289697,5,2,0:0:0:0:
326,173,290120,1,2,0:0:0:0:
297,254,290965,5,2,0:0:0:0:
376,242,291388,1,2,0:0:0:0:
431,202,293078,6,0,B|363:156|262:220|262:220|291:177|276:109,1,269.999991760254,2|0,0:0|0:0,0:0:0:0:
113,314,293923,2,0,P|160:309|204:282,1,89.9999972534181,2|0,0:0|0:0,0:0:0:0:
25,237,294345,2,0,B|78:163|62:65|62:65|107:142|107:142|122:96|145:61|145:61|243:313|243:313|148:317|110:226|182:157|182:157|229:103,1,899.999972534181,2|0,0:0|0:0,0:0:0:0:
432,300,297092,5,2,0:0:0:0:
467,167,297303,1,2,0:0:0:0:
372,73,297514,1,2,0:0:0:0:
407,309,297726,1,2,0:0:0:0:
441,172,297937,1,2,0:0:0:0:
348,78,298148,2,0,P|293:101|251:95,1,89.9999972534181,2|0,0:0|0:0,0:0:0:0:
222,83,298465,2,0,B|242:261|242:261|138:245|149:73|149:73,1,404.999987640381,2|0,0:0|0:0,0:0:0:0:
135,367,299838,2,0,B|202:297|300:358|300:358|288:260,1,269.999991760254,2|0,0:0|0:0,0:0:0:0:
385,305,300683,2,0,P|382:257|357:212,1,89.9999972534181,2|0,0:0|0:0,0:0:0:0:
472,357,301106,2,0,B|509:207|419:84|419:84|395:151|395:151|345:141|296:157|291:223|291:223|287:346|287:346|199:325|160:165|211:88|211:88,1,899.999972534181,2|0,0:0|0:0,0:0:0:0:
75,278,303852,5,2,0:0:0:0:
170,170,304064,1,2,0:0:0:0:
314,171,304275,1,2,0:0:0:0:
71,314,304486,1,2,0:0:0:0:
162,146,304697,1,2,0:0:0:0:
329,179,304909,2,0,L|343:61,1,89.9999972534181,2|0,0:0|0:0,0:0:0:0:
345,55,305226,2,0,P|269:75|199:61,1,134.999995880127,2|0,0:0|0:0,0:0:0:0:
115,37,305754,1,2,0:0:0:0:
18,88,305965,1,2,0:0:0:0:
76,185,306176,1,2,0:0:0:0:
163,132,306388,6,0,L|254:147,1,89.9999972534181,2|0,0:0|0:0,0:0:0:0:
310,228,306810,1,2,0:0:0:0:
227,283,307021,2,0,L|138:268,1,89.9999972534181,2|0,0:0|0:0,0:0:0:0:
346,136,307444,2,0,L|434:121,1,89.9999972534181,2|0,0:0|0:0,0:0:0:0:
414,336,307866,1,2,0:0:0:0:
413,323,309134,2,0,P|334:336|248:278,1,179.999994506836,2|2,0:0|0:0,0:0:0:0:
312,138,309768,6,0,P|225:126|152:176,1,179.999994506836,2|2,0:0|0:0,0:0:0:0:
114,306,310402,1,2,0:0:0:0:
54,175,310613,2,0,L|66:66,1,89.9999972534181,2|0,0:0|0:0,0:0:0:0:
25,268,311035,1,2,0:0:0:0:
312,138,311247,2,0,L|300:29,1,89.9999972534181,2|0,0:0|0:0,0:0:0:0:
244,320,311669,2,0,L|256:211,1,89.9999972534181,2|0,0:0|0:0,0:0:0:0:
253,230,312514,1,2,0:0:0:0:
367,262,312726,1,2,0:0:0:0:
334,148,312937,1,2,0:0:0:0:
185,308,313148,6,0,L|85:295,1,89.9999972534181,2|0,0:0|0:0,0:0:0:0:
143,189,313571,1,2,0:0:0:0:
277,361,313782,2,0,L|377:348,1,89.9999972534181,2|0,0:0|0:0,0:0:0:0:
205,98,314204,2,0,L|105:85,1,89.9999972534181,2|0,0:0|0:0,0:0:0:0:
423,274,314627,1,2,0:0:0:0:
424,273,315683,1,2,0:0:0:0:
410,190,315895,1,2,0:0:0:0:
258,274,316106,1,2,0:0:0:0:
399,107,316317,1,2,0:0:0:0:
163,292,316528,1,2,0:0:0:0:
163,292,316951,5,2,0:0:0:0:
99,217,317162,1,2,0:0:0:0:
144,128,317373,1,2,0:0:0:0:
245,124,317585,1,2,0:0:0:0:
77,309,317796,1,2,0:0:0:0:
183,45,318007,1,2,0:0:0:0:
257,294,318219,1,2,0:0:0:0:
257,294,318641,1,2,0:0:0:0:
282,182,318852,1,2,0:0:0:0:
161,235,319064,1,2,0:0:0:0:
395,220,319275,1,2,0:0:0:0:
47,68,319486,1,2,0:0:0:0:
83,134,319592,1,2,0:0:0:0:
149,168,319697,1,2,0:0:0:0:
224,172,319803,1,2,0:0:0:0:
285,128,319909,1,2,0:0:0:0:
312,58,320014,1,2,0:0:0:0:
358,117,320120,5,4,0:0:0:0:
85,213,320331,1,0,0:0:0:0:
116,281,320437,2,0,L|109:355,1,62.5,2|0,0:0|0:0,0:0:0:0:
332,187,320648,1,2,0:0:0:0:
301,255,320754,2,0,L|308:329,1,62.5,4|0,0:0|0:0,0:0:0:0:
382,49,320965,2,0,P|465:70|527:36,1,125,8|0,0:0|0:0,0:0:0:0:
146,94,321388,1,4,0:0:0:0:
406,173,321599,1,2,0:0:0:0:
332,187,321704,1,2,0:0:0:0:
301,255,321810,5,4,0:0:0:0:
75,70,322021,1,0,0:0:0:0:
146,94,322127,2,0,L|252:71,1,62.5,2|0,0:0|0:0,0:0:0:0:
181,319,322338,1,2,0:0:0:0:
110,343,322444,2,0,L|4:320,1,62.5,4|0,0:0|0:0,0:0:0:0:
359,301,322655,2,0,L|493:332,1,125,8|0,0:0|0:0,0:0:0:0:
125,269,323078,1,4,0:0:0:0:
264,95,323289,1,2,0:0:0:0:
276,169,323395,1,2,0:0:0:0:
288,242,323500,5,4,0:0:0:0:
83,50,323711,2,0,L|71:134,1,62.5,0|2,0:0|0:0,0:0:0:0:
344,119,323923,2,0,L|356:203,1,62.5,0|2,0:0|0:0,0:0:0:0:
150,98,324134,2,0,L|141:159,1,62.5,4|0,0:0|0:0,0:0:0:0:
413,75,324345,1,8,0:0:0:0:
509,161,324557,1,0,0:0:0:0:
58,194,324768,1,12,0:0:0:0:
481,281,324979,5,2,0:0:0:0:
411,309,325085,1,2,0:0:0:0:
337,297,325190,1,6,0:0:0:0:
287,240,325296,1,2,0:0:0:0:
279,165,325402,1,0,0:0:0:0:
220,211,325507,1,2,0:0:0:0:
148,187,325613,1,0,0:0:0:0:
162,260,325719,1,2,0:0:0:0:
132,328,325824,1,4,0:0:0:0:
37,17,326035,1,8,0:0:0:0:
132,328,326247,5,2,0:0:0:0:
162,260,326352,1,2,0:0:0:0:
230,228,326458,1,6,0:0:0:0:
305,234,326564,1,2,0:0:0:0:
376,212,326669,1,2,0:0:0:0:
418,150,326775,1,2,0:0:0:0:
449,217,326880,5,4,0:0:0:0:
192,35,327092,1,0,0:0:0:0:
168,105,327197,2,0,P|161:142|168:186,1,62.5,2|0,0:0|0:0,0:0:0:0:
396,331,327409,1,2,0:0:0:0:
355,269,327514,2,0,P|326:244|284:228,1,62.5,4|0,0:0|0:0,0:0:0:0:
22,309,327726,2,0,L|172:326,1,125,8|0,0:0|0:0,0:0:0:0:
24,128,328148,1,4,0:0:0:0:
268,300,328359,1,2,0:0:0:0:
304,233,328465,1,2,0:0:0:0:
291,158,328571,5,4,0:0:0:0:
9,237,328782,1,0,0:0:0:0:
79,210,328888,2,0,P|116:203|160:210,1,62.5,2|0,0:0|0:0,0:0:0:0:
462,291,329099,1,2,0:0:0:0:
449,217,329204,2,0,P|439:187|422:161,1,62.5,4|0,0:0|0:0,0:0:0:0:
283,30,329416,2,0,L|272:178,1,125,8|0,0:0|0:0,0:0:0:0:
151,27,329838,1,4,0:0:0:0:
407,14,330049,1,2,0:0:0:0:
401,89,330155,1,2,0:0:0:0:
422,161,330261,5,4,0:0:0:0:
47,118,330472,2,0,P|76:108|102:91,1,62.5,0|2,0:0|0:0,0:0:0:0:
259,262,330683,2,0,P|274:234|281:204,1,62.5,0|2,0:0|0:0,0:0:0:0:
144,209,330895,2,0,P|167:189|186:163,1,62.5,4|0,0:0|0:0,0:0:0:0:
473,279,331106,1,8,0:0:0:0:
331,369,331317,1,0,0:0:0:0:
347,144,331528,1,4,0:0:0:0:
167,320,331740,5,2,0:0:0:0:
139,250,331845,1,2,0:0:0:0:
141,174,331951,1,6,0:0:0:0:
173,106,332057,1,2,0:0:0:0:
224,51,332162,1,0,0:0:0:0:
150,34,332268,1,2,0:0:0:0:
80,7,332373,1,0,0:0:0:0:
87,81,332479,1,2,0:0:0:0:
41,141,332585,1,4,0:0:0:0:
458,165,332796,1,8,0:0:0:0:
11,209,333007,5,2,0:0:0:0:
3,283,333113,1,2,0:0:0:0:
40,347,333219,1,6,0:0:0:0:
111,369,333324,1,2,0:0:0:0:
183,350,333430,1,2,0:0:0:0:
235,297,333535,1,2,0:0:0:0:
254,369,333641,5,4,0:0:0:0:
218,14,333852,1,0,0:0:0:0:
148,42,333958,2,0,L|74:34,1,62.5,2|0,0:0|0:0,0:0:0:0:
339,247,334169,1,2,0:0:0:0:
409,275,334275,2,0,L|483:267,1,62.5,4|0,0:0|0:0,0:0:0:0:
359,12,334486,2,0,L|342:150,1,125,8|0,0:0|0:0,0:0:0:0:
478,15,334909,1,4,0:0:0:0:
141,301,335120,1,2,0:0:0:0:
150,227,335226,1,2,0:0:0:0:
159,153,335331,5,4,0:0:0:0:
512,332,335542,1,0,0:0:0:0:
442,360,335648,2,0,L|368:352,1,62.5,2|0,0:0|0:0,0:0:0:0:
26,131,335859,1,2,0:0:0:0:
96,159,335965,2,0,L|170:151,1,62.5,4|0,0:0|0:0,0:0:0:0:
15,368,336176,1,8,0:0:0:0:
26,248,336388,1,0,0:0:0:0:
302,321,336599,1,12,0:0:0:0:
315,172,336810,1,2,0:0:0:0:
388,190,336916,1,2,0:0:0:0:
461,178,337021,5,4,0:0:0:0:
158,40,337233,2,0,L|164:110,1,62.5,0|2,0:0|0:0,0:0:0:0:
442,251,337444,2,0,L|436:321,1,62.5,0|2,0:0|0:0,0:0:0:0:
325,270,337655,2,0,L|331:340,1,62.5,4|0,0:0|0:0,0:0:0:0:
280,23,337866,1,8,0:0:0:0:
297,145,338078,1,0,0:0:0:0:
20,30,338289,1,4,0:0:0:0:
32,290,338500,5,2,0:0:0:0:
77,230,338606,1,2,0:0:0:0:
147,205,338711,1,6,0:0:0:0:
218,228,338817,1,2,0:0:0:0:
270,281,338923,1,0,0:0:0:0:
322,228,339028,1,2,0:0:0:0:
397,226,339134,1,0,0:0:0:0:
372,154,339240,1,2,0:0:0:0:
381,79,339345,1,4,0:0:0:0:
502,356,339557,1,8,0:0:0:0:
425,18,339768,5,2,0:0:0:0:
382,79,339873,1,2,0:0:0:0:
308,96,339979,1,6,0:0:0:0:
234,80,340085,1,2,0:0:0:0:
163,104,340190,1,2,0:0:0:0:
128,171,340296,1,2,0:0:0:0:
90,105,340402,5,4,0:0:0:0:
414,147,340613,1,0,0:0:0:0:
453,83,340719,2,0,P|468:55|475:25,1,62.5,2|0,0:0|0:0,0:0:0:0:
158,229,340930,1,2,0:0:0:0:
119,165,341035,2,0,P|103:137|96:107,1,62.5,4|0,0:0|0:0,0:0:0:0:
356,335,341247,2,0,L|367:210,1,125,8|0,0:0|0:0,0:0:0:0:
501,345,341669,1,4,0:0:0:0:
199,371,341880,1,2,0:0:0:0:
195,295,341986,1,2,0:0:0:0:
158,229,342092,5,4,0:0:0:0:
485,143,342303,1,0,0:0:0:0:
424,187,342409,2,0,P|396:202|366:209,1,62.5,2|0,0:0|0:0,0:0:0:0:
199,371,342620,1,2,0:0:0:0:
138,327,342726,2,0,P|110:311|80:304,1,62.5,4|0,0:0|0:0,0:0:0:0:
480,325,342937,2,0,L|339:336,1,125,8|0,0:0|0:0,0:0:0:0:
372,121,343359,1,4,0:0:0:0:
80,304,343571,1,2,0:0:0:0:
94,230,343676,1,2,0:0:0:0:
108,156,343782,5,4,0:0:0:0:
462,85,343993,2,0,P|477:112|484:142,1,62.5,0|2,0:0|0:0,0:0:0:0:
130,98,344204,2,0,P|122:128|107:155,1,62.5,0|2,0:0|0:0,0:0:0:0:
257,111,344416,2,0,P|260:141|256:172,1,62.5,4|0,0:0|0:0,0:0:0:0:
8,75,344627,1,8,0:0:0:0:
23,222,344838,1,0,0:0:0:0:
171,12,345049,1,4,0:0:0:0:
168,275,345261,5,2,0:0:0:0:
239,297,345366,1,2,0:0:0:0:
311,275,345472,1,6,0:0:0:0:
350,211,345578,1,2,0:0:0:0:
353,136,345683,1,0,0:0:0:0:
417,175,345789,1,2,0:0:0:0:
492,169,345895,1,0,0:0:0:0:
460,236,346000,1,2,0:0:0:0:
473,310,346106,1,4,0:0:0:0:
113,225,346317,1,8,0:0:0:0:
473,310,346528,5,2,0:0:0:0:
460,236,346634,1,2,0:0:0:0:
417,175,346740,1,6,0:0:0:0:
349,142,346845,1,2,0:0:0:0:
273,141,346951,1,2,0:0:0:0:
205,175,347057,1,2,0:0:0:0:
205,175,347373,6,0,B|181:226|181:226|190:279,1,85.0000016212464,2|0,0:0|0:0,0:0:0:0:
216,87,347796,1,2,0:0:0:0:
112,269,348007,2,0,B|125:306|125:306|117:351|117:351|197:325|197:325|296:337|296:337,1,255.000004863739,2|0,0:0|0:0,0:0:0:0:
103,166,348852,5,0,0:0:0:0:
293,199,349064,1,2,0:0:0:0:
287,165,349169,1,2,0:0:0:0:
281,131,349275,1,2,0:0:0:0:
275,97,349380,1,2,0:0:0:0:
269,63,349486,1,2,0:0:0:0:
373,295,349697,2,0,B|401:283|401:283|432:285|432:285|472:273,1,85.0000016212464,2|0,0:0|0:0,0:0:0:0:
290,312,350120,1,0,0:0:0:0:
193,146,350331,6,0,B|177:146|177:146|163:137|163:137|142:138,2,42.5000008106232,2|2|2,0:0|0:0|0:0,0:0:0:0:
390,187,350754,1,0,0:0:0:0:
395,153,350859,1,0,0:0:0:0:
400,119,350965,1,0,0:0:0:0:
372,283,351176,1,0,0:0:0:0:
414,24,351388,1,0,0:0:0:0:
305,86,351599,1,0,0:0:0:0:
482,207,351810,1,0,0:0:0:0:
290,190,352021,1,0,0:0:0:0:
472,302,352233,6,0,P|418:310|389:297,1,85.0000016212464,2|0,0:0|0:0,0:0:0:0:
290,190,352655,1,2,0:0:0:0:
164,299,352866,2,0,P|218:291|242:271,1,85.0000016212464,2|0,0:0|0:0,0:0:0:0:
187,91,353289,2,0,B|211:80|211:80|236:79,1,42.5000008106232,2|2,0:0|0:0,0:0:0:0:
187,91,353500,2,0,B|139:109|139:109|92:104|92:104|47:120,1,127.50000243187,2|0,0:0|0:0,0:0:0:0:
26,86,353923,5,0,0:0:0:0:
326,137,354134,2,0,L|332:43,1,85.0000016212464,2|0,0:0|0:0,0:0:0:0:
508,74,354557,1,2,0:0:0:0:
400,272,354768,1,2,0:0:0:0:
409,146,354979,2,0,L|415:52,1,85.0000016212464
503,162,355402,1,0,0:0:0:0:
316,223,355613,5,0,0:0:0:0:
495,244,355824,2,0,L|489:328,1,85.0000016212464,2|0,0:0|0:0,0:0:0:0:
505,154,356247,1,2,0:0:0:0:
413,193,356458,1,2,0:0:0:0:
245,42,356669,2,0,L|239:126,1,85.0000016212464
218,330,357092,2,0,L|224:273,1,42.5000008106232,2|2,0:0|0:0,0:0:0:0:
156,170,357303,6,0,B|231:214|231:214|310:190,1,170.000003242493,2|0,0:0|0:0,0:0:0:0:
66,211,357937,1,0,0:0:0:0:
239,126,358993,2,0,P|280:83|402:99,1,170.000003242493
58,102,359627,1,0,0:0:0:0:
366,256,360049,6,0,L|408:261,1,25,2|2,0:0|0:0,0:0:0:0:
366,256,360261,2,0,L|251:265,1,100,2|0,0:0|0:0,0:0:0:0:
