osu file format v14

[General]
AudioFilename: audio.mp3
AudioLeadIn: 0
PreviewTime: 9935
Countdown: 1
SampleSet: Normal
StackLeniency: 0.7
Mode: 1
LetterboxInBreaks: 0
WidescreenStoryboard: 0

[Editor]
Bookmarks: 65464,104695
DistanceSpacing: 0.7
BeatDivisor: 4
GridSize: 4
TimelineZoom: 2.1

[Metadata]
Title:I Love It
TitleUnicode:I Love It
Artist:Kanye West & Lil Pump
ArtistUnicode:Kanye West & Lil Pump
Creator:Ney
Version:sick fuck
Source:
Tags:2018 adele givens
BeatmapID:1918608
BeatmapSetID:918823

[Difficulty]
HPDrainRate:6
CircleSize:5
OverallDifficulty:9
ApproachRate:5
SliderMultiplier:1.4
SliderTickRate:1

[Events]
//Background and Video events
0,0,"bitch.png",0,0
//Break Periods
//Storyboard Layer 0 (Background)
//Storyboard Layer 1 (Fail)
//Storyboard Layer 2 (Pass)
//Storyboard Layer 3 (Foreground)
//Storyboard Sound Samples

[TimingPoints]
-16,576.923076923077,4,1,0,100,1,0
20753,-86.9565217391304,4,1,0,100,0,0
65753,-83.3333333333333,4,1,0,100,0,0
66041,-71.4285714285714,4,1,0,100,0,0
66330,-62.5,4,1,0,100,0,0
66618,-55.5555555555556,4,1,0,100,0,0
66907,288.461538461538,4,1,0,100,1,0
85368,-100,4,1,0,100,0,1
103253,-105.263157894737,4,1,0,100,0,1
103830,-111.111111111111,4,1,0,100,0,1
104406,-117.647058823529,4,1,0,100,0,1
104983,-125,4,1,0,100,0,0
105560,-133.333333333333,4,1,0,100,0,0
105849,-142.857142857143,4,1,0,100,0,0
106137,576.923076923077,4,1,0,100,1,0
106137,-76.9230769230769,4,1,0,100,0,0

[HitObjects]
156,368,10080,5,0,0:0:0:0:
197,201,10368,1,8,0:0:0:0:
197,201,10657,1,0,0:0:0:0:
197,201,10945,1,8,0:0:0:0:
197,201,11234,1,8,0:0:0:0:
197,201,11522,1,0,0:0:0:0:
218,141,11666,1,8,0:0:0:0:
198,212,12099,1,0,0:0:0:0:
207,190,12387,1,0,0:0:0:0:
194,196,12532,1,8,0:0:0:0:
196,216,12676,1,0,0:0:0:0:
214,146,12964,1,8,0:0:0:0:
204,157,13397,1,0,0:0:0:0:
197,201,13830,1,0,0:0:0:0:
218,141,13974,1,8,0:0:0:0:
198,212,14407,1,0,0:0:0:0:
207,190,14695,1,0,0:0:0:0:
194,196,14840,1,8,0:0:0:0:
196,216,14984,1,0,0:0:0:0:
214,146,15272,1,8,0:0:0:0:
204,157,15705,1,0,0:0:0:0:
197,201,16137,1,0,0:0:0:0:
218,141,16281,1,8,0:0:0:0:
198,212,16714,1,0,0:0:0:0:
207,190,17002,1,0,0:0:0:0:
194,196,17147,1,8,0:0:0:0:
196,216,17291,1,0,0:0:0:0:
214,146,17579,1,8,0:0:0:0:
204,157,18012,1,0,0:0:0:0:
197,201,18445,1,0,0:0:0:0:
218,141,18589,1,8,0:0:0:0:
198,212,19022,1,0,0:0:0:0:
207,190,19310,1,0,0:0:0:0:
194,196,19455,1,8,0:0:0:0:
196,216,19599,1,0,0:0:0:0:
214,146,19887,1,8,0:0:0:0:
204,157,20320,1,0,0:0:0:0:
266,231,20753,1,0,0:0:0:0:
252,230,20897,1,0,0:0:0:0:
252,230,20969,1,0,0:0:0:0:
252,230,21041,1,0,0:0:0:0:
252,230,21185,1,0,0:0:0:0:
248,236,21330,1,8,0:0:0:0:
249,157,21618,1,0,0:0:0:0:
249,157,21762,1,8,0:0:0:0:
249,157,21834,1,8,0:0:0:0:
249,157,21907,1,0,0:0:0:0:
263,107,22051,1,0,0:0:0:0:
240,80,22195,1,8,0:0:0:0:
250,162,22339,1,0,0:0:0:0:
250,162,22484,1,8,0:0:0:0:
266,90,22628,1,0,0:0:0:0:
250,125,22772,1,8,0:0:0:0:
250,125,22916,1,8,0:0:0:0:
266,90,23060,1,0,0:0:0:0:
234,129,23205,1,0,0:0:0:0:
260,103,23277,1,0,0:0:0:0:
234,129,23349,1,0,0:0:0:0:
211,127,23493,1,0,0:0:0:0:
221,145,23637,1,8,0:0:0:0:
219,133,23926,1,0,0:0:0:0:
221,144,23999,1,0,0:0:0:0:
220,92,24070,1,8,0:0:0:0:
260,103,24214,1,0,0:0:0:0:
260,103,24359,1,0,0:0:0:0:
260,103,24431,1,0,0:0:0:0:
260,103,24503,1,8,0:0:0:0:
260,103,24575,1,8,0:0:0:0:
257,108,24647,1,0,0:0:0:0:
257,108,24791,1,8,0:0:0:0:
249,99,24863,1,0,0:0:0:0:
249,99,24935,1,0,0:0:0:0:
249,99,25080,1,8,0:0:0:0:
249,100,25152,1,8,0:0:0:0:
248,101,25224,1,0,0:0:0:0:
248,101,25368,1,0,0:0:0:0:
241,109,25512,1,0,0:0:0:0:
241,109,25584,1,0,0:0:0:0:
241,109,25657,1,0,0:0:0:0:
241,108,25801,1,0,0:0:0:0:
241,108,25945,1,8,0:0:0:0:
230,132,26234,1,8,0:0:0:0:
230,132,26306,1,8,0:0:0:0:
230,132,26378,1,0,0:0:0:0:
230,132,26522,1,8,0:0:0:0:
230,132,26594,1,8,0:0:0:0:
230,132,26666,1,0,0:0:0:0:
230,132,26738,1,0,0:0:0:0:
230,132,26810,1,8,0:0:0:0:
240,127,26955,1,0,0:0:0:0:
240,128,27099,1,8,0:0:0:0:
369,111,27135,1,8,0:0:0:0:
188,168,27387,1,8,0:0:0:0:
212,165,27676,1,0,0:0:0:0:
211,165,27748,1,0,0:0:0:0:
218,160,27820,1,0,0:0:0:0:
240,127,27964,1,8,0:0:0:0:
240,127,28253,1,8,0:0:0:0:
251,93,28397,1,0,0:0:0:0:
251,93,28469,1,0,0:0:0:0:
251,93,28541,1,0,0:0:0:0:
237,111,28685,1,0,0:0:0:0:
242,111,28830,1,8,0:0:0:0:
242,111,28902,1,8,0:0:0:0:
242,111,28974,1,0,0:0:0:0:
244,113,29118,1,8,0:0:0:0:
244,114,29190,1,0,0:0:0:0:
244,114,29262,1,0,0:0:0:0:
244,115,29407,1,8,0:0:0:0:
244,109,29479,1,8,0:0:0:0:
244,115,29551,1,0,0:0:0:0:
244,115,29695,1,8,0:0:0:0:
244,118,29767,1,0,0:0:0:0:
244,115,29839,1,0,0:0:0:0:
242,111,29984,1,8,0:0:0:0:
267,100,30272,1,0,0:0:0:0:
267,100,30416,1,0,0:0:0:0:
267,100,30488,1,0,0:0:0:0:
267,100,30560,1,8,0:0:0:0:
248,85,30705,1,0,0:0:0:0:
248,85,30777,1,0,0:0:0:0:
248,85,30849,1,8,0:0:0:0:
248,85,30921,1,8,0:0:0:0:
248,85,30993,1,0,0:0:0:0:
261,92,31137,1,8,0:0:0:0:
261,92,31209,1,8,0:0:0:0:
261,92,31282,1,0,0:0:0:0:
261,92,31354,1,0,0:0:0:0:
261,92,31426,1,8,0:0:0:0:
272,91,31570,1,8,0:0:0:0:
272,91,31642,1,0,0:0:0:0:
272,91,31714,1,8,0:0:0:0:
272,91,31786,1,8,0:0:0:0:
272,91,31859,1,0,0:0:0:0:
254,52,32003,1,8,0:0:0:0:
253,60,32075,1,0,0:0:0:0:
253,60,32147,1,0,0:0:0:0:
253,60,32219,1,0,0:0:0:0:
254,60,32291,1,8,0:0:0:0:
263,63,32363,1,8,0:0:0:0:
261,65,32435,1,0,0:0:0:0:
261,65,32580,1,8,0:0:0:0:
263,99,32868,1,8,0:0:0:0:
263,99,33012,1,0,0:0:0:0:
263,99,33084,1,0,0:0:0:0:
263,99,33157,1,8,0:0:0:0:
263,99,33229,1,8,0:0:0:0:
263,99,33301,1,0,0:0:0:0:
263,99,33445,1,8,0:0:0:0:
263,99,33517,1,8,0:0:0:0:
263,99,33589,1,8,0:0:0:0:
263,99,33661,1,0,0:0:0:0:
263,99,33734,1,8,0:0:0:0:
271,95,33806,1,0,0:0:0:0:
271,95,33878,1,8,0:0:0:0:
271,95,34022,1,8,0:0:0:0:
271,95,34094,1,8,0:0:0:0:
271,95,34166,1,0,0:0:0:0:
271,95,34238,1,0,0:0:0:0:
271,95,34310,1,0,0:0:0:0:
309,116,34455,1,0,0:0:0:0:
309,116,34599,1,8,0:0:0:0:
248,98,34671,1,0,0:0:0:0:
250,101,34743,1,0,0:0:0:0:
248,98,34815,1,0,0:0:0:0:
244,96,34887,1,8,0:0:0:0:
442,85,35032,1,8,0:0:0:0:
370,50,35080,1,0,0:0:0:0:
370,50,35128,1,0,0:0:0:0:
370,50,35176,1,8,0:0:0:0:
313,122,35320,1,0,0:0:0:0:
313,122,35392,1,0,0:0:0:0:
313,122,35464,1,8,0:0:0:0:
241,127,35536,1,8,0:0:0:0:
256,127,35609,1,0,0:0:0:0:
256,127,35681,1,0,0:0:0:0:
256,127,35753,1,8,0:0:0:0:
250,128,35897,1,0,0:0:0:0:
250,128,35969,1,0,0:0:0:0:
250,128,36041,1,8,0:0:0:0:
250,128,36113,1,8,0:0:0:0:
250,128,36185,1,8,0:0:0:0:
249,68,36330,1,8,0:0:0:0:
249,68,36402,1,8,0:0:0:0:
249,68,36474,1,0,0:0:0:0:
249,68,36546,1,0,0:0:0:0:
249,68,36618,1,8,0:0:0:0:
249,68,36690,1,0,0:0:0:0:
249,68,36762,1,0,0:0:0:0:
249,68,36834,1,0,0:0:0:0:
249,68,36907,1,8,0:0:0:0:
282,85,37051,1,0,0:0:0:0:
282,85,37123,1,0,0:0:0:0:
282,85,37195,1,8,0:0:0:0:
307,59,37484,1,8,0:0:0:0:
297,69,37628,1,0,0:0:0:0:
297,69,37700,1,0,0:0:0:0:
297,69,37772,1,8,0:0:0:0:
298,74,37916,1,0,0:0:0:0:
298,74,37988,1,0,0:0:0:0:
298,74,38060,1,8,0:0:0:0:
298,74,38133,1,8,0:0:0:0:
298,74,38205,1,8,0:0:0:0:
298,74,38277,1,0,0:0:0:0:
298,74,38349,1,8,0:0:0:0:
298,74,38421,1,8,0:0:0:0:
298,74,38493,1,0,0:0:0:0:
298,74,38565,1,0,0:0:0:0:
298,74,38637,1,8,0:0:0:0:
298,74,38709,1,8,0:0:0:0:
298,74,38782,1,0,0:0:0:0:
298,74,38926,1,0,0:0:0:0:
298,74,38998,1,0,0:0:0:0:
298,74,39070,1,0,0:0:0:0:
358,79,39214,1,8,0:0:0:0:
358,79,39262,1,8,0:0:0:0:
358,79,39310,1,8,0:0:0:0:
358,79,39359,1,0,0:0:0:0:
358,79,39431,1,0,0:0:0:0:
358,79,39503,1,8,0:0:0:0:
314,97,39791,1,8,0:0:0:0:
309,108,39863,1,8,0:0:0:0:
309,110,39935,1,0,0:0:0:0:
309,110,40008,1,0,0:0:0:0:
309,110,40080,1,8,0:0:0:0:
310,110,40224,1,0,0:0:0:0:
310,110,40296,1,0,0:0:0:0:
310,110,40368,1,8,0:0:0:0:
310,110,40440,1,0,0:0:0:0:
310,110,40512,1,0,0:0:0:0:
297,85,40657,1,8,0:0:0:0:
297,85,40801,1,0,0:0:0:0:
297,85,40873,1,0,0:0:0:0:
297,85,40945,1,8,0:0:0:0:
297,85,41089,1,0,0:0:0:0:
297,85,41161,1,0,0:0:0:0:
297,85,41234,1,8,0:0:0:0:
297,85,41306,1,8,0:0:0:0:
297,85,41378,1,0,0:0:0:0:
297,85,41450,1,0,0:0:0:0:
297,85,41522,1,8,0:0:0:0:
325,152,41570,1,0,0:0:0:0:
325,152,41618,1,0,0:0:0:0:
325,152,41666,1,8,0:0:0:0:
294,113,41738,1,0,0:0:0:0:
294,113,41810,1,8,0:0:0:0:
310,176,42099,1,8,0:0:0:0:
310,176,42171,1,8,0:0:0:0:
312,173,42243,1,0,0:0:0:0:
312,173,42315,1,0,0:0:0:0:
312,173,42387,1,8,0:0:0:0:
312,173,42459,1,8,0:0:0:0:
312,173,42532,1,0,0:0:0:0:
312,173,42676,1,8,0:0:0:0:
310,176,42748,1,8,0:0:0:0:
310,176,42820,1,8,0:0:0:0:
310,176,42892,1,0,0:0:0:0:
301,168,42964,1,8,0:0:0:0:
301,168,43036,1,8,0:0:0:0:
301,168,43109,1,0,0:0:0:0:
301,168,43181,1,0,0:0:0:0:
301,168,43253,1,8,0:0:0:0:
301,168,43325,1,0,0:0:0:0:
301,168,43397,1,0,0:0:0:0:
261,148,43469,1,8,0:0:0:0:
301,168,43541,1,8,0:0:0:0:
301,168,43613,1,0,0:0:0:0:
301,168,43685,1,8,0:0:0:0:
301,168,43758,1,0,0:0:0:0:
301,168,43830,1,8,0:0:0:0:
244,141,44118,1,8,0:0:0:0:
243,141,44190,1,0,0:0:0:0:
243,141,44262,1,0,0:0:0:0:
243,141,44334,1,0,0:0:0:0:
243,141,44407,1,8,0:0:0:0:
243,133,44479,1,8,0:0:0:0:
243,133,44551,1,0,0:0:0:0:
243,133,44623,1,0,0:0:0:0:
243,135,44695,1,8,0:0:0:0:
266,156,44839,1,0,0:0:0:0:
266,156,44911,1,0,0:0:0:0:
266,156,44984,1,8,0:0:0:0:
266,156,45056,1,8,0:0:0:0:
266,156,45128,1,0,0:0:0:0:
266,156,45200,1,8,0:0:0:0:
266,156,45272,1,8,0:0:0:0:
276,156,45344,1,0,0:0:0:0:
308,122,45416,1,0,0:0:0:0:
244,76,45560,1,8,0:0:0:0:
230,147,45633,1,8,0:0:0:0:
244,76,45705,1,0,0:0:0:0:
244,76,45777,1,8,0:0:0:0:
244,76,45849,1,8,0:0:0:0:
244,76,45921,1,0,0:0:0:0:
244,76,45993,1,8,0:0:0:0:
201,189,46065,1,0,0:0:0:0:
244,76,46137,1,0,0:0:0:0:
269,146,46282,1,0,0:0:0:0:
269,146,46354,1,0,0:0:0:0:
249,135,46426,1,8,0:0:0:0:
269,146,46570,1,0,0:0:0:0:
238,187,46714,1,8,0:0:0:0:
277,171,46762,1,0,0:0:0:0:
277,171,46810,1,0,0:0:0:0:
225,176,46859,1,8,0:0:0:0:
263,178,46931,1,8,0:0:0:0:
263,178,47003,1,0,0:0:0:0:
271,133,47147,1,0,0:0:0:0:
218,214,47291,1,8,0:0:0:0:
240,120,47363,1,0,0:0:0:0:
218,214,47435,1,8,0:0:0:0:
274,146,47508,1,8,0:0:0:0:
240,151,47580,1,0,0:0:0:0:
213,144,47724,1,0,0:0:0:0:
213,144,47796,1,0,0:0:0:0:
213,173,47868,1,8,0:0:0:0:
213,144,47940,1,0,0:0:0:0:
213,144,48012,1,0,0:0:0:0:
213,173,48084,1,8,0:0:0:0:
213,173,48157,1,8,0:0:0:0:
213,144,48229,1,0,0:0:0:0:
209,185,48301,1,8,0:0:0:0:
235,153,48445,1,8,0:0:0:0:
240,175,48589,1,0,0:0:0:0:
238,152,48734,1,0,0:0:0:0:
276,197,49022,1,8,0:0:0:0:
312,194,49058,1,0,0:0:0:0:
312,194,49094,1,0,0:0:0:0:
312,194,49130,1,0,0:0:0:0:
312,194,49166,1,8,0:0:0:0:
269,214,49310,1,0,0:0:0:0:
350,200,49599,1,8,0:0:0:0:
350,200,49635,1,8,0:0:0:0:
301,158,49671,1,0,0:0:0:0:
301,158,49707,1,0,0:0:0:0:
350,200,49743,1,8,0:0:0:0:
244,171,49887,1,0,0:0:0:0:
203,205,50176,1,8,0:0:0:0:
301,158,50248,1,0,0:0:0:0:
301,158,50320,1,0,0:0:0:0:
301,158,50392,1,0,0:0:0:0:
301,158,50464,1,8,0:0:0:0:
301,158,50609,1,0,0:0:0:0:
230,209,50753,1,8,0:0:0:0:
313,152,50825,1,8,0:0:0:0:
309,153,50897,1,0,0:0:0:0:
256,125,50969,1,0,0:0:0:0:
309,153,51041,1,8,0:0:0:0:
293,104,51089,1,0,0:0:0:0:
108,166,51137,1,0,0:0:0:0:
292,112,51185,1,8,0:0:0:0:
278,125,51258,1,0,0:0:0:0:
293,104,51330,1,8,0:0:0:0:
236,124,51474,1,0,0:0:0:0:
205,143,51546,1,0,0:0:0:0:
245,141,51618,1,8,0:0:0:0:
236,141,51690,1,0,0:0:0:0:
230,187,51762,1,0,0:0:0:0:
250,130,51907,1,8,0:0:0:0:
192,114,51979,1,8,0:0:0:0:
179,124,52051,1,8,0:0:0:0:
240,82,52123,1,0,0:0:0:0:
192,114,52195,1,8,0:0:0:0:
212,109,52267,1,8,0:0:0:0:
239,88,52339,1,0,0:0:0:0:
192,114,52484,1,8,0:0:0:0:
259,123,52556,1,0,0:0:0:0:
248,125,52628,1,0,0:0:0:0:
248,125,52700,1,0,0:0:0:0:
250,130,52772,1,8,0:0:0:0:
250,130,52844,1,8,0:0:0:0:
250,130,52916,1,0,0:0:0:0:
248,120,53060,1,0,0:0:0:0:
242,140,53349,1,0,0:0:0:0:
191,120,53637,1,8,0:0:0:0:
291,130,53685,1,8,0:0:0:0:
291,130,53734,1,0,0:0:0:0:
191,120,53782,1,8,0:0:0:0:
291,130,53830,1,8,0:0:0:0:
291,130,53879,1,0,0:0:0:0:
267,199,53926,1,8,0:0:0:0:
253,173,54070,1,0,0:0:0:0:
235,184,54142,1,0,0:0:0:0:
277,163,54214,1,8,0:0:0:0:
245,190,54359,1,0,0:0:0:0:
276,173,54431,1,0,0:0:0:0:
295,168,54503,1,8,0:0:0:0:
249,178,54575,1,0,0:0:0:0:
240,170,54647,1,0,0:0:0:0:
281,189,54791,1,8,0:0:0:0:
281,189,55080,1,8,0:0:0:0:
281,189,55368,1,0,0:0:0:0:
306,200,55945,1,0,0:0:0:0:
290,206,56234,1,0,0:0:0:0:
288,208,56522,1,8,0:0:0:0:
288,208,56810,1,0,0:0:0:0:
279,211,57099,1,8,0:0:0:0:
274,212,57387,1,8,0:0:0:0:
266,231,57676,1,0,0:0:0:0:
252,230,57820,1,0,0:0:0:0:
252,230,57892,1,0,0:0:0:0:
252,230,57964,1,0,0:0:0:0:
252,230,58108,1,0,0:0:0:0:
248,236,58253,1,8,0:0:0:0:
249,157,58541,1,0,0:0:0:0:
249,157,58685,1,8,0:0:0:0:
249,157,58757,1,8,0:0:0:0:
249,157,58830,1,0,0:0:0:0:
263,107,58974,1,0,0:0:0:0:
240,80,59118,1,8,0:0:0:0:
250,162,59262,1,0,0:0:0:0:
250,162,59407,1,8,0:0:0:0:
266,90,59551,1,0,0:0:0:0:
250,125,59695,1,8,0:0:0:0:
425,141,59743,1,8,0:0:0:0:
425,141,59791,1,8,0:0:0:0:
250,125,59839,1,8,0:0:0:0:
266,90,59983,1,0,0:0:0:0:
234,129,60128,1,0,0:0:0:0:
260,103,60200,1,0,0:0:0:0:
234,129,60272,1,0,0:0:0:0:
211,127,60416,1,0,0:0:0:0:
221,145,60560,1,8,0:0:0:0:
290,132,60849,1,0,0:0:0:0:
290,132,60993,1,0,0:0:0:0:
218,195,61065,1,0,0:0:0:0:
301,123,61137,1,8,0:0:0:0:
245,208,61282,1,0,0:0:0:0:
256,219,61354,1,0,0:0:0:0:
245,208,61426,1,0,0:0:0:0:
292,187,61570,1,0,0:0:0:0:
298,188,61714,1,8,0:0:0:0:
287,211,62003,1,8,0:0:0:0:
282,219,62075,1,8,0:0:0:0:
276,156,62147,1,0,0:0:0:0:
266,231,62291,1,0,0:0:0:0:
252,230,62435,1,0,0:0:0:0:
252,230,62507,1,0,0:0:0:0:
252,230,62579,1,0,0:0:0:0:
252,230,62723,1,0,0:0:0:0:
248,236,62868,1,8,0:0:0:0:
249,157,63156,1,0,0:0:0:0:
249,157,63300,1,8,0:0:0:0:
249,157,63372,1,8,0:0:0:0:
249,157,63445,1,0,0:0:0:0:
263,107,63589,1,0,0:0:0:0:
240,80,63733,1,8,0:0:0:0:
250,162,63877,1,0,0:0:0:0:
250,162,64022,1,8,0:0:0:0:
266,90,64166,1,0,0:0:0:0:
266,253,64310,1,8,0:0:0:0:
250,132,64599,1,0,0:0:0:0:
250,132,64743,1,0,0:0:0:0:
232,167,65176,1,8,0:0:0:0:
245,148,65464,1,0,0:0:0:0:
252,183,65609,1,8,0:0:0:0:
245,148,65753,1,8,0:0:0:0:
264,119,66041,1,0,0:0:0:0:
264,119,66330,1,8,0:0:0:0:
264,119,66618,1,8,0:0:0:0:
264,119,66907,1,0,0:0:0:0:
370,157,68114,1,8,0:0:0:0:
370,157,68132,1,8,0:0:0:0:
370,157,68259,1,8,0:0:0:0:
370,157,68277,1,8,0:0:0:0:
370,157,68421,1,0,0:0:0:0:
370,157,68439,1,0,0:0:0:0:
370,157,68691,1,8,0:0:0:0:
370,157,68709,1,8,0:0:0:0:
370,157,68854,1,0,0:0:0:0:
370,157,68872,1,0,0:0:0:0:
370,157,68998,1,8,0:0:0:0:
370,157,69016,1,8,0:0:0:0:
370,157,69214,1,0,0:0:0:0:
370,157,69232,1,0,0:0:0:0:
370,157,69394,1,8,0:0:0:0:
370,157,69412,1,8,0:0:0:0:
370,157,69503,1,0,0:0:0:0:
370,157,69521,1,0,0:0:0:0:
370,157,69791,1,8,0:0:0:0:
370,157,69809,1,8,0:0:0:0:
370,157,70007,1,0,0:0:0:0:
370,157,70025,1,0,0:0:0:0:
370,157,70206,1,0,0:0:0:0:
370,157,70224,1,0,0:0:0:0:
370,157,70458,1,8,0:0:0:0:
370,157,70476,1,8,0:0:0:0:
370,157,70963,1,0,0:0:0:0:
370,157,70981,1,0,0:0:0:0:
370,157,71143,1,8,0:0:0:0:
370,157,71161,1,8,0:0:0:0:
370,157,71306,1,8,0:0:0:0:
370,157,71324,1,8,0:0:0:0:
370,157,71468,1,0,0:0:0:0:
370,157,71486,1,0,0:0:0:0:
370,157,71612,1,8,0:0:0:0:
370,157,71630,1,8,0:0:0:0:
264,184,71720,1,0,0:0:0:0:
340,191,71738,1,0,0:0:0:0:
370,157,71901,1,8,0:0:0:0:
370,157,71919,1,8,0:0:0:0:
370,157,72009,1,0,0:0:0:0:
370,157,72027,1,0,0:0:0:0:
370,157,72225,1,8,0:0:0:0:
370,157,72243,1,8,0:0:0:0:
370,157,72405,1,0,0:0:0:0:
370,157,72423,1,0,0:0:0:0:
370,157,72604,1,8,0:0:0:0:
370,157,72622,1,8,0:0:0:0:
370,157,72730,1,8,0:0:0:0:
370,157,72748,1,8,0:0:0:0:
370,157,72928,1,0,0:0:0:0:
370,157,72946,1,0,0:0:0:0:
370,157,73036,1,8,0:0:0:0:
370,157,73054,1,8,0:0:0:0:
370,157,73163,1,0,0:0:0:0:
370,157,73307,1,8,0:0:0:0:
370,157,73415,1,0,0:0:0:0:
268,237,73830,1,0,0:0:0:0:
268,237,73974,1,8,0:0:0:0:
268,237,74406,1,0,0:0:0:0:
266,185,74695,1,0,0:0:0:0:
257,100,74839,1,8,0:0:0:0:
266,185,74983,1,8,0:0:0:0:
266,185,75272,1,0,0:0:0:0:
266,185,75560,1,8,0:0:0:0:
266,185,75849,1,8,0:0:0:0:
237,183,76137,1,8,0:0:0:0:
283,168,76185,1,0,0:0:0:0:
288,162,76233,1,0,0:0:0:0:
272,151,76281,1,8,0:0:0:0:
272,151,76330,1,0,0:0:0:0:
272,151,76378,1,0,0:0:0:0:
272,151,76426,1,8,0:0:0:0:
310,151,76498,1,8,0:0:0:0:
310,151,76570,1,0,0:0:0:0:
310,151,76642,1,0,0:0:0:0:
310,151,76714,1,8,0:0:0:0:
320,131,76762,1,8,0:0:0:0:
320,131,76810,1,8,0:0:0:0:
320,131,76858,1,0,0:0:0:0:
299,106,77003,1,8,0:0:0:0:
299,106,77051,1,8,0:0:0:0:
299,106,77099,1,0,0:0:0:0:
299,106,77147,1,0,0:0:0:0:
299,106,77219,1,8,0:0:0:0:
359,108,77387,1,0,0:0:0:0:
357,128,77435,1,0,0:0:0:0:
357,128,77483,1,0,0:0:0:0:
357,128,77531,1,0,0:0:0:0:
357,128,77580,1,8,0:0:0:0:
349,119,77652,1,0,0:0:0:0:
349,119,77724,1,0,0:0:0:0:
349,119,77796,1,0,0:0:0:0:
349,119,77868,1,8,0:0:0:0:
249,171,78156,1,0,0:0:0:0:
249,171,78205,1,0,0:0:0:0:
249,171,78253,1,0,0:0:0:0:
237,183,78445,1,8,0:0:0:0:
283,168,78493,1,0,0:0:0:0:
288,162,78541,1,0,0:0:0:0:
272,151,78589,1,8,0:0:0:0:
272,151,78638,1,0,0:0:0:0:
272,151,78686,1,0,0:0:0:0:
272,151,78734,1,8,0:0:0:0:
310,151,78806,1,8,0:0:0:0:
310,151,78878,1,0,0:0:0:0:
310,151,78950,1,0,0:0:0:0:
310,151,79022,1,8,0:0:0:0:
320,131,79070,1,8,0:0:0:0:
320,131,79118,1,8,0:0:0:0:
320,131,79166,1,0,0:0:0:0:
299,106,79311,1,8,0:0:0:0:
299,106,79359,1,8,0:0:0:0:
299,106,79407,1,0,0:0:0:0:
299,106,79455,1,0,0:0:0:0:
299,106,79527,1,8,0:0:0:0:
359,108,79695,1,0,0:0:0:0:
357,128,79743,1,0,0:0:0:0:
357,128,79791,1,0,0:0:0:0:
357,128,79839,1,0,0:0:0:0:
357,128,79888,1,8,0:0:0:0:
349,119,79960,1,0,0:0:0:0:
349,119,80032,1,0,0:0:0:0:
349,119,80104,1,0,0:0:0:0:
349,119,80176,1,8,0:0:0:0:
249,171,80464,1,8,0:0:0:0:
249,171,80513,1,8,0:0:0:0:
249,171,80561,1,8,0:0:0:0:
237,183,80753,1,8,0:0:0:0:
283,168,80801,1,0,0:0:0:0:
288,162,80849,1,0,0:0:0:0:
272,151,80897,1,8,0:0:0:0:
272,151,80946,1,0,0:0:0:0:
272,151,80994,1,0,0:0:0:0:
272,151,81042,1,8,0:0:0:0:
310,151,81114,1,8,0:0:0:0:
310,151,81186,1,0,0:0:0:0:
310,151,81258,1,0,0:0:0:0:
310,151,81330,1,8,0:0:0:0:
320,131,81378,1,8,0:0:0:0:
320,131,81426,1,8,0:0:0:0:
320,131,81474,1,0,0:0:0:0:
299,106,81619,1,8,0:0:0:0:
299,106,81667,1,8,0:0:0:0:
299,106,81715,1,0,0:0:0:0:
299,106,81763,1,0,0:0:0:0:
299,106,81835,1,8,0:0:0:0:
359,108,82003,1,0,0:0:0:0:
357,128,82051,1,0,0:0:0:0:
357,128,82099,1,0,0:0:0:0:
357,128,82147,1,0,0:0:0:0:
357,128,82196,1,8,0:0:0:0:
349,119,82268,1,0,0:0:0:0:
349,119,82340,1,0,0:0:0:0:
349,119,82412,1,0,0:0:0:0:
349,119,82484,1,8,0:0:0:0:
249,171,82772,1,0,0:0:0:0:
249,171,82821,1,0,0:0:0:0:
249,171,82869,1,0,0:0:0:0:
237,183,83060,1,8,0:0:0:0:
283,168,83108,1,0,0:0:0:0:
288,162,83156,1,0,0:0:0:0:
272,151,83204,1,8,0:0:0:0:
272,151,83253,1,0,0:0:0:0:
272,151,83301,1,0,0:0:0:0:
272,151,83349,1,8,0:0:0:0:
310,151,83421,1,8,0:0:0:0:
310,151,83493,1,0,0:0:0:0:
310,151,83565,1,0,0:0:0:0:
310,151,83637,1,8,0:0:0:0:
320,131,83685,1,8,0:0:0:0:
320,131,83733,1,8,0:0:0:0:
320,131,83781,1,0,0:0:0:0:
299,106,83926,1,8,0:0:0:0:
299,106,83974,1,8,0:0:0:0:
299,106,84022,1,0,0:0:0:0:
299,106,84070,1,0,0:0:0:0:
299,106,84142,1,8,0:0:0:0:
359,108,84310,1,0,0:0:0:0:
357,128,84358,1,0,0:0:0:0:
357,128,84406,1,0,0:0:0:0:
357,128,84454,1,0,0:0:0:0:
357,128,84503,1,8,0:0:0:0:
349,119,84575,1,0,0:0:0:0:
349,119,84647,1,0,0:0:0:0:
349,119,84719,1,0,0:0:0:0:
349,119,84791,1,8,0:0:0:0:
249,171,85079,1,8,0:0:0:0:
249,171,85128,1,8,0:0:0:0:
249,171,85176,1,8,0:0:0:0:
237,183,85368,1,8,0:0:0:0:
283,168,85416,1,0,0:0:0:0:
288,162,85464,1,0,0:0:0:0:
272,151,85512,1,8,0:0:0:0:
272,151,85561,1,0,0:0:0:0:
272,151,85609,1,0,0:0:0:0:
272,151,85657,1,8,0:0:0:0:
310,151,85729,1,8,0:0:0:0:
310,151,85801,1,0,0:0:0:0:
310,151,85873,1,0,0:0:0:0:
310,151,85945,1,8,0:0:0:0:
320,131,85993,1,8,0:0:0:0:
320,131,86041,1,8,0:0:0:0:
320,131,86089,1,0,0:0:0:0:
299,106,86234,1,8,0:0:0:0:
299,106,86282,1,8,0:0:0:0:
299,106,86330,1,0,0:0:0:0:
299,106,86378,1,0,0:0:0:0:
299,106,86450,1,8,0:0:0:0:
359,108,86618,1,0,0:0:0:0:
357,128,86666,1,0,0:0:0:0:
357,128,86714,1,0,0:0:0:0:
357,128,86762,1,0,0:0:0:0:
357,128,86811,1,8,0:0:0:0:
349,119,86883,1,0,0:0:0:0:
349,119,86955,1,0,0:0:0:0:
349,119,87027,1,0,0:0:0:0:
349,119,87099,1,8,0:0:0:0:
304,123,87387,1,0,0:0:0:0:
304,123,87459,1,0,0:0:0:0:
444,50,87531,1,8,0:0:0:0:
444,50,87580,1,8,0:0:0:0:
444,50,87628,1,8,0:0:0:0:
444,50,87676,1,0,0:0:0:0:
336,118,87748,1,0,0:0:0:0:
336,118,87820,1,8,0:0:0:0:
323,81,87868,1,0,0:0:0:0:
323,81,87916,1,0,0:0:0:0:
323,81,87964,1,8,0:0:0:0:
295,91,88108,1,0,0:0:0:0:
309,110,88253,1,8,0:0:0:0:
299,142,88541,1,0,0:0:0:0:
327,125,88613,1,0,0:0:0:0:
327,125,88685,1,8,0:0:0:0:
352,168,88733,1,8,0:0:0:0:
352,168,88781,1,8,0:0:0:0:
337,154,88830,1,8,0:0:0:0:
352,168,88878,1,0,0:0:0:0:
352,168,88926,1,0,0:0:0:0:
352,168,88974,1,8,0:0:0:0:
457,128,89046,1,0,0:0:0:0:
353,137,89118,1,8,0:0:0:0:
479,93,89166,1,8,0:0:0:0:
479,93,89214,1,8,0:0:0:0:
479,93,89262,1,0,0:0:0:0:
453,133,89334,1,0,0:0:0:0:
453,133,89406,1,8,0:0:0:0:
279,171,89695,1,0,0:0:0:0:
279,171,89767,1,0,0:0:0:0:
395,154,89839,1,8,0:0:0:0:
395,154,89887,1,8,0:0:0:0:
395,154,89935,1,8,0:0:0:0:
390,156,89983,1,0,0:0:0:0:
390,156,90031,1,8,0:0:0:0:
390,156,90080,1,0,0:0:0:0:
390,156,90128,1,8,0:0:0:0:
293,168,90200,1,0,0:0:0:0:
425,126,90272,1,8,0:0:0:0:
425,126,90320,1,0,0:0:0:0:
425,126,90368,1,0,0:0:0:0:
425,126,90416,1,0,0:0:0:0:
293,169,90488,1,0,0:0:0:0:
419,128,90560,1,8,0:0:0:0:
415,136,90608,1,8,0:0:0:0:
415,136,90656,1,8,0:0:0:0:
415,136,90705,1,0,0:0:0:0:
265,192,90777,1,0,0:0:0:0:
265,192,90849,1,0,0:0:0:0:
311,110,90921,1,0,0:0:0:0:
265,186,90993,1,8,0:0:0:0:
265,186,91137,1,8,0:0:0:0:
278,161,91185,1,8,0:0:0:0:
278,161,91233,1,8,0:0:0:0:
278,161,91281,1,8,0:0:0:0:
243,131,91354,1,0,0:0:0:0:
277,157,91426,1,8,0:0:0:0:
238,135,91498,1,8,0:0:0:0:
278,161,91570,1,0,0:0:0:0:
337,120,91618,1,0,0:0:0:0:
337,120,91666,1,0,0:0:0:0:
278,161,91714,1,8,0:0:0:0:
233,181,91858,1,0,0:0:0:0:
233,181,92003,1,0,0:0:0:0:
282,185,92291,1,8,0:0:0:0:
362,141,92339,1,8,0:0:0:0:
345,146,92387,1,8,0:0:0:0:
345,146,92435,1,8,0:0:0:0:
257,158,92507,1,0,0:0:0:0:
345,146,92580,1,8,0:0:0:0:
345,146,92628,1,0,0:0:0:0:
345,146,92676,1,0,0:0:0:0:
345,146,92724,1,8,0:0:0:0:
257,158,92796,1,0,0:0:0:0:
341,146,92868,1,8,0:0:0:0:
341,146,92916,1,8,0:0:0:0:
306,100,92964,1,0,0:0:0:0:
341,146,93012,1,0,0:0:0:0:
341,146,93060,1,8,0:0:0:0:
341,146,93108,1,0,0:0:0:0:
341,146,93156,1,0,0:0:0:0:
295,141,93229,1,0,0:0:0:0:
341,146,93301,1,8,0:0:0:0:
341,146,93349,1,0,0:0:0:0:
345,146,93397,1,0,0:0:0:0:
345,146,93445,1,8,0:0:0:0:
277,189,93517,1,0,0:0:0:0:
277,189,93589,1,0,0:0:0:0:
277,189,93661,1,0,0:0:0:0:
375,199,93733,1,8,0:0:0:0:
375,199,93781,1,8,0:0:0:0:
375,199,93830,1,0,0:0:0:0:
375,199,93878,1,8,0:0:0:0:
367,88,93950,1,0,0:0:0:0:
367,88,94022,1,8,0:0:0:0:
295,203,94310,1,8,0:0:0:0:
237,183,94599,1,8,0:0:0:0:
283,168,94647,1,8,0:0:0:0:
288,162,94695,1,0,0:0:0:0:
272,151,94743,1,8,0:0:0:0:
272,151,94792,1,0,0:0:0:0:
272,151,94840,1,0,0:0:0:0:
272,151,94888,1,8,0:0:0:0:
310,151,94960,1,8,0:0:0:0:
310,151,95032,1,0,0:0:0:0:
310,151,95104,1,0,0:0:0:0:
310,151,95176,1,8,0:0:0:0:
320,131,95224,1,8,0:0:0:0:
320,131,95272,1,8,0:0:0:0:
320,131,95320,1,0,0:0:0:0:
359,141,95464,1,0,0:0:0:0:
359,141,95536,1,0,0:0:0:0:
307,145,95608,1,8,0:0:0:0:
420,141,95656,1,8,0:0:0:0:
420,141,95705,1,0,0:0:0:0:
421,136,95753,1,8,0:0:0:0:
499,174,95825,1,0,0:0:0:0:
490,120,95897,1,8,0:0:0:0:
499,174,95969,1,0,0:0:0:0:
488,125,96041,1,8,0:0:0:0:
340,136,96113,1,8,0:0:0:0:
340,136,96185,1,0,0:0:0:0:
415,133,96233,1,8,0:0:0:0:
415,133,96281,1,8,0:0:0:0:
415,133,96330,1,0,0:0:0:0:
397,169,96474,1,0,0:0:0:0:
344,152,96546,1,0,0:0:0:0:
477,86,96618,1,8,0:0:0:0:
477,86,96666,1,0,0:0:0:0:
477,86,96714,1,0,0:0:0:0:
477,86,96762,1,8,0:0:0:0:
472,146,96834,1,8,0:0:0:0:
472,146,96906,1,0,0:0:0:0:
353,154,97195,1,8,0:0:0:0:
453,193,97243,1,8,0:0:0:0:
453,193,97291,1,0,0:0:0:0:
453,193,97339,1,8,0:0:0:0:
500,176,97411,1,0,0:0:0:0:
453,193,97483,1,8,0:0:0:0:
453,193,97531,1,8,0:0:0:0:
453,193,97580,1,0,0:0:0:0:
453,193,97628,1,8,0:0:0:0:
453,193,97700,1,0,0:0:0:0:
453,193,97772,1,8,0:0:0:0:
395,193,97844,1,0,0:0:0:0:
395,193,97916,1,8,0:0:0:0:
395,193,97964,1,8,0:0:0:0:
323,176,98012,1,8,0:0:0:0:
395,193,98060,1,0,0:0:0:0:
461,162,98205,1,0,0:0:0:0:
461,162,98277,1,0,0:0:0:0:
461,162,98349,1,8,0:0:0:0:
391,126,98397,1,8,0:0:0:0:
391,126,98445,1,8,0:0:0:0:
461,162,98493,1,8,0:0:0:0:
474,104,98565,1,0,0:0:0:0:
391,126,98637,1,8,0:0:0:0:
391,126,98685,1,8,0:0:0:0:
391,126,98733,1,0,0:0:0:0:
391,126,98781,1,0,0:0:0:0:
344,142,98926,1,0,0:0:0:0:
344,142,98998,1,0,0:0:0:0:
368,138,99070,1,8,0:0:0:0:
384,135,99118,1,8,0:0:0:0:
400,132,99166,1,0,0:0:0:0:
411,120,99214,1,8,0:0:0:0:
474,104,99262,1,0,0:0:0:0:
474,104,99310,1,0,0:0:0:0:
445,85,99358,1,8,0:0:0:0:
433,96,99406,1,8,0:0:0:0:
474,104,99455,1,0,0:0:0:0:
433,96,99503,1,8,0:0:0:0:
408,91,99575,1,8,0:0:0:0:
476,118,99647,1,0,0:0:0:0:
461,110,99695,1,0,0:0:0:0:
461,110,99743,1,0,0:0:0:0:
461,110,99791,1,8,0:0:0:0:
415,127,99935,1,0,0:0:0:0:
392,136,100007,1,0,0:0:0:0:
368,145,100080,1,8,0:0:0:0:
351,142,100128,1,0,0:0:0:0:
334,139,100176,1,0,0:0:0:0:
395,193,100224,1,8,0:0:0:0:
395,193,100272,1,8,0:0:0:0:
323,176,100320,1,8,0:0:0:0:
395,193,100368,1,0,0:0:0:0:
461,162,100513,1,0,0:0:0:0:
461,162,100585,1,0,0:0:0:0:
461,162,100657,1,8,0:0:0:0:
391,126,100705,1,8,0:0:0:0:
391,126,100753,1,8,0:0:0:0:
461,162,100801,1,8,0:0:0:0:
474,104,100873,1,0,0:0:0:0:
391,126,100945,1,8,0:0:0:0:
391,126,100993,1,8,0:0:0:0:
391,126,101041,1,0,0:0:0:0:
391,126,101089,1,0,0:0:0:0:
391,126,101233,1,0,0:0:0:0:
382,77,101378,1,8,0:0:0:0:
384,93,101426,1,0,0:0:0:0:
386,109,101474,1,0,0:0:0:0:
408,118,101522,1,8,0:0:0:0:
395,148,101570,1,0,0:0:0:0:
395,148,101618,1,0,0:0:0:0:
408,118,101666,1,8,0:0:0:0:
383,118,101714,1,8,0:0:0:0:
383,122,101762,1,0,0:0:0:0:
359,126,101810,1,8,0:0:0:0:
347,104,101882,1,8,0:0:0:0:
347,104,101955,1,8,0:0:0:0:
347,104,102027,1,0,0:0:0:0:
347,104,102099,1,8,0:0:0:0:
384,93,102147,1,0,0:0:0:0:
384,93,102195,1,0,0:0:0:0:
384,93,102243,1,0,0:0:0:0:
384,93,102387,1,0,0:0:0:0:
362,105,102459,1,0,0:0:0:0:
408,118,102531,1,8,0:0:0:0:
394,108,102580,1,8,0:0:0:0:
380,98,102628,1,8,0:0:0:0:
366,88,102676,1,0,0:0:0:0:
312,117,102748,1,8,0:0:0:0:
320,69,102820,1,0,0:0:0:0:
320,69,102868,1,0,0:0:0:0:
320,69,102916,1,0,0:0:0:0:
320,69,102964,1,8,0:0:0:0:
308,90,103036,1,0,0:0:0:0:
320,69,103108,1,0,0:0:0:0:
312,117,103253,1,8,0:0:0:0:
316,92,103325,1,0,0:0:0:0:
316,92,103397,1,0,0:0:0:0:
316,92,103469,1,0,0:0:0:0:
316,92,103541,1,0,0:0:0:0:
320,69,103830,1,8,0:0:0:0:
320,69,103902,1,0,0:0:0:0:
320,69,103974,1,0,0:0:0:0:
320,69,104046,1,0,0:0:0:0:
320,69,104118,1,8,0:0:0:0:
320,69,104406,1,8,0:0:0:0:
320,69,104479,1,8,0:0:0:0:
320,69,104551,1,0,0:0:0:0:
320,69,104623,1,0,0:0:0:0:
320,69,104695,1,8,0:0:0:0:
320,69,104983,1,8,0:0:0:0:
320,69,105056,1,8,0:0:0:0:
320,69,105128,1,8,0:0:0:0:
320,69,105200,1,0,0:0:0:0:
320,69,105272,1,8,0:0:0:0:
274,154,105560,1,0,0:0:0:0:
274,154,105849,1,0,0:0:0:0:
266,231,106137,1,0,0:0:0:0:
252,230,106281,1,8,0:0:0:0:
252,230,106425,1,0,0:0:0:0:
248,236,106714,1,8,0:0:0:0:
249,157,107002,1,0,0:0:0:0:
249,157,107146,1,8,0:0:0:0:
249,157,107291,1,0,0:0:0:0:
263,107,107435,1,0,0:0:0:0:
240,80,107579,1,8,0:0:0:0:
250,162,107723,1,0,0:0:0:0:
250,162,107868,1,8,0:0:0:0:
250,125,108156,1,8,0:0:0:0:
250,125,108445,1,0,0:0:0:0:
250,125,108589,1,8,0:0:0:0:
378,197,109022,1,8,0:0:0:0:
292,149,109310,1,0,0:0:0:0:
292,149,109455,1,8,0:0:0:0:
292,149,109599,1,8,0:0:0:0:
292,149,109887,1,0,0:0:0:0:
292,149,110176,1,8,0:0:0:0:
292,149,110464,1,0,0:0:0:0:
292,149,110753,1,0,0:0:0:0:
294,100,110897,1,8,0:0:0:0:
264,135,111041,1,0,0:0:0:0:
288,250,111330,1,8,0:0:0:0:
292,149,111618,1,8,0:0:0:0:
292,149,111762,1,0,0:0:0:0:
292,149,111906,1,0,0:0:0:0:
294,100,112195,1,8,0:0:0:0:
