osu file format v14

[General]
AudioFilename: audio.mp3
AudioLeadIn: 0
PreviewTime: 24743
Countdown: 0
SampleSet: Soft
StackLeniency: 0.7
Mode: 0
LetterboxInBreaks: 0
WidescreenStoryboard: 0

[Editor]
Bookmarks: 22204,25897,29589,36974,40204,44358,47589,48051,51743,53128,54512
DistanceSpacing: 1
BeatDivisor: 4
GridSize: 4
TimelineZoom: 2.999999

[Metadata]
Title:Nyanpasu Bang Bang
TitleUnicode:にゃんぱすばんばん
Artist:Kansou
ArtistUnicode:感想
Creator:Kotori-Chan
Version:Normal
Source:
Tags:Pachiru Gero Nyanpassu Non Non Biyori kiriko takemura caroline charonplop full control tokyo renge hotaru natsumi komari nico nico douga
BeatmapID:1270575
BeatmapSetID:601442

[Difficulty]
HPDrainRate:3.5
CircleSize:3.5
OverallDifficulty:3.5
ApproachRate:5
SliderMultiplier:1.2
SliderTickRate:1

[Events]
//Background and Video events
Video,0,"BANG BANG VIDEO.avi"
0,0,"cropped-1920-1080-703197.jpg",0,0
//Break Periods
//Storyboard Layer 0 (Background)
//Storyboard Layer 1 (Fail)
//Storyboard Layer 2 (Pass)
//Storyboard Layer 3 (Foreground)
//Storyboard Sound Samples

[TimingPoints]
11128,461.538461538462,4,2,3,70,1,0
12051,-100,4,2,1,100,0,0
12512,-100,4,2,3,70,0,0
13897,-100,4,2,1,100,0,0
14358,-100,4,2,3,70,0,0
15743,-100,4,2,1,100,0,0
16204,-100,4,2,3,70,0,0
17589,-100,4,2,1,100,0,0
18051,-100,4,2,1,70,0,0
18512,-100,4,2,3,70,0,0
22204,-100,4,2,3,70,0,0
22666,-100,4,2,3,80,0,0
23128,-100,4,2,3,90,0,0
23589,-100,4,2,3,100,0,0
24051,-100,4,2,10,100,0,0
25897,-100,4,2,5,100,0,1
29589,-100,4,2,15,90,0,1
30974,-100,4,2,9,90,0,1
32820,-100,4,2,10,100,0,1
33281,-100,4,2,5,100,0,1
36974,-100,4,2,15,90,0,1
38358,-100,4,2,9,100,0,1
40204,-100,4,2,10,70,0,1
40666,-100,4,2,5,100,0,1
44358,-100,4,2,15,90,0,1
45743,-100,4,2,9,100,0,1
47589,-100,4,2,10,100,0,1
48051,-100,4,2,5,100,0,1
51743,-100,4,2,25,90,0,1
53128,-100,4,2,4,80,0,1
54512,-100,4,2,10,70,0,1
54974,-100,4,2,5,5,0,0

[Colours]
Combo1 : 0,0,202
Combo2 : 128,128,255
Combo3 : 145,72,0
Combo4 : 0,157,0
Combo5 : 213,213,0

[HitObjects]
64,128,11127,5,4,0:0:0:0:
108,240,11589,1,4,0:0:0:0:
201,316,12051,2,0,B|256:340|256:340|311:316,1,120,8|8,0:0|0:0,0:0:0:0:
404,240,12974,5,4,0:0:0:0:
448,128,13436,1,4,0:0:0:0:
336,84,13897,2,0,B|280:63|280:63|224:84,1,120,8|8,0:0|0:0,0:0:0:0:
116,140,14820,5,4,0:0:0:0:
48,240,15281,1,4,0:0:0:0:
137,314,15743,2,0,B|177:322|193:334|193:334|209:322|249:314,1,120,8|8,0:0|0:0,0:0:0:0:
365,284,16666,5,4,0:0:0:0:
401,169,17128,1,4,0:0:0:0:
312,88,17589,2,0,B|272:80|256:68|256:68|240:80|200:88,1,120,8|4,0:0|0:0,0:0:0:0:
157,200,18512,6,0,L|114:258,2,60,8|8|2,0:0|0:0|0:0,0:0:0:0:
256,268,19435,2,0,L|256:336,2,60,8|8|2,0:0|0:0|0:0,0:0:0:0:
355,200,20358,2,0,L|398:258,2,60,8|8|2,0:0|0:0|0:0,0:0:0:0:
256,132,21281,2,0,L|256:64,2,60,8|8|2,0:0|0:0|0:0,0:0:0:0:
256,192,22204,12,8,24051,0:0:0:0:
172,68,25897,5,8,0:0:0:0:
256,152,26358,2,0,L|312:120,1,60,2|0,0:0|0:0,0:0:0:0:
366,137,26820,2,0,L|418:107,2,60,8|0|2,0:0|0:0|0:0,0:0:0:0:
408,249,27743,1,8,0:0:0:0:
324,336,28204,2,0,L|260:336,1,60,2|0,0:0|0:0,0:0:0:0:
216,296,28666,2,0,L|156:296,2,60,8|0|2,0:0|0:0|0:0,0:0:0:0:
304,212,29589,5,2,0:0:0:0:
256,104,30051,1,2,0:0:0:0:
208,212,30512,1,2,0:0:0:0:
120,294,30974,2,0,L|67:249,1,60
46,201,31435,1,0,0:0:0:0:
86,87,31897,1,0,0:0:0:0:
200,52,32358,2,0,B|244:44|256:32|256:32|268:44|312:52,1,120,0|8,0:0|0:0,0:0:0:0:
426,87,33281,5,8,0:0:0:0:
353,170,33743,2,0,L|368:252,1,60,2|0,0:0|0:0,0:0:0:0:
418,252,34204,2,0,L|409:318,1,60,8|0,0:0|0:0,0:0:0:0:
358,342,34666,1,2,0:0:0:0:
256,280,35128,1,8,0:0:0:0:
156,340,35589,2,0,L|116:280,1,60,2|0,0:0|0:0,0:0:0:0:
76,252,36051,2,0,L|76:192,1,60,8|0,0:0|0:0,0:0:0:0:
116,148,36512,1,2,0:0:0:0:
184,48,36974,5,2,0:0:0:0:
256,144,37435,1,2,0:0:0:0:
328,48,37897,1,2,0:0:0:0:
443,92,38358,6,0,B|443:134|443:134|460:171|460:171|461:214,1,120
397,301,39281,1,0,0:0:0:0:
311,235,39743,2,0,B|256:211|256:211|201:235,1,120,0|4,0:0|0:0,0:0:0:0:
110,313,40666,5,8,0:0:0:0:
42,213,41128,2,0,L|42:149,1,60,2|0,0:0|0:0,0:0:0:0:
79,110,41589,2,0,L|79:50,2,60,8|0|2,0:0|0:0|0:0,0:0:0:0:
176,180,42512,1,8,0:0:0:0:
294,160,42974,2,0,L|364:160,1,60,2|0,0:0|0:0,0:0:0:0:
402,195,43435,2,0,L|455:257,2,60,8|0|2,0:0|0:0|0:0,0:0:0:0:
377,83,44358,5,2,0:0:0:0:
256,68,44820,1,2,0:0:0:0:
135,83,45281,1,2,0:0:0:0:
44,161,45743,6,0,B|96:197|96:197|96:253,1,120
158,356,46666,1,0,0:0:0:0:
211,248,47128,2,0,B|248:267|256:286|256:286|264:267|301:248,1,120,0|8,0:0|0:0,0:0:0:0:
354,356,48051,5,8,0:0:0:0:
425,260,48512,2,0,L|457:196,1,60,2|0,0:0|0:0,0:0:0:0:
439,147,48974,2,0,L|412:93,1,60,8|0,0:0|0:0,0:0:0:0:
363,57,49435,1,2,0:0:0:0:
257,113,49897,1,8,0:0:0:0:
284,228,50358,2,0,L|212:228,1,60,2|0,0:0|0:0,0:0:0:0:
172,259,50820,2,0,L|120:231,1,60,8|0,0:0|0:0,0:0:0:0:
82,182,51281,1,2,0:0:0:0:
141,77,51743,5,2,0:0:0:0:
256,48,52204,1,2,0:0:0:0:
371,77,52666,1,2,0:0:0:0:
452,165,53128,6,0,L|424:234,1,60
383,259,53589,1,0,0:0:0:0:
276,203,54051,1,0,0:0:0:0:
197,293,54512,2,0,B|127:293|127:293|70:250,1,120,8|0,0:0|0:0,0:0:0:0:
