osu file format v14

[General]
AudioFilename: audio.mp3
AudioLeadIn: 0
PreviewTime: 24743
Countdown: 0
SampleSet: Soft
StackLeniency: 0.7
Mode: 0
LetterboxInBreaks: 0
WidescreenStoryboard: 0

[Editor]
Bookmarks: 11127,54974
DistanceSpacing: 1.2
BeatDivisor: 4
GridSize: 4
TimelineZoom: 1

[Metadata]
Title:Nyanpasu Bang Bang
TitleUnicode:にゃんぱすばんばん
Artist:Kansou
ArtistUnicode:感想
Creator:Kotori-Chan
Version:Gero's Advanced
Source:
Tags:Pachiru Gero Nyanpassu Non Non Biyori kiriko takemura caroline charonplop full control tokyo renge hotaru natsumi komari nico nico douga
BeatmapID:1282057
BeatmapSetID:601442

[Difficulty]
HPDrainRate:5
CircleSize:4.3
OverallDifficulty:5
ApproachRate:7
SliderMultiplier:1.6
SliderTickRate:1

[Events]
//Background and Video events
Video,0,"BANG BANG VIDEO.avi"
0,0,"643744.jpg",0,0
//Break Periods
//Storyboard Layer 0 (Background)
//Storyboard Layer 1 (Fail)
//Storyboard Layer 2 (Pass)
//Storyboard Layer 3 (Foreground)
//Storyboard Sound Samples

[TimingPoints]
11128,461.538461538462,4,2,3,70,1,0
12051,-100,4,2,1,100,0,0
12512,-100,4,2,3,70,0,0
13897,-100,4,2,1,100,0,0
14358,-100,4,2,3,70,0,0
15743,-100,4,2,1,100,0,0
16204,-100,4,2,3,70,0,0
17589,-100,4,2,1,100,0,0
18051,-100,4,2,3,70,0,0
18512,-100,4,2,3,70,0,0
19204,-100,4,2,3,80,0,0
19435,-100,4,2,3,100,0,0
19666,-100,4,2,3,80,0,0
19897,-100,4,2,3,90,0,0
20820,-100,4,2,3,100,0,0
22204,-100,4,2,3,70,0,0
22666,-100,4,2,3,80,0,0
23128,-100,4,2,3,90,0,0
23589,-100,4,2,3,100,0,0
24051,-100,4,2,10,100,0,0
24743,-100,4,2,4,80,0,0
25897,-100,4,2,5,100,0,1
29589,-76.9230769230769,4,2,15,90,0,1
30051,-76.9230769230769,4,2,5,80,0,1
30512,-76.9230769230769,4,2,15,90,0,1
30974,-100,4,2,5,80,0,1
31204,-100,4,2,9,100,0,1
32358,-100,4,2,10,100,0,1
32820,-100,4,2,5,80,0,1
33281,-100,4,2,5,100,0,1
36974,-76.9230769230769,4,2,15,90,0,1
37435,-76.9230769230769,4,2,5,80,0,1
37897,-76.9230769230769,4,2,15,90,0,1
38358,-100,4,2,5,80,0,1
38589,-100,4,2,9,100,0,1
39743,-100,4,2,10,70,0,1
39974,-100,4,2,5,80,0,1
40666,-100,4,2,5,100,0,1
44358,-76.9230769230769,4,2,15,90,0,1
44820,-76.9230769230769,4,2,5,80,0,1
45281,-76.9230769230769,4,2,15,90,0,1
45743,-100,4,2,5,80,0,1
45974,-100,4,2,9,100,0,1
47128,-100,4,2,10,100,0,1
47589,-100,4,2,5,80,0,1
48051,-100,4,2,5,100,0,1
49435,-90.9090909090909,4,2,5,100,0,1
49897,-100,4,2,5,100,0,1
51281,-90.9090909090909,4,2,5,100,0,1
51743,-76.9230769230769,4,2,25,90,0,1
52204,-76.9230769230769,4,2,25,90,0,1
52666,-76.9230769230769,4,2,25,90,0,1
53128,-100,4,2,4,80,0,1
54512,-100,4,2,1,70,0,1
54974,-100,4,2,1,70,0,0

[Colours]
Combo1 : 0,0,202
Combo2 : 128,128,255
Combo3 : 145,72,0
Combo4 : 0,157,0
Combo5 : 213,213,0

[HitObjects]
391,223,11127,6,0,P|429:212|467:223,1,80,4|0,0:0|0:0,0:0:0:0:
467,323,11589,2,0,P|429:334|391:323,1,80,8|0,0:0|0:0,0:0:0:0:
309,273,12051,2,0,B|278:273|256:297|256:297|234:273|203:273,1,120,8|2,0:0|0:0,0:0:0:0:
203,273,12512,1,8,0:0:0:0:
121,223,12743,1,8,0:0:0:0:
121,223,12974,6,0,P|83:212|45:223,1,80,4|0,0:0|0:0,0:0:0:0:
45,323,13435,2,0,P|83:334|121:323,1,80,8|0,0:0|0:0,0:0:0:0:
203,273,13897,2,0,B|234:273|256:297|256:297|278:273|309:273,1,120,8|2,0:0|0:0,0:0:0:0:
309,273,14358,1,8,0:0:0:0:
391,223,14589,1,8,0:0:0:0:
391,223,14820,6,0,B|406:236|426:242|426:242|446:236|461:223,1,80,4|0,0:0|0:0,0:0:0:0:
356,134,15281,2,0,B|371:147|391:153|391:153|411:147|426:134,1,80,8|0,0:0|0:0,0:0:0:0:
391,43,15743,2,0,B|347:19|303:49|303:49|277:49,1,120,8|2,0:0|0:0,0:0:0:0:
277,49,16204,1,8,0:0:0:0:
199,105,16435,1,8,0:0:0:0:
121,161,16666,6,0,B|106:148|86:142|86:142|66:148|51:161,1,80,4|0,0:0|0:0,0:0:0:0:
156,250,17128,2,0,B|141:237|121:231|121:231|101:237|86:250,1,80,8|0,0:0|0:0,0:0:0:0:
121,341,17589,2,0,B|165:365|209:335|209:335|235:335,1,120,8|2,0:0|0:0,0:0:0:0:
235,335,18051,1,8,0:0:0:0:
313,279,18281,1,8,0:0:0:0:
391,223,18512,6,0,B|427:241|427:241|463:223,1,80,2|8,0:0|0:0,0:0:0:0:
427,135,18974,1,4,0:0:0:0:
427,135,19204,1,8,0:0:0:0:
391,47,19435,2,0,P|339:21|287:47,1,120,4|8,0:0|0:0,0:0:0:0:
287,47,19897,2,0,B|256:72|256:72|225:47,1,80,0|8,0:0|0:0,0:0:0:0:
125,135,20358,6,0,B|156:110|156:110|187:135,1,80,2|8,0:0|0:0,0:0:0:0:
256,204,20820,1,4,0:0:0:0:
324,135,21051,1,8,0:0:0:0:
393,204,21281,2,0,L|308:288,1,120,4|8,0:0|0:0,0:0:0:0:
308,288,21743,2,0,B|347:288|347:288|376:317,1,80,0|8,0:0|0:0,0:0:0:0:
204,288,22204,6,0,B|165:288|165:288|136:317,1,80,2|8,0:0|0:0,0:0:0:0:
60,256,22666,2,0,B|12:192|12:192|60:128,1,160,12|14,0:0|0:0,0:0:0:0:
136,67,23358,1,0,0:0:0:0:
136,67,23474,1,8,0:0:0:0:
136,67,23589,2,0,B|165:96|165:96|204:96,1,80,2|8,0:0|0:0,0:0:0:0:
308,96,24051,6,0,P|369:192|308:288,1,240,10|2,0:0|0:0,0:0:0:0:
256,368,24974,1,0,0:0:0:0:
204,288,25204,1,2,0:0:0:0:
204,288,25320,1,0,0:0:0:0:
204,288,25435,1,0,0:0:0:0:
256,208,25666,1,2,0:0:0:0:
308,288,25897,6,0,P|379:320|450:288,1,160,12|2,0:0|0:0,0:0:0:0:
379,224,26589,1,0,0:0:0:0:
449,159,26820,2,0,P|462:122|449:85,1,80,8|0,0:0|0:0,0:0:0:0:
449,85,27166,1,2,0:0:0:0:
449,85,27281,1,0,0:0:0:0:
379,20,27512,1,2,0:0:0:0:
310,85,27743,6,0,B|271:100|256:140|256:140|241:100|202:85,1,160,8|2,0:0|0:0,0:0:0:0:
133,20,28435,1,0,0:0:0:0:
63,85,28666,2,0,P|50:122|63:159,1,80,8|0,0:0|0:0,0:0:0:0:
63,159,29012,1,2,0:0:0:0:
63,159,29128,1,0,0:0:0:0:
133,224,29358,1,2,0:0:0:0:
204,288,29589,6,0,B|204:300|204:300|204:336|232:364|256:367|256:367|280:364|308:336|308:300|308:300|308:288,3,207.999990478516,2|2|2|2,0:0|0:0|0:0|0:0,0:0:0:0:
379,224,31204,1,0,0:0:0:0:
308,160,31435,2,0,B|324:148|324:148|324:128|324:128|324:108|324:108|308:96,1,80
204,96,31897,2,0,B|188:108|188:108|188:128|188:128|188:148|188:148|204:160,1,80
133,224,32358,6,0,P|157:277|133:330,1,120,4|0,0:0|0:0,0:0:0:0:
133,330,32820,1,2,0:0:0:0:
53,277,33051,1,2,0:0:0:0:
133,224,33281,6,0,B|204:224|204:224|212:228|212:228|220:232|220:232|291:232,1,160,12|2,0:0|0:0,0:0:0:0:
359,300,33974,1,0,0:0:0:0:
291,232,34204,1,8,0:0:0:0:
359,164,34435,1,0,0:0:0:0:
359,164,34551,1,2,0:0:0:0:
359,164,34666,2,0,B|395:183|395:183|431:164,1,80,0|2,0:0|0:0,0:0:0:0:
395,72,35128,6,0,B|361:16|298:16|298:16|256:16,1,160,8|2,0:0|0:0,0:0:0:0:
187,83,35820,1,0,0:0:0:0:
256,150,36051,1,8,0:0:0:0:
187,217,36281,1,0,0:0:0:0:
187,217,36397,1,2,0:0:0:0:
187,217,36512,2,0,B|167:236|167:236|159:238|159:238|165:244|165:244|156:247|156:247|137:266,1,80,0|2,0:0|0:0,0:0:0:0:
256,284,36974,6,0,B|320:219|320:219|328:216|328:216|323:211|323:211|331:208|331:208|396:143,3,207.999990478516,2|2|2|2,0:0|0:0|0:0|0:0,0:0:0:0:
464,75,38589,1,0,0:0:0:0:
396,6,38820,1,0,0:0:0:0:
328,75,39051,1,0,0:0:0:0:
328,75,39166,1,0,0:0:0:0:
328,75,39281,6,0,P|256:105|184:75,1,160,0|4,0:0|0:0,0:0:0:0:
116,6,39974,1,2,0:0:0:0:
48,75,40204,1,2,0:0:0:0:
188,228,40666,6,0,B|256:228|256:156|324:156,1,160,12|2,0:0|0:0,0:0:0:0:
412,192,41358,1,0,0:0:0:0:
324,156,41589,1,8,0:0:0:0:
412,192,41820,2,0,L|460:192,2,40,0|2|0,0:0|0:0|0:0,0:0:0:0:
324,228,42281,1,2,0:0:0:0:
324,228,42512,6,0,B|256:228|256:156|188:156,1,160,8|2,0:0|0:0,0:0:0:0:
100,192,43204,1,0,0:0:0:0:
188,156,43435,1,8,0:0:0:0:
100,192,43666,2,0,L|52:192,2,40,0|2|0,0:0|0:0|0:0,0:0:0:0:
188,228,44128,1,2,0:0:0:0:
188,228,44358,6,0,B|220:228|252:252|256:294|256:294|260:252|292:228|324:228,3,207.999990478516,2|2|2|2,0:0|0:0|0:0|0:0,0:0:0:0:
256,156,45974,1,0,0:0:0:0:
188,228,46204,2,0,L|131:284,1,80
324,228,46666,2,0,L|380:284,1,80
256,156,47128,2,0,L|256:276,1,120,4|0,0:0|0:0,0:0:0:0:
256,276,47589,1,2,0:0:0:0:
256,372,47820,1,2,0:0:0:0:
187,302,48051,6,0,B|215:312|243:298|256:276|256:276|269:298|297:312|325:302,1,160,12|2,0:0|0:0,0:0:0:0:
392,372,48743,1,0,0:0:0:0:
459,302,48974,1,8,0:0:0:0:
392,232,49204,1,0,0:0:0:0:
392,232,49320,1,2,0:0:0:0:
392,232,49435,2,0,P|376:192|392:152,1,88.000002685547,0|2,0:0|0:0,0:0:0:0:
325,82,49897,6,0,B|297:72|269:86|256:108|256:108|243:86|215:72|187:82,1,160,8|2,0:0|0:0,0:0:0:0:
120,12,50589,1,0,0:0:0:0:
53,82,50820,1,8,0:0:0:0:
120,152,51051,1,0,0:0:0:0:
120,152,51166,1,2,0:0:0:0:
120,152,51281,2,0,P|136:192|120:232,1,88.000002685547,0|2,0:0|0:0,0:0:0:0:
184,296,51743,6,0,B|204:344|204:344|308:344|308:344|328:296,3,207.999990478516,2|2|2|2,0:0|0:0|0:0|0:0,0:0:0:0:
256,232,53358,1,0,0:0:0:0:
184,296,53589,1,2,0:0:0:0:
256,220,53820,1,0,0:0:0:0:
328,296,54051,1,2,0:0:0:0:
256,208,54281,1,0,0:0:0:0:
184,296,54512,6,0,P|256:326|328:296,1,160,4|4,0:0|0:0,0:0:0:0:
