osu file format v14

[General]
AudioFilename: audio.mp3
AudioLeadIn: 0
PreviewTime: 24743
Countdown: 0
SampleSet: Soft
StackLeniency: 0.2
Mode: 0
LetterboxInBreaks: 0
WidescreenStoryboard: 0

[Editor]
Bookmarks: 22204,25897,29589,36974,40204,44358,47589,48051,51743,53128,54512,55204
DistanceSpacing: 0.4
BeatDivisor: 4
GridSize: 4
TimelineZoom: 2.999999

[Metadata]
Title:Nyanpasu Bang Bang
TitleUnicode:にゃんぱすばんばん
Artist:Kansou
ArtistUnicode:感想
Creator:Kotori-Chan
Version:Nyanpasu~
Source:
Tags:Pachiru Gero Nyanpassu Non Non Biyori kiriko takemura caroline charonplop full control tokyo renge hotaru natsumi komari nico nico douga
BeatmapID:1270576
BeatmapSetID:601442

[Difficulty]
HPDrainRate:5.5
CircleSize:4
OverallDifficulty:6
ApproachRate:8
SliderMultiplier:1.8
SliderTickRate:1

[Events]
//Background and Video events
Video,0,"BANG BANG VIDEO.avi"
0,0,"cropped-1920-1080-703199.jpg",0,0
//Break Periods
//Storyboard Layer 0 (Background)
//Storyboard Layer 1 (Fail)
//Storyboard Layer 2 (Pass)
//Storyboard Layer 3 (Foreground)
//Storyboard Sound Samples

[TimingPoints]
11128,461.538461538462,4,2,3,70,1,0
12051,-100,4,2,1,100,0,0
12512,-100,4,2,3,70,0,0
13897,-100,4,2,1,100,0,0
14358,-100,4,2,3,70,0,0
15743,-100,4,2,1,100,0,0
16204,-100,4,2,3,70,0,0
17589,-100,4,2,1,100,0,0
18051,-100,4,2,1,70,0,0
18512,-100,4,2,3,70,0,0
19204,-100,4,2,3,80,0,0
19435,-100,4,2,3,100,0,0
19666,-100,4,2,3,80,0,0
19897,-100,4,2,3,90,0,0
20820,-100,4,2,3,100,0,0
22204,-100,4,2,3,70,0,0
22666,-100,4,2,3,80,0,0
23128,-100,4,2,3,90,0,0
23589,-100,4,2,3,100,0,0
24051,-100,4,2,10,100,0,0
24512,-100,4,2,10,5,0,0
24743,-100,4,2,4,80,0,0
25897,-100,4,2,5,100,0,1
29589,-76.9230769230769,4,2,15,90,0,1
29935,-76.9230769230769,4,2,15,5,0,1
30051,-76.9230769230769,4,2,15,90,0,1
30397,-76.9230769230769,4,2,15,5,0,1
30512,-76.9230769230769,4,2,15,90,0,1
30858,-76.9230769230769,4,2,15,5,0,1
30974,-100,4,2,9,100,0,1
32358,-100,4,2,10,100,0,1
32820,-100,4,2,10,5,0,1
33281,-100,4,2,5,100,0,1
36974,-76.9230769230769,4,2,15,90,0,1
37320,-76.9230769230769,4,2,15,5,0,1
37435,-76.9230769230769,4,2,15,90,0,1
37781,-76.9230769230769,4,2,15,5,0,1
37897,-76.9230769230769,4,2,15,90,0,1
38243,-76.9230769230769,4,2,15,5,0,1
38358,-76.9230769230769,4,2,9,100,0,1
39743,-100,4,2,9,80,0,1
40204,-100,4,2,10,80,0,1
40666,-100,4,2,5,100,0,1
44358,-76.9230769230769,4,2,15,90,0,1
44704,-76.9230769230769,4,2,15,5,0,1
44820,-76.9230769230769,4,2,15,90,0,1
45166,-76.9230769230769,4,2,15,5,0,1
45281,-76.9230769230769,4,2,15,90,0,1
45628,-76.9230769230769,4,2,15,5,0,1
45743,-76.9230769230769,4,2,9,100,0,1
47128,-100,4,2,9,100,0,1
47589,-100,4,2,10,100,0,1
48051,-100,4,2,5,100,0,1
51743,-76.9230769230769,4,2,25,90,0,1
52089,-76.9230769230769,4,2,15,5,0,1
52204,-76.9230769230769,4,2,25,90,0,1
52551,-76.9230769230769,4,2,15,5,0,1
52666,-76.9230769230769,4,2,25,90,0,1
53012,-76.9230769230769,4,2,15,5,0,1
53128,-76.9230769230769,4,2,4,80,0,1
54512,-125,4,2,1,70,0,1
55204,-125,4,2,10,5,0,0

[Colours]
Combo1 : 0,0,202
Combo2 : 128,128,255
Combo3 : 145,72,0
Combo4 : 0,157,0
Combo5 : 213,213,0

[HitObjects]
151,91,11127,6,0,P|159:135|151:179,1,90,4|0,0:0|0:0,0:0:0:0:
53,223,11589,2,0,P|45:267|53:311,1,90,4|0,0:0|0:0,0:0:0:0:
168,328,12051,2,0,B|256:309|256:309|344:328,1,180,8|8,0:0|0:0,0:0:0:0:
416,256,12743,1,8,0:0:0:0:
372,156,12974,6,0,B|333:180|333:180|309:218,1,90,4|0,0:0|0:0,0:0:0:0:
202,218,13435,2,0,B|178:180|178:180|140:156,1,90,4|0,0:0|0:0,0:0:0:0:
175,72,13897,2,0,B|217:61|256:100|256:100|295:61|337:72,1,180,8|8,0:0|0:0,0:0:0:0:
440,88,14589,1,8,0:0:0:0:
484,180,14820,6,0,P|492:228|476:268,1,90,4|0,0:0|0:0,0:0:0:0:
385,301,15281,2,0,P|377:253|393:213,1,90,4|0,0:0|0:0,0:0:0:0:
304,164,15743,2,0,B|268:200|256:239|256:239|244:200|208:164,1,180,8|8,0:0|0:0,0:0:0:0:
256,68,16435,1,8,0:0:0:0:
304,164,16666,6,0,P|348:156|392:164,1,90,4|0,0:0|0:0,0:0:0:0:
208,164,17128,2,0,P|164:156|120:164,1,90,4|0,0:0|0:0,0:0:0:0:
168,260,17589,2,0,B|256:279|256:279|344:260,1,180,8|4,0:0|0:0,0:0:0:0:
448,244,18281,1,4,0:0:0:0:
404,148,18512,6,0,P|366:116|323:102,1,90,8|0,0:0|0:0,0:0:0:0:
256,188,18974,1,8,0:0:0:0:
183,281,19204,1,8,0:0:0:0:
183,281,19320,1,8,0:0:0:0:
183,281,19435,2,0,P|141:265|108:236,1,90,12|0,0:0|0:0,0:0:0:0:
256,188,19897,5,8,0:0:0:0:
329,281,20128,1,8,0:0:0:0:
329,281,20244,1,8,0:0:0:0:
329,281,20359,2,0,P|365:255|390:217,1,90,12|0,0:0|0:0,0:0:0:0:
256,188,20820,5,8,0:0:0:0:
183,281,21051,1,8,0:0:0:0:
183,281,21167,1,8,0:0:0:0:
183,281,21282,2,0,P|154:246|140:204,1,90,12|0,0:0|0:0,0:0:0:0:
329,281,21743,2,0,P|358:246|372:204,1,90,12|0,0:0|0:0,0:0:0:0:
220,117,22204,6,0,P|192:81|152:64,1,90,2|0,0:0|0:0,0:0:0:0:
291,157,22666,2,0,P|319:121|360:104,1,90,2|0,0:0|0:0,0:0:0:0:
220,197,23128,2,0,P|192:161|152:144,1,90,2|0,0:0|0:0,0:0:0:0:
291,237,23589,2,0,P|319:201|360:184,1,90,2|0,0:0|0:0,0:0:0:0:
168,335,24051,2,0,B|256:316|256:316|344:335,1,180,8|4,0:0|0:0,0:0:0:0:
404,252,24743,5,0,0:0:0:0:
356,156,24974,1,0,0:0:0:0:
256,192,25204,1,0,0:0:0:0:
156,156,25435,1,0,0:0:0:0:
108,252,25666,1,0,0:0:0:0:
116,56,25897,6,0,B|160:40|160:40|216:60,1,90,8|0,0:0|0:0,0:0:0:0:
256,148,26358,1,2,0:0:0:0:
311,54,26589,2,0,B|352:40|352:40|396:56,1,90,0|8,0:0|0:0,0:0:0:0:
448,152,27051,1,0,0:0:0:0:
448,152,27166,1,0,0:0:0:0:
448,152,27281,2,0,L|384:224,1,90,2|0,0:0|0:0,0:0:0:0:
420,343,27743,2,0,L|480:276,1,90,8|0,0:0|0:0,0:0:0:0:
320,300,28204,5,2,0:0:0:0:
256,212,28435,1,0,0:0:0:0:
192,300,28666,2,0,B|153:275|153:275|129:237,1,90,8|0,0:0|0:0,0:0:0:0:
129,238,29012,1,0,0:0:0:0:
129,238,29128,1,2,0:0:0:0:
86,139,29358,1,0,0:0:0:0:
28,60,29589,6,0,P|108:40|180:128,1,175.499991966248,2|0,0:0|0:0,0:0:0:0:
180,124,30051,2,0,B|241:139|256:164|256:164|271:139|332:124,1,175.499991966248,2|0,0:0|0:0,0:0:0:0:
338,96,30512,2,0,P|401:40|484:60,1,175.499991966248,2|0,0:0|0:0,0:0:0:0:
484,88,30974,5,0,0:0:0:0:
456,220,31204,1,0,0:0:0:0:
468,108,31435,5,0,0:0:0:0:
440,240,31665,1,0,0:0:0:0:
452,128,31897,5,0,0:0:0:0:
424,260,32127,1,0,0:0:0:0:
332,180,32358,6,0,B|298:146|298:146|214:146|214:146|180:180,1,180,8|0,0:0|0:0,0:0:0:0:
460,272,33281,6,0,P|424:308|384:316,1,90,8|0,0:0|0:0,0:0:0:0:
324,228,33743,1,2,0:0:0:0:
256,312,33974,1,0,0:0:0:0:
182,229,34204,2,0,B|150:229|150:229|142:233|142:233|142:225|142:225|134:229|134:229|102:229,1,90,8|0,0:0|0:0,0:0:0:0:
102,229,34551,1,0,0:0:0:0:
102,229,34666,1,2,0:0:0:0:
28,152,34897,1,0,0:0:0:0:
81,62,35128,6,0,B|113:62|113:62|121:66|121:66|121:58|121:58|129:62|129:62|161:62,1,90,8|0,0:0|0:0,0:0:0:0:
256,120,35589,1,2,0:0:0:0:
351,62,35820,1,0,0:0:0:0:
432,136,36051,2,0,B|446:177|446:177|430:221,1,90,8|0,0:0|0:0,0:0:0:0:
430,220,36397,1,0,0:0:0:0:
430,220,36512,1,2,0:0:0:0:
424,324,36743,1,0,0:0:0:0:
308,267,36974,6,0,B|300:225|256:200|256:200|212:225|204:267,1,175.499991966248,2|0,0:0|0:0,0:0:0:0:
200,296,37435,2,0,B|156:332|156:332|92:332|92:332|48:296,1,175.499991966248,2|0,0:0|0:0,0:0:0:0:
48,268,37897,2,0,B|48:204|48:204|80:168|80:168|80:96,1,175.499991966248,2|0,0:0|0:0,0:0:0:0:
88,72,38358,5,0,0:0:0:0:
188,172,38589,1,0,0:0:0:0:
256,52,38820,5,0,0:0:0:0:
324,172,39051,1,0,0:0:0:0:
256,52,39281,5,0,0:0:0:0:
188,172,39512,1,0,0:0:0:0:
324,172,39743,2,0,B|346:149|346:149|349:140|349:140|355:146|355:146|357:138|357:138|380:115,1,90
476,168,40204,6,0,B|436:207|436:207|427:210|427:210|433:216|433:216|425:218|425:218|385:258,1,135,4|0,0:0|0:0,0:0:0:0:
392,296,40666,6,0,P|352:324|312:324,1,90,8|0,0:0|0:0,0:0:0:0:
256,232,41127,1,2,0:0:0:0:
199,324,41358,2,0,P|155:322|120:296,1,90,0|8,0:0|0:0,0:0:0:0:
256,232,41820,1,0,0:0:0:0:
256,232,41935,1,0,0:0:0:0:
256,232,42051,2,0,B|280:192|236:192|260:144,1,90,2|0,0:0|0:0,0:0:0:0:
158,34,42512,2,0,B|134:74|178:74|156:120,1,90,8|0,0:0|0:0,0:0:0:0:
52,148,42974,5,2,0:0:0:0:
56,256,43204,1,0,0:0:0:0:
128,336,43435,2,0,B|160:344|168:355|168:355|176:344|208:336,1,90,8|0,0:0|0:0,0:0:0:0:
208,336,43781,1,0,0:0:0:0:
208,336,43897,1,2,0:0:0:0:
256,244,44128,1,0,0:0:0:0:
172,163,44358,6,0,P|256:141|340:163,1,175.499991966248,2|0,0:0|0:0,0:0:0:0:
348,188,44820,2,0,B|412:248|412:248|476:188,1,175.499991966248,2|0,0:0|0:0,0:0:0:0:
481,155,45281,2,0,P|457:71|361:35,1,175.499991966248,2|0,0:0|0:0,0:0:0:0:
321,76,45743,5,0,0:0:0:0:
191,76,45974,1,0,0:0:0:0:
335,120,46204,5,0,0:0:0:0:
177,120,46435,1,0,0:0:0:0:
321,165,46666,5,0,0:0:0:0:
191,165,46897,1,0,0:0:0:0:
304,249,47128,6,0,B|268:265|256:321|256:321|244:265|208:249,1,180,0|8,0:0|0:0,0:0:0:0:
350,322,48051,6,0,L|426:258,1,90,8|0,0:0|0:0,0:0:0:0:
475,170,48512,1,2,0:0:0:0:
368,144,48743,1,0,0:0:0:0:
296,56,48974,2,0,B|264:48|256:37|256:37|248:48|216:56,1,90,8|0,0:0|0:0,0:0:0:0:
216,57,49320,1,0,0:0:0:0:
216,57,49435,1,2,0:0:0:0:
256,156,49667,1,0,0:0:0:0:
180,244,49897,6,0,B|136:254|136:254|92:244,1,90,8|0,0:0|0:0,0:0:0:0:
36,152,50359,1,2,0:0:0:0:
116,80,50590,1,0,0:0:0:0:
201,155,50820,2,0,B|223:177|223:177|232:180|232:180|226:186|226:186|234:188|234:188|257:211,1,90,8|0,0:0|0:0,0:0:0:0:
257,211,51166,1,0,0:0:0:0:
257,211,51281,1,2,0:0:0:0:
340,128,51513,1,0,0:0:0:0:
444,172,51743,6,0,B|484:216|484:216|484:276|484:276|444:316,1,175.499991966248,2|0,0:0|0:0,0:0:0:0:
424,324,52204,2,0,B|352:340|316:284|316:284|268:308,1,175.499991966248,2|0,0:0|0:0,0:0:0:0:
244,308,52666,2,0,B|197:284|197:284|161:340|89:324,1,175.499991966248,2|0,0:0|0:0,0:0:0:0:
68,304,53128,5,0,0:0:0:0:
32,148,53358,1,0,0:0:0:0:
68,304,53589,5,0,0:0:0:0:
68,128,53820,1,0,0:0:0:0:
68,304,54051,5,0,0:0:0:0:
104,148,54281,1,0,0:0:0:0:
192,248,54512,5,4,0:0:0:0:
256,124,54743,1,4,0:0:0:0:
340,229,54974,2,0,B|362:229|362:229|370:233|370:233|370:225|370:225|378:229|378:229|406:229,1,72,8|0,0:0|0:0,0:0:0:0:
