osu file format v14

[General]
AudioFilename: antenna.mp3
AudioLeadIn: 0
PreviewTime: 195028
Countdown: 1
SampleSet: Normal
StackLeniency: 0.7
Mode: 0
LetterboxInBreaks: 0
WidescreenStoryboard: 1

[Editor]
DistanceSpacing: 0.5
BeatDivisor: 4
GridSize: 4
TimelineZoom: 1

[Metadata]
Title:Toluthin Antenna
TitleUnicode:Toluthin Antenna
Artist:Kanseru x Reol
ArtistUnicode:Kanseru x Reol
Creator:hotdogboy
Version:Extra
Source:
Tags:Extaru
BeatmapID:872427
BeatmapSetID:400939

[Difficulty]
HPDrainRate:6.9
CircleSize:4
OverallDifficulty:8.5
ApproachRate:9.6
SliderMultiplier:1.5
SliderTickRate:1

[Events]
//Background and Video events
0,0,"antenna.png",0,0
//Break Periods
//Storyboard Layer 0 (Background)
//Storyboard Layer 1 (Fail)
//Storyboard Layer 2 (Pass)
//Storyboard Layer 3 (Foreground)
//Storyboard Sound Samples

[TimingPoints]
1753,413.793103448276,4,1,0,100,1,0
2837,-66.6666666666667,4,1,0,100,0,0
7580.44685145212,413.793103448276,4,1,0,100,1,0
19373,-50,4,1,0,100,0,0
20408,-66.6666666666667,4,1,0,100,0,0
21235,-100,4,1,0,100,0,0
22063,-66.6666666666667,4,1,0,100,0,0
45235,-57.1428571428571,4,1,0,100,0,0
45649,-50,4,1,0,100,0,0
47718,-66.6666666666667,4,1,0,100,0,0
51442,-100,4,1,0,100,0,0
57649,-66.6666666666667,4,1,0,100,0,0
84545,-117.647058823529,4,1,0,100,0,0
97787,-80,4,1,0,100,0,0
110614,-66.6666666666667,4,1,0,100,0,0
120959,-100,4,1,0,100,0,0
126752,-66.6666666666667,4,1,0,100,0,0
154270,-50,4,1,0,100,0,0
159028,-66.6666666666667,4,1,0,100,0,0
159649,-50,4,1,0,100,0,0
182201,-100,4,1,0,100,0,0
194201,-66.6666666666667,4,1,0,100,0,0
194614,-50,4,1,0,100,0,0
221511,-80,4,1,0,100,0,0

[HitObjects]
156,304,1753,5,0,0:0:0:0:
276,172,2373,1,0,0:0:0:0:
136,216,2787,6,0,B|72:180|72:180|104:128,1,112.500004291535
280,72,3408,5,0,0:0:0:0:
364,240,4028,1,0,0:0:0:0:
156,168,4442,6,0,B|92:132|92:132|112:96,1,112.500004291535
312,300,5063,5,0,0:0:0:0:
120,236,5684,1,0,0:0:0:0:
420,136,6097,5,0,0:0:0:0:
352,56,6304,1,0,0:0:0:0:
256,64,6511,1,0,0:0:0:0:
164,224,6718,5,0,0:0:0:0:
404,152,7339,1,0,0:0:0:0:
372,136,7442,1,0,0:0:0:0:
260,176,7546,1,0,0:0:0:0:
223,168,7683,1,0,0:0:0:0:
220,64,7787,1,0,0:0:0:0:
188,56,7890,1,0,0:0:0:0:
160,56,7994,2,0,P|112:68|96:88,1,75
152,296,8408,6,0,L|248:308,1,75
88,192,8821,1,0,0:0:0:0:
320,252,9028,2,0,L|384:276,1,37.5
432,116,9235,6,0,P|416:72|372:64,1,75
252,80,9649,1,0,0:0:0:0:
432,116,9856,1,0,0:0:0:0:
288,200,10063,1,0,0:0:0:0:
128,100,10270,2,0,P|84:124|76:160,1,75
168,296,10683,1,0,0:0:0:0:
360,88,10890,5,0,0:0:0:0:
224,176,11097,1,0,0:0:0:0:
352,236,11304,1,0,0:0:0:0:
260,48,11511,1,0,0:0:0:0:
144,100,11718,6,0,L|76:152,1,75
88,264,12132,1,0,0:0:0:0:
240,184,12339,2,0,P|260:136|224:104,1,75
84,84,12752,1,0,0:0:0:0:
164,288,12959,1,0,0:0:0:0:
200,84,13166,2,0,B|140:68|100:116|100:116|152:200|48:172|48:172|24:228|76:304,1,375
328,300,14408,6,0,L|368:288,2,37.5
328,76,14821,5,0,0:0:0:0:
168,176,15028,6,0,P|132:208|148:252,1,75
272,136,15442,1,0,0:0:0:0:
224,316,15649,1,0,0:0:0:0:
168,108,15856,2,0,L|88:152,1,75
300,236,16270,1,0,0:0:0:0:
112,260,16476,1,0,0:0:0:0:
248,112,16683,6,0,B|296:80|296:80|332:112,1,75
260,260,17097,1,0,0:0:0:0:
408,84,17304,2,0,L|436:168,1,75
412,276,17718,1,0,0:0:0:0:
264,72,17925,2,0,P|216:72|180:104,1,75
100,248,18339,6,0,P|110:283|156:304,1,75
212,192,18752,2,0,P|201:157|156:136,1,75
52,96,19166,1,0,0:0:0:0:
272,288,19373,2,0,P|284:304|312:232,1,150
344,44,19787,6,0,P|280:32|204:68,1,150
120,304,20201,1,0,0:0:0:0:
240,168,20408,2,0,P|304:148|344:172,1,112.500004291535
108,60,20821,1,0,0:0:0:0:
296,296,21028,1,0,0:0:0:0:
352,72,21235,6,0,L|392:172,1,75
272,128,21649,2,0,L|300:204,1,75
184,80,22063,6,0,P|108:80|84:108,1,112.500004291535
196,288,22476,1,0,0:0:0:0:
328,96,22683,1,0,0:0:0:0:
140,152,22890,2,0,P|108:200|108:272,1,112.500004291535
88,56,23304,1,0,0:0:0:0:
384,172,23511,1,0,0:0:0:0:
112,192,23718,5,0,0:0:0:0:
356,288,23925,2,0,L|416:176,1,112.500004291535
132,288,24339,1,0,0:0:0:0:
400,92,24545,1,0,0:0:0:0:
328,312,24752,1,0,0:0:0:0:
120,192,24959,6,0,L|88:80,1,112.500004291535
196,144,25373,2,0,L|164:32,1,112.500004291535
352,84,25787,1,0,0:0:0:0:
140,272,25994,1,0,0:0:0:0:
284,288,26201,1,0,0:0:0:0:
404,224,26408,6,0,P|440:196|420:136,1,112.500004291535
168,92,26821,1,0,0:0:0:0:
155,115,26925,1,0,0:0:0:0:
142,139,27028,1,0,0:0:0:0:
204,296,27235,1,0,0:0:0:0:
372,68,27442,1,0,0:0:0:0:
96,192,27649,1,0,0:0:0:0:
344,144,27856,6,0,L|408:252,1,112.500004291535
252,300,28270,1,0,0:0:0:0:
136,236,28476,1,0,0:0:0:0:
104,88,28683,6,0,P|160:68|232:92,1,112.500004291535
320,160,29097,2,0,P|288:200|220:204,1,112.500004291535
104,80,29511,1,0,0:0:0:0:
328,192,29718,1,0,0:0:0:0:
84,272,29925,1,0,0:0:0:0:
280,60,30132,1,0,0:0:0:0:
276,308,30339,2,0,L|144:292,1,112.500004291535
168,88,30752,5,0,0:0:0:0:
72,212,30959,1,0,0:0:0:0:
240,280,31166,2,0,L|356:312,1,112.500004291535
124,140,31580,1,0,0:0:0:0:
348,76,31787,1,0,0:0:0:0:
358,92,31890,1,0,0:0:0:0:
368,109,31994,1,0,0:0:0:0:
352,300,32201,5,0,0:0:0:0:
192,84,32408,1,0,0:0:0:0:
112,196,32614,2,0,L|64:312,1,112.500004291535
72,76,33028,1,0,0:0:0:0:
244,248,33235,1,0,0:0:0:0:
340,64,33442,1,0,0:0:0:0:
104,168,33649,2,0,L|128:280,1,112.500004291535
276,68,34063,1,0,0:0:0:0:
80,304,34270,1,0,0:0:0:0:
344,304,34476,5,0,0:0:0:0:
396,136,34890,5,0,0:0:0:0:
204,56,35304,6,0,P|136:72|88:92,1,112.500004291535
244,316,35718,1,0,0:0:0:0:
300,80,35925,1,0,0:0:0:0:
100,244,36132,5,0,0:0:0:0:
328,208,36339,2,0,P|400:180|436:156,1,112.500004291535
188,48,36752,1,0,0:0:0:0:
336,280,36959,1,0,0:0:0:0:
76,184,37166,2,0,P|152:144|180:136,1,112.500004291535
368,188,37580,2,0,P|372:264|348:320,1,112.500004291535
176,136,37994,1,0,0:0:0:0:
360,296,38201,5,0,0:0:0:0:
280,112,38408,1,0,0:0:0:0:
108,320,38614,2,0,P|100:260|104:208,1,112.500004291535
224,72,39028,1,0,0:0:0:0:
376,316,39235,2,0,P|388:252|376:192,1,112.500004291535
200,48,39649,6,0,P|144:80|112:132,1,112.500004291535
320,88,40063,1,0,0:0:0:0:
333,106,40166,1,0,0:0:0:0:
346,124,40270,1,0,0:0:0:0:
320,316,40476,1,0,0:0:0:0:
117,118,40683,2,0,P|150:73|200:48,1,112.500004291535
404,120,41097,6,0,P|404:56|360:92,1,112.500004291535,0|0,0:2|0:2,0:2:0:0:
128,156,41511,2,0,L|120:212,1,56.2500021457673
280,228,41821,6,0,L|232:272,2,56.2500021457673
320,68,42235,2,0,L|272:104,1,56.2500021457673
180,72,42442,2,0,L|144:120,1,56.2500021457673
224,164,42649,2,0,P|212:196|188:212,1,56.2500021457673
92,208,42856,1,0,0:0:0:0:
72,228,42959,6,0,P|120:272|172:292,1,112.500004291535
288,88,43373,1,0,0:0:0:0:
340,188,43580,1,0,0:0:0:0:
408,60,43787,5,0,0:0:0:0:
413,82,43890,1,0,0:0:0:0:
419,105,43994,1,0,0:0:0:0:
440,232,44201,1,0,0:0:0:0:
292,116,44408,1,0,0:0:0:0:
256,244,44614,1,0,0:0:0:0:
128,64,44821,6,0,L|68:168,1,112.500004291535
196,320,45235,2,0,P|304:336|348:308,1,131.250001251698
360,48,45649,2,0,L|208:100,1,150
104,292,46063,1,0,0:0:0:0:
384,152,46270,2,0,P|400:216|380:296,1,150
192,48,46683,1,0,0:0:0:0:
84,184,46890,1,0,0:0:0:0:
268,196,47097,1,0,0:0:0:0:
184,116,47718,5,0,0:0:0:0:
116,224,47925,1,0,0:0:0:0:
288,196,48132,2,0,P|288:232|320:284,1,56.2500021457673
312,268,48339,1,0,0:0:0:0:
208,88,48545,2,0,P|160:140|104:160,1,112.500004291535
128,48,48959,5,0,0:0:0:0:
276,212,49166,1,0,0:0:0:0:
88,196,49373,2,0,L|72:312,1,112.500004291535
196,64,49787,1,0,0:0:0:0:
344,268,49994,1,0,0:0:0:0:
156,168,50201,1,0,0:0:0:0:
88,280,50408,5,0,0:0:0:0:
81,302,50511,1,0,0:0:0:0:
75,325,50614,1,0,0:0:0:0:
180,344,50821,1,0,0:0:0:0:
236,244,51028,1,0,0:0:0:0:
136,184,51235,1,0,0:0:0:0:
340,64,51442,6,0,P|392:92|408:112,1,75
264,160,51856,1,0,0:0:0:0:
368,264,52063,2,0,P|344:308|320:320,1,75
300,88,52476,1,0,0:0:0:0:
152,132,52683,1,0,0:0:0:0:
104,248,52890,6,0,L|176:272,1,75
280,168,53304,1,0,0:0:0:0:
104,320,53511,2,0,L|204:332,1,75
112,104,53925,2,0,P|138:126|152:168,1,75
372,96,54339,6,0,L|408:180,1,75
308,280,54752,1,0,0:0:0:0:
228,112,54959,1,0,0:0:0:0:
156,236,55166,1,0,0:0:0:0:
68,56,55373,1,0,0:0:0:0:
272,56,55580,1,0,0:0:0:0:
56,232,55787,1,0,0:0:0:0:
316,236,55994,1,0,0:0:0:0:
168,56,56201,1,0,0:0:0:0:
240,344,56408,1,0,0:0:0:0:
416,208,56614,5,0,0:0:0:0:
336,96,56821,5,0,0:0:0:0:
303,78,56925,1,0,0:0:0:0:
267,68,57028,1,0,0:0:0:0:
230,64,57132,1,0,0:0:0:0:
193,68,57235,1,0,0:0:0:0:
158,80,57339,1,0,0:0:0:0:
126,98,57442,1,0,0:0:0:0:
312,248,57649,6,0,P|268:276|200:300,1,112.500004291535
244,48,58063,1,0,0:0:0:0:
88,256,58270,1,0,0:0:0:0:
352,200,58476,1,0,0:0:0:0:
200,96,58683,1,0,0:0:0:0:
296,316,58890,1,0,0:0:0:0:
96,216,59097,1,0,0:0:0:0:
292,84,59304,5,0,0:0:0:0:
188,312,59511,1,0,0:0:0:0:
196,116,59718,6,0,L|288:188,1,112.500004291535
400,284,60132,1,0,0:0:0:0:
96,256,60339,1,0,0:0:0:0:
324,136,60545,1,0,0:0:0:0:
244,328,60752,1,0,0:0:0:0:
80,160,60959,1,0,0:0:0:0:
236,56,61166,1,0,0:0:0:0:
388,156,61373,6,0,P|400:248|368:300,1,112.500004291535
192,104,61787,1,0,0:0:0:0:
136,288,61994,1,0,0:0:0:0:
424,148,62201,1,0,0:0:0:0:
423,106,62304,1,0,0:0:0:0:
403,70,62408,1,0,0:0:0:0:
188,120,62614,1,0,0:0:0:0:
400,288,62821,1,0,0:0:0:0:
380,72,63028,6,0,L|364:184,1,112.500004291535
216,232,63442,2,0,L|288:124,1,112.500004291535
152,36,63856,2,0,L|184:160,1,112.500004291535
308,324,64270,5,0,0:0:0:0:
456,268,64476,1,0,0:0:0:0:
368,124,64683,2,0,P|324:164|304:224,1,112.500004291535
432,324,65097,1,0,0:0:0:0:
292,72,65304,1,0,0:0:0:0:
236,332,65511,1,0,0:0:0:0:
432,144,65718,1,0,0:0:0:0:
156,192,65925,6,0,P|184:232|236:272,1,112.500004291535
376,80,66339,1,0,0:0:0:0:
272,156,66545,1,0,0:0:0:0:
344,264,66752,1,0,0:0:0:0:
200,320,66959,1,0,0:0:0:0:
92,188,67166,5,0,0:0:0:0:
296,88,67373,2,0,P|344:76|312:136,2,112.500004291535
140,252,67994,5,0,0:0:0:0:
400,200,68201,1,0,0:0:0:0:
216,76,68408,1,0,0:0:0:0:
336,288,68614,1,0,0:0:0:0:
168,172,68821,1,0,0:0:0:0:
412,152,69028,1,0,0:0:0:0:
264,48,69235,1,0,0:0:0:0:
328,296,69442,1,0,0:0:0:0:
128,328,69649,6,0,L|68:216,1,112.500004291535
72,48,70063,2,0,L|120:176,1,112.500004291535
288,292,70476,2,0,L|196:204,1,112.500004291535
264,60,70890,5,0,0:0:0:0:
444,152,71097,1,0,0:0:0:0:
192,196,71304,1,0,0:0:0:0:
396,52,71511,5,0,0:0:0:0:
324,256,71718,1,0,0:0:0:0:
208,64,71925,1,0,0:0:0:0:
436,144,72132,1,0,0:0:0:0:
104,108,72339,1,0,0:0:0:0:
396,68,72545,1,0,0:0:0:0:
128,236,72752,1,0,0:0:0:0:
312,40,72959,5,0,0:0:0:0:
348,336,73166,1,0,0:0:0:0:
232,72,73373,1,0,0:0:0:0:
404,320,73580,1,0,0:0:0:0:
368,48,73787,1,0,0:0:0:0:
256,328,73994,1,0,0:0:0:0:
304,52,74201,2,0,L|212:184,1,112.500004291535
92,68,74614,5,0,0:0:0:0:
200,260,74821,1,0,0:0:0:0:
48,216,75028,1,0,0:0:0:0:
284,84,75235,1,0,0:0:0:0:
136,328,75442,1,0,0:0:0:0:
184,72,75649,1,0,0:0:0:0:
244,340,75856,1,0,0:0:0:0:
272,40,76063,1,0,0:0:0:0:
84,316,76270,5,0,0:0:0:0:
304,200,76476,1,0,0:0:0:0:
84,160,76683,1,0,0:0:0:0:
252,328,76890,1,0,0:0:0:0:
212,88,77097,1,0,0:0:0:0:
378,213,77304,6,0,L|316:120,1,112.500004291535
320,336,77718,2,0,L|216:256,1,112.500004291535
200,64,78132,1,0,0:0:0:0:
76,256,78339,1,0,0:0:0:0:
268,76,78545,1,0,0:0:0:0:
412,264,78752,1,0,0:0:0:0:
204,92,78959,1,0,0:0:0:0:
136,324,79166,1,0,0:0:0:0:
312,48,79373,1,0,0:0:0:0:
392,272,79580,6,0,P|340:320|256:328,1,112.500004291535
220,84,79994,1,0,0:0:0:0:
88,176,80201,1,0,0:0:0:0:
208,300,80408,2,0,P|292:288|344:252,1,112.500004291535
336,56,80821,1,0,0:0:0:0:
120,164,81028,1,0,0:0:0:0:
336,284,81235,1,0,0:0:0:0:
244,48,81442,6,0,P|184:68|136:120,1,112.500004291535
300,300,81856,1,0,0:0:0:0:
344,56,82063,1,0,0:0:0:0:
128,196,82270,1,0,0:0:0:0:
392,144,82476,1,0,0:0:0:0:
100,128,82683,1,0,0:0:0:0:
316,284,82890,5,0,0:0:0:0:
60,188,83097,1,0,0:0:0:0:
396,88,83304,1,0,0:0:0:0:
96,268,83511,1,0,0:0:0:0:
456,176,83718,1,0,0:0:0:0:
76,104,83925,1,0,0:0:0:0:
400,296,84132,1,0,0:0:0:0:
60,216,84339,1,0,0:0:0:0:
264,80,84545,5,0,0:0:0:0:
264,80,84959,1,0,0:0:0:0:
400,268,85373,5,0,0:0:0:0:
400,268,85787,1,0,0:0:0:0:
144,256,86201,2,0,B|92:216|92:216|152:196|132:156,1,127.50000243187
308,76,87028,6,0,L|288:152,1,63.7500012159348
168,312,87442,2,0,L|196:240,1,63.7500012159348
216,72,87856,5,0,0:0:0:0:
312,104,88063,1,0,0:0:0:0:
260,204,88270,2,0,L|324:236,1,63.7500012159348
164,284,88683,5,0,0:0:0:0:
312,248,88890,1,0,0:0:0:0:
339,263,88994,1,0,0:0:0:0:
367,279,89097,1,0,0:0:0:0:
308,112,89304,1,0,0:0:0:0:
132,160,89511,5,0,0:0:0:0:
208,252,89718,2,0,P|240:284|264:296,1,63.7500012159348
264,112,90132,1,0,0:0:0:0:
352,216,90339,2,0,L|400:280,2,63.7500012159348
312,64,90959,1,0,0:0:0:0:
96,104,91166,5,0,0:0:0:0:
244,172,91373,1,0,0:0:0:0:
216,48,91580,1,0,0:0:0:0:
116,220,91787,1,0,0:0:0:0:
312,136,91994,5,0,0:0:0:0:
332,123,92097,1,0,0:0:0:0:
352,111,92201,1,0,0:0:0:0:
372,99,92304,1,0,0:0:0:0:
393,87,92408,1,0,0:0:0:0:
412,252,92614,1,0,0:0:0:0:
236,288,92821,6,0,B|228:236|152:280|152:280|120:240,1,127.50000243187
124,104,93442,1,0,0:0:0:0:
284,132,93649,2,0,P|324:132|344:144,2,63.7500012159348
156,240,94270,1,0,0:0:0:0:
368,280,94476,1,0,0:0:0:0:
280,104,94683,1,0,0:0:0:0:
112,168,94890,1,0,0:0:0:0:
252,232,95097,1,0,0:0:0:0:
196,48,95304,1,0,0:0:0:0:
336,80,95511,5,0,0:0:0:0:
388,224,95718,1,0,0:0:0:0:
288,124,95925,5,0,0:0:0:0:
252,268,96132,2,0,B|176:320|112:256|112:256|176:200|136:168|40:144|40:144|76:96,1,382.500007295609
208,100,97787,5,0,0:0:0:0:
152,180,97994,1,0,0:0:0:0:
284,60,98201,1,0,0:0:0:0:
376,204,98408,1,0,0:0:0:0:
208,128,98614,2,0,P|160:112|112:120,1,93.75
264,228,99028,1,0,0:0:0:0:
88,60,99235,5,0,0:0:0:0:
60,200,99442,2,0,P|76:256|100:288,1,93.75
244,120,99856,1,0,0:0:0:0:
144,328,100063,2,0,P|168:264|168:224,1,93.75
184,76,100476,1,0,0:0:0:0:
272,236,100683,1,0,0:0:0:0:
88,224,100890,1,0,0:0:0:0:
332,64,101097,5,0,0:0:0:0:
396,220,101304,1,0,0:0:0:0:
264,116,101511,5,0,0:0:0:0:
236,268,101718,1,0,0:0:0:0:
128,220,101925,5,0,0:0:0:0:
356,92,102132,2,0,P|376:120|360:176,1,93.75
192,304,102545,1,0,0:0:0:0:
232,120,102752,1,0,0:0:0:0:
384,292,102959,1,0,0:0:0:0:
148,184,103166,1,0,0:0:0:0:
56,312,103373,1,0,0:0:0:0:
240,276,103580,2,0,L|324:220,1,93.75
428,56,103994,6,0,L|360:144,1,93.75
152,288,104408,2,0,L|224:184,1,93.75
56,176,104821,5,0,0:0:0:0:
220,96,105028,1,0,0:0:0:0:
368,188,105235,2,0,P|384:236|368:288,1,93.75
208,212,105649,1,0,0:0:0:0:
424,164,105856,1,0,0:0:0:0:
360,328,106063,6,0,P|316:300|300:260,1,93.75
308,96,106476,2,0,P|356:116|384:152,1,93.75
156,144,106890,1,0,0:0:0:0:
364,220,107097,1,0,0:0:0:0:
184,304,107304,1,0,0:0:0:0:
324,76,107511,1,0,0:0:0:0:
296,216,107718,6,0,L|316:316,1,93.75
384,120,108132,2,0,L|416:248,1,93.75
268,96,108545,1,0,0:0:0:0:
408,328,108752,1,0,0:0:0:0:
120,200,108959,2,0,P|76:152|76:104,1,93.75
296,104,109373,5,0,0:0:0:0:
120,200,109580,1,0,0:0:0:0:
86,172,109683,1,0,0:0:0:0:
72,132,109787,1,0,0:0:0:0:
300,68,109994,1,0,0:0:0:0:
92,280,110201,1,0,0:0:0:0:
160,72,110408,5,0,0:0:0:0:
284,128,110614,2,0,B|328:124|332:168|332:168|380:180,1,112.500004291535
408,284,111028,2,0,P|336:296|280:288,1,112.500004291535
280,104,111442,2,0,L|232:140,1,56.2500021457673
172,288,111649,2,0,L|168:220,1,56.2500021457673
112,72,111856,5,0,0:0:0:0:
260,220,112063,1,0,0:0:0:0:
273,233,112166,1,0,0:0:0:0:
287,247,112270,1,0,0:0:0:0:
452,316,112476,1,0,0:0:0:0:
356,56,112683,2,0,P|344:108|312:168,1,112.500004291535
164,280,113097,1,0,0:0:0:0:
180,104,113304,1,0,0:0:0:0:
292,320,113511,5,0,0:0:0:0:
264,68,113718,1,0,0:0:0:0:
432,288,113925,1,0,0:0:0:0:
336,32,114132,1,0,0:0:0:0:
148,184,114339,6,0,P|120:228|108:292,1,112.500004291535
448,52,114752,2,0,P|380:64|340:92,1,112.500004291535
400,296,115166,1,0,0:0:0:0:
260,84,115373,1,0,0:0:0:0:
104,256,115580,1,0,0:0:0:0:
368,136,115787,2,0,P|312:116|240:128,1,112.500004291535
348,320,116201,1,0,0:0:0:0:
296,72,116408,1,0,0:0:0:0:
80,192,116614,1,0,0:0:0:0:
316,200,116821,5,0,0:0:0:0:
152,296,117028,5,0,0:0:0:0:
108,112,117235,6,0,P|104:96|176:112,1,112.500004291535
392,152,117649,1,0,0:0:0:0:
128,300,117856,1,0,0:0:0:0:
344,336,118063,1,0,0:0:0:0:
272,84,118270,1,0,0:0:0:0:
112,164,118476,2,0,P|80:216|88:264,1,112.500004291535
56,72,118890,5,0,0:0:0:0:
272,128,119097,1,0,0:0:0:0:
80,328,119304,2,0,P|144:300|188:236,1,112.500004291535
324,48,119718,2,0,P|244:56|192:104,1,112.500004291535
364,336,120132,2,0,P|412:280|404:216,1,112.500004291535
172,84,120545,2,0,P|140:160|160:220,1,112.500004291535
368,172,120959,6,0,L|400:240,1,75
280,240,121373,2,0,L|312:316,1,75
344,100,121787,1,0,0:0:0:0:
384,200,121994,1,0,0:0:0:0:
256,160,122201,1,0,0:0:0:0:
280,264,122408,1,0,0:0:0:0:
112,148,122614,6,0,L|76:76,1,75
240,156,123028,2,0,L|196:72,1,75
156,248,123442,1,0,0:0:0:0:
96,140,123649,1,0,0:0:0:0:
248,140,123856,1,0,0:0:0:0:
396,228,124063,1,0,0:0:0:0:
248,308,124270,2,0,B|196:340|144:264|144:264|44:300|48:252|136:188,1,300
328,128,125304,2,0,P|368:112|400:132,2,75
348,188,126752,6,0,P|380:224|276:232,1,225.000008583069
192,68,127373,1,0,0:0:0:0:
116,252,127580,2,0,P|168:320|232:324,1,112.500004291535
372,248,127994,1,0,0:0:0:0:
56,192,128201,1,0,0:0:0:0:
316,72,128408,1,0,0:0:0:0:
124,300,128614,1,0,0:0:0:0:
380,196,128821,1,0,0:0:0:0:
136,128,129028,1,0,0:0:0:0:
324,244,129235,6,0,P|382:271|428:316,1,112.500004291535
148,232,129649,1,0,0:0:0:0:
360,116,129856,1,0,0:0:0:0:
144,100,130063,1,0,0:0:0:0:
72,308,130270,1,0,0:0:0:0:
340,224,130476,1,0,0:0:0:0:
72,132,130683,1,0,0:0:0:0:
292,80,130890,6,0,P|368:76|408:92,1,112.500004291535
128,248,131304,1,0,0:0:0:0:
332,72,131511,1,0,0:0:0:0:
376,280,131718,1,0,0:0:0:0:
148,124,131925,5,0,0:0:0:0:
80,316,132132,1,0,0:0:0:0:
296,236,132339,1,0,0:0:0:0:
68,148,132545,1,0,0:0:0:0:
296,56,132752,1,0,0:0:0:0:
312,312,132959,5,0,0:0:0:0:
208,180,133166,1,0,0:0:0:0:
124,320,133373,1,0,0:0:0:0:
344,224,133580,1,0,0:0:0:0:
168,92,133787,1,0,0:0:0:0:
112,264,133994,1,0,0:0:0:0:
404,252,134201,2,0,L|436:108,1,112.500004291535
216,40,134614,2,0,L|244:176,1,112.500004291535
300,312,135028,5,0,0:0:0:0:
424,92,135235,1,0,0:0:0:0:
176,168,135442,1,0,0:0:0:0:
400,304,135649,1,0,0:0:0:0:
248,60,135856,6,0,P|184:52|132:72,1,112.500004291535
200,196,136270,2,0,P|136:228|80:288,1,112.500004291535
188,56,136683,1,0,0:0:0:0:
224,252,136890,1,0,0:0:0:0:
344,96,137097,1,0,0:0:0:0:
384,292,137304,1,0,0:0:0:0:
136,228,137511,6,0,P|88:176|40:152,1,112.500004291535
72,332,137925,1,0,0:0:0:0:
128,80,138132,1,0,0:0:0:0:
292,192,138339,1,0,0:0:0:0:
92,184,138545,1,0,0:0:0:0:
256,92,138752,1,0,0:0:0:0:
192,280,138959,1,0,0:0:0:0:
120,88,139166,1,0,0:0:0:0:
216,80,139580,5,0,0:0:0:0:
312,116,139994,5,0,0:0:0:0:
168,308,140408,5,0,0:0:0:0:
139,277,140511,1,0,0:0:0:0:
117,242,140614,1,0,0:0:0:0:
101,204,140718,1,0,0:0:0:0:
88,164,140821,2,0,P|68:104|60:48,1,112.500004291535
256,316,141235,1,0,0:0:0:0:
184,100,141442,1,0,0:0:0:0:
412,268,141649,5,0,0:0:0:0:
264,104,141856,1,0,0:0:0:0:
92,312,142063,1,0,0:0:0:0:
180,64,142270,1,0,0:0:0:0:
344,240,142476,6,0,L|408:332,1,112.500004291535
216,196,142890,1,0,0:0:0:0:
231,222,142994,1,0,0:0:0:0:
246,249,143097,1,0,0:0:0:0:
132,64,143304,1,0,0:0:0:0:
104,244,143511,1,0,0:0:0:0:
244,108,143718,2,0,L|216:232,1,112.500004291535
408,96,144132,6,0,P|372:54|317:55,1,112.500004291535
124,232,144545,1,0,0:0:0:0:
344,184,144752,1,0,0:0:0:0:
148,88,144959,1,0,0:0:0:0:
260,292,145166,1,0,0:0:0:0:
280,60,145373,1,0,0:0:0:0:
108,232,145580,2,0,P|88:296|52:328,1,112.500004291535
64,120,145994,1,0,0:0:0:0:
208,296,146201,1,0,0:0:0:0:
216,92,146408,5,0,0:0:0:0:
120,324,146614,1,0,0:0:0:0:
340,36,146821,1,0,0:0:0:0:
416,184,147028,2,0,P|428:128|392:72,1,112.500004291535
96,168,147442,1,0,0:0:0:0:
304,80,147649,1,0,0:0:0:0:
200,264,147856,1,0,0:0:0:0:
424,220,148063,6,0,P|432:288|400:336,1,112.500004291535
356,112,148476,1,0,0:0:0:0:
200,188,148683,1,0,0:0:0:0:
372,288,148890,1,0,0:0:0:0:
432,112,149097,2,0,P|384:72|312:76,1,112.500004291535
164,196,149511,1,0,0:0:0:0:
408,172,149718,1,0,0:0:0:0:
224,52,149925,1,0,0:0:0:0:
124,256,150132,5,0,0:0:0:0:
184,312,150339,1,0,0:0:0:0:
256,280,150545,1,0,0:0:0:0:
280,60,150752,2,0,P|212:40|144:72,1,112.500004291535
96,244,151166,1,0,0:0:0:0:
440,80,151373,1,0,0:0:0:0:
104,76,151580,1,0,0:0:0:0:
400,304,151787,1,0,0:0:0:0:
248,56,151994,5,0,0:0:0:0:
196,320,152201,1,0,0:0:0:0:
84,108,152408,2,0,B|103:83|103:83|156:84|196:120|196:120|244:76|244:76|320:100|404:168|400:252,1,450.000017166138
160,180,153442,5,0,0:0:0:0:
128,216,153545,1,0,0:0:0:0:
144,256,153649,1,0,0:0:0:0:
36,140,153856,1,0,0:0:0:0:
228,256,154063,1,0,0:0:0:0:
164,80,154270,1,0,0:0:0:0:
288,60,154476,5,0,0:0:0:0:
320,76,154580,1,0,0:0:0:0:
328,120,154683,1,0,0:0:0:0:
184,172,154890,1,0,0:0:0:0:
288,288,155097,1,0,0:0:0:0:
388,240,155304,1,0,0:0:0:0:
396,200,155408,1,0,0:0:0:0:
400,168,155511,1,0,0:0:0:0:
200,88,155718,6,0,L|128:136,1,75
172,309,156028,2,0,P|138:299|136:264,1,75
124,236,156235,1,0,0:0:0:0:
256,136,156339,1,0,0:0:0:0:
244,165,156442,1,0,0:0:0:0:
232,194,156545,1,0,0:0:0:0:
400,88,156752,1,0,0:0:0:0:
360,176,156959,1,0,0:0:0:0:
124,200,157373,5,0,0:0:0:0:
96,312,157580,1,0,0:0:0:0:
196,56,157787,1,0,0:0:0:0:
206,85,157890,1,0,0:0:0:0:
217,115,157994,1,0,0:0:0:0:
320,56,158201,1,0,0:0:0:0:
348,176,158408,1,0,0:0:0:0:
452,104,158614,5,0,0:0:0:0:
442,134,158718,1,0,0:0:0:0:
433,164,158821,1,0,0:0:0:0:
224,116,159028,2,0,B|320:236,1,112.500004291535
176,300,159442,1,0,0:0:0:0:
211,294,159545,1,0,0:0:0:0:
256,288,159649,2,0,P|296:288|396:328,2,150
164,64,160270,5,0,0:0:0:0:
104,228,160476,1,0,0:0:0:0:
288,120,160683,1,0,0:0:0:0:
355,104,160787,1,0,0:0:0:0:
425,107,160890,1,0,0:0:0:0:
412,172,160994,1,0,0:0:0:0:
372,224,161097,1,0,0:0:0:0:
184,244,161304,1,0,0:0:0:0:
121,225,161408,1,0,0:0:0:0:
76,176,161511,2,0,P|48:136|48:104,3,75
64,80,161925,2,0,P|104:52|172:72,1,75
168,64,162132,2,0,P|236:140|204:164,1,150
352,216,162545,5,0,0:0:0:0:
364,249,162649,1,0,0:0:0:0:
377,283,162752,1,0,0:0:0:0:
248,128,162959,1,0,0:0:0:0:
128,160,163166,1,0,0:0:0:0:
140,193,163270,1,0,0:0:0:0:
152,227,163373,1,0,0:0:0:0:
164,261,163476,1,0,0:0:0:0:
176,295,163580,1,0,0:0:0:0:
189,328,163683,1,0,0:0:0:0:
225,330,163787,1,0,0:0:0:0:
261,325,163890,1,0,0:0:0:0:
295,315,163994,1,0,0:0:0:0:
384,88,164201,6,0,P|300:64|232:100,1,150
84,212,164614,2,0,P|128:288|188:332,1,150
408,288,165028,1,0,0:0:0:0:
96,120,165235,1,0,0:0:0:0:
260,72,165442,1,0,0:0:0:0:
124,272,165649,1,0,0:0:0:0:
404,192,165856,1,0,0:0:0:0:
240,328,166063,2,0,P|208:240|204:172,1,150
400,140,166476,1,0,0:0:0:0:
68,144,166683,1,0,0:0:0:0:
156,308,166890,6,0,B|188:276|188:276|212:332|340:288,1,150
420,216,167304,2,0,P|448:140|408:80,1,150
140,120,167718,1,0,0:0:0:0:
328,312,167925,1,0,0:0:0:0:
180,56,168132,2,0,P|120:132|116:196,1,150
416,224,168545,1,0,0:0:0:0:
80,152,168752,1,0,0:0:0:0:
440,132,168959,6,0,P|376:76|292:56,1,150
64,228,169373,1,0,0:0:0:0:
408,88,169580,1,0,0:0:0:0:
184,320,169787,2,0,P|280:324|296:248,1,150
200,52,170201,1,0,0:0:0:0:
64,296,170408,1,0,0:0:0:0:
432,188,170614,5,0,0:0:0:0:
288,92,170821,1,0,0:0:0:0:
280,288,171028,5,0,0:0:0:0:
212,152,171235,1,0,0:0:0:0:
128,312,171442,6,0,L|152:156,1,150
272,64,171856,1,0,0:0:0:0:
136,80,172063,2,0,P|72:132|48:216,1,150
224,320,172476,1,0,0:0:0:0:
96,152,172683,1,0,0:0:0:0:
364,200,172890,1,0,0:0:0:0:
72,72,173097,1,0,0:0:0:0:
344,320,173304,1,0,0:0:0:0:
324,84,173511,5,0,0:0:0:0:
200,68,173718,1,0,0:0:0:0:
132,144,173925,2,0,P|88:208|92:280,1,150
112,300,174235,1,0,0:0:0:0:
145,324,174339,1,0,0:0:0:0:
400,176,174545,1,0,0:0:0:0:
429,142,174649,1,0,0:0:0:0:
440,100,174752,2,0,P|444:84|360:84,1,150
348,112,175063,1,0,0:0:0:0:
337,155,175166,1,0,0:0:0:0:
305,188,175270,1,0,0:0:0:0:
261,199,175373,1,0,0:0:0:0:
168,56,175580,5,0,0:0:0:0:
60,272,175787,1,0,0:0:0:0:
264,56,175994,1,0,0:0:0:0:
248,320,176201,1,0,0:0:0:0:
336,32,176408,1,0,0:0:0:0:
432,328,176614,1,0,0:0:0:0:
432,40,176821,1,0,0:0:0:0:
100,308,177028,1,0,0:0:0:0:
88,112,177235,6,0,L|232:68,1,150
196,180,177649,2,0,L|376:124,1,150
120,304,178063,1,0,0:0:0:0:
408,196,178270,1,0,0:0:0:0:
196,56,178476,1,0,0:0:0:0:
328,236,178683,2,0,P|368:312|320:368,1,150
80,224,179097,5,0,0:0:0:0:
420,124,179304,1,0,0:0:0:0:
120,72,179511,1,0,0:0:0:0:
196,344,179718,1,0,0:0:0:0:
328,64,179925,1,0,0:0:0:0:
408,284,180132,1,0,0:0:0:0:
176,136,180339,5,0,0:0:0:0:
200,268,180545,5,0,0:0:0:0:
160,208,182201,6,0,L|148:296,1,75
240,160,182614,2,0,L|228:248,1,75
328,104,183028,2,0,L|316:192,1,75
412,52,183442,2,0,L|400:140,1,75
416,260,183856,5,0,0:0:0:0:
328,152,184063,1,0,0:0:0:0:
324,296,184270,5,0,0:0:0:0:
180,192,184476,1,0,0:0:0:0:
216,328,184683,5,0,0:0:0:0:
56,216,184890,1,0,0:0:0:0:
96,88,185097,2,0,P|152:68|188:84,1,75
288,104,185511,2,0,P|336:160|332:192,1,75
328,284,185925,2,0,P|296:308|256:304,1,75
132,252,186339,1,0,0:0:0:0:
80,168,186545,1,0,0:0:0:0:
144,96,186752,1,0,0:0:0:0:
232,100,186959,1,0,0:0:0:0:
416,208,187166,6,0,P|436:268|424:292,1,75
340,152,187580,1,0,0:0:0:0:
292,304,187787,1,0,0:0:0:0:
176,224,187994,2,0,P|120:184|112:172,1,75
316,92,188408,2,0,P|280:72|232:72,1,75
200,272,188821,1,0,0:0:0:0:
80,236,189028,1,0,0:0:0:0:
372,160,189235,1,0,0:0:0:0:
240,128,189442,1,0,0:0:0:0:
104,108,189649,5,0,0:0:0:0:
124,276,189856,1,0,0:0:0:0:
264,48,190063,1,0,0:0:0:0:
312,216,190270,1,0,0:0:0:0:
140,144,190476,6,0,L|88:204,1,75
228,228,190890,1,0,0:0:0:0:
188,316,191097,1,0,0:0:0:0:
376,272,191304,2,0,P|412:248|412:204,1,75
344,84,191718,1,0,0:0:0:0:
192,104,191925,1,0,0:0:0:0:
84,224,192132,2,0,B|180:288|220:236|220:236|400:210|352:298|352:298|366:343|444:336,1,450
308,84,193787,5,0,0:0:0:0:
200,184,194201,6,0,B|148:152|148:152|139:198|92:200,1,112.500004291535
336,236,194614,6,0,B|396:280|336:300|336:300|408:336,1,150
92,200,195442,6,0,P|76:280|144:328,1,150
448,56,195856,2,0,P|336:36|288:60,1,150
80,300,196270,1,0,0:0:0:0:
416,184,196476,1,0,0:0:0:0:
104,72,196683,1,0,0:0:0:0:
308,316,196890,1,0,0:0:0:0:
180,76,197097,6,0,L|344:52,1,150
104,216,197511,2,0,L|232:100,1,150
136,344,197925,1,0,0:0:0:0:
204,64,198132,1,0,0:0:0:0:
304,336,198339,1,0,0:0:0:0:
136,44,198545,1,0,0:0:0:0:
416,164,198752,5,0,0:0:0:0:
56,128,198959,1,0,0:0:0:0:
444,96,199166,1,0,0:0:0:0:
52,224,199373,1,0,0:0:0:0:
416,264,199580,1,0,0:0:0:0:
48,88,199787,1,0,0:0:0:0:
420,148,199994,1,0,0:0:0:0:
56,188,200201,1,0,0:0:0:0:
284,56,200408,6,0,L|384:176,1,150
404,344,200821,2,0,L|296:200,1,150
136,84,201235,2,0,L|232:236,1,150
156,344,201649,2,0,L|92:188,1,150
372,52,202063,5,0,0:0:0:0:
140,204,202270,1,0,0:0:0:0:
436,116,202476,1,0,0:0:0:0:
276,320,202683,1,0,0:0:0:0:
172,52,202890,1,0,0:0:0:0:
368,200,203097,1,0,0:0:0:0:
56,180,203304,1,0,0:0:0:0:
352,48,203511,1,0,0:0:0:0:
188,324,203718,6,0,L|320:240,1,150
168,48,204132,1,0,0:0:0:0:
84,240,204339,1,0,0:0:0:0:
416,148,204545,2,0,P|364:124|264:140,1,150
140,324,204959,1,0,0:0:0:0:
272,60,205166,1,0,0:0:0:0:
400,324,205373,1,0,0:0:0:0:
68,176,205580,1,0,0:0:0:0:
440,216,205787,5,0,0:0:0:0:
132,72,205994,1,0,0:0:0:0:
444,88,206201,1,0,0:0:0:0:
132,296,206408,1,0,0:0:0:0:
432,204,206614,1,0,0:0:0:0:
40,152,206821,1,0,0:0:0:0:
256,192,207028,12,0,208476,0:0:0:0:
168,176,208683,6,0,P|120:232|104:336,1,150
352,168,209097,2,0,P|420:244|432:300,1,150
128,56,209511,1,0,0:0:0:0:
200,300,209718,1,0,0:0:0:0:
344,92,209925,1,0,0:0:0:0:
376,312,210132,1,0,0:0:0:0:
200,80,210339,6,0,P|160:72|104:100,2,75
380,236,210752,1,0,0:0:0:0:
92,204,210959,1,0,0:0:0:0:
352,100,211166,1,0,0:0:0:0:
284,320,211373,1,0,0:0:0:0:
272,76,211580,1,0,0:0:0:0:
124,272,211787,1,0,0:0:0:0:
392,136,211994,6,0,P|296:76|228:80,1,150
56,192,212408,1,0,0:0:0:0:
364,140,212614,1,0,0:0:0:0:
100,64,212821,1,0,0:0:0:0:
144,280,213028,1,0,0:0:0:0:
376,168,213235,5,0,0:0:0:0:
156,72,213442,1,0,0:0:0:0:
132,59,213545,1,0,0:0:0:0:
107,52,213649,1,0,0:0:0:0:
160,316,213856,1,0,0:0:0:0:
344,92,214063,1,0,0:0:0:0:
56,172,214270,1,0,0:0:0:0:
304,308,214476,2,0,P|404:288|440:248,1,150
392,128,214890,2,0,P|296:144|232:196,1,150
140,320,215304,5,0,0:0:0:0:
100,108,215511,1,0,0:0:0:0:
304,80,215925,5,0,0:0:0:0:
424,176,216132,1,0,0:0:0:0:
296,260,216339,1,0,0:0:0:0:
64,136,216752,5,0,0:0:0:0:
252,232,216959,1,0,0:0:0:0:
104,160,217166,1,0,0:0:0:0:
125,174,217270,1,0,0:0:0:0:
147,189,217373,1,0,0:0:0:0:
280,60,217580,5,0,0:0:0:0:
188,84,217787,1,0,0:0:0:0:
96,112,217994,1,0,0:0:0:0:
304,192,218408,5,0,0:0:0:0:
304,280,218614,1,0,0:0:0:0:
204,248,219028,5,0,0:0:0:0:
100,168,219442,5,0,0:0:0:0:
144,72,219649,1,0,0:0:0:0:
224,144,219856,1,0,0:0:0:0:
180,240,220063,1,0,0:0:0:0:
340,136,220476,5,0,0:0:0:0:
340,136,220580,1,0,0:0:0:0:
340,136,220683,1,0,0:0:0:0:
428,208,220890,1,0,0:0:0:0:
280,268,221097,1,0,0:0:0:0:
216,88,221304,5,0,0:0:0:0:
160,176,221511,2,0,B|112:224|112:224|140:280,1,93.75
