osu file format v14

[General]
AudioFilename: audio.mp3
AudioLeadIn: 0
PreviewTime: 79734
Countdown: 1
SampleSet: Normal
StackLeniency: 0.7
Mode: 0
LetterboxInBreaks: 0
WidescreenStoryboard: 1

[Editor]
DistanceSpacing: 1.5
BeatDivisor: 4
GridSize: 16
TimelineZoom: 2.799999

[Metadata]
Title:About me
TitleUnicode:About me
Artist:Kanseru
ArtistUnicode:かんせる
Creator:-Hanashi-
Version:Contemplation
Source:
Tags:chouchou-p exit tunes vocaloid gumi english kancell kanzentaicell
BeatmapID:1107442
BeatmapSetID:521247

[Difficulty]
HPDrainRate:7
CircleSize:4
OverallDifficulty:8
ApproachRate:8
SliderMultiplier:2
SliderTickRate:1

[Events]
//Background and Video events
0,0,"megane-san.jpg",0,0
//Break Periods
2,39859,78984
//Storyboard Layer 0 (Background)
//Storyboard Layer 1 (Fail)
//Storyboard Layer 2 (Pass)
//Storyboard Layer 3 (Foreground)
//Storyboard Sound Samples

[TimingPoints]
1824,447.761194029851,4,1,0,100,1,0
1824,-125,4,1,0,100,0,0
23316,-100,4,1,0,100,0,0
79734,-125,4,1,0,100,0,0
80629,-100,4,1,0,100,0,0

[Colours]
Combo1 : 255,170,85
Combo2 : 114,114,114
Combo3 : 83,169,255
Combo4 : 149,149,74
Combo5 : 255,98,98

[HitObjects]
95,175,1824,6,0,P|154:190|180:191,1,80
291,96,2271,1,0,0:0:0:0:
301,74,2383,2,0,L|304:183,1,80
234,290,2831,5,0,0:0:0:0:
219,271,2943,2,0,P|180:273|138:280,1,80
64,146,3391,1,0,0:0:0:0:
174,41,3615,6,0,B|203:60|222:97|222:97|268:68|287:74,1,120
286,70,4062,1,0,0:0:0:0:
309,61,4174,1,0,0:0:0:0:
397,184,4398,6,0,L|384:277,1,80
382,287,4734,1,0,0:0:0:0:
241,228,4958,2,0,L|218:133,1,80
93,232,5406,6,0,P|93:297|69:335,1,80
236,341,5853,1,0,0:0:0:0:
216,327,5965,2,0,L|306:329,1,80
381,202,6413,5,0,0:0:0:0:
398,219,6525,2,0,P|396:169|401:125,1,80
265,64,6973,1,0,0:0:0:0:
143,155,7197,6,0,B|166:199|211:206|211:206|225:245,1,120
230,258,7644,1,0,0:0:0:0:
240,280,7756,1,0,0:0:0:0:
384,233,7980,6,0,P|391:181|375:132,1,80
371,130,8316,1,0,0:0:0:0:
238,55,8540,1,0,0:0:0:0:
212,65,8652,1,0,0:0:0:0:
186,78,8764,1,0,0:0:0:0:
79,186,8988,6,0,L|168:226,1,80
268,316,9435,1,0,0:0:0:0:
287,331,9547,2,0,P|287:265|301:231,1,80
394,139,9995,5,0,0:0:0:0:
408,119,10107,2,0,L|408:225,1,80
370,347,10555,1,0,0:0:0:0:
258,243,10779,2,0,P|182:253|117:240,1,120
118,235,11226,1,0,0:0:0:0:
102,217,11338,1,0,0:0:0:0:
243,161,11562,6,0,L|249:63,1,80
249,57,11898,1,0,0:0:0:0:
99,86,12122,1,0,0:0:0:0:
89,108,12234,1,0,0:0:0:0:
80,131,12346,1,0,0:0:0:0:
156,262,12570,6,0,P|209:251|264:247,1,80
350,149,13018,1,0,0:0:0:0:
366,131,13129,2,0,L|361:233,1,80
283,341,13577,5,0,0:0:0:0:
295,320,13689,2,0,P|239:319|209:313,1,80
115,198,14137,5,0,0:0:0:0:
233,103,14361,2,0,B|221:61|245:35|245:35|282:48|328:38,1,120
316,43,14809,1,0,0:0:0:0:
340,37,14921,1,0,0:0:0:0:
405,173,15144,6,0,P|402:228|412:261,1,80
413,276,15480,1,0,0:0:0:0:
262,300,15704,1,0,0:0:0:0:
239,292,15816,1,0,0:0:0:0:
216,283,15928,1,0,0:0:0:0:
95,190,16152,6,0,B|75:154|75:154|74:90,1,80
208,42,16600,1,0,0:0:0:0:
197,64,16712,2,0,B|239:61|239:61|287:67,1,80
410,137,17159,1,0,0:0:0:0:
423,117,17271,2,0,L|424:219,1,80
337,323,17719,5,0,0:0:0:0:
203,249,17943,2,0,B|179:243|146:254|146:254|115:263|56:249,1,120
62,246,18391,1,0,0:0:0:0:
41,234,18503,1,0,0:0:0:0:
166,149,18726,6,0,B|161:106|161:106|173:43,1,80
180,49,19062,1,0,0:0:0:0:
258,179,19286,1,0,0:0:0:0:
281,172,19398,1,0,0:0:0:0:
303,162,19510,1,0,0:0:0:0:
253,305,19734,6,0,P|166:309|146:313,1,80
21,287,20182,1,0,0:0:0:0:
38,304,20294,2,0,L|35:217,1,80
147,121,20741,5,0,0:0:0:0:
138,143,20853,2,0,B|190:139|190:139|243:148,1,80
350,69,21301,1,0,0:0:0:0:
410,208,21525,6,0,P|458:220|435:286,1,120
427,289,21973,1,0,0:0:0:0:
405,299,22085,1,0,0:0:0:0:
259,255,22309,6,0,P|194:243|157:245,1,80
153,237,22644,1,0,0:0:0:0:
163,211,22755,1,0,0:0:0:0:
169,183,22867,1,0,0:0:0:0:
171,155,22979,1,0,0:0:0:0:
169,128,23091,1,0,0:0:0:0:
259,255,23316,5,0,0:0:0:0:
266,75,23540,1,0,0:0:0:0:
320,214,23764,1,0,0:0:0:0:
327,24,23988,1,0,0:0:0:0:
374,166,24212,1,0,0:0:0:0:
401,124,24324,2,0,L|404:240,1,100
290,322,24771,5,0,0:0:0:0:
310,299,24883,2,0,P|256:300|199:290,1,100
80,216,25331,1,0,0:0:0:0:
220,346,25555,1,0,0:0:0:0:
80,291,25779,1,0,0:0:0:0:
271,292,26003,1,0,0:0:0:0:
309,254,26115,2,0,L|302:378,1,100
410,248,26562,5,0,0:0:0:0:
441,291,26674,2,0,L|447:168,1,100
320,107,27122,1,0,0:0:0:0:
480,209,27346,1,0,0:0:0:0:
409,76,27570,1,0,0:0:0:0:
409,266,27794,1,0,0:0:0:0:
446,231,27906,6,0,P|374:231|316:224,1,100
214,156,28353,1,0,0:0:0:0:
179,116,28465,2,0,L|172:220,1,100
26,254,28913,1,0,0:0:0:0:
213,289,29137,1,0,0:0:0:0:
87,207,29361,1,0,0:0:0:0:
198,361,29585,5,0,0:0:0:0:
198,361,29697,2,0,L|265:346,3,50
282,340,30144,1,0,0:0:0:0:
296,306,30255,1,0,0:0:0:0:
303,269,30367,1,0,0:0:0:0:
302,233,30479,1,0,0:0:0:0:
424,320,30704,5,0,0:0:0:0:
238,286,30928,1,0,0:0:0:0:
387,296,31152,1,0,0:0:0:0:
212,222,31376,1,0,0:0:0:0:
173,190,31488,2,0,L|287:180,1,100
384,81,31935,5,0,0:0:0:0:
422,46,32047,2,0,P|411:117|419:173,1,100
471,283,32495,1,0,0:0:0:0:
469,93,32719,1,0,0:0:0:0:
417,233,32943,1,0,0:0:0:0:
413,43,33167,1,0,0:0:0:0:
454,76,33279,2,0,L|324:70,1,100
236,165,33726,5,0,0:0:0:0:
195,200,33838,2,0,L|316:208,1,100
188,313,34286,1,0,0:0:0:0:
378,324,34510,1,0,0:0:0:0:
256,236,34734,1,0,0:0:0:0:
442,273,34958,5,0,0:0:0:0:
479,309,35070,2,0,P|477:258|488:205,1,100
382,100,35518,1,0,0:0:0:0:
410,145,35629,2,0,B|358:132|358:132|308:133,1,100
184,52,36077,1,0,0:0:0:0:
273,220,36301,1,0,0:0:0:0:
288,70,36525,1,0,0:0:0:0:
162,212,36749,5,0,0:0:0:0:
208,189,36861,2,0,L|67:179,1,100
83,155,37197,1,0,0:0:0:0:
79,191,37308,1,0,0:0:0:0:
75,228,37420,1,0,0:0:0:0:
69,265,37532,1,0,0:0:0:0:
62,301,37644,1,0,0:0:0:0:
201,245,37868,5,0,0:0:0:0:
373,326,38092,1,0,0:0:0:0:
252,236,38316,1,0,0:0:0:0:
441,213,38540,6,0,L|436:331,1,100
392,251,38876,2,0,L|268:258,1,100
223,288,39212,1,0,0:0:0:0:
84,160,39435,1,0,0:0:0:0:
145,296,39659,1,0,0:0:0:0:
88,159,79734,6,0,P|151:168|186:157,1,80
132,94,80070,1,0,0:0:0:0:
129,133,80181,1,0,0:0:0:0:
126,173,80293,1,0,0:0:0:0:
123,213,80405,1,0,0:0:0:0:
120,253,80518,1,0,0:0:0:0:
117,293,80629,1,0,0:0:0:0:
258,344,80853,6,0,P|323:339|372:346,1,100
