osu file format v14

[General]
AudioFilename: audio.mp3
AudioLeadIn: 0
PreviewTime: 79497
Countdown: 0
SampleSet: Soft
StackLeniency: 0.7
Mode: 3
LetterboxInBreaks: 0
SpecialStyle: 0
WidescreenStoryboard: 1

[Editor]
DistanceSpacing: 1.8
BeatDivisor: 4
GridSize: 8
TimelineZoom: 2.599997

[Metadata]
Title:Unmei no Dark Side -Rolling Gothic mix
TitleUnicode:運命のダークサイド -Rolling Gothic mix
Artist:Kanpyohgo
ArtistUnicode:干瓢碁
Creator:Estonians
Version:Collab
Source:東方Project
Tags:
BeatmapID:1563013
BeatmapSetID:740918

[Difficulty]
HPDrainRate:7.4
CircleSize:4
OverallDifficulty:6.9
ApproachRate:9.3
SliderMultiplier:1.8
SliderTickRate:1

[Events]
//Background and Video events
0,0,"shrine_maiden_wallpaper_by_absarnaeem-d8fue0c.png",0,0
//Break Periods
2,187791,193037
//Storyboard Layer 0 (Background)
//Storyboard Layer 1 (Fail)
//Storyboard Layer 2 (Pass)
//Storyboard Layer 3 (Foreground)
//Storyboard Sound Samples

[TimingPoints]
7591,375,4,2,99,5,1,0
31216,-434.782608695652,4,2,99,5,0,0
31247,-31.25,4,2,99,5,0,0
31309,-1000,4,2,99,5,0,0
31559,-100,4,2,99,5,0,0

[Colours]
Combo1 : 196,60,172
Combo2 : 1,196,201
Combo3 : 18,124,255
Combo4 : 237,29,102

[HitObjects]
192,192,7591,5,0,0:0:0:0:
64,192,7591,1,0,0:0:0:0:
320,192,8341,1,0,0:0:0:0:
448,192,9091,1,0,0:0:0:0:
448,192,9841,1,0,0:0:0:0:
64,192,9841,1,0,0:0:0:0:
320,192,10591,1,0,0:0:0:0:
448,192,10591,1,0,0:0:0:0:
192,192,11341,1,0,0:0:0:0:
64,192,12091,1,0,0:0:0:0:
448,192,12841,1,0,0:0:0:0:
64,192,12841,1,0,0:0:0:0:
64,192,13591,1,0,0:0:0:0:
192,192,13591,1,0,0:0:0:0:
320,192,13591,1,0,0:0:0:0:
448,192,13591,1,0,0:0:0:0:
320,192,14153,1,0,0:0:0:0:
64,192,14153,1,0,0:0:0:0:
192,192,14341,1,0,0:0:0:0:
448,192,14341,1,0,0:0:0:0:
192,192,14903,1,0,0:0:0:0:
448,192,14903,1,0,0:0:0:0:
448,192,15091,1,0,0:0:0:0:
320,192,15091,1,0,0:0:0:0:
192,192,15653,1,0,0:0:0:0:
64,192,15653,1,0,0:0:0:0:
64,192,15841,1,0,0:0:0:0:
448,192,15841,1,0,0:0:0:0:
64,192,16403,1,0,0:0:0:0:
320,192,16403,1,0,0:0:0:0:
448,192,16591,1,0,0:0:0:0:
320,192,16591,1,0,0:0:0:0:
192,192,16591,1,0,0:0:0:0:
64,192,17153,1,0,0:0:0:0:
320,192,17153,1,0,0:0:0:0:
192,192,17341,1,0,0:0:0:0:
448,192,17341,1,0,0:0:0:0:
448,192,17903,1,0,0:0:0:0:
192,192,17903,1,0,0:0:0:0:
320,192,18091,1,0,0:0:0:0:
448,192,18091,1,0,0:0:0:0:
192,192,18278,1,0,0:0:0:0:
64,192,18341,1,0,0:0:0:0:
448,192,18341,1,0,0:0:0:0:
320,192,18403,1,0,0:0:0:0:
192,192,18466,1,0,0:0:0:0:
448,192,18653,1,0,0:0:0:0:
192,192,18747,1,0,0:0:0:0:
448,192,18841,1,0,0:0:0:0:
192,192,18934,1,0,0:0:0:0:
448,192,19028,1,0,0:0:0:0:
64,192,19028,1,0,0:0:0:0:
320,192,19075,1,0,0:0:0:0:
192,192,19122,1,0,0:0:0:0:
448,192,19169,1,0,0:0:0:0:
64,192,19216,1,0,0:0:0:0:
320,192,19216,1,0,0:0:0:0:
192,192,19309,1,0,0:0:0:0:
320,192,19403,1,0,0:0:0:0:
448,192,19403,1,0,0:0:0:0:
64,192,19403,1,0,0:0:0:0:
448,192,19497,1,0,0:0:0:0:
320,192,19591,1,0,0:0:0:0:
192,192,19591,1,0,0:0:0:0:
64,192,19591,1,0,0:0:0:0:
448,192,19778,1,0,0:0:0:0:
192,192,19872,1,0,0:0:0:0:
320,192,19966,1,0,0:0:0:0:
64,192,19966,1,0,0:0:0:0:
448,192,20153,1,0,0:0:0:0:
192,192,20153,1,0,0:0:0:0:
448,192,20341,1,0,0:0:0:0:
320,192,20341,1,0,0:0:0:0:
192,192,20434,1,0,0:0:0:0:
448,192,20528,1,0,0:0:0:0:
64,192,20528,1,0,0:0:0:0:
192,192,20716,1,0,0:0:0:0:
320,192,20716,1,0,0:0:0:0:
448,192,20809,1,0,0:0:0:0:
320,192,20903,1,0,0:0:0:0:
64,192,20903,1,0,0:0:0:0:
192,192,20997,1,0,0:0:0:0:
64,192,21091,1,0,0:0:0:0:
448,192,21091,1,0,0:0:0:0:
320,192,21184,1,0,0:0:0:0:
448,192,21278,1,0,0:0:0:0:
192,192,21278,1,0,0:0:0:0:
64,192,21372,1,0,0:0:0:0:
320,192,21466,1,0,0:0:0:0:
448,192,21466,1,0,0:0:0:0:
320,192,21653,1,0,0:0:0:0:
64,192,21653,1,0,0:0:0:0:
448,192,21747,1,0,0:0:0:0:
192,192,21841,1,0,0:0:0:0:
64,192,21841,1,0,0:0:0:0:
320,192,21934,1,0,0:0:0:0:
448,192,22028,1,0,0:0:0:0:
64,192,22028,1,0,0:0:0:0:
192,192,22122,1,0,0:0:0:0:
64,192,22216,1,0,0:0:0:0:
320,192,22216,1,0,0:0:0:0:
448,192,22309,1,0,0:0:0:0:
192,192,22403,1,0,0:0:0:0:
320,192,22497,1,0,0:0:0:0:
448,192,22591,1,0,0:0:0:0:
192,192,22591,1,0,0:0:0:0:
64,192,22591,1,0,0:0:0:0:
320,192,22778,1,0,0:0:0:0:
64,192,22872,1,0,0:0:0:0:
192,192,22966,1,0,0:0:0:0:
448,192,22966,1,0,0:0:0:0:
320,192,23059,1,0,0:0:0:0:
192,192,23153,1,0,0:0:0:0:
64,192,23153,1,0,0:0:0:0:
64,192,23341,1,0,0:0:0:0:
320,192,23341,1,0,0:0:0:0:
448,192,23434,1,0,0:0:0:0:
192,192,23528,1,0,0:0:0:0:
64,192,23528,1,0,0:0:0:0:
448,192,23716,1,0,0:0:0:0:
192,192,23716,1,0,0:0:0:0:
64,192,23809,1,0,0:0:0:0:
448,192,23903,1,0,0:0:0:0:
320,192,23903,1,0,0:0:0:0:
192,192,23997,1,0,0:0:0:0:
64,192,24091,1,0,0:0:0:0:
448,192,24091,1,0,0:0:0:0:
320,192,24184,1,0,0:0:0:0:
448,192,24278,1,0,0:0:0:0:
64,192,24278,1,0,0:0:0:0:
192,192,24372,1,0,0:0:0:0:
64,192,24466,1,0,0:0:0:0:
448,192,24466,1,0,0:0:0:0:
320,192,24512,1,0,0:0:0:0:
192,192,24559,1,0,0:0:0:0:
448,192,24606,1,0,0:0:0:0:
64,192,24653,1,0,0:0:0:0:
320,192,24700,1,0,0:0:0:0:
448,192,24747,1,0,0:0:0:0:
192,192,24794,1,0,0:0:0:0:
64,192,24841,1,0,0:0:0:0:
320,192,24841,1,0,0:0:0:0:
448,192,24934,1,0,0:0:0:0:
320,192,24981,1,0,0:0:0:0:
64,192,25028,1,0,0:0:0:0:
192,192,25028,1,0,0:0:0:0:
320,192,25122,1,0,0:0:0:0:
448,192,25216,1,0,0:0:0:0:
64,192,25216,1,0,0:0:0:0:
192,192,25403,1,0,0:0:0:0:
64,192,25403,1,0,0:0:0:0:
448,192,25403,1,0,0:0:0:0:
192,192,25497,1,0,0:0:0:0:
64,192,25497,1,0,0:0:0:0:
320,192,25591,1,0,0:0:0:0:
448,192,25591,1,0,0:0:0:0:
64,192,25591,1,0,0:0:0:0:
192,192,25778,1,0,0:0:0:0:
320,192,25778,1,0,0:0:0:0:
192,192,25966,1,0,0:0:0:0:
64,192,25966,1,0,0:0:0:0:
192,192,26153,1,0,0:0:0:0:
320,192,26153,1,0,0:0:0:0:
192,192,26341,1,0,0:0:0:0:
448,192,26341,1,0,0:0:0:0:
192,192,26528,1,0,0:0:0:0:
320,192,26528,1,0,0:0:0:0:
192,192,26716,1,0,0:0:0:0:
64,192,26716,1,0,0:0:0:0:
192,192,26903,1,0,0:0:0:0:
320,192,26903,1,0,0:0:0:0:
64,192,27091,1,0,0:0:0:0:
448,192,27091,1,0,0:0:0:0:
192,192,27278,1,0,0:0:0:0:
448,192,27278,1,0,0:0:0:0:
320,192,27466,1,0,0:0:0:0:
448,192,27466,1,0,0:0:0:0:
192,192,27653,1,0,0:0:0:0:
448,192,27653,1,0,0:0:0:0:
448,192,27841,1,0,0:0:0:0:
64,192,27841,1,0,0:0:0:0:
320,192,27841,1,0,0:0:0:0:
192,192,28028,1,0,0:0:0:0:
64,192,28028,1,0,0:0:0:0:
64,192,28216,1,0,0:0:0:0:
320,192,28216,1,0,0:0:0:0:
64,192,28403,1,0,0:0:0:0:
448,192,28403,1,0,0:0:0:0:
64,192,28591,1,0,0:0:0:0:
192,192,28591,1,0,0:0:0:0:
320,192,28591,1,0,0:0:0:0:
320,192,28778,1,0,0:0:0:0:
448,192,28778,1,0,0:0:0:0:
320,192,28966,1,0,0:0:0:0:
192,192,28966,1,0,0:0:0:0:
320,192,29153,1,0,0:0:0:0:
64,192,29153,1,0,0:0:0:0:
320,192,29341,1,0,0:0:0:0:
192,192,29341,1,0,0:0:0:0:
320,192,29528,1,0,0:0:0:0:
448,192,29528,1,0,0:0:0:0:
320,192,29716,1,0,0:0:0:0:
64,192,29716,1,0,0:0:0:0:
320,192,29903,1,0,0:0:0:0:
192,192,29903,1,0,0:0:0:0:
192,192,30091,1,0,0:0:0:0:
448,192,30091,1,0,0:0:0:0:
64,192,30278,1,0,0:0:0:0:
448,192,30278,1,0,0:0:0:0:
192,192,30325,1,0,0:0:0:0:
320,192,30372,1,0,0:0:0:0:
64,192,30419,1,0,0:0:0:0:
448,192,30466,1,0,0:0:0:0:
320,192,30512,1,0,0:0:0:0:
192,192,30559,1,0,0:0:0:0:
448,192,30653,1,0,0:0:0:0:
320,192,30653,1,0,0:0:0:0:
64,192,30747,1,0,0:0:0:0:
320,192,30794,1,0,0:0:0:0:
448,192,30841,1,0,0:0:0:0:
192,192,30841,1,0,0:0:0:0:
320,192,30934,1,0,0:0:0:0:
448,192,30981,1,0,0:0:0:0:
192,192,31028,1,0,0:0:0:0:
64,192,31028,1,0,0:0:0:0:
64,192,31216,1,0,0:0:0:0:
192,192,31216,1,0,0:0:0:0:
320,192,31216,1,0,0:0:0:0:
448,192,31216,1,0,0:0:0:0:
192,192,31591,1,0,0:0:0:0:
64,192,31591,1,0,0:0:0:0:
320,192,31591,1,0,0:0:0:0:
448,192,31591,1,0,0:0:0:0:
192,192,31778,1,0,0:0:0:0:
320,192,31778,1,0,0:0:0:0:
448,192,31778,1,0,0:0:0:0:
192,192,31966,1,0,0:0:0:0:
64,192,31966,1,0,0:0:0:0:
320,192,31966,1,0,0:0:0:0:
448,192,31966,1,0,0:0:0:0:
320,192,32153,1,0,0:0:0:0:
192,192,32153,1,0,0:0:0:0:
64,192,32153,1,0,0:0:0:0:
320,192,32341,1,0,0:0:0:0:
448,192,32341,1,0,0:0:0:0:
64,192,32341,1,0,0:0:0:0:
192,192,32528,1,0,0:0:0:0:
320,192,32528,1,0,0:0:0:0:
64,192,32528,1,0,0:0:0:0:
448,192,32716,1,0,0:0:0:0:
320,192,32716,1,0,0:0:0:0:
192,192,32716,1,0,0:0:0:0:
64,192,32716,1,0,0:0:0:0:
192,192,32903,1,0,0:0:0:0:
64,192,32903,1,0,0:0:0:0:
448,192,32903,1,0,0:0:0:0:
448,192,33091,1,0,0:0:0:0:
320,192,33091,1,0,0:0:0:0:
192,192,33091,1,0,0:0:0:0:
64,192,33278,1,0,0:0:0:0:
320,192,33278,1,0,0:0:0:0:
192,192,33278,1,0,0:0:0:0:
448,192,33466,1,0,0:0:0:0:
320,192,33466,1,0,0:0:0:0:
192,192,33466,1,0,0:0:0:0:
64,192,33466,1,0,0:0:0:0:
192,192,33653,1,0,0:0:0:0:
64,192,33653,1,0,0:0:0:0:
448,192,33653,1,0,0:0:0:0:
192,192,33841,1,0,0:0:0:0:
320,192,33841,1,0,0:0:0:0:
448,192,33841,1,0,0:0:0:0:
448,192,34028,1,0,0:0:0:0:
320,192,34028,1,0,0:0:0:0:
64,192,34028,1,0,0:0:0:0:
448,192,34216,1,0,0:0:0:0:
320,192,34216,1,0,0:0:0:0:
192,192,34216,1,0,0:0:0:0:
64,192,34216,1,0,0:0:0:0:
192,192,34403,1,0,0:0:0:0:
64,192,34403,1,0,0:0:0:0:
448,192,34403,1,0,0:0:0:0:
320,192,34591,1,0,0:0:0:0:
192,192,34591,1,0,0:0:0:0:
448,192,34591,1,0,0:0:0:0:
64,192,34778,1,0,0:0:0:0:
320,192,34778,1,0,0:0:0:0:
448,192,34778,1,0,0:0:0:0:
320,192,34966,1,0,0:0:0:0:
192,192,34966,1,0,0:0:0:0:
64,192,34966,1,0,0:0:0:0:
448,192,34966,1,0,0:0:0:0:
64,192,35153,1,0,0:0:0:0:
192,192,35153,1,0,0:0:0:0:
448,192,35153,1,0,0:0:0:0:
192,192,35341,1,0,0:0:0:0:
320,192,35341,1,0,0:0:0:0:
448,192,35341,1,0,0:0:0:0:
448,192,35528,1,0,0:0:0:0:
320,192,35528,1,0,0:0:0:0:
64,192,35528,1,0,0:0:0:0:
448,192,35716,1,0,0:0:0:0:
320,192,35716,1,0,0:0:0:0:
192,192,35716,1,0,0:0:0:0:
64,192,35716,1,0,0:0:0:0:
64,192,35903,1,0,0:0:0:0:
192,192,35903,1,0,0:0:0:0:
320,192,35903,1,0,0:0:0:0:
64,192,36091,1,0,0:0:0:0:
448,192,36091,1,0,0:0:0:0:
320,192,36091,1,0,0:0:0:0:
448,192,36278,1,0,0:0:0:0:
192,192,36278,1,0,0:0:0:0:
320,192,36278,1,0,0:0:0:0:
448,192,36466,1,0,0:0:0:0:
320,192,36466,1,0,0:0:0:0:
64,192,36466,1,0,0:0:0:0:
192,192,36466,1,0,0:0:0:0:
448,192,36653,1,0,0:0:0:0:
192,192,36653,1,0,0:0:0:0:
64,192,36653,1,0,0:0:0:0:
320,192,36841,1,0,0:0:0:0:
192,192,36841,1,0,0:0:0:0:
64,192,36841,1,0,0:0:0:0:
192,192,37028,1,0,0:0:0:0:
320,192,37028,1,0,0:0:0:0:
448,192,37028,1,0,0:0:0:0:
320,192,37216,1,0,0:0:0:0:
192,192,37216,1,0,0:0:0:0:
64,192,37216,1,0,0:0:0:0:
448,192,37262,1,0,0:0:0:0:
192,192,37309,1,0,0:0:0:0:
320,192,37356,1,0,0:0:0:0:
64,192,37403,1,0,0:0:0:0:
448,192,37450,1,0,0:0:0:0:
320,192,37497,1,0,0:0:0:0:
192,192,37544,1,0,0:0:0:0:
448,192,37591,1,0,0:0:0:0:
64,192,37591,1,0,0:0:0:0:
320,192,37778,1,0,0:0:0:0:
64,192,37778,1,0,0:0:0:0:
192,192,37966,1,0,0:0:0:0:
448,192,37966,1,0,0:0:0:0:
448,192,38153,1,0,0:0:0:0:
64,192,38153,1,0,0:0:0:0:
320,192,38341,1,0,0:0:0:0:
448,192,38341,1,0,0:0:0:0:
192,192,38434,1,0,0:0:0:0:
64,192,38528,1,0,0:0:0:0:
448,192,38528,1,0,0:0:0:0:
320,192,38716,1,0,0:0:0:0:
64,192,38716,1,0,0:0:0:0:
64,192,38903,1,0,0:0:0:0:
448,192,38903,1,0,0:0:0:0:
192,192,39091,1,0,0:0:0:0:
320,192,39091,1,0,0:0:0:0:
448,192,39184,1,0,0:0:0:0:
192,192,39278,1,0,0:0:0:0:
64,192,39278,1,0,0:0:0:0:
320,192,39278,1,0,0:0:0:0:
320,192,39466,1,0,0:0:0:0:
192,192,39466,1,0,0:0:0:0:
64,192,39559,1,0,0:0:0:0:
192,192,39653,1,0,0:0:0:0:
320,192,39653,1,0,0:0:0:0:
448,192,39653,1,0,0:0:0:0:
192,192,39841,1,0,0:0:0:0:
64,192,39841,1,0,0:0:0:0:
320,192,39934,1,0,0:0:0:0:
448,192,40028,1,0,0:0:0:0:
64,192,40028,1,0,0:0:0:0:
192,192,40216,1,0,0:0:0:0:
448,192,40216,1,0,0:0:0:0:
64,192,40403,1,0,0:0:0:0:
448,192,40403,1,0,0:0:0:0:
320,192,40403,1,0,0:0:0:0:
192,192,40591,1,0,0:0:0:0:
64,192,40591,1,0,0:0:0:0:
320,192,40591,1,0,0:0:0:0:
448,192,40591,1,0,0:0:0:0:
192,192,40778,1,0,0:0:0:0:
448,192,40778,1,0,0:0:0:0:
320,192,40966,1,0,0:0:0:0:
64,192,40966,1,0,0:0:0:0:
448,192,41059,1,0,0:0:0:0:
192,192,41153,1,0,0:0:0:0:
64,192,41153,1,0,0:0:0:0:
64,192,41341,1,0,0:0:0:0:
192,192,41341,1,0,0:0:0:0:
320,192,41341,1,0,0:0:0:0:
448,192,41341,1,0,0:0:0:0:
320,192,41528,1,0,0:0:0:0:
64,192,41528,1,0,0:0:0:0:
192,192,41716,1,0,0:0:0:0:
448,192,41716,1,0,0:0:0:0:
320,192,41809,1,0,0:0:0:0:
192,192,41809,1,0,0:0:0:0:
64,192,41809,1,0,0:0:0:0:
448,192,41809,1,0,0:0:0:0:
64,192,41903,1,0,0:0:0:0:
192,192,41903,1,0,0:0:0:0:
320,192,41903,1,0,0:0:0:0:
448,192,41903,1,0,0:0:0:0:
64,192,42091,1,0,0:0:0:0:
192,192,42091,1,0,0:0:0:0:
320,192,42091,1,0,0:0:0:0:
448,192,42091,1,0,0:0:0:0:
64,192,42278,1,0,0:0:0:0:
320,192,42278,1,0,0:0:0:0:
192,192,42466,1,0,0:0:0:0:
448,192,42466,1,0,0:0:0:0:
64,192,42559,1,0,0:0:0:0:
448,192,42653,1,0,0:0:0:0:
320,192,42653,1,0,0:0:0:0:
64,192,42841,1,0,0:0:0:0:
192,192,42841,1,0,0:0:0:0:
320,192,42841,1,0,0:0:0:0:
448,192,42841,1,0,0:0:0:0:
192,192,43028,1,0,0:0:0:0:
448,192,43028,1,0,0:0:0:0:
448,192,43216,5,0,0:0:0:0:
320,192,43216,1,0,0:0:0:0:
64,192,43216,1,0,0:0:0:0:
192,192,43216,1,0,0:0:0:0:
320,192,43403,1,0,0:0:0:0:
64,192,43403,1,0,0:0:0:0:
320,192,43591,5,0,0:0:0:0:
448,192,43591,1,0,0:0:0:0:
192,192,43591,1,0,0:0:0:0:
64,192,43684,1,0,0:0:0:0:
192,192,43778,1,0,0:0:0:0:
320,192,43778,1,0,0:0:0:0:
448,192,43872,1,0,0:0:0:0:
192,192,43966,1,0,0:0:0:0:
64,192,43966,1,0,0:0:0:0:
448,192,44059,1,0,0:0:0:0:
320,192,44153,1,0,0:0:0:0:
192,192,44153,1,0,0:0:0:0:
64,192,44247,1,0,0:0:0:0:
448,192,44341,1,0,0:0:0:0:
320,192,44341,1,0,0:0:0:0:
64,192,44434,1,0,0:0:0:0:
192,192,44528,1,0,0:0:0:0:
320,192,44528,1,0,0:0:0:0:
448,192,44622,1,0,0:0:0:0:
192,192,44716,1,0,0:0:0:0:
64,192,44716,1,0,0:0:0:0:
448,192,44809,1,0,0:0:0:0:
320,192,44903,1,0,0:0:0:0:
192,192,44903,1,0,0:0:0:0:
64,192,44997,1,0,0:0:0:0:
192,192,45091,1,0,0:0:0:0:
320,192,45091,1,0,0:0:0:0:
448,192,45091,1,0,0:0:0:0:
64,192,45184,1,0,0:0:0:0:
448,192,45278,1,0,0:0:0:0:
320,192,45278,1,0,0:0:0:0:
192,192,45372,1,0,0:0:0:0:
64,192,45466,1,0,0:0:0:0:
320,192,45466,1,0,0:0:0:0:
448,192,45559,1,0,0:0:0:0:
192,192,45653,1,0,0:0:0:0:
64,192,45653,1,0,0:0:0:0:
320,192,45747,1,0,0:0:0:0:
448,192,45841,1,0,0:0:0:0:
192,192,45841,1,0,0:0:0:0:
64,192,45934,1,0,0:0:0:0:
320,192,46028,1,0,0:0:0:0:
448,192,46028,1,0,0:0:0:0:
192,192,46122,1,0,0:0:0:0:
320,192,46216,1,0,0:0:0:0:
64,192,46216,1,0,0:0:0:0:
448,192,46309,1,0,0:0:0:0:
64,192,46403,1,0,0:0:0:0:
192,192,46403,1,0,0:0:0:0:
320,192,46497,1,0,0:0:0:0:
448,192,46591,1,0,0:0:0:0:
192,192,46591,1,0,0:0:0:0:
64,192,46591,1,0,0:0:0:0:
192,192,46684,1,0,0:0:0:0:
64,192,46778,1,0,0:0:0:0:
448,192,46778,1,0,0:0:0:0:
320,192,46778,1,0,0:0:0:0:
320,192,46872,1,0,0:0:0:0:
448,192,46966,1,0,0:0:0:0:
64,192,46966,1,0,0:0:0:0:
192,192,46966,1,0,0:0:0:0:
192,192,47059,1,0,0:0:0:0:
64,192,47153,1,0,0:0:0:0:
320,192,47153,1,0,0:0:0:0:
448,192,47153,1,0,0:0:0:0:
448,192,47247,1,0,0:0:0:0:
192,192,47341,1,0,0:0:0:0:
320,192,47341,1,0,0:0:0:0:
64,192,47341,1,0,0:0:0:0:
64,192,47434,1,0,0:0:0:0:
192,192,47528,1,0,0:0:0:0:
320,192,47528,1,0,0:0:0:0:
448,192,47528,1,0,0:0:0:0:
64,192,47622,1,0,0:0:0:0:
448,192,47716,1,0,0:0:0:0:
320,192,47716,1,0,0:0:0:0:
192,192,47809,1,0,0:0:0:0:
64,192,47903,1,0,0:0:0:0:
320,192,47903,1,0,0:0:0:0:
448,192,47903,1,0,0:0:0:0:
192,192,47997,1,0,0:0:0:0:
64,192,48091,1,0,0:0:0:0:
320,192,48091,1,0,0:0:0:0:
448,192,48091,1,0,0:0:0:0:
192,192,48184,1,0,0:0:0:0:
64,192,48278,1,0,0:0:0:0:
448,192,48278,1,0,0:0:0:0:
320,192,48372,1,0,0:0:0:0:
448,192,48466,1,0,0:0:0:0:
64,192,48466,1,0,0:0:0:0:
192,192,48559,1,0,0:0:0:0:
448,192,48653,1,0,0:0:0:0:
64,192,48653,1,0,0:0:0:0:
320,192,48747,1,0,0:0:0:0:
192,192,48841,1,0,0:0:0:0:
64,192,48841,1,0,0:0:0:0:
320,192,48934,1,0,0:0:0:0:
448,192,49028,1,0,0:0:0:0:
64,192,49028,1,0,0:0:0:0:
192,192,49122,1,0,0:0:0:0:
64,192,49216,1,0,0:0:0:0:
448,192,49216,1,0,0:0:0:0:
320,192,49309,1,0,0:0:0:0:
448,192,49403,1,0,0:0:0:0:
64,192,49403,1,0,0:0:0:0:
192,192,49497,1,0,0:0:0:0:
320,192,49591,1,0,0:0:0:0:
448,192,49591,1,0,0:0:0:0:
64,192,49684,1,0,0:0:0:0:
192,192,49684,1,0,0:0:0:0:
320,192,49778,1,0,0:0:0:0:
448,192,49778,1,0,0:0:0:0:
64,192,49872,1,0,0:0:0:0:
192,192,49872,1,0,0:0:0:0:
320,192,49966,1,0,0:0:0:0:
448,192,49966,1,0,0:0:0:0:
192,192,50059,1,0,0:0:0:0:
64,192,50059,1,0,0:0:0:0:
320,192,50153,1,0,0:0:0:0:
448,192,50153,1,0,0:0:0:0:
192,192,50247,1,0,0:0:0:0:
64,192,50341,1,0,0:0:0:0:
448,192,50341,1,0,0:0:0:0:
320,192,50434,1,0,0:0:0:0:
192,192,50434,1,0,0:0:0:0:
64,192,50528,1,0,0:0:0:0:
448,192,50528,1,0,0:0:0:0:
320,192,50622,1,0,0:0:0:0:
192,192,50622,1,0,0:0:0:0:
64,192,50716,1,0,0:0:0:0:
448,192,50716,1,0,0:0:0:0:
320,192,50809,1,0,0:0:0:0:
192,192,50903,1,0,0:0:0:0:
64,192,50903,1,0,0:0:0:0:
320,192,50997,1,0,0:0:0:0:
448,192,50997,1,0,0:0:0:0:
192,192,51091,1,0,0:0:0:0:
64,192,51091,1,0,0:0:0:0:
448,192,51184,1,0,0:0:0:0:
192,192,51278,1,0,0:0:0:0:
64,192,51278,1,0,0:0:0:0:
448,192,51372,1,0,0:0:0:0:
192,192,51466,1,0,0:0:0:0:
64,192,51466,1,0,0:0:0:0:
448,192,51559,1,0,0:0:0:0:
192,192,51653,1,0,0:0:0:0:
64,192,51653,1,0,0:0:0:0:
448,192,51747,1,0,0:0:0:0:
192,192,51841,1,0,0:0:0:0:
64,192,51841,1,0,0:0:0:0:
448,192,51934,1,0,0:0:0:0:
320,192,52028,1,0,0:0:0:0:
192,192,52028,1,0,0:0:0:0:
64,192,52122,1,0,0:0:0:0:
448,192,52216,1,0,0:0:0:0:
320,192,52216,1,0,0:0:0:0:
192,192,52309,1,0,0:0:0:0:
448,192,52403,1,0,0:0:0:0:
320,192,52403,1,0,0:0:0:0:
192,192,52497,1,0,0:0:0:0:
64,192,52591,1,0,0:0:0:0:
448,192,52591,1,0,0:0:0:0:
320,192,52591,1,0,0:0:0:0:
192,192,52684,1,0,0:0:0:0:
64,192,52778,1,0,0:0:0:0:
448,192,52778,1,0,0:0:0:0:
320,192,52872,1,0,0:0:0:0:
448,192,52966,1,0,0:0:0:0:
64,192,52966,1,0,0:0:0:0:
192,192,53059,1,0,0:0:0:0:
320,192,53153,1,0,0:0:0:0:
448,192,53153,1,0,0:0:0:0:
192,192,53247,1,0,0:0:0:0:
64,192,53341,1,0,0:0:0:0:
448,192,53341,1,0,0:0:0:0:
320,192,53434,1,0,0:0:0:0:
192,192,53528,1,0,0:0:0:0:
64,192,53528,1,0,0:0:0:0:
448,192,53575,1,0,0:0:0:0:
320,192,53622,1,0,0:0:0:0:
192,192,53669,1,0,0:0:0:0:
448,192,53716,1,0,0:0:0:0:
64,192,53762,1,0,0:0:0:0:
192,192,53809,1,0,0:0:0:0:
320,192,53856,1,0,0:0:0:0:
64,192,53903,1,0,0:0:0:0:
192,192,53950,1,0,0:0:0:0:
448,192,53997,1,0,0:0:0:0:
320,192,54044,1,0,0:0:0:0:
192,192,54091,1,0,0:0:0:0:
64,192,54091,1,0,0:0:0:0:
448,192,54184,1,0,0:0:0:0:
320,192,54184,1,0,0:0:0:0:
192,192,54278,1,0,0:0:0:0:
64,192,54278,1,0,0:0:0:0:
320,192,54372,1,0,0:0:0:0:
448,192,54466,1,0,0:0:0:0:
64,192,54466,1,0,0:0:0:0:
192,192,54528,1,0,0:0:0:0:
320,192,54591,1,0,0:0:0:0:
448,192,54653,1,0,0:0:0:0:
64,192,54716,1,0,0:0:0:0:
192,192,54778,1,0,0:0:0:0:
64,192,54841,1,0,0:0:0:0:
320,192,54841,1,0,0:0:0:0:
448,192,54841,1,0,0:0:0:0:
192,192,55309,128,0,55544:0:0:0:0:
320,192,55309,128,0,55544:0:0:0:0:
64,192,55591,1,0,0:0:0:0:
192,192,55591,1,0,0:0:0:0:
320,192,55591,1,0,0:0:0:0:
448,192,55591,1,0,0:0:0:0:
448,192,55778,1,0,0:0:0:0:
320,192,55778,1,0,0:0:0:0:
192,192,55872,1,0,0:0:0:0:
448,192,55872,1,0,0:0:0:0:
192,192,55966,1,0,0:0:0:0:
64,192,55966,1,0,0:0:0:0:
448,192,56059,1,0,0:0:0:0:
64,192,56059,1,0,0:0:0:0:
320,192,56153,1,0,0:0:0:0:
448,192,56153,1,0,0:0:0:0:
64,192,56341,1,0,0:0:0:0:
320,192,56341,1,0,0:0:0:0:
448,192,56341,1,0,0:0:0:0:
192,192,56528,1,0,0:0:0:0:
320,192,56528,1,0,0:0:0:0:
192,192,56716,1,0,0:0:0:0:
64,192,56716,1,0,0:0:0:0:
448,192,56716,1,0,0:0:0:0:
448,192,56903,1,0,0:0:0:0:
320,192,56903,1,0,0:0:0:0:
192,192,57091,1,0,0:0:0:0:
64,192,57091,1,0,0:0:0:0:
320,192,57091,1,0,0:0:0:0:
448,192,57278,1,0,0:0:0:0:
192,192,57278,1,0,0:0:0:0:
448,192,57372,1,0,0:0:0:0:
320,192,57372,1,0,0:0:0:0:
192,192,57466,1,0,0:0:0:0:
64,192,57466,1,0,0:0:0:0:
64,192,57559,1,0,0:0:0:0:
320,192,57559,1,0,0:0:0:0:
448,192,57653,1,0,0:0:0:0:
320,192,57653,1,0,0:0:0:0:
192,192,57747,1,0,0:0:0:0:
64,192,57747,1,0,0:0:0:0:
320,192,57841,1,0,0:0:0:0:
448,192,57841,1,0,0:0:0:0:
64,192,57841,1,0,0:0:0:0:
192,192,58028,1,0,0:0:0:0:
320,192,58028,1,0,0:0:0:0:
448,192,58122,1,0,0:0:0:0:
320,192,58216,1,0,0:0:0:0:
192,192,58216,1,0,0:0:0:0:
64,192,58216,1,0,0:0:0:0:
448,192,58309,1,0,0:0:0:0:
192,192,58403,1,0,0:0:0:0:
64,192,58403,1,0,0:0:0:0:
320,192,58497,1,0,0:0:0:0:
448,192,58591,1,0,0:0:0:0:
192,192,58591,1,0,0:0:0:0:
64,192,58591,1,0,0:0:0:0:
320,192,58778,1,0,0:0:0:0:
64,192,58778,1,0,0:0:0:0:
448,192,58966,1,0,0:0:0:0:
64,192,58966,1,0,0:0:0:0:
192,192,59153,1,0,0:0:0:0:
448,192,59153,1,0,0:0:0:0:
320,192,59341,1,0,0:0:0:0:
192,192,59341,1,0,0:0:0:0:
64,192,59341,1,0,0:0:0:0:
448,192,59528,1,0,0:0:0:0:
64,192,59528,1,0,0:0:0:0:
320,192,59716,1,0,0:0:0:0:
448,192,59716,1,0,0:0:0:0:
64,192,59903,1,0,0:0:0:0:
192,192,59903,1,0,0:0:0:0:
448,192,59903,1,0,0:0:0:0:
320,192,59997,1,0,0:0:0:0:
192,192,60091,1,0,0:0:0:0:
64,192,60091,1,0,0:0:0:0:
320,192,60137,1,0,0:0:0:0:
448,192,60184,1,0,0:0:0:0:
192,192,60231,1,0,0:0:0:0:
320,192,60278,1,0,0:0:0:0:
448,192,60325,1,0,0:0:0:0:
192,192,60372,1,0,0:0:0:0:
64,192,60372,1,0,0:0:0:0:
320,192,60419,1,0,0:0:0:0:
448,192,60466,1,0,0:0:0:0:
192,192,60512,1,0,0:0:0:0:
320,192,60559,1,0,0:0:0:0:
448,192,60606,1,0,0:0:0:0:
192,192,60653,1,0,0:0:0:0:
64,192,60653,1,0,0:0:0:0:
448,192,60841,1,0,0:0:0:0:
320,192,60841,1,0,0:0:0:0:
64,192,60934,1,0,0:0:0:0:
320,192,60934,1,0,0:0:0:0:
192,192,61028,1,0,0:0:0:0:
64,192,61028,1,0,0:0:0:0:
448,192,61122,1,0,0:0:0:0:
192,192,61122,1,0,0:0:0:0:
64,192,61216,1,0,0:0:0:0:
448,192,61216,1,0,0:0:0:0:
320,192,61216,1,0,0:0:0:0:
320,192,61403,1,0,0:0:0:0:
192,192,61403,1,0,0:0:0:0:
192,192,61591,1,0,0:0:0:0:
64,192,61591,1,0,0:0:0:0:
448,192,61591,1,0,0:0:0:0:
320,192,61778,1,0,0:0:0:0:
448,192,61778,1,0,0:0:0:0:
192,192,61872,1,0,0:0:0:0:
64,192,61872,1,0,0:0:0:0:
448,192,61872,1,0,0:0:0:0:
320,192,61966,1,0,0:0:0:0:
64,192,61966,1,0,0:0:0:0:
192,192,62059,1,0,0:0:0:0:
320,192,62059,1,0,0:0:0:0:
448,192,62153,1,0,0:0:0:0:
192,192,62153,1,0,0:0:0:0:
192,192,62341,1,0,0:0:0:0:
64,192,62341,1,0,0:0:0:0:
320,192,62341,1,0,0:0:0:0:
448,192,62528,1,0,0:0:0:0:
192,192,62528,1,0,0:0:0:0:
320,192,62716,1,0,0:0:0:0:
448,192,62716,1,0,0:0:0:0:
320,192,62903,1,0,0:0:0:0:
64,192,62903,1,0,0:0:0:0:
192,192,63091,1,0,0:0:0:0:
64,192,63091,1,0,0:0:0:0:
448,192,63091,1,0,0:0:0:0:
448,192,63278,1,0,0:0:0:0:
320,192,63278,1,0,0:0:0:0:
320,192,63372,1,0,0:0:0:0:
64,192,63372,1,0,0:0:0:0:
192,192,63466,1,0,0:0:0:0:
64,192,63466,1,0,0:0:0:0:
320,192,63559,1,0,0:0:0:0:
448,192,63559,1,0,0:0:0:0:
448,192,63653,1,0,0:0:0:0:
192,192,63653,1,0,0:0:0:0:
320,192,63747,1,0,0:0:0:0:
64,192,63747,1,0,0:0:0:0:
448,192,63841,1,0,0:0:0:0:
192,192,63841,1,0,0:0:0:0:
64,192,63841,1,0,0:0:0:0:
320,192,64028,1,0,0:0:0:0:
192,192,64028,1,0,0:0:0:0:
64,192,64122,1,0,0:0:0:0:
192,192,64216,1,0,0:0:0:0:
320,192,64216,1,0,0:0:0:0:
448,192,64216,1,0,0:0:0:0:
64,192,64309,1,0,0:0:0:0:
448,192,64403,1,0,0:0:0:0:
320,192,64403,1,0,0:0:0:0:
192,192,64497,1,0,0:0:0:0:
64,192,64591,1,0,0:0:0:0:
448,192,64591,1,0,0:0:0:0:
320,192,64591,1,0,0:0:0:0:
320,192,64778,1,0,0:0:0:0:
192,192,64778,1,0,0:0:0:0:
192,192,64966,1,0,0:0:0:0:
64,192,64966,1,0,0:0:0:0:
448,192,64966,1,0,0:0:0:0:
448,192,65153,1,0,0:0:0:0:
320,192,65153,1,0,0:0:0:0:
64,192,65341,1,0,0:0:0:0:
320,192,65341,1,0,0:0:0:0:
192,192,65341,1,0,0:0:0:0:
448,192,65434,1,0,0:0:0:0:
64,192,65528,1,0,0:0:0:0:
192,192,65528,1,0,0:0:0:0:
320,192,65622,1,0,0:0:0:0:
448,192,65716,1,0,0:0:0:0:
192,192,65716,1,0,0:0:0:0:
64,192,65716,1,0,0:0:0:0:
64,192,65903,1,0,0:0:0:0:
192,192,65903,1,0,0:0:0:0:
448,192,65903,1,0,0:0:0:0:
192,192,65997,1,0,0:0:0:0:
320,192,65997,1,0,0:0:0:0:
448,192,66091,1,0,0:0:0:0:
320,192,66091,1,0,0:0:0:0:
64,192,66091,1,0,0:0:0:0:
192,192,66372,1,0,0:0:0:0:
448,192,66372,1,0,0:0:0:0:
64,192,66466,1,0,0:0:0:0:
192,192,66466,1,0,0:0:0:0:
320,192,66653,1,0,0:0:0:0:
64,192,66653,1,0,0:0:0:0:
448,192,66747,1,0,0:0:0:0:
320,192,66747,1,0,0:0:0:0:
64,192,66841,1,0,0:0:0:0:
448,192,66841,1,0,0:0:0:0:
192,192,66934,5,0,0:0:0:0:
64,192,66934,1,0,0:0:0:0:
448,192,67028,1,0,0:0:0:0:
320,192,67028,1,0,0:0:0:0:
320,192,67122,1,0,0:0:0:0:
64,192,67122,1,0,0:0:0:0:
192,192,67216,1,0,0:0:0:0:
64,192,67216,1,0,0:0:0:0:
320,192,67309,1,0,0:0:0:0:
448,192,67403,1,0,0:0:0:0:
64,192,67403,1,0,0:0:0:0:
192,192,67497,1,0,0:0:0:0:
448,192,67497,1,0,0:0:0:0:
64,192,67591,1,0,0:0:0:0:
192,192,67591,1,0,0:0:0:0:
320,192,67591,1,0,0:0:0:0:
448,192,67684,1,0,0:0:0:0:
192,192,67778,1,0,0:0:0:0:
64,192,67778,1,0,0:0:0:0:
320,192,67872,1,0,0:0:0:0:
448,192,67872,1,0,0:0:0:0:
64,192,67966,1,0,0:0:0:0:
192,192,67966,1,0,0:0:0:0:
448,192,67966,1,0,0:0:0:0:
320,192,68059,1,0,0:0:0:0:
448,192,68153,1,0,0:0:0:0:
64,192,68153,1,0,0:0:0:0:
192,192,68247,1,0,0:0:0:0:
64,192,68247,1,0,0:0:0:0:
448,192,68341,1,0,0:0:0:0:
320,192,68341,1,0,0:0:0:0:
192,192,68434,1,0,0:0:0:0:
448,192,68528,1,0,0:0:0:0:
320,192,68528,1,0,0:0:0:0:
192,192,68622,1,0,0:0:0:0:
64,192,68622,1,0,0:0:0:0:
448,192,68716,1,0,0:0:0:0:
320,192,68716,1,0,0:0:0:0:
64,192,68716,1,0,0:0:0:0:
192,192,68809,1,0,0:0:0:0:
64,192,68903,1,0,0:0:0:0:
448,192,68903,1,0,0:0:0:0:
448,192,68997,1,0,0:0:0:0:
320,192,68997,1,0,0:0:0:0:
64,192,69091,1,0,0:0:0:0:
192,192,69091,1,0,0:0:0:0:
448,192,69091,1,0,0:0:0:0:
192,192,69184,1,0,0:0:0:0:
64,192,69184,1,0,0:0:0:0:
320,192,69278,1,0,0:0:0:0:
448,192,69278,1,0,0:0:0:0:
64,192,69278,1,0,0:0:0:0:
320,192,69372,1,0,0:0:0:0:
192,192,69466,1,0,0:0:0:0:
64,192,69466,1,0,0:0:0:0:
448,192,69466,1,0,0:0:0:0:
192,192,69559,1,0,0:0:0:0:
320,192,69653,1,0,0:0:0:0:
64,192,69653,1,0,0:0:0:0:
448,192,69653,1,0,0:0:0:0:
320,192,69747,1,0,0:0:0:0:
448,192,69841,1,0,0:0:0:0:
64,192,69841,1,0,0:0:0:0:
192,192,69841,1,0,0:0:0:0:
320,192,69934,1,0,0:0:0:0:
192,192,70028,1,0,0:0:0:0:
64,192,70028,1,0,0:0:0:0:
192,192,70122,1,0,0:0:0:0:
320,192,70216,1,0,0:0:0:0:
448,192,70216,1,0,0:0:0:0:
64,192,70216,1,0,0:0:0:0:
320,192,70309,1,0,0:0:0:0:
448,192,70309,1,0,0:0:0:0:
192,192,70403,1,0,0:0:0:0:
64,192,70403,1,0,0:0:0:0:
64,192,70497,1,0,0:0:0:0:
192,192,70497,1,0,0:0:0:0:
320,192,70591,1,0,0:0:0:0:
448,192,70591,1,0,0:0:0:0:
64,192,70591,1,0,0:0:0:0:
192,192,70684,1,0,0:0:0:0:
320,192,70778,1,0,0:0:0:0:
448,192,70778,1,0,0:0:0:0:
192,192,70872,1,0,0:0:0:0:
64,192,70872,1,0,0:0:0:0:
320,192,70966,1,0,0:0:0:0:
448,192,70966,1,0,0:0:0:0:
64,192,70966,1,0,0:0:0:0:
192,192,71059,1,0,0:0:0:0:
64,192,71153,1,0,0:0:0:0:
448,192,71153,1,0,0:0:0:0:
320,192,71247,1,0,0:0:0:0:
64,192,71341,1,0,0:0:0:0:
192,192,71341,1,0,0:0:0:0:
448,192,71434,1,0,0:0:0:0:
320,192,71434,1,0,0:0:0:0:
192,192,71528,1,0,0:0:0:0:
64,192,71528,1,0,0:0:0:0:
320,192,71622,1,0,0:0:0:0:
192,192,71716,1,0,0:0:0:0:
64,192,71716,1,0,0:0:0:0:
448,192,71716,1,0,0:0:0:0:
320,192,71809,1,0,0:0:0:0:
192,192,71903,1,0,0:0:0:0:
64,192,71903,1,0,0:0:0:0:
64,192,71997,1,0,0:0:0:0:
448,192,71997,1,0,0:0:0:0:
320,192,72091,1,0,0:0:0:0:
448,192,72091,1,0,0:0:0:0:
192,192,72184,1,0,0:0:0:0:
64,192,72184,1,0,0:0:0:0:
64,192,72278,1,0,0:0:0:0:
320,192,72278,1,0,0:0:0:0:
448,192,72372,1,0,0:0:0:0:
320,192,72372,1,0,0:0:0:0:
64,192,72466,1,0,0:0:0:0:
192,192,72466,1,0,0:0:0:0:
448,192,72466,1,0,0:0:0:0:
64,192,72559,1,0,0:0:0:0:
320,192,72559,1,0,0:0:0:0:
320,192,72653,1,0,0:0:0:0:
192,192,72653,1,0,0:0:0:0:
448,192,72747,1,0,0:0:0:0:
192,192,72747,1,0,0:0:0:0:
448,192,72841,1,0,0:0:0:0:
64,192,72841,1,0,0:0:0:0:
320,192,72841,1,0,0:0:0:0:
192,192,72934,1,0,0:0:0:0:
64,192,72934,1,0,0:0:0:0:
320,192,73028,1,0,0:0:0:0:
448,192,73122,1,0,0:0:0:0:
64,192,73122,1,0,0:0:0:0:
192,192,73216,1,0,0:0:0:0:
320,192,73216,1,0,0:0:0:0:
64,192,73309,1,0,0:0:0:0:
448,192,73403,1,0,0:0:0:0:
320,192,73403,1,0,0:0:0:0:
192,192,73497,1,0,0:0:0:0:
64,192,73591,1,0,0:0:0:0:
448,192,73591,1,0,0:0:0:0:
320,192,73591,1,0,0:0:0:0:
192,192,73684,1,0,0:0:0:0:
64,192,73684,1,0,0:0:0:0:
320,192,73778,1,0,0:0:0:0:
448,192,73778,1,0,0:0:0:0:
192,192,73872,1,0,0:0:0:0:
64,192,73872,1,0,0:0:0:0:
320,192,73966,1,0,0:0:0:0:
448,192,73966,1,0,0:0:0:0:
64,192,73966,1,0,0:0:0:0:
192,192,74059,1,0,0:0:0:0:
448,192,74153,1,0,0:0:0:0:
64,192,74153,1,0,0:0:0:0:
320,192,74247,1,0,0:0:0:0:
192,192,74341,1,0,0:0:0:0:
64,192,74341,1,0,0:0:0:0:
448,192,74341,1,0,0:0:0:0:
320,192,74434,1,0,0:0:0:0:
448,192,74434,1,0,0:0:0:0:
192,192,74528,1,0,0:0:0:0:
64,192,74528,1,0,0:0:0:0:
320,192,74622,1,0,0:0:0:0:
448,192,74622,1,0,0:0:0:0:
192,192,74716,1,0,0:0:0:0:
64,192,74716,1,0,0:0:0:0:
448,192,74716,1,0,0:0:0:0:
320,192,74809,1,0,0:0:0:0:
448,192,74903,1,0,0:0:0:0:
64,192,74903,1,0,0:0:0:0:
192,192,74997,1,0,0:0:0:0:
64,192,75091,1,0,0:0:0:0:
448,192,75091,1,0,0:0:0:0:
320,192,75091,1,0,0:0:0:0:
320,192,75184,1,0,0:0:0:0:
192,192,75278,1,0,0:0:0:0:
64,192,75278,1,0,0:0:0:0:
192,192,75372,1,0,0:0:0:0:
64,192,75372,1,0,0:0:0:0:
448,192,75466,1,0,0:0:0:0:
320,192,75466,1,0,0:0:0:0:
320,192,75559,1,0,0:0:0:0:
192,192,75653,1,0,0:0:0:0:
64,192,75653,1,0,0:0:0:0:
64,192,75747,1,0,0:0:0:0:
192,192,75747,1,0,0:0:0:0:
320,192,75841,1,0,0:0:0:0:
448,192,75841,1,0,0:0:0:0:
64,192,75841,1,0,0:0:0:0:
448,192,75934,1,0,0:0:0:0:
320,192,76028,1,0,0:0:0:0:
192,192,76028,1,0,0:0:0:0:
192,192,76122,1,0,0:0:0:0:
320,192,76216,1,0,0:0:0:0:
64,192,76216,1,0,0:0:0:0:
320,192,76309,1,0,0:0:0:0:
192,192,76403,1,0,0:0:0:0:
64,192,76403,1,0,0:0:0:0:
64,192,76497,1,0,0:0:0:0:
192,192,76591,1,0,0:0:0:0:
448,192,76591,1,0,0:0:0:0:
320,192,76591,1,0,0:0:0:0:
320,192,76684,1,0,0:0:0:0:
448,192,76684,1,0,0:0:0:0:
64,192,76778,1,0,0:0:0:0:
192,192,76778,1,0,0:0:0:0:
192,192,76872,1,0,0:0:0:0:
320,192,76872,1,0,0:0:0:0:
320,192,76966,1,0,0:0:0:0:
64,192,76966,1,0,0:0:0:0:
448,192,76966,1,0,0:0:0:0:
192,192,77059,1,0,0:0:0:0:
448,192,77153,1,0,0:0:0:0:
320,192,77153,1,0,0:0:0:0:
192,192,77247,1,0,0:0:0:0:
64,192,77247,1,0,0:0:0:0:
448,192,77341,1,0,0:0:0:0:
320,192,77341,1,0,0:0:0:0:
64,192,77341,1,0,0:0:0:0:
64,192,77434,1,0,0:0:0:0:
192,192,77434,1,0,0:0:0:0:
320,192,77528,1,0,0:0:0:0:
448,192,77528,1,0,0:0:0:0:
192,192,77622,1,0,0:0:0:0:
64,192,77622,1,0,0:0:0:0:
320,192,77716,1,0,0:0:0:0:
448,192,77716,1,0,0:0:0:0:
64,192,77716,1,0,0:0:0:0:
192,192,77809,1,0,0:0:0:0:
64,192,77903,1,0,0:0:0:0:
448,192,77903,1,0,0:0:0:0:
320,192,77997,1,0,0:0:0:0:
192,192,78091,1,0,0:0:0:0:
64,192,78091,1,0,0:0:0:0:
320,192,78184,1,0,0:0:0:0:
448,192,78184,1,0,0:0:0:0:
448,192,78278,1,0,0:0:0:0:
192,192,78278,1,0,0:0:0:0:
320,192,78372,1,0,0:0:0:0:
64,192,78372,1,0,0:0:0:0:
448,192,78466,1,0,0:0:0:0:
192,192,78466,1,0,0:0:0:0:
64,192,78512,1,0,0:0:0:0:
320,192,78559,1,0,0:0:0:0:
192,192,78606,1,0,0:0:0:0:
64,192,78653,1,0,0:0:0:0:
448,192,78653,1,0,0:0:0:0:
320,192,78700,1,0,0:0:0:0:
192,192,78747,1,0,0:0:0:0:
448,192,78794,1,0,0:0:0:0:
320,192,78841,1,0,0:0:0:0:
64,192,78841,1,0,0:0:0:0:
192,192,78934,1,0,0:0:0:0:
320,192,79028,1,0,0:0:0:0:
448,192,79028,1,0,0:0:0:0:
192,192,79122,1,0,0:0:0:0:
64,192,79122,1,0,0:0:0:0:
320,192,79216,1,0,0:0:0:0:
448,192,79216,1,0,0:0:0:0:
64,192,79216,1,0,0:0:0:0:
448,192,79309,1,0,0:0:0:0:
320,192,79309,1,0,0:0:0:0:
192,192,79403,1,0,0:0:0:0:
64,192,79403,1,0,0:0:0:0:
320,192,79403,1,0,0:0:0:0:
64,192,79497,1,0,0:0:0:0:
192,192,79497,1,0,0:0:0:0:
192,192,79591,5,0,0:0:0:0:
64,192,79591,1,0,0:0:0:0:
448,192,79591,1,0,0:0:0:0:
320,192,79591,1,0,0:0:0:0:
320,192,79778,1,0,0:0:0:0:
448,192,79778,1,0,0:0:0:0:
448,192,79872,1,0,0:0:0:0:
64,192,79872,1,0,0:0:0:0:
192,192,79872,1,0,0:0:0:0:
64,192,79966,1,0,0:0:0:0:
192,192,79966,1,0,0:0:0:0:
320,192,79966,1,0,0:0:0:0:
448,192,79966,1,0,0:0:0:0:
64,192,80059,1,0,0:0:0:0:
192,192,80059,1,0,0:0:0:0:
64,192,80153,1,0,0:0:0:0:
192,192,80153,1,0,0:0:0:0:
320,192,80153,1,0,0:0:0:0:
448,192,80153,1,0,0:0:0:0:
448,192,80341,1,0,0:0:0:0:
64,192,80341,1,0,0:0:0:0:
320,192,80341,1,0,0:0:0:0:
192,192,80528,1,0,0:0:0:0:
320,192,80528,1,0,0:0:0:0:
64,192,80716,1,0,0:0:0:0:
192,192,80716,1,0,0:0:0:0:
448,192,80716,1,0,0:0:0:0:
320,192,80903,1,0,0:0:0:0:
448,192,80903,1,0,0:0:0:0:
64,192,81091,1,0,0:0:0:0:
448,192,81091,1,0,0:0:0:0:
192,192,81091,1,0,0:0:0:0:
448,192,81278,1,0,0:0:0:0:
320,192,81278,1,0,0:0:0:0:
192,192,81278,1,0,0:0:0:0:
64,192,81278,1,0,0:0:0:0:
448,192,81372,1,0,0:0:0:0:
320,192,81372,1,0,0:0:0:0:
448,192,81466,1,0,0:0:0:0:
192,192,81466,1,0,0:0:0:0:
64,192,81466,1,0,0:0:0:0:
320,192,81466,1,0,0:0:0:0:
192,192,81559,1,0,0:0:0:0:
64,192,81559,1,0,0:0:0:0:
448,192,81653,1,0,0:0:0:0:
192,192,81653,1,0,0:0:0:0:
64,192,81653,1,0,0:0:0:0:
320,192,81653,1,0,0:0:0:0:
320,192,81747,1,0,0:0:0:0:
448,192,81747,1,0,0:0:0:0:
192,192,81841,1,0,0:0:0:0:
448,192,81841,1,0,0:0:0:0:
320,192,81841,1,0,0:0:0:0:
64,192,81841,1,0,0:0:0:0:
64,192,82028,1,0,0:0:0:0:
320,192,82028,1,0,0:0:0:0:
192,192,82122,1,0,0:0:0:0:
64,192,82122,1,0,0:0:0:0:
448,192,82122,1,0,0:0:0:0:
448,192,82216,1,0,0:0:0:0:
320,192,82216,1,0,0:0:0:0:
192,192,82216,1,0,0:0:0:0:
64,192,82216,1,0,0:0:0:0:
64,192,82403,1,0,0:0:0:0:
448,192,82403,1,0,0:0:0:0:
320,192,82403,1,0,0:0:0:0:
320,192,82497,1,0,0:0:0:0:
192,192,82497,1,0,0:0:0:0:
192,192,82591,1,0,0:0:0:0:
64,192,82591,1,0,0:0:0:0:
448,192,82591,1,0,0:0:0:0:
64,192,82778,1,0,0:0:0:0:
320,192,82778,1,0,0:0:0:0:
192,192,82966,1,0,0:0:0:0:
448,192,82966,1,0,0:0:0:0:
320,192,82966,1,0,0:0:0:0:
448,192,83153,1,0,0:0:0:0:
64,192,83153,1,0,0:0:0:0:
320,192,83341,1,0,0:0:0:0:
192,192,83341,1,0,0:0:0:0:
64,192,83341,1,0,0:0:0:0:
192,192,83528,1,0,0:0:0:0:
448,192,83528,1,0,0:0:0:0:
320,192,83716,1,0,0:0:0:0:
448,192,83716,1,0,0:0:0:0:
64,192,83716,1,0,0:0:0:0:
192,192,83903,1,0,0:0:0:0:
64,192,83903,1,0,0:0:0:0:
320,192,83997,1,0,0:0:0:0:
448,192,83997,1,0,0:0:0:0:
448,192,84091,1,0,0:0:0:0:
192,192,84091,1,0,0:0:0:0:
64,192,84091,1,0,0:0:0:0:
320,192,84231,1,0,0:0:0:0:
448,192,84372,1,0,0:0:0:0:
64,192,84372,1,0,0:0:0:0:
192,192,84466,1,0,0:0:0:0:
64,192,84466,1,0,0:0:0:0:
448,192,84466,1,0,0:0:0:0:
320,192,84653,1,0,0:0:0:0:
64,192,84653,1,0,0:0:0:0:
320,192,84841,1,0,0:0:0:0:
192,192,84841,1,0,0:0:0:0:
320,192,84934,1,0,0:0:0:0:
320,192,85028,1,0,0:0:0:0:
192,192,85028,1,0,0:0:0:0:
192,192,85122,1,0,0:0:0:0:
320,192,85216,1,0,0:0:0:0:
192,192,85216,1,0,0:0:0:0:
448,192,85309,1,0,0:0:0:0:
64,192,85403,1,0,0:0:0:0:
192,192,85403,1,0,0:0:0:0:
448,192,85497,1,0,0:0:0:0:
320,192,85591,1,0,0:0:0:0:
192,192,85591,1,0,0:0:0:0:
64,192,85591,1,0,0:0:0:0:
448,192,85778,1,0,0:0:0:0:
320,192,85778,1,0,0:0:0:0:
64,192,85872,1,0,0:0:0:0:
448,192,85872,1,0,0:0:0:0:
320,192,85966,1,0,0:0:0:0:
64,192,85966,1,0,0:0:0:0:
192,192,85966,1,0,0:0:0:0:
192,192,86059,1,0,0:0:0:0:
320,192,86059,1,0,0:0:0:0:
448,192,86153,1,0,0:0:0:0:
192,192,86153,1,0,0:0:0:0:
64,192,86247,1,0,0:0:0:0:
192,192,86341,1,0,0:0:0:0:
320,192,86341,1,0,0:0:0:0:
448,192,86341,1,0,0:0:0:0:
64,192,86434,1,0,0:0:0:0:
448,192,86528,1,0,0:0:0:0:
320,192,86528,1,0,0:0:0:0:
192,192,86622,1,0,0:0:0:0:
64,192,86716,1,0,0:0:0:0:
448,192,86716,1,0,0:0:0:0:
320,192,86716,1,0,0:0:0:0:
192,192,86903,1,0,0:0:0:0:
448,192,86903,1,0,0:0:0:0:
320,192,87091,1,0,0:0:0:0:
192,192,87091,1,0,0:0:0:0:
64,192,87091,1,0,0:0:0:0:
448,192,87278,1,0,0:0:0:0:
320,192,87278,1,0,0:0:0:0:
64,192,87278,1,0,0:0:0:0:
192,192,87372,1,0,0:0:0:0:
64,192,87372,1,0,0:0:0:0:
448,192,87466,1,0,0:0:0:0:
320,192,87466,1,0,0:0:0:0:
320,192,87559,1,0,0:0:0:0:
64,192,87559,1,0,0:0:0:0:
192,192,87653,1,0,0:0:0:0:
64,192,87653,1,0,0:0:0:0:
448,192,87747,1,0,0:0:0:0:
320,192,87747,1,0,0:0:0:0:
192,192,87841,1,0,0:0:0:0:
64,192,87841,1,0,0:0:0:0:
448,192,87841,1,0,0:0:0:0:
320,192,87934,1,0,0:0:0:0:
448,192,88028,1,0,0:0:0:0:
64,192,88028,1,0,0:0:0:0:
192,192,88122,1,0,0:0:0:0:
448,192,88216,1,0,0:0:0:0:
320,192,88216,1,0,0:0:0:0:
64,192,88216,1,0,0:0:0:0:
448,192,88403,1,0,0:0:0:0:
320,192,88403,1,0,0:0:0:0:
192,192,88403,1,0,0:0:0:0:
64,192,88497,1,0,0:0:0:0:
320,192,88497,1,0,0:0:0:0:
192,192,88591,1,0,0:0:0:0:
64,192,88591,1,0,0:0:0:0:
448,192,88591,1,0,0:0:0:0:
320,192,88684,1,0,0:0:0:0:
64,192,88778,1,0,0:0:0:0:
192,192,88778,1,0,0:0:0:0:
448,192,88872,1,0,0:0:0:0:
320,192,88966,1,0,0:0:0:0:
192,192,88966,1,0,0:0:0:0:
64,192,89059,1,0,0:0:0:0:
448,192,89153,1,0,0:0:0:0:
320,192,89153,1,0,0:0:0:0:
192,192,89247,1,0,0:0:0:0:
64,192,89341,1,0,0:0:0:0:
320,192,89341,1,0,0:0:0:0:
448,192,89341,1,0,0:0:0:0:
192,192,89434,1,0,0:0:0:0:
64,192,89528,1,0,0:0:0:0:
448,192,89528,1,0,0:0:0:0:
320,192,89622,1,0,0:0:0:0:
192,192,89716,1,0,0:0:0:0:
64,192,89716,1,0,0:0:0:0:
448,192,89716,1,0,0:0:0:0:
320,192,89903,1,0,0:0:0:0:
192,192,89903,1,0,0:0:0:0:
64,192,89997,1,0,0:0:0:0:
320,192,89997,1,0,0:0:0:0:
192,192,90091,1,0,0:0:0:0:
64,192,90091,1,0,0:0:0:0:
448,192,90091,1,0,0:0:0:0:
448,192,90372,1,0,0:0:0:0:
192,192,90372,1,0,0:0:0:0:
192,192,90653,1,0,0:0:0:0:
448,192,90653,1,0,0:0:0:0:
320,192,90841,1,0,0:0:0:0:
448,192,90841,1,0,0:0:0:0:
64,192,90841,1,0,0:0:0:0:
64,192,90934,1,0,0:0:0:0:
192,192,90934,1,0,0:0:0:0:
320,192,91028,1,0,0:0:0:0:
448,192,91028,1,0,0:0:0:0:
64,192,91122,1,0,0:0:0:0:
192,192,91122,1,0,0:0:0:0:
448,192,91216,1,0,0:0:0:0:
320,192,91216,1,0,0:0:0:0:
64,192,91216,1,0,0:0:0:0:
320,192,91309,1,0,0:0:0:0:
192,192,91309,1,0,0:0:0:0:
448,192,91309,1,0,0:0:0:0:
64,192,91403,1,0,0:0:0:0:
448,192,91403,1,0,0:0:0:0:
320,192,91497,1,0,0:0:0:0:
192,192,91591,1,0,0:0:0:0:
64,192,91591,1,0,0:0:0:0:
448,192,91591,1,0,0:0:0:0:
192,192,91684,1,0,0:0:0:0:
320,192,91684,1,0,0:0:0:0:
192,192,91778,1,0,0:0:0:0:
448,192,91778,1,0,0:0:0:0:
192,192,91872,1,0,0:0:0:0:
64,192,91872,1,0,0:0:0:0:
192,192,91966,1,0,0:0:0:0:
320,192,91966,1,0,0:0:0:0:
448,192,91966,1,0,0:0:0:0:
320,192,92059,1,0,0:0:0:0:
448,192,92153,1,0,0:0:0:0:
64,192,92153,1,0,0:0:0:0:
192,192,92247,1,0,0:0:0:0:
64,192,92341,1,0,0:0:0:0:
448,192,92341,1,0,0:0:0:0:
320,192,92341,1,0,0:0:0:0:
320,192,92434,1,0,0:0:0:0:
192,192,92434,1,0,0:0:0:0:
320,192,92528,1,0,0:0:0:0:
64,192,92528,1,0,0:0:0:0:
320,192,92622,1,0,0:0:0:0:
448,192,92622,1,0,0:0:0:0:
320,192,92716,1,0,0:0:0:0:
192,192,92716,1,0,0:0:0:0:
64,192,92716,1,0,0:0:0:0:
192,192,92809,1,0,0:0:0:0:
64,192,92903,1,0,0:0:0:0:
448,192,92903,1,0,0:0:0:0:
320,192,92997,1,0,0:0:0:0:
192,192,93091,1,0,0:0:0:0:
64,192,93091,1,0,0:0:0:0:
64,192,93184,1,0,0:0:0:0:
192,192,93184,1,0,0:0:0:0:
448,192,93278,1,0,0:0:0:0:
320,192,93278,1,0,0:0:0:0:
320,192,93372,1,0,0:0:0:0:
448,192,93372,1,0,0:0:0:0:
64,192,93466,1,0,0:0:0:0:
448,192,93466,1,0,0:0:0:0:
192,192,93466,1,0,0:0:0:0:
64,192,93559,1,0,0:0:0:0:
192,192,93559,1,0,0:0:0:0:
320,192,93653,1,0,0:0:0:0:
448,192,93653,1,0,0:0:0:0:
320,192,93747,1,0,0:0:0:0:
448,192,93747,1,0,0:0:0:0:
320,192,93841,1,0,0:0:0:0:
192,192,93841,1,0,0:0:0:0:
64,192,93841,1,0,0:0:0:0:
448,192,93934,1,0,0:0:0:0:
192,192,94028,1,0,0:0:0:0:
64,192,94028,1,0,0:0:0:0:
320,192,94122,1,0,0:0:0:0:
448,192,94216,1,0,0:0:0:0:
64,192,94216,1,0,0:0:0:0:
192,192,94309,1,0,0:0:0:0:
320,192,94403,1,0,0:0:0:0:
448,192,94403,1,0,0:0:0:0:
64,192,94403,1,0,0:0:0:0:
192,192,94497,1,0,0:0:0:0:
64,192,94497,1,0,0:0:0:0:
448,192,94591,1,0,0:0:0:0:
192,192,94591,1,0,0:0:0:0:
64,192,94591,1,0,0:0:0:0:
448,192,94684,1,0,0:0:0:0:
320,192,94684,1,0,0:0:0:0:
448,192,94778,1,0,0:0:0:0:
192,192,94778,1,0,0:0:0:0:
64,192,94872,1,0,0:0:0:0:
448,192,94872,1,0,0:0:0:0:
192,192,94966,1,0,0:0:0:0:
320,192,94966,1,0,0:0:0:0:
64,192,95059,1,0,0:0:0:0:
448,192,95153,1,0,0:0:0:0:
320,192,95153,1,0,0:0:0:0:
192,192,95247,1,0,0:0:0:0:
64,192,95341,1,0,0:0:0:0:
448,192,95341,1,0,0:0:0:0:
64,192,95434,1,0,0:0:0:0:
320,192,95434,1,0,0:0:0:0:
64,192,95528,1,0,0:0:0:0:
448,192,95528,1,0,0:0:0:0:
64,192,95622,1,0,0:0:0:0:
192,192,95622,1,0,0:0:0:0:
320,192,95716,1,0,0:0:0:0:
448,192,95716,1,0,0:0:0:0:
320,192,95809,1,0,0:0:0:0:
192,192,95903,1,0,0:0:0:0:
64,192,95903,1,0,0:0:0:0:
320,192,95997,1,0,0:0:0:0:
448,192,95997,1,0,0:0:0:0:
192,192,96091,1,0,0:0:0:0:
64,192,96091,1,0,0:0:0:0:
448,192,96091,1,0,0:0:0:0:
448,192,96184,1,0,0:0:0:0:
320,192,96184,1,0,0:0:0:0:
192,192,96278,1,0,0:0:0:0:
64,192,96278,1,0,0:0:0:0:
64,192,96372,1,0,0:0:0:0:
192,192,96372,1,0,0:0:0:0:
448,192,96372,1,0,0:0:0:0:
320,192,96466,1,0,0:0:0:0:
192,192,96466,1,0,0:0:0:0:
448,192,96559,1,0,0:0:0:0:
192,192,96653,1,0,0:0:0:0:
64,192,96653,1,0,0:0:0:0:
320,192,96747,1,0,0:0:0:0:
448,192,96747,1,0,0:0:0:0:
64,192,96747,1,0,0:0:0:0:
64,192,96841,1,0,0:0:0:0:
192,192,96841,1,0,0:0:0:0:
320,192,96841,1,0,0:0:0:0:
448,192,96841,1,0,0:0:0:0:
192,192,96934,1,0,0:0:0:0:
448,192,96934,1,0,0:0:0:0:
320,192,97028,1,0,0:0:0:0:
192,192,97122,1,0,0:0:0:0:
64,192,97122,1,0,0:0:0:0:
320,192,97216,1,0,0:0:0:0:
448,192,97216,1,0,0:0:0:0:
192,192,97309,1,0,0:0:0:0:
64,192,97403,1,0,0:0:0:0:
448,192,97403,1,0,0:0:0:0:
320,192,97497,1,0,0:0:0:0:
192,192,97591,1,0,0:0:0:0:
64,192,97591,1,0,0:0:0:0:
448,192,97591,1,0,0:0:0:0:
192,192,97684,1,0,0:0:0:0:
64,192,97684,1,0,0:0:0:0:
64,192,97778,1,0,0:0:0:0:
192,192,97778,1,0,0:0:0:0:
320,192,97778,1,0,0:0:0:0:
192,192,97872,1,0,0:0:0:0:
64,192,97872,1,0,0:0:0:0:
448,192,97872,1,0,0:0:0:0:
64,192,97966,1,0,0:0:0:0:
192,192,97966,1,0,0:0:0:0:
320,192,97966,1,0,0:0:0:0:
448,192,98059,1,0,0:0:0:0:
64,192,98153,1,0,0:0:0:0:
320,192,98153,1,0,0:0:0:0:
192,192,98247,1,0,0:0:0:0:
320,192,98341,1,0,0:0:0:0:
448,192,98341,1,0,0:0:0:0:
64,192,98341,1,0,0:0:0:0:
448,192,98434,1,0,0:0:0:0:
320,192,98434,1,0,0:0:0:0:
320,192,98528,1,0,0:0:0:0:
448,192,98528,1,0,0:0:0:0:
192,192,98528,1,0,0:0:0:0:
448,192,98622,1,0,0:0:0:0:
320,192,98622,1,0,0:0:0:0:
64,192,98622,1,0,0:0:0:0:
320,192,98716,1,0,0:0:0:0:
448,192,98716,1,0,0:0:0:0:
192,192,98716,1,0,0:0:0:0:
64,192,98809,1,0,0:0:0:0:
192,192,98903,1,0,0:0:0:0:
448,192,98903,1,0,0:0:0:0:
320,192,98997,1,0,0:0:0:0:
192,192,99091,1,0,0:0:0:0:
64,192,99091,1,0,0:0:0:0:
448,192,99091,1,0,0:0:0:0:
192,192,99184,1,0,0:0:0:0:
64,192,99184,1,0,0:0:0:0:
320,192,99278,1,0,0:0:0:0:
448,192,99278,1,0,0:0:0:0:
448,192,99372,1,0,0:0:0:0:
320,192,99372,1,0,0:0:0:0:
192,192,99466,1,0,0:0:0:0:
64,192,99466,1,0,0:0:0:0:
448,192,99466,1,0,0:0:0:0:
192,192,99559,1,0,0:0:0:0:
64,192,99559,1,0,0:0:0:0:
320,192,99653,1,0,0:0:0:0:
448,192,99653,1,0,0:0:0:0:
320,192,99747,1,0,0:0:0:0:
448,192,99747,1,0,0:0:0:0:
320,192,99841,1,0,0:0:0:0:
192,192,99841,1,0,0:0:0:0:
64,192,99841,1,0,0:0:0:0:
448,192,99934,1,0,0:0:0:0:
192,192,100028,1,0,0:0:0:0:
64,192,100028,1,0,0:0:0:0:
320,192,100122,1,0,0:0:0:0:
448,192,100122,1,0,0:0:0:0:
192,192,100216,1,0,0:0:0:0:
64,192,100216,1,0,0:0:0:0:
448,192,100309,1,0,0:0:0:0:
192,192,100309,1,0,0:0:0:0:
64,192,100403,1,0,0:0:0:0:
448,192,100403,1,0,0:0:0:0:
320,192,100497,1,0,0:0:0:0:
192,192,100591,1,0,0:0:0:0:
64,192,100591,1,0,0:0:0:0:
448,192,100591,1,0,0:0:0:0:
64,192,100684,1,0,0:0:0:0:
192,192,100684,1,0,0:0:0:0:
320,192,100684,1,0,0:0:0:0:
192,192,100778,1,0,0:0:0:0:
64,192,100778,1,0,0:0:0:0:
448,192,100778,1,0,0:0:0:0:
64,192,100872,1,0,0:0:0:0:
192,192,100872,1,0,0:0:0:0:
320,192,100872,1,0,0:0:0:0:
192,192,100966,1,0,0:0:0:0:
64,192,100966,1,0,0:0:0:0:
448,192,100966,1,0,0:0:0:0:
320,192,101059,1,0,0:0:0:0:
64,192,101153,1,0,0:0:0:0:
192,192,101153,1,0,0:0:0:0:
192,192,101247,1,0,0:0:0:0:
320,192,101341,1,0,0:0:0:0:
448,192,101341,1,0,0:0:0:0:
64,192,101341,1,0,0:0:0:0:
192,192,101434,1,0,0:0:0:0:
320,192,101434,1,0,0:0:0:0:
448,192,101434,1,0,0:0:0:0:
64,192,101528,1,0,0:0:0:0:
448,192,101528,1,0,0:0:0:0:
320,192,101528,1,0,0:0:0:0:
192,192,101622,1,0,0:0:0:0:
320,192,101622,1,0,0:0:0:0:
448,192,101622,1,0,0:0:0:0:
64,192,101716,1,0,0:0:0:0:
448,192,101716,1,0,0:0:0:0:
320,192,101716,1,0,0:0:0:0:
192,192,101809,1,0,0:0:0:0:
320,192,101903,1,0,0:0:0:0:
448,192,101903,1,0,0:0:0:0:
320,192,101997,1,0,0:0:0:0:
64,192,102091,1,0,0:0:0:0:
192,192,102091,1,0,0:0:0:0:
448,192,102091,1,0,0:0:0:0:
192,192,102184,1,0,0:0:0:0:
64,192,102184,1,0,0:0:0:0:
64,192,102278,1,0,0:0:0:0:
320,192,102278,1,0,0:0:0:0:
448,192,102278,1,0,0:0:0:0:
448,192,102372,1,0,0:0:0:0:
192,192,102372,1,0,0:0:0:0:
320,192,102466,1,0,0:0:0:0:
64,192,102466,1,0,0:0:0:0:
448,192,102512,1,0,0:0:0:0:
192,192,102559,1,0,0:0:0:0:
320,192,102606,1,0,0:0:0:0:
448,192,102653,1,0,0:0:0:0:
64,192,102653,1,0,0:0:0:0:
192,192,102700,1,0,0:0:0:0:
320,192,102747,1,0,0:0:0:0:
64,192,102794,1,0,0:0:0:0:
192,192,102841,1,0,0:0:0:0:
448,192,102841,1,0,0:0:0:0:
320,192,102934,1,0,0:0:0:0:
192,192,103028,1,0,0:0:0:0:
64,192,103028,1,0,0:0:0:0:
448,192,103122,1,0,0:0:0:0:
320,192,103122,1,0,0:0:0:0:
192,192,103216,1,0,0:0:0:0:
64,192,103216,1,0,0:0:0:0:
448,192,103216,1,0,0:0:0:0:
192,192,103309,1,0,0:0:0:0:
64,192,103309,1,0,0:0:0:0:
320,192,103403,1,0,0:0:0:0:
448,192,103403,1,0,0:0:0:0:
448,192,103497,1,0,0:0:0:0:
320,192,103497,1,0,0:0:0:0:
64,192,103497,1,0,0:0:0:0:
192,192,103591,1,0,0:0:0:0:
320,192,103591,1,0,0:0:0:0:
448,192,103591,1,0,0:0:0:0:
64,192,103778,1,0,0:0:0:0:
192,192,103966,1,0,0:0:0:0:
320,192,103966,1,0,0:0:0:0:
448,192,104153,1,0,0:0:0:0:
64,192,104153,1,0,0:0:0:0:
320,192,104153,1,0,0:0:0:0:
192,192,104341,1,0,0:0:0:0:
64,192,104341,1,0,0:0:0:0:
448,192,104341,1,0,0:0:0:0:
320,192,104341,1,0,0:0:0:0:
192,192,104434,1,0,0:0:0:0:
64,192,104434,1,0,0:0:0:0:
448,192,104528,1,0,0:0:0:0:
320,192,104528,1,0,0:0:0:0:
320,192,104716,1,0,0:0:0:0:
192,192,104716,1,0,0:0:0:0:
320,192,104809,1,0,0:0:0:0:
192,192,104903,1,0,0:0:0:0:
64,192,104903,1,0,0:0:0:0:
448,192,104903,1,0,0:0:0:0:
192,192,104997,1,0,0:0:0:0:
64,192,104997,1,0,0:0:0:0:
64,192,105091,1,0,0:0:0:0:
192,192,105091,1,0,0:0:0:0:
448,192,105091,1,0,0:0:0:0:
320,192,105091,1,0,0:0:0:0:
320,192,105278,1,0,0:0:0:0:
448,192,105278,1,0,0:0:0:0:
320,192,105372,1,0,0:0:0:0:
64,192,105372,1,0,0:0:0:0:
320,192,105466,1,0,0:0:0:0:
64,192,105466,1,0,0:0:0:0:
192,192,105466,1,0,0:0:0:0:
320,192,105653,1,0,0:0:0:0:
448,192,105653,1,0,0:0:0:0:
192,192,105747,1,0,0:0:0:0:
64,192,105747,1,0,0:0:0:0:
448,192,105841,1,0,0:0:0:0:
320,192,105841,1,0,0:0:0:0:
64,192,105841,1,0,0:0:0:0:
192,192,105841,1,0,0:0:0:0:
320,192,105934,1,0,0:0:0:0:
448,192,105934,1,0,0:0:0:0:
192,192,106028,1,0,0:0:0:0:
64,192,106028,1,0,0:0:0:0:
448,192,106028,1,0,0:0:0:0:
320,192,106122,1,0,0:0:0:0:
64,192,106216,1,0,0:0:0:0:
192,192,106216,1,0,0:0:0:0:
448,192,106216,1,0,0:0:0:0:
320,192,106309,1,0,0:0:0:0:
64,192,106403,1,0,0:0:0:0:
192,192,106403,1,0,0:0:0:0:
320,192,106497,1,0,0:0:0:0:
448,192,106497,1,0,0:0:0:0:
64,192,106497,1,0,0:0:0:0:
192,192,106591,1,0,0:0:0:0:
64,192,106591,1,0,0:0:0:0:
448,192,106591,1,0,0:0:0:0:
320,192,106591,1,0,0:0:0:0:
192,192,106778,1,0,0:0:0:0:
64,192,106778,1,0,0:0:0:0:
320,192,106872,1,0,0:0:0:0:
448,192,106872,1,0,0:0:0:0:
192,192,106966,1,0,0:0:0:0:
64,192,106966,1,0,0:0:0:0:
448,192,106966,1,0,0:0:0:0:
320,192,107153,1,0,0:0:0:0:
448,192,107153,1,0,0:0:0:0:
64,192,107153,1,0,0:0:0:0:
64,192,107341,1,0,0:0:0:0:
192,192,107341,1,0,0:0:0:0:
320,192,107341,1,0,0:0:0:0:
448,192,107341,1,0,0:0:0:0:
192,192,107434,1,0,0:0:0:0:
320,192,107528,1,0,0:0:0:0:
448,192,107528,1,0,0:0:0:0:
192,192,107716,1,0,0:0:0:0:
64,192,107716,1,0,0:0:0:0:
320,192,107716,1,0,0:0:0:0:
192,192,107809,1,0,0:0:0:0:
64,192,107903,1,0,0:0:0:0:
448,192,107903,1,0,0:0:0:0:
320,192,107903,1,0,0:0:0:0:
320,192,107997,1,0,0:0:0:0:
448,192,107997,1,0,0:0:0:0:
448,192,108091,1,0,0:0:0:0:
320,192,108091,1,0,0:0:0:0:
64,192,108091,1,0,0:0:0:0:
192,192,108091,1,0,0:0:0:0:
192,192,108184,1,0,0:0:0:0:
320,192,108278,1,0,0:0:0:0:
448,192,108325,1,0,0:0:0:0:
64,192,108325,1,0,0:0:0:0:
192,192,108372,1,0,0:0:0:0:
448,192,108466,1,0,0:0:0:0:
320,192,108466,1,0,0:0:0:0:
64,192,108466,1,0,0:0:0:0:
192,192,108559,1,0,0:0:0:0:
64,192,108653,1,0,0:0:0:0:
448,192,108653,1,0,0:0:0:0:
320,192,108747,1,0,0:0:0:0:
192,192,108794,1,0,0:0:0:0:
64,192,108841,1,0,0:0:0:0:
448,192,108841,1,0,0:0:0:0:
320,192,108934,1,0,0:0:0:0:
192,192,108934,1,0,0:0:0:0:
320,192,109028,1,0,0:0:0:0:
64,192,109028,1,0,0:0:0:0:
448,192,109122,1,0,0:0:0:0:
192,192,109216,1,0,0:0:0:0:
64,192,109216,1,0,0:0:0:0:
320,192,109262,1,0,0:0:0:0:
448,192,109309,1,0,0:0:0:0:
64,192,109356,1,0,0:0:0:0:
320,192,109403,1,0,0:0:0:0:
192,192,109450,1,0,0:0:0:0:
64,192,109497,1,0,0:0:0:0:
320,192,109544,1,0,0:0:0:0:
192,192,109591,1,0,0:0:0:0:
448,192,109591,1,0,0:0:0:0:
64,192,109591,1,0,0:0:0:0:
320,192,109684,1,0,0:0:0:0:
64,192,109778,1,0,0:0:0:0:
192,192,109872,1,0,0:0:0:0:
320,192,109966,1,0,0:0:0:0:
64,192,109966,1,0,0:0:0:0:
192,192,109966,1,0,0:0:0:0:
448,192,109966,1,0,0:0:0:0:
320,192,110059,1,0,0:0:0:0:
192,192,110153,1,0,0:0:0:0:
448,192,110247,1,0,0:0:0:0:
320,192,110247,1,0,0:0:0:0:
448,192,110341,1,0,0:0:0:0:
192,192,110341,1,0,0:0:0:0:
64,192,110341,1,0,0:0:0:0:
320,192,110434,1,0,0:0:0:0:
192,192,110528,1,0,0:0:0:0:
448,192,110622,1,0,0:0:0:0:
64,192,110622,1,0,0:0:0:0:
192,192,110716,1,0,0:0:0:0:
64,192,110716,1,0,0:0:0:0:
448,192,110716,1,0,0:0:0:0:
320,192,110716,1,0,0:0:0:0:
192,192,110809,1,0,0:0:0:0:
320,192,110903,1,0,0:0:0:0:
192,192,110997,1,0,0:0:0:0:
64,192,110997,1,0,0:0:0:0:
448,192,111091,1,0,0:0:0:0:
320,192,111091,1,0,0:0:0:0:
64,192,111091,1,0,0:0:0:0:
192,192,111184,1,0,0:0:0:0:
448,192,111278,1,0,0:0:0:0:
320,192,111278,1,0,0:0:0:0:
64,192,111372,1,0,0:0:0:0:
192,192,111372,1,0,0:0:0:0:
192,192,111466,1,0,0:0:0:0:
64,192,111466,1,0,0:0:0:0:
448,192,111466,1,0,0:0:0:0:
320,192,111466,1,0,0:0:0:0:
448,192,111559,1,0,0:0:0:0:
64,192,111653,1,0,0:0:0:0:
192,192,111653,1,0,0:0:0:0:
448,192,111747,1,0,0:0:0:0:
320,192,111747,1,0,0:0:0:0:
320,192,111841,1,0,0:0:0:0:
192,192,111841,1,0,0:0:0:0:
64,192,111841,1,0,0:0:0:0:
448,192,111934,1,0,0:0:0:0:
192,192,112028,1,0,0:0:0:0:
64,192,112028,1,0,0:0:0:0:
320,192,112122,1,0,0:0:0:0:
448,192,112216,1,0,0:0:0:0:
320,192,112216,1,0,0:0:0:0:
192,192,112216,1,0,0:0:0:0:
64,192,112216,1,0,0:0:0:0:
448,192,112309,1,0,0:0:0:0:
192,192,112403,1,0,0:0:0:0:
64,192,112403,1,0,0:0:0:0:
320,192,112497,1,0,0:0:0:0:
448,192,112497,1,0,0:0:0:0:
320,192,112591,1,0,0:0:0:0:
192,192,112591,1,0,0:0:0:0:
64,192,112591,1,0,0:0:0:0:
64,192,112684,1,0,0:0:0:0:
320,192,112778,1,0,0:0:0:0:
320,192,112872,1,0,0:0:0:0:
320,192,112966,1,0,0:0:0:0:
64,192,112966,1,0,0:0:0:0:
448,192,112966,1,0,0:0:0:0:
320,192,113153,1,0,0:0:0:0:
192,192,113153,1,0,0:0:0:0:
448,192,113341,1,0,0:0:0:0:
320,192,113341,1,0,0:0:0:0:
64,192,113434,1,0,0:0:0:0:
192,192,113528,1,0,0:0:0:0:
192,192,113622,1,0,0:0:0:0:
320,192,113716,1,0,0:0:0:0:
448,192,113716,1,0,0:0:0:0:
64,192,113716,1,0,0:0:0:0:
192,192,113809,1,0,0:0:0:0:
448,192,113903,1,0,0:0:0:0:
64,192,113903,1,0,0:0:0:0:
320,192,113997,1,0,0:0:0:0:
448,192,113997,1,0,0:0:0:0:
64,192,114091,1,0,0:0:0:0:
192,192,114091,1,0,0:0:0:0:
320,192,114091,1,0,0:0:0:0:
64,192,114184,1,0,0:0:0:0:
192,192,114184,1,0,0:0:0:0:
320,192,114278,1,0,0:0:0:0:
448,192,114278,1,0,0:0:0:0:
320,192,114372,1,0,0:0:0:0:
448,192,114372,1,0,0:0:0:0:
64,192,114466,1,0,0:0:0:0:
192,192,114489,1,0,0:0:0:0:
320,192,114512,1,0,0:0:0:0:
448,192,114536,1,0,0:0:0:0:
64,192,114559,1,0,0:0:0:0:
192,192,114583,1,0,0:0:0:0:
320,192,114606,1,0,0:0:0:0:
448,192,114630,1,0,0:0:0:0:
192,192,114653,128,0,114676:0:0:0:0:
64,192,114653,128,0,114676:0:0:0:0:
192,192,114747,1,0,0:0:0:0:
320,192,114747,1,0,0:0:0:0:
320,192,114841,128,0,114864:0:0:0:0:
448,192,114841,128,0,114864:0:0:0:0:
192,192,114934,1,0,0:0:0:0:
320,192,114934,1,0,0:0:0:0:
64,192,114934,1,0,0:0:0:0:
448,192,115028,1,0,0:0:0:0:
192,192,115028,1,0,0:0:0:0:
64,192,115122,1,0,0:0:0:0:
320,192,115122,1,0,0:0:0:0:
448,192,115216,1,0,0:0:0:0:
320,192,115216,1,0,0:0:0:0:
320,192,115309,1,0,0:0:0:0:
448,192,115309,1,0,0:0:0:0:
64,192,115380,1,0,0:0:0:0:
192,192,115403,1,0,0:0:0:0:
320,192,115426,1,0,0:0:0:0:
448,192,115450,1,0,0:0:0:0:
64,192,115473,1,0,0:0:0:0:
192,192,115497,1,0,0:0:0:0:
320,192,115520,1,0,0:0:0:0:
448,192,115544,1,0,0:0:0:0:
64,192,115591,1,0,0:0:0:0:
192,192,115591,1,0,0:0:0:0:
320,192,115591,1,0,0:0:0:0:
64,192,115684,1,0,0:0:0:0:
192,192,115778,1,0,0:0:0:0:
64,192,115872,1,0,0:0:0:0:
320,192,115966,1,0,0:0:0:0:
192,192,115966,1,0,0:0:0:0:
448,192,115966,1,0,0:0:0:0:
64,192,116059,1,0,0:0:0:0:
192,192,116153,1,0,0:0:0:0:
64,192,116341,1,0,0:0:0:0:
320,192,116341,1,0,0:0:0:0:
448,192,116341,1,0,0:0:0:0:
192,192,116434,1,0,0:0:0:0:
320,192,116528,1,0,0:0:0:0:
192,192,116622,1,0,0:0:0:0:
320,192,116716,1,0,0:0:0:0:
64,192,116716,1,0,0:0:0:0:
192,192,116716,1,0,0:0:0:0:
448,192,116716,1,0,0:0:0:0:
64,192,116903,1,0,0:0:0:0:
192,192,116903,1,0,0:0:0:0:
448,192,116997,1,0,0:0:0:0:
320,192,116997,1,0,0:0:0:0:
192,192,117091,1,0,0:0:0:0:
448,192,117091,1,0,0:0:0:0:
64,192,117091,1,0,0:0:0:0:
320,192,117184,1,0,0:0:0:0:
448,192,117278,1,0,0:0:0:0:
320,192,117372,1,0,0:0:0:0:
448,192,117466,1,0,0:0:0:0:
192,192,117466,1,0,0:0:0:0:
64,192,117466,1,0,0:0:0:0:
320,192,117559,1,0,0:0:0:0:
448,192,117653,1,0,0:0:0:0:
64,192,117653,1,0,0:0:0:0:
192,192,117653,1,0,0:0:0:0:
448,192,117841,1,0,0:0:0:0:
64,192,117841,1,0,0:0:0:0:
192,192,117841,1,0,0:0:0:0:
320,192,117841,1,0,0:0:0:0:
320,192,117934,1,0,0:0:0:0:
448,192,118028,1,0,0:0:0:0:
320,192,118028,1,0,0:0:0:0:
64,192,118028,1,0,0:0:0:0:
192,192,118028,1,0,0:0:0:0:
192,192,118122,1,0,0:0:0:0:
448,192,118216,1,0,0:0:0:0:
64,192,118216,1,0,0:0:0:0:
192,192,118216,1,0,0:0:0:0:
320,192,118216,1,0,0:0:0:0:
64,192,118403,1,0,0:0:0:0:
320,192,118403,1,0,0:0:0:0:
448,192,118497,1,0,0:0:0:0:
192,192,118497,1,0,0:0:0:0:
448,192,118591,1,0,0:0:0:0:
320,192,118591,1,0,0:0:0:0:
64,192,118591,1,0,0:0:0:0:
320,192,118684,1,0,0:0:0:0:
448,192,118684,1,0,0:0:0:0:
320,192,118778,1,0,0:0:0:0:
448,192,118778,1,0,0:0:0:0:
320,192,118872,1,0,0:0:0:0:
192,192,118872,1,0,0:0:0:0:
64,192,118966,1,0,0:0:0:0:
192,192,118966,1,0,0:0:0:0:
448,192,118966,1,0,0:0:0:0:
64,192,119059,1,0,0:0:0:0:
192,192,119059,1,0,0:0:0:0:
64,192,119153,1,0,0:0:0:0:
192,192,119153,1,0,0:0:0:0:
320,192,119341,1,0,0:0:0:0:
448,192,119341,1,0,0:0:0:0:
64,192,119341,1,0,0:0:0:0:
320,192,119434,1,0,0:0:0:0:
448,192,119434,1,0,0:0:0:0:
192,192,119528,1,0,0:0:0:0:
64,192,119528,1,0,0:0:0:0:
320,192,119622,1,0,0:0:0:0:
448,192,119622,1,0,0:0:0:0:
448,192,119716,1,0,0:0:0:0:
320,192,119716,1,0,0:0:0:0:
192,192,119716,1,0,0:0:0:0:
64,192,119716,1,0,0:0:0:0:
64,192,119903,1,0,0:0:0:0:
192,192,119903,1,0,0:0:0:0:
448,192,119997,1,0,0:0:0:0:
320,192,119997,1,0,0:0:0:0:
320,192,120091,1,0,0:0:0:0:
448,192,120091,1,0,0:0:0:0:
64,192,120091,1,0,0:0:0:0:
192,192,120091,1,0,0:0:0:0:
64,192,120184,1,0,0:0:0:0:
320,192,120184,1,0,0:0:0:0:
448,192,120278,1,0,0:0:0:0:
192,192,120278,1,0,0:0:0:0:
64,192,120372,1,0,0:0:0:0:
320,192,120372,1,0,0:0:0:0:
192,192,120466,1,0,0:0:0:0:
64,192,120466,1,0,0:0:0:0:
448,192,120466,1,0,0:0:0:0:
320,192,120466,1,0,0:0:0:0:
192,192,120559,1,0,0:0:0:0:
320,192,120559,1,0,0:0:0:0:
448,192,120653,1,0,0:0:0:0:
64,192,120653,1,0,0:0:0:0:
192,192,120841,1,0,0:0:0:0:
64,192,120841,1,0,0:0:0:0:
320,192,120841,1,0,0:0:0:0:
448,192,120841,1,0,0:0:0:0:
64,192,120934,1,0,0:0:0:0:
192,192,120934,1,0,0:0:0:0:
448,192,121028,1,0,0:0:0:0:
320,192,121028,1,0,0:0:0:0:
192,192,121028,1,0,0:0:0:0:
64,192,121028,1,0,0:0:0:0:
320,192,121122,1,0,0:0:0:0:
448,192,121122,1,0,0:0:0:0:
448,192,121216,1,0,0:0:0:0:
320,192,121216,1,0,0:0:0:0:
192,192,121216,1,0,0:0:0:0:
64,192,121216,1,0,0:0:0:0:
64,192,121403,1,0,0:0:0:0:
192,192,121403,1,0,0:0:0:0:
320,192,121497,1,0,0:0:0:0:
192,192,121591,128,0,121872:0:0:0:0:
64,192,121591,128,0,121684:0:0:0:0:
320,192,121591,128,0,121872:0:0:0:0:
448,192,121591,128,0,121684:0:0:0:0:
448,192,121778,128,0,121872:0:0:0:0:
64,192,121778,128,0,121872:0:0:0:0:
448,192,121966,128,0,122247:0:0:0:0:
64,192,121966,128,0,122247:0:0:0:0:
192,192,121966,128,0,122059:0:0:0:0:
320,192,121966,128,0,122059:0:0:0:0:
192,192,122153,128,0,122247:0:0:0:0:
320,192,122153,128,0,122247:0:0:0:0:
192,192,122341,128,0,122434:0:0:0:0:
448,192,122341,128,0,122434:0:0:0:0:
320,192,122341,128,0,122622:0:0:0:0:
64,192,122341,128,0,122622:0:0:0:0:
448,192,122528,128,0,122622:0:0:0:0:
192,192,122528,128,0,122622:0:0:0:0:
320,192,122716,128,0,122809:0:0:0:0:
448,192,122716,128,0,122809:0:0:0:0:
192,192,122716,128,0,122997:0:0:0:0:
64,192,122716,128,0,122997:0:0:0:0:
448,192,122903,128,0,122997:0:0:0:0:
320,192,122903,128,0,122997:0:0:0:0:
448,192,123091,128,0,123184:0:0:0:0:
64,192,123091,128,0,123184:0:0:0:0:
192,192,123091,128,0,123372:0:0:0:0:
320,192,123091,128,0,123372:0:0:0:0:
64,192,123278,128,0,123372:0:0:0:0:
448,192,123278,128,0,123372:0:0:0:0:
64,192,123466,128,0,123559:0:0:0:0:
320,192,123466,128,0,123559:0:0:0:0:
448,192,123466,128,0,123747:0:0:0:0:
192,192,123466,128,0,123747:0:0:0:0:
64,192,123653,128,0,123747:0:0:0:0:
320,192,123653,128,0,123747:0:0:0:0:
192,192,123841,128,0,123934:0:0:0:0:
448,192,123841,128,0,123934:0:0:0:0:
320,192,123841,128,0,124122:0:0:0:0:
64,192,123841,128,0,124122:0:0:0:0:
448,192,124028,128,0,124122:0:0:0:0:
192,192,124028,128,0,124122:0:0:0:0:
192,192,124216,128,0,124309:0:0:0:0:
320,192,124216,128,0,124309:0:0:0:0:
448,192,124216,128,0,124497:0:0:0:0:
64,192,124216,128,0,124497:0:0:0:0:
192,192,124403,128,0,124497:0:0:0:0:
320,192,124403,128,0,124497:0:0:0:0:
64,192,124591,1,0,0:0:0:0:
320,192,124591,1,0,0:0:0:0:
192,192,124684,1,0,0:0:0:0:
448,192,124684,1,0,0:0:0:0:
64,192,124778,128,0,124825:0:0:0:0:
320,192,124778,128,0,124825:0:0:0:0:
192,192,124872,1,0,0:0:0:0:
448,192,124872,1,0,0:0:0:0:
64,192,124966,1,0,0:0:0:0:
320,192,124966,1,0,0:0:0:0:
448,192,125059,1,0,0:0:0:0:
192,192,125059,1,0,0:0:0:0:
320,192,125153,1,0,0:0:0:0:
64,192,125153,1,0,0:0:0:0:
192,192,125153,128,0,125200:0:0:0:0:
448,192,125341,1,0,0:0:0:0:
320,192,125341,1,0,0:0:0:0:
64,192,125434,1,0,0:0:0:0:
192,192,125434,1,0,0:0:0:0:
448,192,125528,128,0,125575:0:0:0:0:
320,192,125528,128,0,125575:0:0:0:0:
192,192,125528,1,0,0:0:0:0:
192,192,125622,1,0,0:0:0:0:
64,192,125622,1,0,0:0:0:0:
320,192,125716,1,0,0:0:0:0:
448,192,125716,1,0,0:0:0:0:
320,192,125903,128,0,125950:0:0:0:0:
64,192,125903,128,0,125950:0:0:0:0:
448,192,125903,1,0,0:0:0:0:
448,192,125997,1,0,0:0:0:0:
320,192,125997,1,0,0:0:0:0:
192,192,126091,1,0,0:0:0:0:
64,192,126091,1,0,0:0:0:0:
192,192,126184,1,0,0:0:0:0:
64,192,126184,1,0,0:0:0:0:
320,192,126278,128,0,126325:0:0:0:0:
448,192,126278,128,0,126325:0:0:0:0:
192,192,126372,1,0,0:0:0:0:
64,192,126372,1,0,0:0:0:0:
448,192,126466,1,0,0:0:0:0:
320,192,126466,1,0,0:0:0:0:
192,192,126512,1,0,0:0:0:0:
64,192,126512,1,0,0:0:0:0:
320,192,126559,1,0,0:0:0:0:
448,192,126559,1,0,0:0:0:0:
320,192,126653,1,0,0:0:0:0:
448,192,126653,1,0,0:0:0:0:
192,192,126747,1,0,0:0:0:0:
64,192,126747,1,0,0:0:0:0:
64,192,126841,1,0,0:0:0:0:
192,192,126864,1,0,0:0:0:0:
320,192,126887,1,0,0:0:0:0:
448,192,126911,1,0,0:0:0:0:
192,192,126934,1,0,0:0:0:0:
64,192,126934,1,0,0:0:0:0:
320,192,126981,1,0,0:0:0:0:
448,192,126981,1,0,0:0:0:0:
64,192,127028,1,0,0:0:0:0:
192,192,127051,1,0,0:0:0:0:
320,192,127075,1,0,0:0:0:0:
448,192,127098,1,0,0:0:0:0:
64,192,127122,1,0,0:0:0:0:
320,192,127145,1,0,0:0:0:0:
192,192,127145,1,0,0:0:0:0:
448,192,127169,1,0,0:0:0:0:
320,192,127216,128,0,127262:0:0:0:0:
448,192,127216,128,0,127262:0:0:0:0:
192,192,127216,128,0,127262:0:0:0:0:
64,192,127216,128,0,127262:0:0:0:0:
192,192,127309,128,0,127356:0:0:0:0:
320,192,127309,128,0,127356:0:0:0:0:
448,192,127309,128,0,127356:0:0:0:0:
64,192,127309,128,0,127356:0:0:0:0:
64,192,127403,128,0,127450:0:0:0:0:
192,192,127403,128,0,127450:0:0:0:0:
320,192,127403,128,0,127450:0:0:0:0:
448,192,127403,128,0,127450:0:0:0:0:
64,192,127497,128,0,127544:0:0:0:0:
192,192,127497,128,0,127544:0:0:0:0:
320,192,127497,128,0,127544:0:0:0:0:
448,192,127497,128,0,127544:0:0:0:0:
320,192,127591,1,0,0:0:0:0:
192,192,127591,1,0,0:0:0:0:
64,192,127591,1,0,0:0:0:0:
448,192,127591,1,0,0:0:0:0:
192,192,127778,1,0,0:0:0:0:
64,192,127778,1,0,0:0:0:0:
320,192,127778,1,0,0:0:0:0:
448,192,127872,1,0,0:0:0:0:
192,192,127872,1,0,0:0:0:0:
320,192,127966,1,0,0:0:0:0:
64,192,127966,1,0,0:0:0:0:
448,192,128059,1,0,0:0:0:0:
320,192,128059,1,0,0:0:0:0:
192,192,128059,1,0,0:0:0:0:
64,192,128153,1,0,0:0:0:0:
448,192,128153,1,0,0:0:0:0:
192,192,128341,1,0,0:0:0:0:
64,192,128341,1,0,0:0:0:0:
320,192,128341,1,0,0:0:0:0:
448,192,128434,1,0,0:0:0:0:
320,192,128528,1,0,0:0:0:0:
192,192,128528,1,0,0:0:0:0:
64,192,128528,1,0,0:0:0:0:
64,192,128716,1,0,0:0:0:0:
320,192,128716,1,0,0:0:0:0:
448,192,128716,1,0,0:0:0:0:
320,192,128903,1,0,0:0:0:0:
192,192,128903,1,0,0:0:0:0:
192,192,129091,1,0,0:0:0:0:
64,192,129091,1,0,0:0:0:0:
448,192,129091,1,0,0:0:0:0:
64,192,129278,1,0,0:0:0:0:
320,192,129278,1,0,0:0:0:0:
192,192,129372,1,0,0:0:0:0:
320,192,129372,1,0,0:0:0:0:
448,192,129372,1,0,0:0:0:0:
64,192,129466,1,0,0:0:0:0:
192,192,129466,1,0,0:0:0:0:
320,192,129559,1,0,0:0:0:0:
448,192,129559,1,0,0:0:0:0:
320,192,129653,1,0,0:0:0:0:
192,192,129653,1,0,0:0:0:0:
64,192,129653,1,0,0:0:0:0:
64,192,129747,1,0,0:0:0:0:
448,192,129747,1,0,0:0:0:0:
320,192,129841,1,0,0:0:0:0:
192,192,129841,1,0,0:0:0:0:
320,192,130091,1,0,0:0:0:0:
192,192,130091,1,0,0:0:0:0:
320,192,130184,1,0,0:0:0:0:
448,192,130184,1,0,0:0:0:0:
64,192,130184,1,0,0:0:0:0:
448,192,130403,1,0,0:0:0:0:
192,192,130403,1,0,0:0:0:0:
320,192,130403,1,0,0:0:0:0:
64,192,130403,1,0,0:0:0:0:
320,192,130591,1,0,0:0:0:0:
64,192,130591,1,0,0:0:0:0:
192,192,130591,1,0,0:0:0:0:
448,192,130778,1,0,0:0:0:0:
320,192,130778,1,0,0:0:0:0:
192,192,130778,1,0,0:0:0:0:
64,192,130872,1,0,0:0:0:0:
192,192,130872,1,0,0:0:0:0:
64,192,130966,1,0,0:0:0:0:
192,192,130966,1,0,0:0:0:0:
320,192,130966,1,0,0:0:0:0:
448,192,131153,1,0,0:0:0:0:
320,192,131153,1,0,0:0:0:0:
64,192,131153,1,0,0:0:0:0:
192,192,131341,1,0,0:0:0:0:
448,192,131341,1,0,0:0:0:0:
64,192,131341,1,0,0:0:0:0:
192,192,131528,1,0,0:0:0:0:
320,192,131528,1,0,0:0:0:0:
448,192,131622,1,0,0:0:0:0:
64,192,131622,1,0,0:0:0:0:
64,192,131716,1,0,0:0:0:0:
192,192,131716,1,0,0:0:0:0:
320,192,131716,1,0,0:0:0:0:
448,192,131903,1,0,0:0:0:0:
64,192,131903,1,0,0:0:0:0:
320,192,131903,1,0,0:0:0:0:
320,192,131997,1,0,0:0:0:0:
192,192,131997,1,0,0:0:0:0:
64,192,132091,1,0,0:0:0:0:
448,192,132091,1,0,0:0:0:0:
192,192,132091,1,0,0:0:0:0:
192,192,132372,1,0,0:0:0:0:
320,192,132372,1,0,0:0:0:0:
448,192,132466,1,0,0:0:0:0:
64,192,132466,1,0,0:0:0:0:
320,192,132466,1,0,0:0:0:0:
448,192,132653,1,0,0:0:0:0:
64,192,132653,1,0,0:0:0:0:
192,192,132841,1,0,0:0:0:0:
320,192,132841,1,0,0:0:0:0:
320,192,132934,1,0,0:0:0:0:
448,192,132934,1,0,0:0:0:0:
64,192,132934,1,0,0:0:0:0:
192,192,133028,1,0,0:0:0:0:
320,192,133028,1,0,0:0:0:0:
64,192,133122,1,0,0:0:0:0:
448,192,133122,1,0,0:0:0:0:
192,192,133122,1,0,0:0:0:0:
320,192,133216,1,0,0:0:0:0:
192,192,133216,1,0,0:0:0:0:
448,192,133403,1,0,0:0:0:0:
192,192,133403,1,0,0:0:0:0:
64,192,133403,1,0,0:0:0:0:
192,192,133591,1,0,0:0:0:0:
448,192,133591,1,0,0:0:0:0:
448,192,133684,1,0,0:0:0:0:
192,192,133684,1,0,0:0:0:0:
64,192,133778,1,0,0:0:0:0:
320,192,133778,1,0,0:0:0:0:
64,192,133872,1,0,0:0:0:0:
320,192,133872,1,0,0:0:0:0:
448,192,133966,1,0,0:0:0:0:
192,192,133966,1,0,0:0:0:0:
448,192,134059,1,0,0:0:0:0:
192,192,134059,1,0,0:0:0:0:
64,192,134153,1,0,0:0:0:0:
320,192,134153,1,0,0:0:0:0:
64,192,134247,1,0,0:0:0:0:
320,192,134247,1,0,0:0:0:0:
448,192,134341,1,0,0:0:0:0:
192,192,134341,1,0,0:0:0:0:
320,192,134434,1,0,0:0:0:0:
448,192,134434,1,0,0:0:0:0:
192,192,134528,1,0,0:0:0:0:
64,192,134528,1,0,0:0:0:0:
320,192,134622,1,0,0:0:0:0:
448,192,134622,1,0,0:0:0:0:
192,192,134716,1,0,0:0:0:0:
320,192,134716,1,0,0:0:0:0:
64,192,134716,1,0,0:0:0:0:
320,192,134903,1,0,0:0:0:0:
192,192,134903,1,0,0:0:0:0:
448,192,135091,1,0,0:0:0:0:
320,192,135091,1,0,0:0:0:0:
64,192,135091,1,0,0:0:0:0:
192,192,135278,1,0,0:0:0:0:
64,192,135278,1,0,0:0:0:0:
448,192,135372,1,0,0:0:0:0:
320,192,135372,1,0,0:0:0:0:
192,192,135466,1,0,0:0:0:0:
64,192,135466,1,0,0:0:0:0:
448,192,135466,1,0,0:0:0:0:
320,192,135559,1,0,0:0:0:0:
448,192,135559,1,0,0:0:0:0:
192,192,135653,1,0,0:0:0:0:
64,192,135653,1,0,0:0:0:0:
320,192,135653,1,0,0:0:0:0:
448,192,135747,1,0,0:0:0:0:
192,192,135747,1,0,0:0:0:0:
64,192,135747,1,0,0:0:0:0:
64,192,135841,1,0,0:0:0:0:
320,192,135841,1,0,0:0:0:0:
192,192,135841,1,0,0:0:0:0:
64,192,136091,1,0,0:0:0:0:
320,192,136091,1,0,0:0:0:0:
448,192,136184,1,0,0:0:0:0:
192,192,136184,1,0,0:0:0:0:
192,192,136403,1,0,0:0:0:0:
448,192,136403,1,0,0:0:0:0:
320,192,136403,1,0,0:0:0:0:
64,192,136403,1,0,0:0:0:0:
320,192,136591,1,0,0:0:0:0:
192,192,136591,1,0,0:0:0:0:
448,192,136778,1,0,0:0:0:0:
192,192,136778,1,0,0:0:0:0:
320,192,136872,1,0,0:0:0:0:
64,192,136872,1,0,0:0:0:0:
192,192,136966,1,0,0:0:0:0:
64,192,136966,1,0,0:0:0:0:
448,192,136966,1,0,0:0:0:0:
448,192,137153,1,0,0:0:0:0:
192,192,137153,1,0,0:0:0:0:
192,192,137341,1,0,0:0:0:0:
448,192,137341,1,0,0:0:0:0:
320,192,137341,1,0,0:0:0:0:
64,192,137341,1,0,0:0:0:0:
192,192,137528,1,0,0:0:0:0:
320,192,137528,1,0,0:0:0:0:
448,192,137622,1,0,0:0:0:0:
64,192,137622,1,0,0:0:0:0:
320,192,137716,1,0,0:0:0:0:
192,192,137716,1,0,0:0:0:0:
64,192,137716,1,0,0:0:0:0:
448,192,137716,1,0,0:0:0:0:
448,192,137903,1,0,0:0:0:0:
192,192,137903,1,0,0:0:0:0:
64,192,137903,1,0,0:0:0:0:
320,192,137997,1,0,0:0:0:0:
192,192,137997,1,0,0:0:0:0:
64,192,137997,1,0,0:0:0:0:
192,192,138091,1,0,0:0:0:0:
64,192,138091,1,0,0:0:0:0:
448,192,138091,1,0,0:0:0:0:
192,192,138372,1,0,0:0:0:0:
64,192,138372,1,0,0:0:0:0:
320,192,138466,1,0,0:0:0:0:
448,192,138466,1,0,0:0:0:0:
192,192,138466,1,0,0:0:0:0:
192,192,138653,1,0,0:0:0:0:
64,192,138653,1,0,0:0:0:0:
448,192,138653,1,0,0:0:0:0:
320,192,138653,1,0,0:0:0:0:
192,192,138747,1,0,0:0:0:0:
448,192,138747,1,0,0:0:0:0:
320,192,138841,1,0,0:0:0:0:
64,192,138841,1,0,0:0:0:0:
448,192,138934,1,0,0:0:0:0:
192,192,138934,1,0,0:0:0:0:
320,192,139028,1,0,0:0:0:0:
64,192,139028,1,0,0:0:0:0:
448,192,139122,5,0,0:0:0:0:
192,192,139122,1,0,0:0:0:0:
64,192,139216,1,0,0:0:0:0:
320,192,139216,128,0,139309:0:0:0:0:
192,192,139309,128,0,139403:0:0:0:0:
448,192,139403,128,0,139497:0:0:0:0:
320,192,139403,1,0,0:0:0:0:
64,192,139497,128,0,139591:0:0:0:0:
192,192,139591,5,0,0:0:0:0:
320,192,139591,1,0,0:0:0:0:
448,192,139591,1,0,0:0:0:0:
64,192,139684,1,0,0:0:0:0:
192,192,139684,1,0,0:0:0:0:
320,192,139778,1,0,0:0:0:0:
448,192,139778,1,0,0:0:0:0:
192,192,139872,1,0,0:0:0:0:
64,192,139872,1,0,0:0:0:0:
448,192,139966,1,0,0:0:0:0:
64,192,139966,1,0,0:0:0:0:
320,192,139966,1,0,0:0:0:0:
192,192,140059,1,0,0:0:0:0:
320,192,140059,1,0,0:0:0:0:
448,192,140153,1,0,0:0:0:0:
192,192,140153,1,0,0:0:0:0:
64,192,140247,1,0,0:0:0:0:
320,192,140247,1,0,0:0:0:0:
448,192,140341,1,0,0:0:0:0:
192,192,140341,1,0,0:0:0:0:
64,192,140341,1,0,0:0:0:0:
320,192,140434,1,0,0:0:0:0:
192,192,140434,1,0,0:0:0:0:
320,192,140528,1,0,0:0:0:0:
448,192,140528,1,0,0:0:0:0:
64,192,140528,1,0,0:0:0:0:
64,192,140622,1,0,0:0:0:0:
192,192,140622,1,0,0:0:0:0:
448,192,140716,1,0,0:0:0:0:
64,192,140716,1,0,0:0:0:0:
192,192,140809,1,0,0:0:0:0:
320,192,140809,1,0,0:0:0:0:
448,192,140903,1,0,0:0:0:0:
64,192,140903,1,0,0:0:0:0:
320,192,140903,1,0,0:0:0:0:
192,192,140997,1,0,0:0:0:0:
64,192,140997,1,0,0:0:0:0:
448,192,141091,1,0,0:0:0:0:
320,192,141091,1,0,0:0:0:0:
192,192,141091,1,0,0:0:0:0:
64,192,141091,1,0,0:0:0:0:
320,192,141184,1,0,0:0:0:0:
448,192,141184,1,0,0:0:0:0:
320,192,141278,1,0,0:0:0:0:
448,192,141278,1,0,0:0:0:0:
64,192,141278,1,0,0:0:0:0:
320,192,141372,1,0,0:0:0:0:
448,192,141372,1,0,0:0:0:0:
192,192,141372,1,0,0:0:0:0:
448,192,141466,1,0,0:0:0:0:
320,192,141466,1,0,0:0:0:0:
64,192,141466,1,0,0:0:0:0:
320,192,141559,1,0,0:0:0:0:
448,192,141559,1,0,0:0:0:0:
320,192,141653,1,0,0:0:0:0:
192,192,141653,1,0,0:0:0:0:
448,192,141653,1,0,0:0:0:0:
320,192,141747,1,0,0:0:0:0:
448,192,141747,1,0,0:0:0:0:
448,192,141841,1,0,0:0:0:0:
192,192,141841,1,0,0:0:0:0:
64,192,141841,1,0,0:0:0:0:
448,192,141934,1,0,0:0:0:0:
320,192,141934,1,0,0:0:0:0:
192,192,141934,1,0,0:0:0:0:
64,192,142028,1,0,0:0:0:0:
192,192,142028,1,0,0:0:0:0:
320,192,142122,1,0,0:0:0:0:
448,192,142122,1,0,0:0:0:0:
192,192,142216,1,0,0:0:0:0:
64,192,142216,1,0,0:0:0:0:
320,192,142216,1,0,0:0:0:0:
320,192,142309,1,0,0:0:0:0:
448,192,142309,1,0,0:0:0:0:
192,192,142403,1,0,0:0:0:0:
64,192,142403,1,0,0:0:0:0:
448,192,142497,1,0,0:0:0:0:
320,192,142497,1,0,0:0:0:0:
192,192,142497,1,0,0:0:0:0:
64,192,142591,1,0,0:0:0:0:
192,192,142591,1,0,0:0:0:0:
448,192,142684,1,0,0:0:0:0:
320,192,142684,1,0,0:0:0:0:
192,192,142778,1,0,0:0:0:0:
64,192,142778,1,0,0:0:0:0:
320,192,142778,1,0,0:0:0:0:
64,192,142872,1,0,0:0:0:0:
192,192,142872,1,0,0:0:0:0:
448,192,142966,1,0,0:0:0:0:
320,192,142966,1,0,0:0:0:0:
192,192,142966,1,0,0:0:0:0:
64,192,143059,1,0,0:0:0:0:
320,192,143059,1,0,0:0:0:0:
448,192,143153,1,0,0:0:0:0:
192,192,143153,1,0,0:0:0:0:
320,192,143247,1,0,0:0:0:0:
64,192,143247,1,0,0:0:0:0:
448,192,143247,1,0,0:0:0:0:
320,192,143341,1,0,0:0:0:0:
192,192,143341,1,0,0:0:0:0:
448,192,143434,1,0,0:0:0:0:
320,192,143434,1,0,0:0:0:0:
64,192,143528,1,0,0:0:0:0:
192,192,143528,1,0,0:0:0:0:
448,192,143622,1,0,0:0:0:0:
192,192,143622,1,0,0:0:0:0:
64,192,143716,1,0,0:0:0:0:
320,192,143716,1,0,0:0:0:0:
448,192,143809,1,0,0:0:0:0:
320,192,143809,1,0,0:0:0:0:
192,192,143809,1,0,0:0:0:0:
64,192,143903,1,0,0:0:0:0:
320,192,143903,1,0,0:0:0:0:
448,192,143997,1,0,0:0:0:0:
192,192,143997,1,0,0:0:0:0:
192,192,144091,1,0,0:0:0:0:
64,192,144091,1,0,0:0:0:0:
320,192,144184,1,0,0:0:0:0:
448,192,144184,1,0,0:0:0:0:
192,192,144278,1,0,0:0:0:0:
320,192,144278,1,0,0:0:0:0:
320,192,144372,1,0,0:0:0:0:
448,192,144372,1,0,0:0:0:0:
64,192,144372,1,0,0:0:0:0:
192,192,144466,1,0,0:0:0:0:
64,192,144466,1,0,0:0:0:0:
192,192,144559,1,0,0:0:0:0:
448,192,144559,1,0,0:0:0:0:
320,192,144559,1,0,0:0:0:0:
64,192,144653,1,0,0:0:0:0:
320,192,144653,1,0,0:0:0:0:
192,192,144747,1,0,0:0:0:0:
448,192,144747,1,0,0:0:0:0:
64,192,144747,1,0,0:0:0:0:
320,192,144841,128,0,144887:0:0:0:0:
448,192,144841,128,0,144887:0:0:0:0:
64,192,144841,1,0,0:0:0:0:
320,192,144934,128,0,145169:0:0:0:0:
448,192,144934,128,0,145169:0:0:0:0:
192,192,145028,128,0,145075:0:0:0:0:
64,192,145028,128,0,145075:0:0:0:0:
64,192,145122,128,0,145356:0:0:0:0:
192,192,145122,128,0,145356:0:0:0:0:
320,192,145216,128,0,145262:0:0:0:0:
448,192,145216,128,0,145262:0:0:0:0:
320,192,145309,128,0,145544:0:0:0:0:
448,192,145309,128,0,145544:0:0:0:0:
192,192,145403,128,0,145450:0:0:0:0:
64,192,145403,128,0,145450:0:0:0:0:
192,192,145497,128,0,145544:0:0:0:0:
64,192,145497,128,0,145544:0:0:0:0:
448,192,145591,1,0,0:0:0:0:
320,192,145591,1,0,0:0:0:0:
192,192,145591,1,0,0:0:0:0:
64,192,145591,1,0,0:0:0:0:
320,192,145684,1,0,0:0:0:0:
448,192,145684,1,0,0:0:0:0:
64,192,145778,1,0,0:0:0:0:
192,192,145778,1,0,0:0:0:0:
320,192,145872,1,0,0:0:0:0:
448,192,145966,1,0,0:0:0:0:
320,192,145966,1,0,0:0:0:0:
192,192,145966,1,0,0:0:0:0:
64,192,145966,1,0,0:0:0:0:
192,192,146059,1,0,0:0:0:0:
320,192,146153,1,0,0:0:0:0:
64,192,146153,1,0,0:0:0:0:
192,192,146247,1,0,0:0:0:0:
448,192,146247,1,0,0:0:0:0:
448,192,146341,1,0,0:0:0:0:
320,192,146341,1,0,0:0:0:0:
64,192,146341,1,0,0:0:0:0:
192,192,146341,1,0,0:0:0:0:
320,192,146434,1,0,0:0:0:0:
64,192,146434,1,0,0:0:0:0:
448,192,146528,1,0,0:0:0:0:
192,192,146622,5,0,0:0:0:0:
64,192,146622,1,0,0:0:0:0:
448,192,146716,5,0,0:0:0:0:
320,192,146716,1,0,0:0:0:0:
192,192,146716,1,0,0:0:0:0:
64,192,146716,1,0,0:0:0:0:
320,192,146809,1,0,0:0:0:0:
64,192,146903,1,0,0:0:0:0:
192,192,146903,1,0,0:0:0:0:
448,192,146997,1,0,0:0:0:0:
320,192,146997,1,0,0:0:0:0:
192,192,147091,5,0,0:0:0:0:
320,192,147091,1,0,0:0:0:0:
64,192,147091,1,0,0:0:0:0:
448,192,147091,1,0,0:0:0:0:
320,192,147184,1,0,0:0:0:0:
448,192,147184,1,0,0:0:0:0:
192,192,147278,1,0,0:0:0:0:
64,192,147278,1,0,0:0:0:0:
192,192,147372,1,0,0:0:0:0:
64,192,147372,1,0,0:0:0:0:
320,192,147372,1,0,0:0:0:0:
320,192,147466,1,0,0:0:0:0:
448,192,147466,1,0,0:0:0:0:
320,192,147559,1,0,0:0:0:0:
448,192,147559,1,0,0:0:0:0:
192,192,147559,1,0,0:0:0:0:
192,192,147653,1,0,0:0:0:0:
64,192,147653,1,0,0:0:0:0:
320,192,147747,1,0,0:0:0:0:
192,192,147747,1,0,0:0:0:0:
64,192,147747,1,0,0:0:0:0:
448,192,147841,1,0,0:0:0:0:
320,192,147841,1,0,0:0:0:0:
448,192,147934,1,0,0:0:0:0:
320,192,147934,1,0,0:0:0:0:
192,192,147934,1,0,0:0:0:0:
192,192,148028,1,0,0:0:0:0:
64,192,148028,1,0,0:0:0:0:
320,192,148122,1,0,0:0:0:0:
192,192,148122,1,0,0:0:0:0:
448,192,148216,1,0,0:0:0:0:
320,192,148216,1,0,0:0:0:0:
64,192,148216,1,0,0:0:0:0:
64,192,148309,1,0,0:0:0:0:
320,192,148309,1,0,0:0:0:0:
448,192,148309,1,0,0:0:0:0:
64,192,148403,1,0,0:0:0:0:
448,192,148403,1,0,0:0:0:0:
320,192,148403,1,0,0:0:0:0:
448,192,148497,1,0,0:0:0:0:
320,192,148497,1,0,0:0:0:0:
64,192,148497,1,0,0:0:0:0:
192,192,148497,1,0,0:0:0:0:
448,192,148591,1,0,0:0:0:0:
192,192,148591,1,0,0:0:0:0:
64,192,148591,1,0,0:0:0:0:
320,192,148684,1,0,0:0:0:0:
448,192,148684,1,0,0:0:0:0:
64,192,148778,1,0,0:0:0:0:
192,192,148778,1,0,0:0:0:0:
320,192,148872,1,0,0:0:0:0:
448,192,148872,1,0,0:0:0:0:
192,192,148966,1,0,0:0:0:0:
320,192,148966,1,0,0:0:0:0:
448,192,149059,1,0,0:0:0:0:
64,192,149059,1,0,0:0:0:0:
192,192,149153,1,0,0:0:0:0:
320,192,149153,1,0,0:0:0:0:
64,192,149247,1,0,0:0:0:0:
192,192,149247,1,0,0:0:0:0:
448,192,149341,1,0,0:0:0:0:
320,192,149341,1,0,0:0:0:0:
320,192,149434,1,0,0:0:0:0:
192,192,149434,1,0,0:0:0:0:
64,192,149434,1,0,0:0:0:0:
448,192,149528,1,0,0:0:0:0:
192,192,149528,1,0,0:0:0:0:
320,192,149622,1,0,0:0:0:0:
64,192,149622,1,0,0:0:0:0:
448,192,149622,1,0,0:0:0:0:
192,192,149716,1,0,0:0:0:0:
448,192,149716,1,0,0:0:0:0:
64,192,149809,1,0,0:0:0:0:
320,192,149809,1,0,0:0:0:0:
448,192,149903,1,0,0:0:0:0:
192,192,149903,1,0,0:0:0:0:
320,192,149903,1,0,0:0:0:0:
192,192,149997,1,0,0:0:0:0:
64,192,149997,1,0,0:0:0:0:
448,192,150091,5,0,0:0:0:0:
320,192,150091,1,0,0:0:0:0:
64,192,150091,1,0,0:0:0:0:
320,192,150184,1,0,0:0:0:0:
448,192,150184,1,0,0:0:0:0:
192,192,150278,1,0,0:0:0:0:
64,192,150278,1,0,0:0:0:0:
320,192,150372,1,0,0:0:0:0:
448,192,150372,1,0,0:0:0:0:
192,192,150466,1,0,0:0:0:0:
64,192,150466,1,0,0:0:0:0:
192,192,150559,1,0,0:0:0:0:
64,192,150559,1,0,0:0:0:0:
320,192,150653,1,0,0:0:0:0:
448,192,150653,1,0,0:0:0:0:
192,192,150747,1,0,0:0:0:0:
64,192,150747,1,0,0:0:0:0:
320,192,150841,1,0,0:0:0:0:
448,192,150841,1,0,0:0:0:0:
192,192,150841,1,0,0:0:0:0:
64,192,150841,1,0,0:0:0:0:
320,192,150934,1,0,0:0:0:0:
448,192,150934,1,0,0:0:0:0:
448,192,151028,1,0,0:0:0:0:
320,192,151028,1,0,0:0:0:0:
64,192,151028,1,0,0:0:0:0:
448,192,151122,5,0,0:0:0:0:
320,192,151122,1,0,0:0:0:0:
448,192,151216,1,0,0:0:0:0:
320,192,151216,1,0,0:0:0:0:
192,192,151216,1,0,0:0:0:0:
64,192,151216,1,0,0:0:0:0:
448,192,151591,5,0,0:0:0:0:
320,192,151591,1,0,0:0:0:0:
192,192,151591,1,0,0:0:0:0:
64,192,151591,1,0,0:0:0:0:
64,192,151684,1,0,0:0:0:0:
192,192,151684,1,0,0:0:0:0:
320,192,151778,1,0,0:0:0:0:
448,192,151778,1,0,0:0:0:0:
448,192,151872,1,0,0:0:0:0:
320,192,151872,1,0,0:0:0:0:
320,192,151966,1,0,0:0:0:0:
192,192,151966,1,0,0:0:0:0:
64,192,151966,1,0,0:0:0:0:
192,192,152059,1,0,0:0:0:0:
64,192,152059,1,0,0:0:0:0:
448,192,152153,1,0,0:0:0:0:
320,192,152153,1,0,0:0:0:0:
320,192,152247,1,0,0:0:0:0:
448,192,152247,1,0,0:0:0:0:
320,192,152341,1,0,0:0:0:0:
192,192,152341,1,0,0:0:0:0:
64,192,152341,1,0,0:0:0:0:
192,192,152434,1,0,0:0:0:0:
64,192,152434,1,0,0:0:0:0:
320,192,152528,1,0,0:0:0:0:
448,192,152528,1,0,0:0:0:0:
320,192,152622,1,0,0:0:0:0:
448,192,152622,1,0,0:0:0:0:
320,192,152716,1,0,0:0:0:0:
192,192,152716,1,0,0:0:0:0:
64,192,152716,1,0,0:0:0:0:
192,192,152809,1,0,0:0:0:0:
64,192,152809,1,0,0:0:0:0:
320,192,152903,1,0,0:0:0:0:
448,192,152903,1,0,0:0:0:0:
320,192,152997,1,0,0:0:0:0:
448,192,152997,1,0,0:0:0:0:
192,192,153091,1,0,0:0:0:0:
64,192,153091,1,0,0:0:0:0:
320,192,153091,1,0,0:0:0:0:
192,192,153184,1,0,0:0:0:0:
64,192,153184,1,0,0:0:0:0:
320,192,153278,1,0,0:0:0:0:
448,192,153278,1,0,0:0:0:0:
448,192,153372,1,0,0:0:0:0:
320,192,153372,1,0,0:0:0:0:
192,192,153466,1,0,0:0:0:0:
64,192,153466,1,0,0:0:0:0:
320,192,153466,1,0,0:0:0:0:
64,192,153559,1,0,0:0:0:0:
192,192,153559,1,0,0:0:0:0:
320,192,153653,1,0,0:0:0:0:
448,192,153653,1,0,0:0:0:0:
448,192,153747,1,0,0:0:0:0:
320,192,153747,1,0,0:0:0:0:
192,192,153841,1,0,0:0:0:0:
64,192,153841,1,0,0:0:0:0:
448,192,153841,1,0,0:0:0:0:
192,192,153934,1,0,0:0:0:0:
64,192,153934,1,0,0:0:0:0:
448,192,154028,1,0,0:0:0:0:
320,192,154028,1,0,0:0:0:0:
192,192,154028,1,0,0:0:0:0:
320,192,154122,1,0,0:0:0:0:
448,192,154122,1,0,0:0:0:0:
192,192,154216,1,0,0:0:0:0:
64,192,154216,1,0,0:0:0:0:
448,192,154216,1,0,0:0:0:0:
64,192,154309,1,0,0:0:0:0:
192,192,154309,1,0,0:0:0:0:
320,192,154403,1,0,0:0:0:0:
448,192,154403,1,0,0:0:0:0:
192,192,154403,1,0,0:0:0:0:
448,192,154497,1,0,0:0:0:0:
320,192,154497,1,0,0:0:0:0:
64,192,154591,1,0,0:0:0:0:
192,192,154591,1,0,0:0:0:0:
448,192,154591,1,0,0:0:0:0:
192,192,154684,1,0,0:0:0:0:
64,192,154684,1,0,0:0:0:0:
320,192,154778,1,0,0:0:0:0:
448,192,154778,1,0,0:0:0:0:
192,192,154778,1,0,0:0:0:0:
320,192,154872,1,0,0:0:0:0:
448,192,154872,1,0,0:0:0:0:
192,192,154966,1,0,0:0:0:0:
64,192,154966,1,0,0:0:0:0:
448,192,154966,1,0,0:0:0:0:
192,192,155059,1,0,0:0:0:0:
64,192,155059,1,0,0:0:0:0:
320,192,155153,1,0,0:0:0:0:
448,192,155153,1,0,0:0:0:0:
64,192,155153,1,0,0:0:0:0:
320,192,155247,1,0,0:0:0:0:
448,192,155247,1,0,0:0:0:0:
192,192,155341,1,0,0:0:0:0:
448,192,155341,1,0,0:0:0:0:
320,192,155434,1,0,0:0:0:0:
64,192,155434,1,0,0:0:0:0:
192,192,155528,1,0,0:0:0:0:
448,192,155528,1,0,0:0:0:0:
64,192,155622,1,0,0:0:0:0:
320,192,155622,1,0,0:0:0:0:
448,192,155716,1,0,0:0:0:0:
320,192,155716,1,0,0:0:0:0:
192,192,155809,1,0,0:0:0:0:
64,192,155809,1,0,0:0:0:0:
320,192,155903,1,0,0:0:0:0:
448,192,155903,1,0,0:0:0:0:
192,192,155997,1,0,0:0:0:0:
64,192,155997,1,0,0:0:0:0:
448,192,156091,1,0,0:0:0:0:
192,192,156091,1,0,0:0:0:0:
320,192,156184,1,0,0:0:0:0:
64,192,156184,1,0,0:0:0:0:
192,192,156278,1,0,0:0:0:0:
448,192,156278,1,0,0:0:0:0:
64,192,156372,1,0,0:0:0:0:
320,192,156372,1,0,0:0:0:0:
448,192,156466,1,0,0:0:0:0:
320,192,156466,1,0,0:0:0:0:
192,192,156559,1,0,0:0:0:0:
64,192,156559,1,0,0:0:0:0:
320,192,156653,1,0,0:0:0:0:
448,192,156653,1,0,0:0:0:0:
192,192,156747,1,0,0:0:0:0:
64,192,156747,1,0,0:0:0:0:
320,192,156841,1,0,0:0:0:0:
192,192,156841,1,0,0:0:0:0:
320,192,156934,1,0,0:0:0:0:
448,192,156934,1,0,0:0:0:0:
64,192,157028,1,0,0:0:0:0:
192,192,157028,1,0,0:0:0:0:
192,192,157122,1,0,0:0:0:0:
320,192,157122,1,0,0:0:0:0:
320,192,157216,1,0,0:0:0:0:
448,192,157216,1,0,0:0:0:0:
64,192,157309,1,0,0:0:0:0:
192,192,157309,1,0,0:0:0:0:
320,192,157403,1,0,0:0:0:0:
448,192,157403,1,0,0:0:0:0:
192,192,157497,1,0,0:0:0:0:
64,192,157497,1,0,0:0:0:0:
448,192,157591,1,0,0:0:0:0:
320,192,157591,1,0,0:0:0:0:
64,192,157591,1,0,0:0:0:0:
448,192,157684,1,0,0:0:0:0:
320,192,157684,1,0,0:0:0:0:
448,192,157778,1,0,0:0:0:0:
320,192,157778,1,0,0:0:0:0:
448,192,157872,1,0,0:0:0:0:
320,192,157872,1,0,0:0:0:0:
448,192,157966,1,0,0:0:0:0:
320,192,157966,1,0,0:0:0:0:
64,192,157966,1,0,0:0:0:0:
192,192,157966,1,0,0:0:0:0:
320,192,158059,1,0,0:0:0:0:
448,192,158059,1,0,0:0:0:0:
448,192,158153,1,0,0:0:0:0:
320,192,158153,1,0,0:0:0:0:
448,192,158247,1,0,0:0:0:0:
320,192,158247,1,0,0:0:0:0:
448,192,158341,1,0,0:0:0:0:
64,192,158341,1,0,0:0:0:0:
192,192,158341,1,0,0:0:0:0:
64,192,158434,1,0,0:0:0:0:
192,192,158434,1,0,0:0:0:0:
64,192,158528,1,0,0:0:0:0:
192,192,158528,1,0,0:0:0:0:
192,192,158622,1,0,0:0:0:0:
64,192,158622,1,0,0:0:0:0:
448,192,158716,1,0,0:0:0:0:
320,192,158716,1,0,0:0:0:0:
64,192,158716,1,0,0:0:0:0:
192,192,158716,1,0,0:0:0:0:
64,192,158809,1,0,0:0:0:0:
192,192,158809,1,0,0:0:0:0:
64,192,158903,1,0,0:0:0:0:
192,192,158903,1,0,0:0:0:0:
192,192,158997,1,0,0:0:0:0:
64,192,158997,1,0,0:0:0:0:
448,192,159091,1,0,0:0:0:0:
320,192,159091,1,0,0:0:0:0:
64,192,159091,1,0,0:0:0:0:
192,192,159091,1,0,0:0:0:0:
320,192,159184,1,0,0:0:0:0:
448,192,159184,1,0,0:0:0:0:
448,192,159278,1,0,0:0:0:0:
320,192,159278,1,0,0:0:0:0:
448,192,159372,1,0,0:0:0:0:
320,192,159372,1,0,0:0:0:0:
64,192,159466,1,0,0:0:0:0:
192,192,159466,1,0,0:0:0:0:
448,192,159466,1,0,0:0:0:0:
320,192,159466,1,0,0:0:0:0:
448,192,159559,1,0,0:0:0:0:
192,192,159559,1,0,0:0:0:0:
320,192,159559,1,0,0:0:0:0:
448,192,159653,1,0,0:0:0:0:
320,192,159653,1,0,0:0:0:0:
192,192,159653,1,0,0:0:0:0:
320,192,159747,1,0,0:0:0:0:
448,192,159747,1,0,0:0:0:0:
192,192,159747,1,0,0:0:0:0:
448,192,159841,1,0,0:0:0:0:
320,192,159841,1,0,0:0:0:0:
64,192,159841,1,0,0:0:0:0:
192,192,159841,1,0,0:0:0:0:
64,192,159934,1,0,0:0:0:0:
192,192,159934,1,0,0:0:0:0:
320,192,159934,1,0,0:0:0:0:
320,192,160028,1,0,0:0:0:0:
64,192,160028,1,0,0:0:0:0:
192,192,160028,1,0,0:0:0:0:
320,192,160122,1,0,0:0:0:0:
64,192,160122,1,0,0:0:0:0:
192,192,160122,1,0,0:0:0:0:
64,192,160216,1,0,0:0:0:0:
192,192,160216,1,0,0:0:0:0:
448,192,160216,1,0,0:0:0:0:
320,192,160216,1,0,0:0:0:0:
448,192,160309,1,0,0:0:0:0:
192,192,160309,1,0,0:0:0:0:
320,192,160309,1,0,0:0:0:0:
64,192,160309,1,0,0:0:0:0:
448,192,160403,1,0,0:0:0:0:
320,192,160403,1,0,0:0:0:0:
64,192,160403,1,0,0:0:0:0:
192,192,160403,1,0,0:0:0:0:
320,192,160497,1,0,0:0:0:0:
64,192,160497,1,0,0:0:0:0:
448,192,160497,1,0,0:0:0:0:
192,192,160497,1,0,0:0:0:0:
192,192,160591,1,0,0:0:0:0:
448,192,160591,1,0,0:0:0:0:
320,192,160591,1,0,0:0:0:0:
448,192,160684,1,0,0:0:0:0:
192,192,160684,1,0,0:0:0:0:
320,192,160684,1,0,0:0:0:0:
320,192,160778,1,0,0:0:0:0:
64,192,160778,1,0,0:0:0:0:
192,192,160778,1,0,0:0:0:0:
320,192,160872,1,0,0:0:0:0:
64,192,160872,1,0,0:0:0:0:
192,192,160872,1,0,0:0:0:0:
64,192,160966,1,0,0:0:0:0:
448,192,160966,1,0,0:0:0:0:
320,192,160966,1,0,0:0:0:0:
448,192,161059,1,0,0:0:0:0:
320,192,161059,1,0,0:0:0:0:
64,192,161059,1,0,0:0:0:0:
448,192,161153,1,0,0:0:0:0:
64,192,161153,1,0,0:0:0:0:
192,192,161153,1,0,0:0:0:0:
64,192,161247,1,0,0:0:0:0:
448,192,161247,1,0,0:0:0:0:
192,192,161247,1,0,0:0:0:0:
64,192,161341,1,0,0:0:0:0:
448,192,161341,1,0,0:0:0:0:
320,192,161341,1,0,0:0:0:0:
448,192,161434,1,0,0:0:0:0:
320,192,161434,1,0,0:0:0:0:
64,192,161434,1,0,0:0:0:0:
64,192,161528,1,0,0:0:0:0:
192,192,161528,1,0,0:0:0:0:
320,192,161528,1,0,0:0:0:0:
192,192,161622,1,0,0:0:0:0:
320,192,161622,1,0,0:0:0:0:
64,192,161622,1,0,0:0:0:0:
448,192,161716,1,0,0:0:0:0:
320,192,161716,1,0,0:0:0:0:
64,192,161716,1,0,0:0:0:0:
192,192,161716,1,0,0:0:0:0:
64,192,161809,1,0,0:0:0:0:
192,192,161809,1,0,0:0:0:0:
448,192,161809,1,0,0:0:0:0:
320,192,161809,1,0,0:0:0:0:
448,192,161903,1,0,0:0:0:0:
192,192,161903,1,0,0:0:0:0:
320,192,161903,1,0,0:0:0:0:
64,192,161903,1,0,0:0:0:0:
448,192,161997,1,0,0:0:0:0:
320,192,161997,1,0,0:0:0:0:
64,192,161997,1,0,0:0:0:0:
192,192,161997,1,0,0:0:0:0:
448,192,162091,1,0,0:0:0:0:
320,192,162091,1,0,0:0:0:0:
192,192,162184,1,0,0:0:0:0:
64,192,162184,1,0,0:0:0:0:
448,192,162278,1,0,0:0:0:0:
320,192,162278,1,0,0:0:0:0:
64,192,162372,1,0,0:0:0:0:
192,192,162372,1,0,0:0:0:0:
448,192,162466,1,0,0:0:0:0:
64,192,162466,1,0,0:0:0:0:
192,192,162559,1,0,0:0:0:0:
320,192,162559,1,0,0:0:0:0:
64,192,162653,1,0,0:0:0:0:
448,192,162653,1,0,0:0:0:0:
192,192,162747,1,0,0:0:0:0:
320,192,162747,1,0,0:0:0:0:
320,192,162841,1,0,0:0:0:0:
448,192,162841,128,0,163403:0:0:0:0:
64,192,162841,128,0,163403:0:0:0:0:
448,192,163591,1,0,0:0:0:0:
320,192,163591,1,0,0:0:0:0:
192,192,163591,1,0,0:0:0:0:
64,192,163591,1,0,0:0:0:0:
192,192,163778,1,0,0:0:0:0:
64,192,163778,1,0,0:0:0:0:
320,192,163872,1,0,0:0:0:0:
448,192,163872,1,0,0:0:0:0:
192,192,163966,1,0,0:0:0:0:
320,192,163966,1,0,0:0:0:0:
320,192,164059,1,0,0:0:0:0:
448,192,164059,1,0,0:0:0:0:
192,192,164153,1,0,0:0:0:0:
64,192,164153,1,0,0:0:0:0:
448,192,164341,1,0,0:0:0:0:
320,192,164341,1,0,0:0:0:0:
192,192,164341,1,0,0:0:0:0:
64,192,164341,1,0,0:0:0:0:
64,192,164528,1,0,0:0:0:0:
320,192,164528,1,0,0:0:0:0:
448,192,164716,1,0,0:0:0:0:
320,192,164716,1,0,0:0:0:0:
192,192,164716,1,0,0:0:0:0:
448,192,164903,1,0,0:0:0:0:
320,192,164903,1,0,0:0:0:0:
64,192,164903,1,0,0:0:0:0:
64,192,165091,1,0,0:0:0:0:
192,192,165091,1,0,0:0:0:0:
320,192,165091,1,0,0:0:0:0:
448,192,165091,1,0,0:0:0:0:
64,192,165278,1,0,0:0:0:0:
320,192,165278,1,0,0:0:0:0:
448,192,165372,1,0,0:0:0:0:
192,192,165372,1,0,0:0:0:0:
320,192,165372,1,0,0:0:0:0:
64,192,165466,1,0,0:0:0:0:
192,192,165466,1,0,0:0:0:0:
320,192,165559,1,0,0:0:0:0:
448,192,165559,1,0,0:0:0:0:
64,192,165653,1,0,0:0:0:0:
320,192,165653,1,0,0:0:0:0:
192,192,165653,1,0,0:0:0:0:
448,192,165747,1,0,0:0:0:0:
320,192,165747,1,0,0:0:0:0:
64,192,165841,1,0,0:0:0:0:
192,192,165841,1,0,0:0:0:0:
448,192,165841,1,0,0:0:0:0:
64,192,166091,1,0,0:0:0:0:
320,192,166091,1,0,0:0:0:0:
448,192,166184,1,0,0:0:0:0:
320,192,166184,1,0,0:0:0:0:
192,192,166184,1,0,0:0:0:0:
448,192,166403,1,0,0:0:0:0:
64,192,166403,1,0,0:0:0:0:
320,192,166403,1,0,0:0:0:0:
320,192,166591,1,0,0:0:0:0:
448,192,166591,1,0,0:0:0:0:
192,192,166591,1,0,0:0:0:0:
64,192,166591,1,0,0:0:0:0:
320,192,166778,1,0,0:0:0:0:
64,192,166778,1,0,0:0:0:0:
192,192,166872,1,0,0:0:0:0:
448,192,166872,1,0,0:0:0:0:
192,192,166966,1,0,0:0:0:0:
320,192,166966,1,0,0:0:0:0:
64,192,166966,1,0,0:0:0:0:
448,192,167153,1,0,0:0:0:0:
320,192,167153,1,0,0:0:0:0:
64,192,167153,1,0,0:0:0:0:
448,192,167341,1,0,0:0:0:0:
320,192,167341,1,0,0:0:0:0:
192,192,167341,1,0,0:0:0:0:
64,192,167341,1,0,0:0:0:0:
320,192,167528,1,0,0:0:0:0:
448,192,167528,1,0,0:0:0:0:
64,192,167528,1,0,0:0:0:0:
192,192,167716,1,0,0:0:0:0:
320,192,167716,1,0,0:0:0:0:
64,192,167716,1,0,0:0:0:0:
448,192,167903,1,0,0:0:0:0:
192,192,167903,1,0,0:0:0:0:
320,192,167997,1,0,0:0:0:0:
64,192,167997,1,0,0:0:0:0:
192,192,168091,1,0,0:0:0:0:
64,192,168091,1,0,0:0:0:0:
448,192,168091,128,0,168278:0:0:0:0:
192,192,168278,1,0,0:0:0:0:
448,192,168372,128,0,168559:0:0:0:0:
320,192,168372,1,0,0:0:0:0:
64,192,168466,1,0,0:0:0:0:
192,192,168466,1,0,0:0:0:0:
192,192,168653,1,0,0:0:0:0:
448,192,168653,128,0,168841:0:0:0:0:
320,192,168653,1,0,0:0:0:0:
64,192,168653,1,0,0:0:0:0:
320,192,168841,1,0,0:0:0:0:
64,192,168841,1,0,0:0:0:0:
448,192,168934,1,0,0:0:0:0:
192,192,168934,1,0,0:0:0:0:
320,192,169028,1,0,0:0:0:0:
64,192,169028,1,0,0:0:0:0:
448,192,169122,1,0,0:0:0:0:
192,192,169122,1,0,0:0:0:0:
192,192,169216,1,0,0:0:0:0:
64,192,169216,1,0,0:0:0:0:
320,192,169216,1,0,0:0:0:0:
64,192,169403,1,0,0:0:0:0:
320,192,169403,1,0,0:0:0:0:
448,192,169591,1,0,0:0:0:0:
320,192,169591,1,0,0:0:0:0:
192,192,169591,1,0,0:0:0:0:
64,192,169591,1,0,0:0:0:0:
64,192,169778,1,0,0:0:0:0:
192,192,169778,1,0,0:0:0:0:
448,192,169872,1,0,0:0:0:0:
320,192,169872,1,0,0:0:0:0:
64,192,169966,1,0,0:0:0:0:
192,192,169966,1,0,0:0:0:0:
448,192,170059,1,0,0:0:0:0:
192,192,170059,1,0,0:0:0:0:
448,192,170153,1,0,0:0:0:0:
320,192,170153,1,0,0:0:0:0:
64,192,170153,1,0,0:0:0:0:
448,192,170341,1,0,0:0:0:0:
320,192,170341,1,0,0:0:0:0:
192,192,170341,1,0,0:0:0:0:
64,192,170341,1,0,0:0:0:0:
320,192,170528,1,0,0:0:0:0:
448,192,170528,1,0,0:0:0:0:
64,192,170528,1,0,0:0:0:0:
192,192,170622,1,0,0:0:0:0:
64,192,170622,1,0,0:0:0:0:
192,192,170716,1,0,0:0:0:0:
64,192,170716,1,0,0:0:0:0:
320,192,170903,1,0,0:0:0:0:
192,192,170903,1,0,0:0:0:0:
448,192,171091,1,0,0:0:0:0:
320,192,171091,1,0,0:0:0:0:
64,192,171091,1,0,0:0:0:0:
192,192,171278,1,0,0:0:0:0:
64,192,171278,1,0,0:0:0:0:
448,192,171372,1,0,0:0:0:0:
320,192,171372,1,0,0:0:0:0:
64,192,171466,1,0,0:0:0:0:
320,192,171466,1,0,0:0:0:0:
192,192,171559,1,0,0:0:0:0:
448,192,171559,1,0,0:0:0:0:
64,192,171653,1,0,0:0:0:0:
192,192,171653,1,0,0:0:0:0:
320,192,171747,1,0,0:0:0:0:
448,192,171747,1,0,0:0:0:0:
192,192,171841,1,0,0:0:0:0:
64,192,171841,1,0,0:0:0:0:
448,192,171934,1,0,0:0:0:0:
320,192,172028,1,0,0:0:0:0:
64,192,172028,1,0,0:0:0:0:
448,192,172122,1,0,0:0:0:0:
192,192,172122,1,0,0:0:0:0:
64,192,172216,1,0,0:0:0:0:
192,192,172216,1,0,0:0:0:0:
448,192,172216,1,0,0:0:0:0:
448,192,172403,1,0,0:0:0:0:
320,192,172497,1,0,0:0:0:0:
64,192,172497,1,0,0:0:0:0:
320,192,172591,1,0,0:0:0:0:
448,192,172591,1,0,0:0:0:0:
192,192,172591,1,0,0:0:0:0:
64,192,172591,1,0,0:0:0:0:
448,192,172778,1,0,0:0:0:0:
192,192,172872,1,0,0:0:0:0:
192,192,172966,1,0,0:0:0:0:
64,192,172966,1,0,0:0:0:0:
320,192,172966,1,0,0:0:0:0:
448,192,173153,1,0,0:0:0:0:
64,192,173153,1,0,0:0:0:0:
320,192,173153,1,0,0:0:0:0:
192,192,173341,1,0,0:0:0:0:
448,192,173341,1,0,0:0:0:0:
320,192,173341,1,0,0:0:0:0:
64,192,173341,1,0,0:0:0:0:
320,192,173528,1,0,0:0:0:0:
448,192,173528,1,0,0:0:0:0:
192,192,173622,1,0,0:0:0:0:
64,192,173622,1,0,0:0:0:0:
192,192,173716,1,0,0:0:0:0:
64,192,173716,1,0,0:0:0:0:
320,192,173716,1,0,0:0:0:0:
448,192,173903,1,0,0:0:0:0:
192,192,173903,1,0,0:0:0:0:
192,192,173997,1,0,0:0:0:0:
64,192,173997,1,0,0:0:0:0:
320,192,174091,1,0,0:0:0:0:
448,192,174091,1,0,0:0:0:0:
64,192,174278,1,0,0:0:0:0:
320,192,174372,1,0,0:0:0:0:
448,192,174372,1,0,0:0:0:0:
192,192,174372,1,0,0:0:0:0:
192,192,174559,1,0,0:0:0:0:
320,192,174653,1,0,0:0:0:0:
448,192,174653,1,0,0:0:0:0:
64,192,174653,1,0,0:0:0:0:
320,192,174747,1,0,0:0:0:0:
64,192,174841,1,0,0:0:0:0:
192,192,174841,1,0,0:0:0:0:
448,192,174934,1,0,0:0:0:0:
320,192,174934,1,0,0:0:0:0:
64,192,175028,1,0,0:0:0:0:
320,192,175028,1,0,0:0:0:0:
192,192,175122,5,0,0:0:0:0:
448,192,175122,1,0,0:0:0:0:
448,192,175216,5,0,0:0:0:0:
320,192,175216,1,0,0:0:0:0:
64,192,175216,1,0,0:0:0:0:
320,192,175309,5,0,0:0:0:0:
448,192,175309,1,0,0:0:0:0:
64,192,175403,5,0,0:0:0:0:
192,192,175403,1,0,0:0:0:0:
64,192,175497,5,0,0:0:0:0:
192,192,175497,1,0,0:0:0:0:
320,192,175591,1,0,0:0:0:0:
448,192,175591,128,0,175614:0:0:0:0:
448,192,175684,128,0,175708:0:0:0:0:
64,192,175684,1,0,0:0:0:0:
448,192,175778,128,0,175801:0:0:0:0:
192,192,175778,1,0,0:0:0:0:
448,192,175872,128,0,175895:0:0:0:0:
64,192,175872,1,0,0:0:0:0:
448,192,175966,128,0,175989:0:0:0:0:
320,192,175966,128,0,175989:0:0:0:0:
192,192,175966,1,0,0:0:0:0:
64,192,176059,1,0,0:0:0:0:
192,192,176153,1,0,0:0:0:0:
320,192,176153,1,0,0:0:0:0:
320,192,176247,1,0,0:0:0:0:
448,192,176247,1,0,0:0:0:0:
64,192,176247,1,0,0:0:0:0:
192,192,176341,128,0,176364:0:0:0:0:
64,192,176341,1,0,0:0:0:0:
192,192,176434,128,0,176458:0:0:0:0:
320,192,176434,1,0,0:0:0:0:
192,192,176528,128,0,176551:0:0:0:0:
448,192,176528,1,0,0:0:0:0:
192,192,176622,128,0,176645:0:0:0:0:
320,192,176622,1,0,0:0:0:0:
192,192,176716,128,0,176739:0:0:0:0:
448,192,176716,128,0,176739:0:0:0:0:
64,192,176716,1,0,0:0:0:0:
320,192,176809,1,0,0:0:0:0:
192,192,176903,1,0,0:0:0:0:
64,192,176903,1,0,0:0:0:0:
448,192,176903,1,0,0:0:0:0:
448,192,176997,1,0,0:0:0:0:
320,192,176997,1,0,0:0:0:0:
64,192,177091,128,0,177114:0:0:0:0:
192,192,177091,128,0,177114:0:0:0:0:
64,192,177184,128,0,177208:0:0:0:0:
192,192,177184,128,0,177208:0:0:0:0:
320,192,177278,128,0,177301:0:0:0:0:
448,192,177278,128,0,177301:0:0:0:0:
320,192,177372,128,0,177395:0:0:0:0:
448,192,177372,128,0,177395:0:0:0:0:
192,192,177466,128,0,177489:0:0:0:0:
64,192,177466,128,0,177489:0:0:0:0:
64,192,177559,128,0,177583:0:0:0:0:
192,192,177559,128,0,177583:0:0:0:0:
320,192,177653,128,0,177676:0:0:0:0:
448,192,177653,128,0,177676:0:0:0:0:
320,192,177747,128,0,177770:0:0:0:0:
448,192,177747,128,0,177770:0:0:0:0:
192,192,177841,128,0,177864:0:0:0:0:
64,192,177841,128,0,177864:0:0:0:0:
320,192,177841,1,0,0:0:0:0:
448,192,177934,128,0,178028:0:0:0:0:
192,192,178028,128,0,178122:0:0:0:0:
320,192,178028,1,0,0:0:0:0:
64,192,178122,128,0,178216:0:0:0:0:
448,192,178216,128,0,178309:0:0:0:0:
320,192,178216,1,0,0:0:0:0:
192,192,178309,128,0,178403:0:0:0:0:
64,192,178309,1,0,0:0:0:0:
448,192,178403,128,0,178497:0:0:0:0:
320,192,178403,1,0,0:0:0:0:
320,192,178497,128,0,178591:0:0:0:0:
192,192,178497,1,0,0:0:0:0:
64,192,178591,128,0,178614:0:0:0:0:
448,192,178591,1,0,0:0:0:0:
64,192,178684,128,0,178708:0:0:0:0:
192,192,178684,1,0,0:0:0:0:
64,192,178778,128,0,178801:0:0:0:0:
448,192,178778,1,0,0:0:0:0:
64,192,178872,128,0,178895:0:0:0:0:
192,192,178872,128,0,178895:0:0:0:0:
320,192,178872,1,0,0:0:0:0:
64,192,178966,128,0,178989:0:0:0:0:
192,192,178966,128,0,178989:0:0:0:0:
448,192,178966,1,0,0:0:0:0:
320,192,179059,1,0,0:0:0:0:
64,192,179153,1,0,0:0:0:0:
192,192,179247,1,0,0:0:0:0:
320,192,179341,128,0,179364:0:0:0:0:
448,192,179341,1,0,0:0:0:0:
320,192,179434,128,0,179458:0:0:0:0:
64,192,179434,1,0,0:0:0:0:
320,192,179528,128,0,179551:0:0:0:0:
192,192,179528,1,0,0:0:0:0:
320,192,179622,128,0,179645:0:0:0:0:
448,192,179622,128,0,179645:0:0:0:0:
64,192,179622,1,0,0:0:0:0:
448,192,179716,128,0,179739:0:0:0:0:
320,192,179716,128,0,179739:0:0:0:0:
192,192,179716,1,0,0:0:0:0:
64,192,179809,1,0,0:0:0:0:
64,192,179903,1,0,0:0:0:0:
192,192,179903,1,0,0:0:0:0:
320,192,179997,1,0,0:0:0:0:
448,192,179997,1,0,0:0:0:0:
192,192,179997,1,0,0:0:0:0:
64,192,180091,128,0,180114:0:0:0:0:
448,192,180091,128,0,180114:0:0:0:0:
320,192,180184,128,0,180208:0:0:0:0:
448,192,180184,128,0,180208:0:0:0:0:
320,192,180278,128,0,180301:0:0:0:0:
192,192,180278,128,0,180301:0:0:0:0:
192,192,180372,128,0,180395:0:0:0:0:
64,192,180372,128,0,180395:0:0:0:0:
64,192,180466,128,0,180489:0:0:0:0:
448,192,180466,128,0,180489:0:0:0:0:
320,192,180559,128,0,180583:0:0:0:0:
448,192,180559,128,0,180583:0:0:0:0:
320,192,180653,128,0,180676:0:0:0:0:
192,192,180653,128,0,180676:0:0:0:0:
192,192,180747,128,0,180770:0:0:0:0:
64,192,180747,128,0,180770:0:0:0:0:
192,192,180841,1,0,0:0:0:0:
448,192,180841,1,0,0:0:0:0:
64,192,180841,128,0,180864:0:0:0:0:
320,192,180934,1,0,0:0:0:0:
64,192,181028,1,0,0:0:0:0:
192,192,181028,1,0,0:0:0:0:
448,192,181122,1,0,0:0:0:0:
320,192,181122,1,0,0:0:0:0:
320,192,181216,1,0,0:0:0:0:
192,192,181216,1,0,0:0:0:0:
64,192,181216,1,0,0:0:0:0:
448,192,181309,1,0,0:0:0:0:
192,192,181403,1,0,0:0:0:0:
320,192,181403,1,0,0:0:0:0:
64,192,181403,1,0,0:0:0:0:
448,192,181497,1,0,0:0:0:0:
192,192,181591,128,0,181614:0:0:0:0:
64,192,181591,128,0,181614:0:0:0:0:
320,192,181591,1,0,0:0:0:0:
64,192,181684,128,0,181708:0:0:0:0:
192,192,181684,128,0,181708:0:0:0:0:
320,192,181684,1,0,0:0:0:0:
64,192,181778,128,0,181801:0:0:0:0:
192,192,181778,128,0,181801:0:0:0:0:
448,192,181778,1,0,0:0:0:0:
64,192,181872,128,0,181895:0:0:0:0:
192,192,181872,128,0,181895:0:0:0:0:
320,192,181872,1,0,0:0:0:0:
64,192,181966,128,0,181989:0:0:0:0:
192,192,181966,128,0,181989:0:0:0:0:
448,192,181966,1,0,0:0:0:0:
320,192,182059,1,0,0:0:0:0:
64,192,182153,1,0,0:0:0:0:
448,192,182153,1,0,0:0:0:0:
192,192,182247,1,0,0:0:0:0:
320,192,182341,128,0,182364:0:0:0:0:
448,192,182341,128,0,182364:0:0:0:0:
64,192,182341,1,0,0:0:0:0:
320,192,182434,128,0,182458:0:0:0:0:
448,192,182434,128,0,182458:0:0:0:0:
192,192,182434,1,0,0:0:0:0:
320,192,182528,128,0,182551:0:0:0:0:
448,192,182528,128,0,182551:0:0:0:0:
64,192,182528,1,0,0:0:0:0:
320,192,182622,128,0,182645:0:0:0:0:
448,192,182622,128,0,182645:0:0:0:0:
64,192,182622,1,0,0:0:0:0:
320,192,182716,128,0,182739:0:0:0:0:
448,192,182716,128,0,182739:0:0:0:0:
192,192,182716,1,0,0:0:0:0:
64,192,182809,1,0,0:0:0:0:
192,192,182903,1,0,0:0:0:0:
320,192,182903,1,0,0:0:0:0:
448,192,182997,1,0,0:0:0:0:
192,192,183091,128,0,183114:0:0:0:0:
64,192,183091,128,0,183114:0:0:0:0:
320,192,183091,1,0,0:0:0:0:
64,192,183184,128,0,183208:0:0:0:0:
192,192,183184,128,0,183208:0:0:0:0:
320,192,183278,128,0,183301:0:0:0:0:
448,192,183278,128,0,183301:0:0:0:0:
448,192,183372,128,0,183395:0:0:0:0:
64,192,183372,128,0,183395:0:0:0:0:
192,192,183466,128,0,183489:0:0:0:0:
320,192,183466,128,0,183489:0:0:0:0:
320,192,183559,128,0,183583:0:0:0:0:
192,192,183559,128,0,183583:0:0:0:0:
320,192,183653,128,0,183676:0:0:0:0:
448,192,183653,128,0,183676:0:0:0:0:
64,192,183653,128,0,183676:0:0:0:0:
64,192,183747,128,0,183770:0:0:0:0:
320,192,183747,128,0,183770:0:0:0:0:
448,192,183747,128,0,183770:0:0:0:0:
192,192,183841,128,0,183864:0:0:0:0:
64,192,183841,128,0,183864:0:0:0:0:
320,192,183934,1,0,0:0:0:0:
64,192,184028,1,0,0:0:0:0:
192,192,184028,1,0,0:0:0:0:
448,192,184028,1,0,0:0:0:0:
192,192,184122,1,0,0:0:0:0:
64,192,184122,1,0,0:0:0:0:
320,192,184122,1,0,0:0:0:0:
64,192,184216,1,0,0:0:0:0:
448,192,184216,1,0,0:0:0:0:
192,192,184216,1,0,0:0:0:0:
320,192,184309,1,0,0:0:0:0:
448,192,184403,1,0,0:0:0:0:
192,192,184403,1,0,0:0:0:0:
320,192,184497,1,0,0:0:0:0:
64,192,184497,1,0,0:0:0:0:
448,192,184591,1,0,0:0:0:0:
192,192,184591,128,0,184614:0:0:0:0:
64,192,184591,128,0,184614:0:0:0:0:
192,192,184684,128,0,184708:0:0:0:0:
64,192,184684,128,0,184708:0:0:0:0:
320,192,184778,1,0,0:0:0:0:
448,192,184778,128,0,184801:0:0:0:0:
448,192,184872,1,0,0:0:0:0:
192,192,184872,128,0,184895:0:0:0:0:
64,192,184872,128,0,184895:0:0:0:0:
64,192,184966,1,0,0:0:0:0:
192,192,184966,1,0,0:0:0:0:
320,192,184966,1,0,0:0:0:0:
448,192,184966,1,0,0:0:0:0:
64,192,185059,1,0,0:0:0:0:
320,192,185153,1,0,0:0:0:0:
192,192,185153,1,0,0:0:0:0:
448,192,185153,1,0,0:0:0:0:
64,192,185247,1,0,0:0:0:0:
192,192,185341,1,0,0:0:0:0:
320,192,185341,128,0,185364:0:0:0:0:
448,192,185341,128,0,185364:0:0:0:0:
64,192,185434,1,0,0:0:0:0:
320,192,185434,128,0,185458:0:0:0:0:
448,192,185434,128,0,185458:0:0:0:0:
320,192,185528,128,0,185551:0:0:0:0:
448,192,185528,128,0,185551:0:0:0:0:
192,192,185528,128,0,185551:0:0:0:0:
64,192,185622,128,0,185645:0:0:0:0:
320,192,185622,128,0,185645:0:0:0:0:
448,192,185622,128,0,185645:0:0:0:0:
192,192,185716,1,0,0:0:0:0:
64,192,185716,1,0,0:0:0:0:
448,192,185716,128,0,185739:0:0:0:0:
320,192,185716,128,0,185739:0:0:0:0:
192,192,185809,1,0,0:0:0:0:
448,192,185903,1,0,0:0:0:0:
320,192,185903,1,0,0:0:0:0:
448,192,185997,1,0,0:0:0:0:
320,192,185997,1,0,0:0:0:0:
192,192,185997,1,0,0:0:0:0:
64,192,185997,1,0,0:0:0:0:
192,192,186091,1,0,0:0:0:0:
64,192,186091,1,0,0:0:0:0:
448,192,186091,128,0,186137:0:0:0:0:
320,192,186184,128,0,186231:0:0:0:0:
448,192,186184,128,0,186419:0:0:0:0:
192,192,186278,128,0,186325:0:0:0:0:
320,192,186278,128,0,186512:0:0:0:0:
192,192,186372,128,0,186606:0:0:0:0:
64,192,186372,128,0,186419:0:0:0:0:
448,192,186466,128,0,186512:0:0:0:0:
64,192,186466,128,0,186700:0:0:0:0:
320,192,186559,128,0,186606:0:0:0:0:
448,192,186559,128,0,186794:0:0:0:0:
192,192,186653,128,0,186700:0:0:0:0:
320,192,186653,128,0,186794:0:0:0:0:
64,192,186747,128,0,186794:0:0:0:0:
192,192,186747,128,0,186981:0:0:0:0:
64,192,186841,128,0,186981:0:0:0:0:
320,192,186841,128,0,186911:0:0:0:0:
448,192,186841,128,0,186911:0:0:0:0:
320,192,186934,128,0,187192:0:0:0:0:
448,192,186934,128,0,187192:0:0:0:0:
192,192,187028,128,0,187098:0:0:0:0:
64,192,187028,128,0,187098:0:0:0:0:
192,192,187122,128,0,187380:0:0:0:0:
64,192,187122,128,0,187380:0:0:0:0:
320,192,187216,128,0,187286:0:0:0:0:
448,192,187216,128,0,187286:0:0:0:0:
448,192,187309,128,0,187473:0:0:0:0:
320,192,187309,128,0,187473:0:0:0:0:
192,192,187403,128,0,187473:0:0:0:0:
64,192,187403,128,0,187473:0:0:0:0:
64,192,187497,128,0,187567:0:0:0:0:
192,192,187497,128,0,187567:0:0:0:0:
320,192,187497,128,0,187567:0:0:0:0:
448,192,187497,128,0,187567:0:0:0:0:
448,192,187591,1,0,0:0:0:0:
320,192,187591,1,0,0:0:0:0:
192,192,187591,1,0,0:0:0:0:
64,192,187591,1,0,0:0:0:0:
64,192,193591,5,0,0:0:0:0:
320,192,193684,1,0,0:0:0:0:
192,192,193684,1,0,0:0:0:0:
448,192,193778,128,0,194059:0:0:0:0:
64,192,193778,1,0,0:0:0:0:
320,192,193966,1,0,0:0:0:0:
64,192,194059,1,0,0:0:0:0:
320,192,194153,1,0,0:0:0:0:
448,192,194153,128,0,194434:0:0:0:0:
192,192,194153,1,0,0:0:0:0:
64,192,194247,1,0,0:0:0:0:
192,192,194341,1,0,0:0:0:0:
64,192,194434,1,0,0:0:0:0:
320,192,194434,1,0,0:0:0:0:
448,192,194528,128,0,194809:0:0:0:0:
192,192,194528,1,0,0:0:0:0:
320,192,194622,1,0,0:0:0:0:
192,192,194716,1,0,0:0:0:0:
64,192,194716,1,0,0:0:0:0:
320,192,194809,1,0,0:0:0:0:
448,192,194903,128,0,195184:0:0:0:0:
192,192,194903,1,0,0:0:0:0:
64,192,194903,1,0,0:0:0:0:
320,192,194997,1,0,0:0:0:0:
64,192,195091,1,0,0:0:0:0:
320,192,195184,1,0,0:0:0:0:
192,192,195278,1,0,0:0:0:0:
64,192,195278,128,0,195466:0:0:0:0:
448,192,195278,1,0,0:0:0:0:
320,192,195466,1,0,0:0:0:0:
448,192,195559,1,0,0:0:0:0:
192,192,195653,1,0,0:0:0:0:
64,192,195653,128,0,195841:0:0:0:0:
320,192,195653,1,0,0:0:0:0:
448,192,195747,1,0,0:0:0:0:
192,192,195841,1,0,0:0:0:0:
448,192,195934,1,0,0:0:0:0:
320,192,195934,1,0,0:0:0:0:
64,192,196028,128,0,196122:0:0:0:0:
192,192,196028,1,0,0:0:0:0:
448,192,196122,1,0,0:0:0:0:
320,192,196122,1,0,0:0:0:0:
448,192,196216,1,0,0:0:0:0:
192,192,196216,1,0,0:0:0:0:
320,192,196309,1,0,0:0:0:0:
64,192,196403,1,0,0:0:0:0:
192,192,196403,1,0,0:0:0:0:
320,192,196497,1,0,0:0:0:0:
448,192,196591,1,0,0:0:0:0:
320,192,196591,1,0,0:0:0:0:
64,192,196591,1,0,0:0:0:0:
192,192,196591,1,0,0:0:0:0:
448,192,196778,1,0,0:0:0:0:
64,192,196778,1,0,0:0:0:0:
320,192,196778,128,0,196966:0:0:0:0:
64,192,196966,1,0,0:0:0:0:
192,192,196966,128,0,197153:0:0:0:0:
448,192,197153,1,0,0:0:0:0:
64,192,197153,1,0,0:0:0:0:
320,192,197153,128,0,197341:0:0:0:0:
448,192,197341,1,0,0:0:0:0:
64,192,197341,1,0,0:0:0:0:
64,192,197528,1,0,0:0:0:0:
192,192,197528,128,0,197716:0:0:0:0:
320,192,197528,128,0,197716:0:0:0:0:
448,192,197716,1,0,0:0:0:0:
64,192,197716,1,0,0:0:0:0:
64,192,197903,1,0,0:0:0:0:
192,192,197903,128,0,197997:0:0:0:0:
320,192,197903,128,0,197997:0:0:0:0:
320,192,198091,1,0,0:0:0:0:
448,192,198091,1,0,0:0:0:0:
192,192,198184,1,0,0:0:0:0:
64,192,198184,1,0,0:0:0:0:
448,192,198278,1,0,0:0:0:0:
320,192,198278,1,0,0:0:0:0:
64,192,198372,1,0,0:0:0:0:
192,192,198372,1,0,0:0:0:0:
448,192,198466,1,0,0:0:0:0:
320,192,198466,1,0,0:0:0:0:
64,192,198512,1,0,0:0:0:0:
320,192,198559,1,0,0:0:0:0:
192,192,198606,1,0,0:0:0:0:
448,192,198606,1,0,0:0:0:0:
320,192,198700,1,0,0:0:0:0:
64,192,198794,1,0,0:0:0:0:
192,192,198841,1,0,0:0:0:0:
320,192,198841,1,0,0:0:0:0:
448,192,198887,1,0,0:0:0:0:
64,192,198934,1,0,0:0:0:0:
192,192,198934,1,0,0:0:0:0:
64,192,199028,1,0,0:0:0:0:
192,192,199075,5,0,0:0:0:0:
448,192,199122,1,0,0:0:0:0:
320,192,199122,1,0,0:0:0:0:
192,192,199169,1,0,0:0:0:0:
64,192,199216,1,0,0:0:0:0:
448,192,199262,1,0,0:0:0:0:
192,192,199309,1,0,0:0:0:0:
320,192,199356,1,0,0:0:0:0:
64,192,199403,1,0,0:0:0:0:
448,192,199450,1,0,0:0:0:0:
192,192,199497,1,0,0:0:0:0:
320,192,199544,1,0,0:0:0:0:
192,192,199591,1,0,0:0:0:0:
448,192,199591,1,0,0:0:0:0:
64,192,199591,1,0,0:0:0:0:
320,192,199684,1,0,0:0:0:0:
64,192,199778,1,0,0:0:0:0:
192,192,199778,1,0,0:0:0:0:
192,192,199966,1,0,0:0:0:0:
64,192,199966,1,0,0:0:0:0:
320,192,200059,1,0,0:0:0:0:
192,192,200153,1,0,0:0:0:0:
448,192,200153,1,0,0:0:0:0:
64,192,200153,1,0,0:0:0:0:
320,192,200341,1,0,0:0:0:0:
192,192,200341,1,0,0:0:0:0:
64,192,200434,1,0,0:0:0:0:
320,192,200528,1,0,0:0:0:0:
448,192,200528,1,0,0:0:0:0:
320,192,200716,1,0,0:0:0:0:
64,192,200716,1,0,0:0:0:0:
192,192,200809,1,0,0:0:0:0:
448,192,200903,1,0,0:0:0:0:
320,192,200903,1,0,0:0:0:0:
192,192,201091,1,0,0:0:0:0:
320,192,201184,1,0,0:0:0:0:
64,192,201184,1,0,0:0:0:0:
448,192,201278,1,0,0:0:0:0:
192,192,201278,1,0,0:0:0:0:
192,192,201466,1,0,0:0:0:0:
64,192,201466,1,0,0:0:0:0:
320,192,201559,1,0,0:0:0:0:
192,192,201653,1,0,0:0:0:0:
448,192,201653,1,0,0:0:0:0:
64,192,201653,1,0,0:0:0:0:
320,192,201841,1,0,0:0:0:0:
448,192,201841,1,0,0:0:0:0:
192,192,201934,1,0,0:0:0:0:
320,192,202028,1,0,0:0:0:0:
448,192,202028,1,0,0:0:0:0:
64,192,202028,1,0,0:0:0:0:
320,192,202216,1,0,0:0:0:0:
64,192,202216,1,0,0:0:0:0:
192,192,202309,1,0,0:0:0:0:
448,192,202403,1,0,0:0:0:0:
320,192,202403,1,0,0:0:0:0:
192,192,202403,1,0,0:0:0:0:
64,192,202403,1,0,0:0:0:0:
448,192,202591,1,0,0:0:0:0:
320,192,202591,1,0,0:0:0:0:
192,192,202591,1,0,0:0:0:0:
64,192,202591,1,0,0:0:0:0:
448,192,202684,1,0,0:0:0:0:
64,192,202778,1,0,0:0:0:0:
192,192,202778,1,0,0:0:0:0:
320,192,202872,1,0,0:0:0:0:
192,192,202966,1,0,0:0:0:0:
448,192,202966,1,0,0:0:0:0:
64,192,203059,1,0,0:0:0:0:
192,192,203153,1,0,0:0:0:0:
320,192,203247,1,0,0:0:0:0:
448,192,203247,1,0,0:0:0:0:
448,192,203341,1,0,0:0:0:0:
320,192,203341,1,0,0:0:0:0:
64,192,203341,1,0,0:0:0:0:
192,192,203341,1,0,0:0:0:0:
192,192,203434,1,0,0:0:0:0:
64,192,203528,1,0,0:0:0:0:
320,192,203528,1,0,0:0:0:0:
448,192,203622,1,0,0:0:0:0:
192,192,203716,1,0,0:0:0:0:
448,192,203809,1,0,0:0:0:0:
64,192,203809,1,0,0:0:0:0:
320,192,203809,1,0,0:0:0:0:
64,192,203903,1,0,0:0:0:0:
192,192,203903,1,0,0:0:0:0:
320,192,203903,1,0,0:0:0:0:
448,192,203903,1,0,0:0:0:0:
192,192,203997,1,0,0:0:0:0:
448,192,204091,1,0,0:0:0:0:
320,192,204091,1,0,0:0:0:0:
64,192,204091,1,0,0:0:0:0:
192,192,204091,1,0,0:0:0:0:
64,192,204184,1,0,0:0:0:0:
192,192,204278,1,0,0:0:0:0:
320,192,204372,1,0,0:0:0:0:
448,192,204372,1,0,0:0:0:0:
64,192,204466,1,0,0:0:0:0:
192,192,204466,1,0,0:0:0:0:
448,192,204559,1,0,0:0:0:0:
320,192,204559,1,0,0:0:0:0:
192,192,204653,1,0,0:0:0:0:
320,192,204747,1,0,0:0:0:0:
320,192,204841,1,0,0:0:0:0:
448,192,204841,1,0,0:0:0:0:
192,192,204841,1,0,0:0:0:0:
64,192,204841,1,0,0:0:0:0:
192,192,204934,1,0,0:0:0:0:
320,192,205028,1,0,0:0:0:0:
448,192,205122,1,0,0:0:0:0:
320,192,205216,1,0,0:0:0:0:
448,192,205216,1,0,0:0:0:0:
192,192,205216,1,0,0:0:0:0:
64,192,205216,1,0,0:0:0:0:
64,192,205309,1,0,0:0:0:0:
192,192,205309,1,0,0:0:0:0:
448,192,205403,1,0,0:0:0:0:
448,192,205497,1,0,0:0:0:0:
320,192,205591,1,0,0:0:0:0:
64,192,205591,1,0,0:0:0:0:
448,192,205591,1,0,0:0:0:0:
192,192,205684,1,0,0:0:0:0:
64,192,205778,1,0,0:0:0:0:
192,192,205778,1,0,0:0:0:0:
320,192,205778,1,0,0:0:0:0:
192,192,205966,1,0,0:0:0:0:
64,192,205966,1,0,0:0:0:0:
320,192,206059,1,0,0:0:0:0:
320,192,206153,1,0,0:0:0:0:
192,192,206153,1,0,0:0:0:0:
448,192,206153,1,0,0:0:0:0:
320,192,206341,1,0,0:0:0:0:
64,192,206341,1,0,0:0:0:0:
192,192,206434,1,0,0:0:0:0:
192,192,206528,1,0,0:0:0:0:
64,192,206528,1,0,0:0:0:0:
448,192,206528,1,0,0:0:0:0:
448,192,206716,1,0,0:0:0:0:
64,192,206716,1,0,0:0:0:0:
320,192,206716,1,0,0:0:0:0:
192,192,206809,1,0,0:0:0:0:
64,192,206903,1,0,0:0:0:0:
192,192,206903,1,0,0:0:0:0:
448,192,206903,1,0,0:0:0:0:
64,192,207091,1,0,0:0:0:0:
320,192,207091,1,0,0:0:0:0:
448,192,207091,1,0,0:0:0:0:
320,192,207184,1,0,0:0:0:0:
64,192,207278,1,0,0:0:0:0:
448,192,207278,1,0,0:0:0:0:
192,192,207278,1,0,0:0:0:0:
192,192,207466,1,0,0:0:0:0:
320,192,207466,1,0,0:0:0:0:
448,192,207466,1,0,0:0:0:0:
64,192,207559,1,0,0:0:0:0:
192,192,207653,1,0,0:0:0:0:
64,192,207653,1,0,0:0:0:0:
448,192,207653,1,0,0:0:0:0:
64,192,207841,1,0,0:0:0:0:
192,192,207841,1,0,0:0:0:0:
448,192,207841,1,0,0:0:0:0:
192,192,207934,1,0,0:0:0:0:
64,192,207934,1,0,0:0:0:0:
320,192,207934,1,0,0:0:0:0:
64,192,208028,1,0,0:0:0:0:
192,192,208028,1,0,0:0:0:0:
448,192,208028,1,0,0:0:0:0:
448,192,208216,1,0,0:0:0:0:
320,192,208216,1,0,0:0:0:0:
192,192,208216,1,0,0:0:0:0:
320,192,208309,1,0,0:0:0:0:
448,192,208309,1,0,0:0:0:0:
64,192,208309,1,0,0:0:0:0:
448,192,208403,1,0,0:0:0:0:
320,192,208403,1,0,0:0:0:0:
64,192,208403,1,0,0:0:0:0:
192,192,208403,1,0,0:0:0:0:
64,192,208591,1,0,0:0:0:0:
192,192,208591,1,0,0:0:0:0:
320,192,208591,1,0,0:0:0:0:
448,192,208591,1,0,0:0:0:0:
64,192,208684,1,0,0:0:0:0:
192,192,208778,1,0,0:0:0:0:
320,192,208778,1,0,0:0:0:0:
448,192,208778,1,0,0:0:0:0:
192,192,208872,1,0,0:0:0:0:
320,192,208966,1,0,0:0:0:0:
64,192,208966,1,0,0:0:0:0:
448,192,208966,1,0,0:0:0:0:
320,192,209059,1,0,0:0:0:0:
448,192,209153,1,0,0:0:0:0:
192,192,209153,1,0,0:0:0:0:
64,192,209153,1,0,0:0:0:0:
448,192,209247,1,0,0:0:0:0:
64,192,209341,1,0,0:0:0:0:
192,192,209341,1,0,0:0:0:0:
320,192,209341,1,0,0:0:0:0:
64,192,209434,1,0,0:0:0:0:
320,192,209528,1,0,0:0:0:0:
448,192,209528,1,0,0:0:0:0:
192,192,209528,1,0,0:0:0:0:
320,192,209622,1,0,0:0:0:0:
192,192,209716,1,0,0:0:0:0:
64,192,209716,1,0,0:0:0:0:
448,192,209716,1,0,0:0:0:0:
192,192,209809,1,0,0:0:0:0:
448,192,209903,1,0,0:0:0:0:
64,192,209903,1,0,0:0:0:0:
320,192,209903,1,0,0:0:0:0:
448,192,209997,1,0,0:0:0:0:
192,192,210091,1,0,0:0:0:0:
64,192,210091,1,0,0:0:0:0:
320,192,210091,1,0,0:0:0:0:
192,192,210184,1,0,0:0:0:0:
320,192,210278,1,0,0:0:0:0:
448,192,210278,1,0,0:0:0:0:
64,192,210278,1,0,0:0:0:0:
320,192,210372,1,0,0:0:0:0:
64,192,210466,1,0,0:0:0:0:
192,192,210466,1,0,0:0:0:0:
448,192,210466,1,0,0:0:0:0:
64,192,210559,1,0,0:0:0:0:
448,192,210653,1,0,0:0:0:0:
320,192,210653,1,0,0:0:0:0:
192,192,210653,1,0,0:0:0:0:
448,192,210747,1,0,0:0:0:0:
64,192,210841,1,0,0:0:0:0:
192,192,210841,1,0,0:0:0:0:
320,192,210841,1,0,0:0:0:0:
64,192,210934,1,0,0:0:0:0:
320,192,211028,1,0,0:0:0:0:
448,192,211028,1,0,0:0:0:0:
192,192,211028,1,0,0:0:0:0:
64,192,211028,1,0,0:0:0:0:
320,192,211122,1,0,0:0:0:0:
448,192,211216,1,0,0:0:0:0:
320,192,211216,1,0,0:0:0:0:
192,192,211216,1,0,0:0:0:0:
64,192,211216,1,0,0:0:0:0:
448,192,211309,1,0,0:0:0:0:
192,192,211403,1,0,0:0:0:0:
448,192,211403,1,0,0:0:0:0:
320,192,211403,1,0,0:0:0:0:
64,192,211403,1,0,0:0:0:0:
192,192,211497,1,0,0:0:0:0:
64,192,211591,1,0,0:0:0:0:
320,192,211591,1,0,0:0:0:0:
192,192,211591,1,0,0:0:0:0:
448,192,211684,1,0,0:0:0:0:
320,192,211778,1,0,0:0:0:0:
64,192,211778,1,0,0:0:0:0:
448,192,211872,1,0,0:0:0:0:
320,192,211966,1,0,0:0:0:0:
64,192,211966,1,0,0:0:0:0:
448,192,212059,1,0,0:0:0:0:
320,192,212153,1,0,0:0:0:0:
64,192,212153,1,0,0:0:0:0:
448,192,212247,1,0,0:0:0:0:
320,192,212341,1,0,0:0:0:0:
192,192,212341,1,0,0:0:0:0:
64,192,212434,1,0,0:0:0:0:
192,192,212528,1,0,0:0:0:0:
320,192,212528,1,0,0:0:0:0:
64,192,212622,1,0,0:0:0:0:
448,192,212716,1,0,0:0:0:0:
192,192,212716,1,0,0:0:0:0:
64,192,212809,1,0,0:0:0:0:
192,192,212903,1,0,0:0:0:0:
320,192,212903,1,0,0:0:0:0:
448,192,212903,1,0,0:0:0:0:
64,192,212997,1,0,0:0:0:0:
192,192,213091,1,0,0:0:0:0:
320,192,213091,1,0,0:0:0:0:
448,192,213184,1,0,0:0:0:0:
64,192,213184,1,0,0:0:0:0:
192,192,213278,1,0,0:0:0:0:
320,192,213278,1,0,0:0:0:0:
448,192,213372,1,0,0:0:0:0:
64,192,213372,1,0,0:0:0:0:
192,192,213466,1,0,0:0:0:0:
320,192,213466,1,0,0:0:0:0:
448,192,213559,1,0,0:0:0:0:
64,192,213559,1,0,0:0:0:0:
192,192,213653,1,0,0:0:0:0:
320,192,213653,1,0,0:0:0:0:
64,192,213747,1,0,0:0:0:0:
448,192,213841,1,0,0:0:0:0:
192,192,213841,1,0,0:0:0:0:
320,192,213934,1,0,0:0:0:0:
64,192,213934,1,0,0:0:0:0:
448,192,214028,1,0,0:0:0:0:
192,192,214028,1,0,0:0:0:0:
320,192,214122,1,0,0:0:0:0:
64,192,214122,1,0,0:0:0:0:
448,192,214216,1,0,0:0:0:0:
192,192,214216,1,0,0:0:0:0:
320,192,214309,1,0,0:0:0:0:
192,192,214309,1,0,0:0:0:0:
64,192,214403,1,0,0:0:0:0:
320,192,214403,1,0,0:0:0:0:
448,192,214497,1,0,0:0:0:0:
192,192,214497,1,0,0:0:0:0:
64,192,214591,1,0,0:0:0:0:
320,192,214591,1,0,0:0:0:0:
192,192,214684,1,0,0:0:0:0:
448,192,214684,1,0,0:0:0:0:
320,192,214778,1,0,0:0:0:0:
64,192,214778,1,0,0:0:0:0:
64,192,214872,1,0,0:0:0:0:
320,192,214872,1,0,0:0:0:0:
192,192,214966,1,0,0:0:0:0:
448,192,214966,1,0,0:0:0:0:
64,192,215059,1,0,0:0:0:0:
192,192,215059,1,0,0:0:0:0:
448,192,215153,1,0,0:0:0:0:
320,192,215153,1,0,0:0:0:0:
192,192,215247,1,0,0:0:0:0:
64,192,215247,1,0,0:0:0:0:
448,192,215341,1,0,0:0:0:0:
320,192,215341,1,0,0:0:0:0:
192,192,215387,1,0,0:0:0:0:
64,192,215434,1,0,0:0:0:0:
448,192,215481,1,0,0:0:0:0:
320,192,215528,1,0,0:0:0:0:
192,192,215528,1,0,0:0:0:0:
64,192,215575,1,0,0:0:0:0:
448,192,215622,1,0,0:0:0:0:
320,192,215669,1,0,0:0:0:0:
192,192,215716,1,0,0:0:0:0:
64,192,215716,1,0,0:0:0:0:
320,192,215762,1,0,0:0:0:0:
448,192,215809,1,0,0:0:0:0:
64,192,215856,1,0,0:0:0:0:
192,192,215903,1,0,0:0:0:0:
320,192,215903,1,0,0:0:0:0:
448,192,215950,1,0,0:0:0:0:
64,192,215997,1,0,0:0:0:0:
192,192,216044,1,0,0:0:0:0:
320,192,216091,1,0,0:0:0:0:
448,192,216091,1,0,0:0:0:0:
64,192,216137,1,0,0:0:0:0:
192,192,216184,1,0,0:0:0:0:
320,192,216184,1,0,0:0:0:0:
448,192,216231,1,0,0:0:0:0:
320,192,216278,1,0,0:0:0:0:
64,192,216341,1,0,0:0:0:0:
192,192,216341,1,0,0:0:0:0:
448,192,216403,1,0,0:0:0:0:
320,192,216403,1,0,0:0:0:0:
192,192,216466,1,0,0:0:0:0:
64,192,216466,1,0,0:0:0:0:
320,192,216528,1,0,0:0:0:0:
448,192,216528,1,0,0:0:0:0:
192,192,216591,1,0,0:0:0:0:
64,192,216591,1,0,0:0:0:0:
320,192,216653,1,0,0:0:0:0:
448,192,216653,1,0,0:0:0:0:
192,192,216716,1,0,0:0:0:0:
64,192,216716,1,0,0:0:0:0:
320,192,216778,1,0,0:0:0:0:
448,192,216778,1,0,0:0:0:0:
192,192,216841,1,0,0:0:0:0:
320,192,217216,1,0,0:0:0:0:
192,192,217216,1,0,0:0:0:0:
448,192,217591,1,0,0:0:0:0:
64,192,217591,1,0,0:0:0:0:
320,192,217591,1,0,0:0:0:0:
192,192,217591,1,0,0:0:0:0:
192,192,220403,5,0,0:0:0:0:
64,192,220403,1,0,0:0:0:0:
320,192,220497,1,0,0:0:0:0:
448,192,220497,1,0,0:0:0:0:
64,192,220591,1,0,0:0:0:0:
192,192,220591,1,0,0:0:0:0:
