osu file format v14

[General]
AudioFilename: audio.mp3
AudioLeadIn: 0
PreviewTime: -1
Countdown: 0
SampleSet: Soft
StackLeniency: 0.7
Mode: 0
LetterboxInBreaks: 0
WidescreenStoryboard: 0

[Editor]
Bookmarks: 7591,13591,19591,25591,31591,37591,43591,49591,55591,67591,79591,91591,103591,115591,121591,127591,133591,139591,151591,163591,175591,187591,199591,205591,211591,220778
DistanceSpacing: 0.6
BeatDivisor: 16
GridSize: 4
TimelineZoom: 5.499997

[Metadata]
Title:Ummei no Dark Side -Rolling Gothic mix
TitleUnicode:運命のダークサイド -Rolling Gothic mix
Artist:Kanpyohgo
ArtistUnicode:干瓢碁
Creator:rui
Version:Extra
Source:東方Project
Tags:
BeatmapID:1089167
BeatmapSetID:512524

[Difficulty]
HPDrainRate:6.5
CircleSize:4.5
OverallDifficulty:8
ApproachRate:9
SliderMultiplier:1.8
SliderTickRate:1

[Events]
//Background and Video events
0,0,"42499012_p0.jpg",0,0
//Break Periods
2,103791,108991
2,187791,192991
//Storyboard Layer 0 (Background)
//Storyboard Layer 1 (Fail)
//Storyboard Layer 2 (Pass)
//Storyboard Layer 3 (Foreground)
//Storyboard Sound Samples

[TimingPoints]
7591,375,4,2,4,40,1,0
10591,-100,4,2,4,45,0,0
13591,-200,4,2,4,55,0,0
16591,-153.846153846154,4,2,4,55,0,0
19028,-100,4,1,1,50,0,0
19216,-125,4,1,1,50,0,0
19591,-125,4,1,1,55,0,0
25591,-100,4,1,1,60,0,0
31216,-100,4,1,10,70,0,0
31591,-90.9090909090909,4,1,1,65,0,0
37591,-100,4,2,4,45,0,0
40591,-100,4,2,4,50,0,0
43591,-90.9090909090909,4,2,2,50,0,0
47341,-90.9090909090909,4,2,2,55,0,0
48091,-90.9090909090909,4,2,2,60,0,0
48278,-90.9090909090909,4,2,2,61,0,0
48466,-90.9090909090909,4,2,2,62,0,0
48653,-90.9090909090909,4,2,2,63,0,0
48841,-90.9090909090909,4,2,2,64,0,0
49028,-90.9090909090909,4,2,2,65,0,0
49216,-90.9090909090909,4,2,2,66,0,0
49403,-90.9090909090909,4,2,2,67,0,0
49591,-90.9090909090909,4,2,2,70,0,0
51091,-90.9090909090909,4,2,2,75,0,0
53528,-90.9090909090909,4,2,1,75,0,0
54091,-83.3333333333333,4,2,2,75,0,0
54841,-83.3333333333333,4,2,2,80,0,0
55591,-100,4,2,1,55,0,0
60841,-100,4,2,4,55,0,0
61216,-100,4,2,1,55,0,0
66466,-100,4,2,3,55,0,0
67591,-100,4,2,4,50,0,0
72841,-100,4,2,4,55,0,0
73591,-100,4,2,4,50,0,0
78841,-100,4,2,4,55,0,0
79028,-100,4,2,3,55,0,0
79591,-100,4,2,1,60,0,0
84841,-100,4,2,4,60,0,0
85591,-100,4,2,1,60,0,0
90091,-100,4,2,4,60,0,0
91028,-100,4,2,3,60,0,0
91591,-100,4,2,4,60,0,0
96841,-100,4,2,4,65,0,0
97591,-100,4,2,4,60,0,0
102841,-100,4,2,4,65,0,0
103216,-100,4,2,3,65,0,0
103403,-100,4,2,4,65,0,0
103591,-100,4,2,4,75,0,0
109591,-100,4,1,1,65,0,0
115591,-125,4,2,4,45,0,0
118591,-100,4,2,4,50,0,0
121591,-90.9090909090909,4,2,2,50,0,0
126091,-90.9090909090909,4,2,1,55,0,0
126841,-90.9090909090909,4,2,1,60,0,0
126934,-90.9090909090909,4,2,1,62,0,0
127028,-90.9090909090909,4,2,1,63,0,0
127122,-90.9090909090909,4,2,1,64,0,0
127216,-90.9090909090909,4,2,1,65,0,0
127591,-90.9090909090909,4,2,4,65,0,1
138466,-90.9090909090909,4,2,3,65,0,1
139591,-90.9090909090909,4,2,2,65,0,0
140341,-90.9090909090909,4,2,2,70,0,0
142216,-90.9090909090909,4,2,2,65,0,0
142591,-90.9090909090909,4,2,2,60,0,0
144091,-90.9090909090909,4,2,2,55,0,0
144841,-90.9090909090909,4,2,2,56,0,0
145028,-90.9090909090909,4,2,2,57,0,0
145216,-90.9090909090909,4,2,2,58,0,0
145403,-90.9090909090909,4,2,2,59,0,0
145591,-90.9090909090909,4,2,2,60,0,0
146341,-90.9090909090909,4,2,2,61,0,0
146434,-90.9090909090909,4,2,2,62,0,0
146528,-90.9090909090909,4,2,2,63,0,0
146622,-90.9090909090909,4,2,2,64,0,0
146716,-90.9090909090909,4,2,2,65,0,0
146809,-90.9090909090909,4,2,2,67,0,0
146903,-90.9090909090909,4,2,2,69,0,0
146997,-90.9090909090909,4,2,2,71,0,0
147091,-90.9090909090909,4,2,2,73,0,0
148591,-90.9090909090909,4,2,2,75,0,0
149341,-90.9090909090909,4,2,2,70,0,0
150466,-90.9090909090909,4,2,1,90,0,0
150841,-90.9090909090909,4,2,3,70,0,0
151591,-90.9090909090909,4,2,2,70,0,0
163028,-90.9090909090909,4,2,3,70,0,0
163591,-83.3333333333333,4,2,4,80,0,1
174466,-83.3333333333333,4,2,3,80,0,1
175497,-83.3333333333333,4,2,3,80,0,0
175591,-83.3333333333333,4,2,3,80,0,1
186466,-83.3333333333333,4,2,1,100,0,1
186841,-83.3333333333333,4,2,4,80,0,1
187591,-83.3333333333333,4,2,3,80,0,0
193591,-100,4,1,1,65,0,0
199591,-100,4,2,4,45,0,0
202591,-100,4,2,4,50,0,0
205591,-90.9090909090909,4,2,2,50,0,0
209341,-90.9090909090909,4,2,2,55,0,0
210091,-90.9090909090909,4,2,2,60,0,0
210278,-90.9090909090909,4,2,2,61,0,0
210466,-90.9090909090909,4,2,2,62,0,0
210653,-90.9090909090909,4,2,2,63,0,0
210841,-90.9090909090909,4,2,2,64,0,0
211028,-90.9090909090909,4,2,2,65,0,0
211216,-90.9090909090909,4,2,2,66,0,0
211403,-90.9090909090909,4,2,2,67,0,0
211591,-90.9090909090909,4,2,2,70,0,0
213091,-90.9090909090909,4,2,2,75,0,0
215528,-90.9090909090909,4,2,1,75,0,0
216091,-90.9090909090909,4,2,2,75,0,0
216841,-90.9090909090909,4,2,2,80,0,0
217591,-100,4,2,2,80,0,0
217966,-100,4,2,2,75,0,0
218341,-100,4,2,2,70,0,0
218716,-100,4,2,2,65,0,0
219091,-100,4,2,2,60,0,0
219466,-100,4,2,2,55,0,0
219841,-100,4,2,2,50,0,0
220309,-100,4,2,2,5,0,0
220403,-100,4,2,2,35,0,0

[Colours]
Combo1 : 0,191,0
Combo2 : 191,0,0
SliderBorder : 255,0,0

[HitObjects]
199,165,7591,5,2,0:0:0:0:
282,135,8341,1,2,0:0:0:0:
312,218,9091,1,2,0:0:0:0:
229,248,9841,1,2,0:0:0:0:
236,119,10591,5,2,0:0:0:0:
328,172,11341,1,2,0:0:0:0:
275,264,12091,1,2,0:0:0:0:
183,211,12841,1,2,0:0:0:0:
328,172,13591,6,0,L|444:192,1,112.5,6|0,0:0|0:0,0:0:0:0:
376,256,14153,2,0,L|322:284,1,45,2|0,0:0|0:0,0:0:0:0:
271,225,14903,2,0,L|238:276,1,45,2|0,0:0|0:0,0:0:0:0:
169,237,15653,2,0,L|166:297,1,45,2|0,0:0|0:0,0:0:0:0:
87,292,16403,1,2,0:0:0:0:
256,368,16591,6,0,L|288:224,1,146.249993305207,2|0,0:0|0:0,0:0:0:0:
160,216,17153,2,0,L|192:272,1,58.4999973220826,2|0,0:0|0:0,0:0:0:0:
320,152,17903,2,0,L|320:212,1,58.4999973220826,2|0,0:0|0:0,0:0:0:0:
476,128,18653,2,0,L|456:168,2,29.2499986610413,2|0|0,0:0|0:0|0:0,0:0:0:0:
372,72,19028,6,0,L|365:55,4,11.25,0|0|0|0|0,1:0|0:0|0:0|0:0|0:0,0:0:0:0:
364,176,19216,2,0,L|384:216,1,36,0|0,1:0|0:0,0:0:0:0:
280,120,19403,2,0,L|264:80,1,36,8|8,1:0|1:0,0:0:0:0:
268,216,19591,6,0,P|216:200|160:192,1,108,4|0,0:0|0:0,0:0:0:0:
96,164,19966,2,0,L|172:144,1,72,2|10,0:0|0:0,0:0:0:0:
304,92,20341,1,2,0:0:0:0:
272,80,20434,1,0,0:0:0:0:
236,72,20528,1,2,0:0:0:0:
268,172,20716,2,0,L|316:184,1,36,2|0,0:0|0:0,0:0:0:0:
404,152,20903,2,0,L|356:140,1,36,2|0,0:0|0:0,0:0:0:0:
292,256,21091,6,0,L|340:268,1,36,10|0,0:0|0:0,0:0:0:0:
396,284,21278,1,8,0:0:0:0:
232,356,21466,1,2,0:0:0:0:
163,192,21653,1,8,0:0:0:0:
163,192,21747,1,2,0:0:0:0:
163,192,21841,2,0,L|144:108,1,72,8|2,0:0|0:0,0:0:0:0:
68,60,22216,1,2,0:0:0:0:
56,100,22309,1,2,0:0:0:0:
56,144,22403,1,0,0:0:0:0:
72,184,22497,1,2,0:0:0:0:
96,212,22591,6,0,L|168:228,1,72,2|2,0:0|0:0,0:0:0:0:
208,160,22872,1,0,0:0:0:0:
208,160,22966,2,0,L|284:148,1,72,2|8,0:0|0:0,0:0:0:0:
420,68,23341,1,2,0:0:0:0:
432,100,23434,1,0,0:0:0:0:
440,136,23528,1,2,0:0:0:0:
320,308,23716,2,0,L|328:240,1,36,2|0,0:0|0:0,0:0:0:0:
280,148,23903,2,0,L|272:216,1,36,2|2,0:0|0:0,0:0:0:0:
204,268,24091,6,0,P|168:252|128:240,1,72,8|8,0:0|0:0,0:0:0:0:
32,144,24466,2,0,L|12:148,6,18,2|0|2|0|2|0|2,0:0|0:0|0:0|0:0|0:0|0:0|0:0,0:0:0:0:
100,60,24841,2,0,P|135:55|170:46,1,72,2|2,0:0|0:0,0:0:0:0:
332,112,25216,1,2,0:0:0:0:
224,300,25403,1,2,0:0:0:0:
224,300,25497,1,0,0:0:0:0:
224,300,25591,6,0,P|208:264|200:212,1,90,12|10,0:0|0:0,0:0:0:0:
232,92,25966,1,2,0:0:0:0:
100,212,26153,1,8,0:0:0:0:
324,72,26341,1,2,0:0:0:0:
309,108,26434,1,0,0:0:0:0:
305,148,26528,1,2,0:0:0:0:
180,312,26716,2,0,L|168:268,1,45,2|0,0:0|0:0,0:0:0:0:
111,168,26903,2,0,L|100:212,1,45,2|0,0:0|0:0,0:0:0:0:
44,300,27091,6,0,L|87:287,1,45,8|0,0:0|0:0,0:0:0:0:
168,268,27278,1,8,0:0:0:0:
305,148,27466,2,0,L|400:168,1,90,2|8,0:0|0:0,0:0:0:0:
252,68,27841,1,10,0:0:0:0:
228,104,27934,1,0,0:0:0:0:
216,148,28028,1,2,0:0:0:0:
64,240,28216,1,2,0:0:0:0:
85,277,28309,1,2,0:0:0:0:
121,303,28403,1,0,0:0:0:0:
166,312,28497,1,2,0:0:0:0:
209,306,28591,5,12,0:0:0:0:
279,135,28778,1,10,0:0:0:0:
368,212,28966,1,2,0:0:0:0:
166,190,29153,1,8,0:0:0:0:
304,60,29341,1,2,0:0:0:0:
340,84,29434,1,0,0:0:0:0:
360,124,29528,1,2,0:0:0:0:
314,371,29716,2,0,P|337:357|355:336,1,45,2|0,0:0|0:0,0:0:0:0:
440,342,29903,2,0,P|435:315|421:290,1,45,2|0,0:0|0:0,0:0:0:0:
353,254,30091,6,0,L|370:203,2,45,8|0|8,0:0|0:0|0:0,0:0:0:0:
108,280,30466,2,0,L|92:312,2,22.5,2|0|2,0:0|0:0|0:0,0:0:0:0:
200,188,30653,1,2,0:0:0:0:
200,188,30747,2,0,L|216:156,2,22.5,2|0|2,0:0|0:0|0:0,0:0:0:0:
340,328,31028,1,2,0:0:0:0:
480,48,31216,1,8,0:0:0:0:
480,48,31591,6,0,P|432:56|384:72,1,99.0000030212403,12|2,0:0|0:0,0:0:0:0:
252,24,31966,1,8,0:0:0:0:
372,160,32153,1,2,0:0:0:0:
196,100,32341,1,8,0:0:0:0:
148,112,32434,1,0,0:0:0:0:
112,144,32528,1,2,0:0:0:0:
316,224,32716,1,8,0:0:0:0:
362,240,32809,1,0,0:0:0:0:
410,232,32903,1,2,0:0:0:0:
444,196,32997,1,2,0:0:0:0:
444,148,33091,6,0,L|464:100,2,49.5000015106202,8|0|2,0:0|0:0|0:0,0:0:0:0:
244,256,33466,2,0,P|289:297|331:301,1,99.0000030212403,8|2,0:0|0:0,0:0:0:0:
444,148,33841,1,8,0:0:0:0:
464,104,33934,1,0,0:0:0:0:
460,56,34028,1,2,0:0:0:0:
480,220,34216,2,0,L|420:232,1,49.5000015106202,8|0,0:0|0:0,0:0:0:0:
356,164,34403,2,0,L|307:154,1,49.5000015106202,2|2,0:0|0:0,0:0:0:0:
244,232,34591,6,0,L|116:256,1,99.0000030212403,8|2,0:0|0:0,0:0:0:0:
72,344,34966,1,8,0:0:0:0:
52,176,35153,1,2,0:0:0:0:
224,312,35341,2,0,L|212:364,2,49.5000015106202,8|0|2,0:0|0:0|0:0,0:0:0:0:
428,292,35716,2,0,P|420:268|411:246,1,49.5000015106202,8|0,0:0|0:0,0:0:0:0:
348,168,35903,2,0,P|325:156|303:147,1,49.5000015106202,2|0,0:0|0:0,0:0:0:0:
204,148,36091,6,0,P|180:155|158:164,2,49.5000015106202,8|0|2,0:0|0:0|0:0,0:0:0:0:
376,48,36466,2,0,P|328:28|264:20,1,99.0000030212403,8|2,0:0|0:0,0:0:0:0:
184,44,36747,2,0,L|160:64,2,24.7500007553101,2|0|8,0:0|0:0|0:0,0:0:0:0:
224,136,36934,2,0,L|218:166,2,24.7500007553101,2|0|2,0:0|0:0|0:0,0:0:0:0:
320,168,37122,1,2,0:0:0:0:
336,172,37216,6,0,L|351:199,1,24.7500007553101,10|0,0:0|0:0,0:0:0:0:
356,180,37309,2,0,L|371:207,1,24.7500007553101,2|0,0:0|0:0,0:0:0:0:
376,188,37403,2,0,L|391:215,1,24.7500007553101,2|0,0:0|0:0,0:0:0:0:
396,196,37497,2,0,L|411:223,1,24.7500007553101,2|0,0:0|0:0,0:0:0:0:
420,208,37591,6,0,P|460:187|489:153,1,90,6|0,0:0|0:0,0:0:0:0:
388,0,37966,2,0,P|348:21|319:55,1,90,2|2,0:0|0:0,0:0:0:0:
244,196,38341,1,2,0:0:0:0:
244,196,38434,1,0,0:0:0:0:
244,196,38528,1,2,0:0:0:0:
160,164,38716,1,2,0:0:0:0:
72,176,38903,1,2,0:0:0:0:
16,108,39091,6,0,L|0:60,2,45,2|0|2,0:0|0:0|0:0,0:0:0:0:
160,164,39466,2,0,L|144:212,2,45,2|0|2,0:0|0:0|0:0,0:0:0:0:
268,52,39841,2,0,L|284:100,2,45,2|0|2,0:0|0:0|0:0,0:0:0:0:
420,68,40216,2,0,L|388:168,1,90,2|2,0:0|0:0,0:0:0:0:
288,268,40591,5,2,0:0:0:0:
276,300,40684,1,0,0:0:0:0:
268,336,40778,1,2,0:0:0:0:
168,192,40966,1,2,0:0:0:0:
160,156,41059,1,0,0:0:0:0:
148,124,41153,1,2,0:0:0:0:
83,281,41341,1,2,0:0:0:0:
118,291,41434,1,0,0:0:0:0:
151,308,41528,1,2,0:0:0:0:
299,224,41716,2,0,L|283:284,1,45,2|0,0:0|0:0,0:0:0:0:
376,284,41903,2,0,L|360:344,1,45,2|0,0:0|0:0,0:0:0:0:
151,308,42091,6,0,P|128:268|120:224,1,90,2|2,0:0|0:0,0:0:0:0:
216,64,42466,2,0,L|264:48,2,45,2|0|2,0:0|0:0|0:0,0:0:0:0:
108,124,42841,2,0,P|84:130|64:140,1,45,2|0,0:0|0:0,0:0:0:0:
212,184,43028,2,0,P|225:202|234:222,1,45,2|0,0:0|0:0,0:0:0:0:
104,260,43216,2,0,P|105:284|112:306,1,45,2|0,0:0|0:0,0:0:0:0:
268,340,43403,2,0,P|269:315|276:293,1,45,2|0,0:0|0:0,0:0:0:0:
435,213,43591,6,0,P|412:161|383:134,1,99.0000030212403,4|0,0:0|0:0,0:0:0:0:
331,27,43872,1,8,0:0:0:0:
332,27,43966,2,0,P|275:33|240:53,1,99.0000030212403,8|0,0:0|0:0,0:0:0:0:
123,68,44247,1,8,0:0:0:0:
123,68,44341,2,0,P|110:124|119:163,1,99.0000030212403,8|0,0:0|0:0,0:0:0:0:
97,279,44622,1,8,0:0:0:0:
97,279,44716,2,0,P|147:309|186:313,1,99.0000030212403,8|0,0:0|0:0,0:0:0:0:
356,344,44997,1,8,0:0:0:0:
356,344,45091,6,0,P|303:321|276:291,1,99.0000030212403,8|0,0:0|0:0,0:0:0:0:
169,240,45372,1,8,0:0:0:0:
170,240,45466,2,0,P|175:182|195:148,1,99.0000030212403,8|0,0:0|0:0,0:0:0:0:
211,31,45747,1,8,0:0:0:0:
211,31,45841,2,0,P|266:18|305:26,1,99.0000030212403,8|0,0:0|0:0,0:0:0:0:
421,6,46122,1,8,0:0:0:0:
422,6,46216,2,0,P|451:55|455:94,1,99.0000030212403,8|0,0:0|0:0,0:0:0:0:
484,208,46497,1,8,0:0:0:0:
484,208,46591,5,2,0:0:0:0:
380,296,46778,1,2,0:0:0:0:
288,144,46966,1,2,0:0:0:0:
164,324,47153,1,2,0:0:0:0:
36,124,47341,5,2,0:0:0:0:
160,229,47528,1,2,0:0:0:0:
271,47,47716,1,2,0:0:0:0:
420,263,47903,1,2,0:0:0:0:
164,324,48091,5,2,0:0:0:0:
336,364,48278,1,2,0:0:0:0:
124,236,48466,1,2,0:0:0:0:
340,244,48653,1,2,0:0:0:0:
119,115,48841,1,2,0:0:0:0:
364,144,49028,1,2,0:0:0:0:
96,28,49216,1,2,0:0:0:0:
436,16,49403,1,2,0:0:0:0:
212,96,49591,5,2,0:0:0:0:
200,105,49684,1,0,0:0:0:0:
191,117,49778,1,2,0:0:0:0:
185,130,49872,1,0,0:0:0:0:
180,144,49966,1,2,0:0:0:0:
178,159,50059,1,0,0:0:0:0:
179,174,50153,1,2,0:0:0:0:
183,188,50247,1,0,0:0:0:0:
189,202,50341,1,2,0:0:0:0:
198,214,50434,1,0,0:0:0:0:
209,224,50528,1,2,0:0:0:0:
221,232,50622,1,0,0:0:0:0:
236,240,50716,6,0,P|264:240|296:232,1,49.5000015106202,2|0,0:0|0:0,0:0:0:0:
360,300,50903,2,0,P|372:284|388:260,1,49.5000015106202,2|0,0:0|0:0,0:0:0:0:
496,224,51091,5,2,0:0:0:0:
487,207,51184,1,0,0:0:0:0:
477,193,51278,1,2,0:0:0:0:
465,180,51372,1,0,0:0:0:0:
452,169,51466,1,2,0:0:0:0:
436,161,51559,1,0,0:0:0:0:
420,155,51653,1,2,0:0:0:0:
402,151,51747,1,0,0:0:0:0:
384,150,51841,1,2,0:0:0:0:
368,151,51934,1,0,0:0:0:0:
350,156,52028,1,2,0:0:0:0:
334,162,52122,1,0,0:0:0:0:
323,172,52216,5,2,0:0:0:0:
289,205,52309,1,0,0:0:0:0:
245,222,52403,1,2,0:0:0:0:
197,220,52497,1,0,0:0:0:0:
155,201,52591,6,0,P|135:190|112:172,1,49.5000015106202,2|0,0:0|0:0,0:0:0:0:
216,98,52778,2,0,P|220:76|230:48,1,49.5000015106202,2|0,0:0|0:0,0:0:0:0:
332,125,52966,2,0,P|355:122|384:123,1,49.5000015106202,2|0,0:0|0:0,0:0:0:0:
343,244,53153,2,0,P|352:264|360:292,1,49.5000015106202,2|0,0:0|0:0,0:0:0:0:
233,292,53341,5,2,0:0:0:0:
198,338,53434,1,0,0:0:0:0:
143,352,53528,2,0,L|124:368,1,24.7500007553101,2|0,0:0|0:0,0:0:0:0:
93,322,53622,2,0,L|68:322,1,24.7500007553101,2|0,0:0|0:0,0:0:0:0:
69,270,53716,2,0,L|49:254,1,24.7500007553101,2|0,0:0|0:0,0:0:0:0:
91,214,53809,2,0,L|85:189,1,24.7500007553101,2|0,0:0|0:0,0:0:0:0:
142,186,53903,2,0,L|153:163,1,24.7500007553101,2|0,0:0|0:0,0:0:0:0:
198,199,53997,2,0,L|220:188,1,24.7500007553101,2|0,0:0|0:0,0:0:0:0:
244,236,54091,5,2,0:0:0:0:
312,252,54184,1,0,0:0:0:0:
376,220,54278,1,2,0:0:0:0:
400,156,54372,1,0,0:0:0:0:
388,88,54466,6,0,L|380:52,2,35.9999989013672,2|0|0,0:0|0:0|0:0,0:0:0:0:
344,64,54653,6,0,L|356:28,2,35.9999989013672,2|0|0,0:0|0:0|0:0,0:0:0:0:
304,159,54841,5,4,0:0:0:0:
304,159,55591,6,0,B|212:144,1,90,4|2,0:0|0:0,0:0:0:0:
180,168,55872,1,0,0:0:0:0:
152,164,55966,1,8,0:0:0:0:
124,160,56059,1,0,0:0:0:0:
96,156,56153,1,2,0:0:0:0:
240,276,56341,2,0,L|332:296,1,90,8|2,0:0|0:0,0:0:0:0:
444,192,56716,1,8,0:0:0:0:
396,348,56903,1,2,0:0:0:0:
304,216,57091,5,8,0:0:0:0:
480,112,57278,1,2,0:0:0:0:
488,88,57372,1,0,0:0:0:0:
488,60,57466,1,8,0:0:0:0:
476,36,57559,1,0,0:0:0:0:
456,16,57653,1,2,0:0:0:0:
432,8,57747,1,0,0:0:0:0:
404,12,57841,2,0,P|360:32|300:48,1,90,8|2,0:0|0:0,0:0:0:0:
200,96,58122,1,0,0:0:0:0:
200,96,58216,2,0,P|250:103|293:120,1,90,8|2,0:0|0:0,0:0:0:0:
372,176,58497,1,8,0:0:0:0:
372,176,58591,6,0,L|236:216,1,135,8|0,0:0|0:0,0:0:0:0:
176,268,58966,2,0,B|148:232|148:232|152:180,1,90,8|2,0:0|0:0,0:0:0:0:
296,32,59341,2,0,L|288:140,1,90,8|2,0:0|0:0,0:0:0:0:
392,268,59716,1,8,0:0:0:0:
264,148,59903,1,2,0:0:0:0:
264,148,59997,1,0,0:0:0:0:
264,148,60091,6,0,P|224:168|176:164,1,90,8|2,0:0|0:0,0:0:0:0:
144,248,60372,1,0,0:0:0:0:
144,248,60466,2,0,P|106:223|86:179,1,90,8|2,0:0|0:0,0:0:0:0:
248,252,60841,1,10,0:0:0:0:
272,268,60934,1,2,0:0:0:0:
296,276,61028,1,2,0:0:0:0:
324,276,61122,1,10,0:0:0:0:
352,268,61216,2,0,L|436:236,1,90,8|0,0:0|0:0,0:0:0:0:
320,156,61591,6,0,P|276:156|228:136,1,90,4|2,0:0|0:0,0:0:0:0:
200,112,61872,1,0,0:0:0:0:
188,88,61966,1,8,0:0:0:0:
188,60,62059,1,0,0:0:0:0:
196,36,62153,1,2,0:0:0:0:
76,164,62341,2,0,L|44:256,1,90,8|2,0:0|0:0,0:0:0:0:
232,328,62716,2,0,L|202:242,1,90,8|2,0:0|0:0,0:0:0:0:
204,108,63091,5,8,0:0:0:0:
328,244,63278,1,2,0:0:0:0:
356,252,63372,1,0,0:0:0:0:
384,252,63466,1,8,0:0:0:0:
408,240,63559,1,0,0:0:0:0:
424,220,63653,1,2,0:0:0:0:
436,196,63747,1,0,0:0:0:0:
436,168,63841,2,0,L|408:64,1,90,8|2,0:0|0:0,0:0:0:0:
340,16,64122,1,0,0:0:0:0:
340,16,64216,2,0,P|320:52|320:108,1,90,8|2,0:0|0:0,0:0:0:0:
248,160,64497,1,8,0:0:0:0:
248,160,64591,6,0,B|281:196|323:190|323:190|357:226,1,135,8|0,0:0|0:0,0:0:0:0:
352,332,64966,2,0,L|268:244,1,90,8|2,0:0|0:0,0:0:0:0:
188,48,65341,2,0,B|164:140,1,90,8|2,0:0|0:0,0:0:0:0:
120,312,65716,1,8,0:0:0:0:
40,152,65903,1,2,0:0:0:0:
40,152,65997,1,0,0:0:0:0:
40,152,66091,6,0,L|144:136,1,90,12|0,0:0|0:0,0:0:0:0:
204,180,66372,1,0,0:0:0:0:
204,180,66466,2,0,L|320:160,1,90,8|8,0:0|0:0,0:0:0:0:
368,204,66747,1,0,0:0:0:0:
368,204,66841,6,0,L|418:192,1,45,8|0,0:0|0:0,0:0:0:0:
468,100,67028,2,0,L|432:61,1,45,8|0,0:0|0:0,0:0:0:0:
332,32,67216,1,8,0:3:0:0:
316,52,67309,1,0,0:0:0:0:
308,80,67403,1,8,0:3:0:0:
308,108,67497,1,0,0:0:0:0:
316,136,67591,6,0,L|288:184,1,45,4|0,0:0|0:0,0:0:0:0:
204,164,67778,2,0,L|213:218,1,45,2|0,0:0|0:0,0:0:0:0:
132,252,67966,2,0,L|167:294,3,45,10|0|2|0,0:0|0:0|0:0|0:0,0:0:0:0:
344,355,68341,6,0,L|362:301,1,45,10|0,2:0|2:0,2:0:0:0:
295,250,68528,2,0,L|343:219,1,45,2|0,2:0|2:0,2:0:0:0:
316,136,68716,2,0,L|371:134,3,45,10|0|2|0,2:0|2:0|2:0|2:0,2:0:0:0:
364,32,69091,5,2,0:0:0:0:
364,32,69184,1,0,0:0:0:0:
364,32,69278,2,0,L|416:48,1,45,2|0,2:0|2:0,2:0:0:0:
248,84,69466,1,2,0:0:0:0:
248,84,69559,1,0,0:0:0:0:
248,84,69653,2,0,L|195:100,1,45,2|0,2:0|2:0,2:0:0:0:
36,172,69841,5,10,0:0:0:0:
68,178,69934,1,0,0:0:0:0:
100,185,70028,1,2,0:0:0:0:
132,192,70122,1,0,0:0:0:0:
171,159,70216,5,10,0:0:0:0:
203,166,70309,1,0,0:0:0:0:
236,173,70403,1,2,0:0:0:0:
268,179,70497,1,0,0:0:0:0:
300,220,70591,6,0,L|356:208,1,45,10|0,0:0|0:0,0:0:0:0:
396,284,70778,2,0,L|427:235,1,45,2|0,0:0|0:0,0:0:0:0:
512,248,70966,2,0,L|500:192,3,45,10|0|2|0,0:0|0:0|0:0|0:0,0:0:0:0:
336,84,71341,6,0,L|304:132,1,45,10|0,0:0|0:0,0:0:0:0:
222,106,71528,2,0,L|234:162,1,45,2|0,0:0|0:0,0:0:0:0:
166,214,71716,2,0,L|214:245,3,45,10|0|2|0,0:0|0:0|0:0|0:0,0:0:0:0:
208,328,72091,5,2,0:0:0:0:
242,317,72184,1,0,0:0:0:0:
269,293,72278,1,2,0:0:0:0:
285,261,72372,1,0,0:0:0:0:
287,226,72466,1,2,0:0:0:0:
276,192,72559,1,0,0:0:0:0:
252,164,72653,1,2,0:0:0:0:
220,152,72747,1,0,0:0:0:0:
255,201,72841,5,2,0:0:0:0:
287,226,72935,1,0,0:0:0:0:
331,234,73029,1,2,0:0:0:0:
373,226,73122,1,0,0:0:0:0:
409,202,73216,1,2,0:0:0:0:
432,167,73310,1,0,0:0:0:0:
440,124,73404,1,2,0:0:0:0:
431,83,73497,1,0,0:0:0:0:
408,44,73591,6,0,P|386:37|366:27,1,45,12|0,0:0|0:0,0:0:0:0:
304,99,73778,2,0,P|292:79|282:59,1,45,2|0,0:0|0:0,0:0:0:0:
191,54,73966,2,0,P|197:32|207:12,3,45,10|0|2|0,0:0|0:0|0:0|0:0,0:0:0:0:
256,212,74341,6,0,P|234:218|214:228,1,45,10|0,0:0|0:0,0:0:0:0:
152,157,74528,2,0,P|140:176|130:196,1,45,2|0,0:0|0:0,0:0:0:0:
39,202,74716,2,0,P|45:223|55:243,3,45,10|0|2|0,0:0|0:0|0:0|0:0,0:0:0:0:
144,320,75091,5,2,0:0:0:0:
144,320,75184,1,0,0:0:0:0:
144,320,75278,2,0,L|200:308,1,45,2|0,0:0|0:0,0:0:0:0:
360,300,75466,1,2,0:0:0:0:
360,300,75559,1,0,0:0:0:0:
360,300,75653,2,0,L|311:269,1,45,2|0,0:0|0:0,0:0:0:0:
219,179,75841,5,10,0:0:0:0:
187,163,75934,1,0,0:0:0:0:
155,143,76028,1,2,0:0:0:0:
123,123,76122,1,0,0:0:0:0:
167,95,76216,5,10,0:0:0:0:
199,115,76310,1,0,0:0:0:0:
231,135,76404,1,2,0:0:0:0:
263,151,76497,1,0,0:0:0:0:
307,179,76591,6,0,L|351:211,1,45,10|0,0:0|0:0,0:0:0:0:
415,263,76778,2,0,L|365:285,1,45,2|0,0:0|0:0,0:0:0:0:
287,311,76966,2,0,L|292:256,3,45,10|0|2|0,0:0|0:0|0:0|0:0,0:0:0:0:
160,188,77341,6,0,L|155:143,1,45,10|0,0:0|0:0,0:0:0:0:
31,139,77528,2,0,L|72:157,1,45,2|0,0:0|0:0,0:0:0:0:
139,55,77715,2,0,L|102:81,3,45,10|0|2|0,0:0|0:0|0:0|0:0,0:0:0:0:
220,116,78091,5,10,0:0:0:0:
243,142,78184,1,0,0:0:0:0:
255,176,78278,1,2,0:0:0:0:
253,212,78372,1,0,0:0:0:0:
237,243,78466,1,10,0:0:0:0:
210,267,78559,1,0,0:0:0:0:
176,280,78653,1,2,0:0:0:0:
142,274,78747,1,0,0:0:0:0:
160,224,78841,5,2,0:0:0:0:
196,187,78935,1,0,0:0:0:0:
252,172,79029,1,8,0:0:0:0:
306,175,79122,1,0,0:0:0:0:
356,196,79216,1,8,0:0:0:0:
408,200,79309,1,0,0:0:0:0:
460,188,79403,1,8,0:0:0:0:
500,152,79497,1,0,0:0:0:0:
512,100,79591,6,8,L|420:80,1,90,12|2,0:0|0:0,0:0:0:0:
344,36,79872,1,0,0:0:0:0:
344,36,79966,2,0,L|288:48,2,45,8|0|2,0:0|0:0|0:0,0:0:0:0:
440,188,80341,1,8,0:0:0:0:
200,216,80528,1,2,0:0:0:0:
312,124,80716,1,8,0:0:0:0:
228,356,80903,1,2,0:0:0:0:
333,211,81091,6,0,P|320:166|310:110,1,90,8|2,0:0|0:0,0:0:0:0:
328,80,81372,1,0,0:0:0:0:
312,48,81466,1,8,0:0:0:0:
280,32,81559,1,0,0:0:0:0:
244,36,81653,1,2,0:0:0:0:
216,60,81747,1,0,0:0:0:0:
204,96,81841,2,0,P|217:141|227:197,1,90,8|2,0:0|0:0,0:0:0:0:
320,264,82122,1,0,0:0:0:0:
320,264,82216,2,0,L|336:160,1,90,8|2,0:0|0:0,0:0:0:0:
216,288,82497,1,8,0:0:0:0:
216,288,82591,6,0,L|112:304,1,90,8|2,0:0|0:0,0:0:0:0:
32,156,82966,2,0,L|136:172,1,90,8|2,0:0|0:0,0:0:0:0:
272,352,83341,2,0,P|296:314|299:270,1,90,8|2,0:0|0:0,0:0:0:0:
272,108,83716,1,8,0:0:0:0:
396,236,83903,2,0,P|404:260|412:292,1,45,2|0,0:0|0:0,0:0:0:0:
464,164,84091,6,0,P|477:116|492:69,1,90,8|2,0:0|0:0,0:0:0:0:
364,28,84372,1,0,0:0:0:0:
364,28,84466,2,0,P|335:68|304:107,1,90,8|2,0:0|0:0,0:0:0:0:
132,148,84841,1,10,0:0:0:0:
129,180,84934,1,0,0:0:0:0:
138,216,85028,1,2,0:0:0:0:
153,249,85122,1,0,0:0:0:0:
204,264,85216,5,2,0:0:0:0:
190,277,85309,1,2,0:0:0:0:
208,284,85403,1,2,0:0:0:0:
193,297,85497,1,2,0:0:0:0:
180,372,85591,6,0,P|223:366|259:340,1,90,4|2,0:0|0:0,0:0:0:0:
336,264,85872,1,0,0:0:0:0:
336,264,85966,2,0,L|352:216,2,45,8|0|2,0:0|0:0|0:0,0:0:0:0:
200,196,86341,1,8,0:0:0:0:
308,341,86528,1,2,0:0:0:0:
376,148,86716,1,8,0:0:0:0:
188,312,86903,1,2,0:0:0:0:
432,224,87091,6,0,L|464:128,1,90,8|2,0:0|0:0,0:0:0:0:
436,100,87372,1,0,0:0:0:0:
404,80,87466,1,8,0:0:0:0:
368,72,87559,1,0,0:0:0:0:
332,84,87653,1,2,0:0:0:0:
308,108,87747,1,0,0:0:0:0:
292,140,87841,6,0,P|259:112|238:64,1,90,8|2,0:0|0:0,0:0:0:0:
159,12,88122,1,0,0:0:0:0:
159,12,88216,2,0,P|143:53|146:98,1,90,8|2,0:0|0:0,0:0:0:0:
109,185,88497,1,8,0:0:0:0:
109,185,88591,6,0,P|75:155|56:115,1,90,8|2,0:0|0:0,0:0:0:0:
296,84,88966,2,0,P|330:114|349:154,1,90,8|2,0:0|0:0,0:0:0:0:
89,270,89341,2,0,P|90:224|108:184,1,90,8|2,0:0|0:0,0:0:0:0:
296,84,89716,1,8,0:0:0:0:
172,248,89903,1,2,0:0:0:0:
172,248,89997,1,0,0:0:0:0:
172,248,90091,5,6,0:0:0:0:
352,304,90372,1,2,0:0:0:0:
308,120,90653,1,2,0:0:0:0:
260,280,90841,5,2,0:0:0:0:
244,312,90934,1,0,0:0:0:0:
216,336,91028,1,8,0:0:0:0:
180,348,91122,1,0,0:0:0:0:
144,348,91216,2,0,L|96:340,1,45,8|8,0:0|0:0,0:0:0:0:
24,264,91403,2,0,L|54:226,1,45,8|0,0:0|0:0,0:0:0:0:
144,132,91591,5,4,0:0:0:0:
176,112,91684,1,0,0:0:0:0:
212,108,91778,1,2,0:0:0:0:
248,116,91872,1,0,0:0:0:0:
276,136,91966,2,0,L|288:184,3,45,10|0|2|0,0:0|0:0|0:0|0:0,0:0:0:0:
348,272,92341,5,10,0:0:0:0:
380,292,92434,1,0,0:0:0:0:
416,296,92528,1,2,0:0:0:0:
452,288,92622,1,0,0:0:0:0:
480,268,92716,2,0,L|492:220,3,45,10|0|2|0,0:0|0:0|0:0|0:0,0:0:0:0:
408,156,93091,5,2,0:0:0:0:
408,156,93184,1,0,0:0:0:0:
408,156,93278,2,0,L|400:92,1,45,2|0,0:0|0:0,0:0:0:0:
286,179,93466,1,2,0:0:0:0:
286,179,93559,1,0,0:0:0:0:
286,179,93653,2,0,L|291:134,1,45,2|0,0:0|0:0,0:0:0:0:
201,35,93841,6,0,P|200:56|196:80,1,45,8|0,0:0|0:0,0:0:0:0:
120,200,94028,2,0,P|102:184|86:156,1,45,2|0,0:0|0:0,0:0:0:0:
94,28,94216,2,0,P|108:44|119:64,1,45,8|0,0:0|0:0,0:0:0:0:
192,216,94403,2,0,P|183:236|168:253,1,45,2|0,0:0|0:0,0:0:0:0:
64,288,94591,5,12,0:0:0:0:
36,264,94684,1,0,0:0:0:0:
28,228,94778,1,2,0:0:0:0:
40,192,94872,1,0,0:0:0:0:
68,168,94966,2,0,L|128:152,3,45,10|0|2|0,0:0|0:0|0:0|0:0,0:0:0:0:
216,176,95341,5,10,0:0:0:0:
252,176,95434,1,0,0:0:0:0:
282,155,95528,1,2,0:0:0:0:
298,120,95622,1,0,0:0:0:0:
292,83,95716,2,0,L|267:45,3,45,10|0|2|0,0:0|0:0|0:0|0:0,0:0:0:0:
168,0,96091,5,10,0:0:0:0:
155,33,96184,1,0,0:0:0:0:
156,68,96278,1,2,0:0:0:0:
170,98,96372,1,0,0:0:0:0:
178,135,96466,1,10,0:0:0:0:
177,171,96559,1,0,0:0:0:0:
164,204,96653,1,2,0:0:0:0:
141,227,96747,1,0,0:0:0:0:
112,248,96841,6,0,P|100:267|91:287,1,45,2|0,0:0|0:0,0:0:0:0:
224,336,97028,2,0,P|212:355|203:375,1,45,2|0,0:0|0:0,0:0:0:0:
289,224,97216,2,0,P|309:212|328:200,1,45,2|0,0:0|0:0,0:0:0:0:
347,341,97403,2,0,P|365:327|384:316,1,45,2|0,0:0|0:0,0:0:0:0:
426,180,97591,5,12,0:0:0:0:
410,146,97684,1,0,0:0:0:0:
380,123,97778,1,2,0:0:0:0:
347,110,97872,1,0,0:0:0:0:
309,109,97966,2,0,L|264:140,3,45,10|0|2|0,0:0|0:0|0:0|0:0,0:0:0:0:
192,60,98341,5,10,0:0:0:0:
159,75,98434,1,0,0:0:0:0:
121,74,98528,1,2,0:0:0:0:
87,61,98622,1,0,0:0:0:0:
60,38,98716,2,0,L|15:69,3,45,10|0|2|0,0:0|0:0|0:0|0:0,0:0:0:0:
56,192,99091,5,2,0:0:0:0:
56,192,99184,1,0,0:0:0:0:
56,192,99278,2,0,L|64:128,1,45,2|0,0:0|0:0,0:0:0:0:
164,244,99466,1,2,0:0:0:0:
164,244,99559,1,0,0:0:0:0:
164,244,99653,2,0,L|159:199,1,45,2|0,0:0|0:0,0:0:0:0:
204,72,99841,6,0,P|224:84|241:98,1,45,8|0,0:0|0:0,0:0:0:0:
324,196,100028,2,0,P|335:216|343:237,1,45,2|0,0:0|0:0,0:0:0:0:
184,256,100216,2,0,P|190:233|199:213,1,45,8|0,0:0|0:0,0:0:0:0:
336,120,100403,2,0,P|357:129|375:141,1,45,2|0,0:0|0:0,0:0:0:0:
508,220,100591,5,10,0:0:0:0:
492,250,100684,1,0,0:0:0:0:
464,273,100778,1,8,0:0:0:0:
430,283,100872,1,0,0:0:0:0:
394,278,100966,2,0,L|339:255,3,45,10|0|2|0,0:0|0:0|0:0|0:0,0:0:0:0:
356,152,101341,5,10,0:0:0:0:
324,138,101434,1,0,0:0:0:0:
288,137,101528,1,8,0:0:0:0:
255,150,101622,1,0,0:0:0:0:
230,176,101716,2,0,L|200:227,3,45,10|0|2|0,0:0|0:0|0:0|0:0,0:0:0:0:
120,208,102091,5,10,0:0:0:0:
120,244,102184,1,0,0:0:0:0:
140,276,102278,1,10,0:0:0:0:
168,296,102372,1,0,0:0:0:0:
204,304,102466,1,10,0:0:0:0:
240,296,102559,1,0,0:0:0:0:
268,276,102653,1,10,0:0:0:0:
284,244,102747,1,0,0:0:0:0:
322,278,102841,5,10,0:0:0:0:
298,326,102935,1,0,0:0:0:0:
256,360,103029,1,2,0:0:0:0:
204,372,103122,1,0,0:0:0:0:
152,364,103216,1,8,0:0:0:0:
104,340,103310,1,8,0:0:0:0:
72,296,103404,1,0,0:0:0:0:
60,244,103497,1,0,0:0:0:0:
76,156,103591,5,4,0:0:0:0:
68,176,109591,6,0,L|160:160,1,90,4|2,0:0|0:0,0:0:0:0:
232,112,109872,1,0,0:0:0:0:
232,112,109966,2,0,L|324:128,1,90,8|2,0:0|0:0,0:0:0:0:
496,92,110341,1,8,0:0:0:0:
492,132,110434,1,0,0:0:0:0:
476,168,110528,1,2,0:0:0:0:
356,296,110716,2,0,L|368:240,1,45,8|0,0:0|0:0,0:0:0:0:
276,256,110903,2,0,L|288:200,1,45,2|0,0:0|0:0,0:0:0:0:
213,123,111091,6,0,L|204:168,1,45,8|0,0:0|0:0,0:0:0:0:
188,256,111278,1,2,0:0:0:0:
300,128,111466,2,0,P|344:112|392:104,1,90,8|2,0:0|0:0,0:0:0:0:
408,16,111747,1,0,0:0:0:0:
408,16,111841,2,0,P|364:32|316:40,1,90,8|2,0:0|0:0,0:0:0:0:
112,108,112216,1,8,0:0:0:0:
92,140,112309,1,0,0:0:0:0:
88,180,112403,1,2,0:0:0:0:
100,220,112497,1,0,0:0:0:0:
132,244,112591,6,0,L|228:224,1,90,8|2,0:0|0:0,0:0:0:0:
304,256,112872,1,0,0:0:0:0:
304,256,112966,2,0,L|332:152,1,90,8|2,0:0|0:0,0:0:0:0:
212,28,113341,1,8,0:0:0:0:
184,64,113434,1,0,0:0:0:0:
172,108,113528,1,2,0:0:0:0:
68,260,113716,2,0,L|80:320,1,45,8|0,0:0|0:0,0:0:0:0:
157,273,113903,2,0,L|200:288,1,45,2|0,0:0|0:0,0:0:0:0:
124,192,114091,6,0,L|157:162,1,45,8|0,0:0|0:0,0:0:0:0:
228,104,114278,1,2,0:0:0:0:
48,68,114466,2,0,L|16:80,6,22.5,8|0|0|0|2|0|0,0:0|0:0|0:0|0:0|0:0|0:0|0:0,0:0:0:0:
204,28,114841,2,0,P|252:28|292:52,1,90,8|2,0:0|0:0,0:0:0:0:
384,28,115122,1,0,0:0:0:0:
384,28,115216,2,0,L|372:80,1,45,8|0,0:0|0:0,0:0:0:0:
280,156,115403,2,0,L|240:168,1,22.5,2|0,0:0|0:0,0:0:0:0:
268,196,115497,2,0,L|236:204,1,22.5,2|0,0:0|0:0,0:0:0:0:
260,232,115591,6,0,L|248:272,3,36,4|0|2|0,0:0|0:0|0:0|0:0,0:0:0:0:
216,196,115966,2,0,L|176:184,3,36,2|0|2|0,0:0|0:0|0:0|0:0,0:0:0:0:
252,152,116341,2,0,L|264:112,3,36,2|0|2|0,0:0|0:0|0:0|0:0,0:0:0:0:
296,187,116716,2,0,L|336:200,3,36,2|0|2|0,0:0|0:0|0:0|0:0,0:0:0:0:
231,246,117091,6,0,L|196:281,3,36,2|0|2|0,0:0|0:0|0:0|0:0,0:0:0:0:
201,167,117466,2,0,L|166:132,3,36,2|0|2|0,0:0|0:0|0:0|0:0,0:0:0:0:
280,137,117841,2,0,L|315:102,3,36,2|0|2|0,0:0|0:0|0:0|0:0,0:0:0:0:
310,216,118216,2,0,L|345:251,3,36,2|0|2|0,0:0|0:0|0:0|0:0,0:0:0:0:
174,231,118591,6,0,L|125:235,3,45,2|0|2|0,0:0|0:0|0:0|0:0,0:0:0:0:
216,110,118966,2,0,L|213:61,3,45,2|0|2|0,0:0|0:0|0:0|0:0,0:0:0:0:
337,152,119341,2,0,L|387:149,3,45,2|0|2|0,0:0|0:0|0:0|0:0,0:0:0:0:
295,273,119716,2,0,L|299:323,3,45,2|0|2|0,0:0|0:0|0:0|0:0,0:0:0:0:
124,132,120091,6,0,L|84:93,3,45,2|0|2|0,0:0|0:0|0:0|0:0,0:0:0:0:
315,60,120466,2,0,L|354:20,3,45,2|0|2|0,0:0|0:0|0:0|0:0,0:0:0:0:
387,251,120841,2,0,L|427:290,3,45,2|0|2|0,0:0|0:0|0:0|0:0,0:0:0:0:
196,323,121216,2,0,L|157:363,3,45,2|0|2|0,0:0|0:0|0:0|0:0,0:0:0:0:
70,212,121591,6,0,P|93:160|122:133,1,99.0000030212403,4|0,0:0|0:0,0:0:0:0:
174,26,121872,1,8,0:0:0:0:
173,26,121966,2,0,P|230:32|265:52,1,99.0000030212403,8|0,0:0|0:0,0:0:0:0:
382,67,122247,1,8,0:0:0:0:
382,67,122341,2,0,P|395:123|386:162,1,99.0000030212403,8|0,0:0|0:0,0:0:0:0:
408,278,122622,1,8,0:0:0:0:
408,278,122716,2,0,P|358:308|319:312,1,99.0000030212403,8|0,0:0|0:0,0:0:0:0:
149,343,122997,1,8,0:0:0:0:
149,343,123091,6,0,P|202:320|229:290,1,99.0000030212403,8|0,0:0|0:0,0:0:0:0:
336,239,123372,1,8,0:0:0:0:
335,239,123466,2,0,P|330:181|310:147,1,99.0000030212403,8|0,0:0|0:0,0:0:0:0:
294,30,123747,1,8,0:0:0:0:
294,30,123841,2,0,P|239:17|200:25,1,99.0000030212403,8|0,0:0|0:0,0:0:0:0:
84,5,124122,1,8,0:0:0:0:
83,5,124216,2,0,P|54:54|50:93,1,99.0000030212403,8|0,0:0|0:0,0:0:0:0:
21,207,124497,1,8,0:0:0:0:
21,207,124591,6,0,P|72:204|120:184,1,99.0000030212403,8|0,0:0|0:0,0:0:0:0:
300,48,124966,2,0,L|356:64,2,49.5000015106202,8|0|0,0:0|0:0|0:0,0:0:0:0:
396,232,125341,2,0,L|452:248,2,49.5000015106202,8|0|0,0:0|0:0|0:0,0:0:0:0:
304,276,125622,1,8,0:0:0:0:
304,276,125716,2,0,P|253:273|205:253,1,99.0000030212403,8|0,0:0|0:0,0:0:0:0:
120,164,125997,1,0,0:0:0:0:
112,154,126091,5,8,0:0:0:0:
92,112,126184,1,0,0:0:0:0:
112,68,126278,1,8,0:0:0:0:
160,56,126372,1,0,0:0:0:0:
204,76,126466,6,0,P|220:96|236:124,1,49.5000015106202,8|0,0:0|0:0,0:0:0:0:
324,231,126653,2,0,P|314:254|298:282,1,49.5000015106202,8|0,0:0|0:0,0:0:0:0:
456,152,126841,6,0,L|479:146,1,24.7500007553101,8|0,0:0|0:0,0:0:0:0:
445,122,126934,2,0,L|472:105,1,24.7500007553101,8|0,0:0|0:0,0:0:0:0:
423,83,127028,2,0,L|443:57,1,24.7500007553101,8|8,0:0|0:0,0:0:0:0:
384,51,127122,2,0,L|393:19,1,24.7500007553101,8|0,0:0|0:0,0:0:0:0:
330,33,127216,6,0,L|331:19,12,12.375000377655,8|0|8|0|8|0|8|0|8|0|8|0|8,0:0|0:0|0:0|0:0|0:0|0:0|0:0|0:0|0:0|0:0|0:0|0:0|0:0,0:0:0:0:
320,164,127591,6,0,P|248:168|180:128,1,148.50000453186,4|0,0:0|0:0,0:0:0:0:
128,56,127966,1,0,1:0:0:0:
92,92,128059,1,0,0:0:0:0:
84,140,128153,1,2,0:0:0:0:
212,288,128341,1,0,1:0:0:0:
32,216,128528,1,2,0:0:0:0:
288,156,128716,1,0,1:0:0:0:
92,324,128903,1,2,0:0:0:0:
144,32,129091,6,0,P|197:47|248:82,1,99.0000030212403,0|2,1:0|0:0,0:0:0:0:
332,72,129372,1,0,0:0:0:0:
328,120,129466,1,2,1:2:0:0:
292,152,129559,1,0,0:0:0:0:
260,192,129653,1,2,0:0:0:0:
244,240,129747,1,0,0:0:0:0:
248,288,129841,6,0,P|196:312|140:308,1,99.0000030212403,0|2,1:0|0:0,0:0:0:0:
80,192,130122,1,0,0:0:0:0:
92,180,130216,2,0,P|144:156|200:160,1,99.0000030212403,0|2,1:0|0:0,0:0:0:0:
304,240,130497,1,0,1:0:0:0:
320,244,130591,6,0,P|372:220|405:175,1,99.0000030212403,0|2,1:0|0:0,0:0:0:0:
440,120,130872,1,0,0:0:0:0:
440,120,130966,1,0,1:0:0:0:
240,16,131153,1,2,0:0:0:0:
360,116,131341,2,0,P|324:154|316:201,1,99.0000030212403,0|2,1:0|0:0,0:0:0:0:
358,375,131716,1,0,1:0:0:0:
419,378,131809,1,0,0:0:0:0:
459,336,131903,1,2,0:0:0:0:
453,278,131997,1,0,0:0:0:0:
403,246,132091,6,0,P|357:224|313:196,1,99.0000030212403,0|2,1:0|0:0,0:0:0:0:
188,80,132372,1,0,0:0:0:0:
202,88,132466,2,0,P|252:83|303:72,1,99.0000030212403,0|2,1:0|0:0,0:0:0:0:
200,208,132841,1,2,1:2:0:0:
168,247,132934,1,0,0:0:0:0:
152,293,133028,1,2,0:0:0:0:
156,342,133122,1,0,0:0:0:0:
186,380,133216,2,0,P|217:336|246:289,1,99.0000030212403,0|0,1:0|0:0,0:0:0:0:
496,32,133591,6,0,L|508:88,1,49.5000015106202,2|0,1:2|0:0,0:0:0:0:
426,87,133778,2,0,L|435:135,1,49.5000015106202,2|0,0:0|0:0,0:0:0:0:
336,56,133966,2,0,L|348:112,1,49.5000015106202,2|0,1:2|0:0,0:0:0:0:
266,111,134153,2,0,L|275:159,1,49.5000015106202,2|0,0:0|0:0,0:0:0:0:
184,80,134341,6,0,L|194:31,1,49.5000015106202,2|0,1:2|0:0,0:0:0:0:
100,200,134529,2,0,L|90:248,1,49.5000015106202,2|0,0:0|0:0,0:0:0:0:
11,68,134716,2,0,L|99:112,1,99.0000030212403,2|2,1:2|0:0,0:0:0:0:
348,208,135091,6,0,L|252:232,1,99.0000030212403,0|2,1:0|0:0,0:0:0:0:
184,284,135372,1,0,0:0:0:0:
160,240,135466,1,2,1:2:0:0:
156,192,135559,1,0,0:0:0:0:
180,148,135653,1,2,0:0:0:0:
204,104,135747,1,0,0:0:0:0:
208,56,135841,6,0,L|304:80,1,99.0000030212403,0|2,1:0|0:0,0:0:0:0:
464,172,136122,1,0,0:0:0:0:
453,184,136216,2,0,L|356:204,1,99.0000030212403,0|2,1:0|0:0,0:0:0:0:
200,192,136497,1,0,1:0:0:0:
208,208,136591,6,0,L|176:312,1,99.0000030212403,0|2,1:0|0:0,0:0:0:0:
80,228,136966,1,0,1:0:0:0:
276,360,137153,1,2,0:0:0:0:
148,144,137341,2,0,P|196:128|248:132,1,99.0000030212403,0|2,1:0|0:0,0:0:0:0:
388,232,137716,1,0,1:0:0:0:
212,232,137903,1,0,0:0:0:0:
212,232,137997,1,0,0:0:0:0:
212,232,138091,6,0,P|164:240|112:256,1,99.0000030212403,4|0,1:0|0:0,0:0:0:0:
52,172,138372,1,0,0:0:0:0:
60,160,138466,2,0,P|107:145|156:137,1,99.0000030212403,8|8,0:0|0:0,0:0:0:0:
224,148,138747,1,0,0:0:0:0:
280,192,138841,1,8,0:0:0:0:
292,260,138934,1,0,0:0:0:0:
348,220,139028,1,8,0:0:0:0:
416,216,139122,1,8,0:0:0:0:
480,244,139216,6,0,P|464:268|444:280,1,49.5000015106202,8|0,0:3|0:0,0:0:0:0:
300,332,139403,2,0,P|271:330|250:318,1,49.5000015106202,8|0,0:3|0:0,0:0:0:0:
164,192,139591,5,6,0:0:0:0:
158,183,139684,1,0,0:0:0:0:
154,175,139778,1,2,0:0:0:0:
151,165,139872,1,0,0:0:0:0:
150,155,139966,1,10,0:0:0:0:
150,145,140059,1,0,0:0:0:0:
152,136,140153,1,2,0:0:0:0:
156,128,140247,1,0,0:0:0:0:
208,100,140341,5,10,0:0:0:0:
208,90,140434,1,0,0:0:0:0:
208,80,140528,1,2,0:0:0:0:
205,70,140622,1,0,0:0:0:0:
201,61,140716,6,0,P|192:36|180:16,1,49.5000015106202,10|0,0:0|0:0,0:0:0:0:
96,4,140903,2,0,P|71:13|51:25,1,49.5000015106202,2|0,0:0|0:0,0:0:0:0:
36,108,141091,5,10,0:0:0:0:
38,117,141184,1,0,0:0:0:0:
41,127,141278,1,2,0:0:0:0:
43,136,141372,1,0,0:0:0:0:
44,146,141466,1,10,0:0:0:0:
46,156,141559,1,0,0:0:0:0:
47,166,141653,1,2,0:0:0:0:
47,176,141747,1,0,0:0:0:0:
48,186,141841,1,10,0:0:0:0:
48,195,141934,1,0,0:0:0:0:
47,205,142028,1,2,0:0:0:0:
47,215,142122,1,0,0:0:0:0:
88,260,142216,5,10,0:0:0:0:
97,256,142309,1,0,0:0:0:0:
106,252,142403,1,2,0:0:0:0:
115,248,142497,1,8,0:0:0:0:
168,280,142591,5,10,0:0:0:0:
177,281,142684,1,0,0:0:0:0:
187,283,142778,1,2,0:0:0:0:
197,284,142872,1,0,0:0:0:0:
207,286,142966,1,10,0:0:0:0:
216,288,143059,1,0,0:0:0:0:
226,289,143153,1,2,0:0:0:0:
236,291,143247,1,0,0:0:0:0:
280,252,143341,5,10,0:0:0:0:
289,250,143434,1,0,0:0:0:0:
299,248,143528,1,2,0:0:0:0:
309,247,143622,1,0,0:0:0:0:
319,245,143716,1,10,0:0:0:0:
328,243,143809,1,0,0:0:0:0:
338,242,143903,1,2,0:0:0:0:
348,240,143997,1,0,0:0:0:0:
396,276,144091,5,10,0:0:0:0:
398,284,144184,1,0,0:0:0:0:
402,293,144278,1,2,0:0:0:0:
406,303,144372,1,0,0:0:0:0:
464,316,144466,5,10,0:0:0:0:
468,306,144560,1,0,0:0:0:0:
472,297,144654,1,2,0:0:0:0:
474,289,144747,1,0,0:0:0:0:
488,232,144841,6,0,L|480:172,1,49.5000015106202,2|0,0:0|0:0,0:0:0:0:
408,208,145028,2,0,L|399:147,1,49.5000015106202,2|0,0:0|0:0,0:0:0:0:
328,188,145216,2,0,L|319:127,1,49.5000015106202,2|0,0:0|0:0,0:0:0:0:
247,163,145403,2,0,L|238:102,1,49.5000015106202,2|0,0:0|0:0,0:0:0:0:
165,51,145590,5,6,0:0:0:0:
158,58,145684,1,0,0:0:0:0:
153,66,145778,1,2,0:0:0:0:
148,75,145872,1,0,0:0:0:0:
145,84,145965,1,10,0:0:0:0:
142,94,146059,1,0,0:0:0:0:
140,104,146153,1,2,0:0:0:0:
140,114,146247,1,0,0:0:0:0:
140,124,146341,5,10,0:0:0:0:
165,153,146434,1,0,0:0:0:0:
177,191,146528,1,2,0:0:0:0:
176,232,146622,1,0,0:0:0:0:
168,280,146716,5,10,0:0:0:0:
132,320,146809,1,0,0:0:0:0:
80,328,146903,1,2,0:0:0:0:
32,304,146997,1,0,0:0:0:0:
8,256,147091,5,10,0:0:0:0:
8,256,147184,1,0,0:0:0:0:
8,256,147278,2,0,L|0:191,1,49.5000015106202,2|0,0:0|0:0,0:0:0:0:
94,87,147466,1,10,0:0:0:0:
94,87,147559,1,0,0:0:0:0:
94,87,147653,2,0,L|125:143,1,49.5000015106202,2|0,0:0|0:0,0:0:0:0:
257,190,147841,1,10,0:0:0:0:
257,190,147934,1,0,0:0:0:0:
257,190,148028,2,0,L|250:140,1,49.5000015106202,2|0,0:0|0:0,0:0:0:0:
384,68,148216,5,10,0:0:0:0:
377,118,148309,1,0,0:0:0:0:
367,166,148403,1,2,0:0:0:0:
359,214,148497,1,0,0:0:0:0:
352,264,148591,6,0,L|340:330,3,49.5000015106202,10|0|2|0,0:0|0:0|0:0|0:0,0:0:0:0:
432,324,148966,2,0,P|425:349|412:369,1,49.5000015106202,10|0,0:0|0:0,0:0:0:0:
272,372,149153,2,0,P|258:351|253:327,1,49.5000015106202,10|0,0:0|0:0,0:0:0:0:
264,184,149341,5,10,0:0:0:0:
272,156,149434,1,0,0:0:0:0:
276,128,149528,1,2,0:0:0:0:
284,100,149622,1,0,0:0:0:0:
248,56,149716,5,10,0:0:0:0:
240,84,149809,1,0,0:0:0:0:
232,112,149903,1,2,0:0:0:0:
224,140,149997,1,0,0:0:0:0:
184,184,150091,5,10,0:0:0:0:
146,194,150184,1,0,0:0:0:0:
106,191,150278,1,2,0:0:0:0:
71,174,150372,1,0,0:0:0:0:
44,145,150466,6,0,L|32:120,6,24.7500007553101,2|0|2|0|2|0|2,0:0|0:0|0:0|0:0|0:0|0:0|0:0,0:0:0:0:
136,92,150841,6,0,P|164:80|204:68,1,49.5000015106202,2|0,0:0|0:0,0:0:0:0:
328,100,151028,2,0,L|316:160,1,49.5000015106202,8|8,0:0|0:0,0:0:0:0:
190,252,151216,2,0,P|200:230|214:209,1,49.5000015106202,10|8,0:0|0:0,0:0:0:0:
328,276,151403,2,0,P|341:296|352:318,1,49.5000015106202,8|0,0:0|0:0,0:0:0:0:
140,312,151591,6,0,P|124:292|112:264,1,49.5000015106202,6|0,0:0|0:0,0:0:0:0:
44,145,151778,2,0,P|60:165|72:193,1,49.5000015106202,2|0,0:0|0:0,0:0:0:0:
108,323,151966,6,0,P|100:299|98:268,1,49.5000015106202,10|0,0:0|0:0,0:0:0:0:
75,133,152153,2,0,P|83:157|85:188,1,49.5000015106202,2|0,0:0|0:0,0:0:0:0:
75,323,152341,6,0,P|75:297|84:268,1,49.5000015106202,10|0,0:0|0:0,0:0:0:0:
108,133,152528,2,0,P|108:159|99:188,1,49.5000015106202,2|0,0:0|0:0,0:0:0:0:
43,311,152716,6,0,P|53:287|71:263,1,49.5000015106202,10|0,0:0|0:0,0:0:0:0:
140,145,152903,2,0,P|130:169|112:193,1,49.5000015106202,2|0,0:0|0:0,0:0:0:0:
18,290,153091,6,0,P|35:271|60:254,1,49.5000015106202,10|0,0:0|0:0,0:0:0:0:
165,166,153278,2,0,P|148:185|123:202,1,49.5000015106202,2|0,0:0|0:0,0:0:0:0:
1,261,153466,6,0,P|23:248|53:242,1,49.5000015106202,10|0,0:0|0:0,0:0:0:0:
182,195,153653,2,0,P|160:208|130:214,1,49.5000015106202,2|0,0:0|0:0,0:0:0:0:
0,228,153841,6,0,P|21:224|51:228,1,49.5000015106202,10|0,0:0|0:0,0:0:0:0:
188,228,154028,2,0,P|162:232|132:228,1,49.5000015106202,2|0,0:0|0:0,0:0:0:0:
1,195,154216,6,0,P|26:200|53:214,1,49.5000015106202,10|0,0:0|0:0,0:0:0:0:
182,261,154403,2,0,P|157:256|130:242,1,49.5000015106202,2|0,0:0|0:0,0:0:0:0:
18,166,154591,6,0,P|40:179|61:201,1,49.5000015106202,10|0,0:0|0:0,0:0:0:0:
165,290,154778,2,0,P|143:277|122:255,1,49.5000015106202,2|0,0:0|0:0,0:0:0:0:
43,145,154966,6,0,P|60:165|72:193,1,49.5000015106202,10|0,0:0|0:0,0:0:0:0:
140,312,155153,2,0,P|123:292|111:263,1,49.5000015106202,2|0,0:0|0:0,0:0:0:0:
75,133,155341,5,10,0:0:0:0:
60,88,155434,1,0,0:0:0:0:
72,40,155528,1,2,0:0:0:0:
112,8,155622,1,0,0:0:0:0:
160,4,155716,1,10,0:0:0:0:
200,28,155809,1,0,0:0:0:0:
222,73,155903,1,2,0:0:0:0:
212,123,155997,1,0,0:0:0:0:
188,168,156091,5,10,0:0:0:0:
170,222,156184,1,0,0:0:0:0:
184,279,156278,1,2,0:0:0:0:
232,318,156372,1,0,0:0:0:0:
290,322,156466,1,10,0:0:0:0:
338,294,156559,1,0,0:0:0:0:
364,240,156653,1,2,0:0:0:0:
356,180,156747,1,0,0:0:0:0:
316,136,156841,6,0,P|296:120|264:100,1,49.5000015106202,2|0,0:0|0:0,0:0:0:0:
152,28,157028,2,0,P|158:52|171:88,1,49.5000015106202,2|0,0:0|0:0,0:0:0:0:
184,220,157216,2,0,P|188:195|195:171,1,49.5000015106202,2|0,0:0|0:0,0:0:0:0:
372,72,157403,2,0,P|388:92|400:120,1,49.5000015106202,2|0,0:0|0:0,0:0:0:0:
275,187,157591,6,0,P|274:212|265:241,1,49.5000015106202,6|0,0:0|0:0,0:0:0:0:
240,376,157778,2,0,P|240:350|249:321,1,49.5000015106202,2|0,0:0|0:0,0:0:0:0:
306,199,157966,6,0,P|296:222|278:247,1,49.5000015106202,10|0,0:0|0:0,0:0:0:0:
209,364,158153,2,0,P|218:340|236:315,1,49.5000015106202,2|0,0:0|0:0,0:0:0:0:
331,219,158341,6,0,P|314:238|288:255,1,49.5000015106202,10|0,0:0|0:0,0:0:0:0:
184,344,158528,2,0,P|200:324|226:307,1,49.5000015106202,2|0,0:0|0:0,0:0:0:0:
348,250,158716,6,0,P|324:261|295:268,1,49.5000015106202,10|0,0:0|0:0,0:0:0:0:
167,314,158903,2,0,P|190:302|219:295,1,49.5000015106202,2|0,0:0|0:0,0:0:0:0:
353,281,159091,6,0,P|327:284|297:281,1,49.5000015106202,10|0,0:0|0:0,0:0:0:0:
162,282,159278,2,0,P|187:278|217:281,1,49.5000015106202,2|0,0:0|0:0,0:0:0:0:
347,314,159466,6,0,P|321:309|294:295,1,49.5000015106202,10|0,0:0|0:0,0:0:0:0:
167,249,159653,2,0,P|192:253|219:267,1,49.5000015106202,2|0,0:0|0:0,0:0:0:0:
328,341,159841,6,0,P|309:330|288:308,1,49.5000015106202,10|0,0:0|0:0,0:0:0:0:
184,220,160028,2,0,P|206:233|226:255,1,49.5000015106202,2|0,0:0|0:0,0:0:0:0:
305,365,160216,6,0,P|289:345|277:317,1,49.5000015106202,10|0,0:0|0:0,0:0:0:0:
209,198,160403,2,0,P|224:217|236:245,1,49.5000015106202,2|0,0:0|0:0,0:0:0:0:
273,376,160591,6,0,P|264:351|262:321,1,49.5000015106202,10|0,0:0|0:0,0:0:0:0:
241,187,160778,2,0,P|249:211|251:241,1,49.5000015106202,2|0,0:0|0:0,0:0:0:0:
241,376,160966,6,0,P|240:349|249:320,1,49.5000015106202,10|0,0:0|0:0,0:0:0:0:
275,187,161153,2,0,P|275:213|265:243,1,49.5000015106202,2|0,0:0|0:0,0:0:0:0:
210,364,161341,6,0,P|219:339|236:314,1,49.5000015106202,10|0,0:0|0:0,0:0:0:0:
305,196,161528,2,0,P|295:220|276:245,1,49.5000015106202,2|0,0:0|0:0,0:0:0:0:
184,342,161716,6,0,P|200:322|226:305,1,49.5000015106202,10|0,0:0|0:0,0:0:0:0:
331,219,161903,2,0,P|314:238|287:255,1,49.5000015106202,2|0,0:0|0:0,0:0:0:0:
167,324,162091,5,10,0:0:0:0:
121,342,162184,1,0,0:0:0:0:
72,336,162278,1,2,0:0:0:0:
33,308,162372,1,0,0:0:0:0:
13,263,162466,1,10,0:0:0:0:
18,214,162559,1,0,0:0:0:0:
47,174,162653,1,2,0:0:0:0:
91,153,162747,1,0,0:0:0:0:
135,174,162841,6,0,P|160:188|184:204,1,49.5000015106202,2|0,0:0|0:0,0:0:0:0:
348,144,163028,2,0,P|329:165|312:188,1,49.5000015106202,8|0,0:0|0:0,0:0:0:0:
260,300,163216,2,0,P|252:323|243:346,1,49.5000015106202,8|8,0:0|0:0,0:0:0:0:
236,100,163403,2,0,P|243:76|252:53,1,49.5000015106202,8|0,0:0|0:0,0:0:0:0:
488,232,163591,6,0,P|416:260|332:256,1,161.999995056153,4|0,0:0|0:0,0:0:0:0:
204,172,163966,1,2,1:2:0:0:
168,136,164059,1,0,0:0:0:0:
164,84,164153,1,2,0:0:0:0:
288,160,164341,2,0,P|272:216|232:248,1,107.999996704102,0|2,1:0|0:0,0:0:0:0:
56,252,164622,1,0,0:0:0:0:
56,252,164716,2,0,P|108:259|157:238,1,107.999996704102,0|2,1:0|0:0,0:0:0:0:
236,96,165091,5,0,1:0:0:0:
360,196,165278,1,2,0:0:0:0:
412,220,165371,1,0,0:0:0:0:
468,196,165465,1,2,1:2:0:0:
484,140,165559,1,0,0:0:0:0:
452,92,165653,1,2,0:0:0:0:
392,88,165746,1,0,0:0:0:0:
344,120,165841,6,0,P|284:112|240:96,1,107.999996704102,0|2,1:0|0:0,0:0:0:0:
188,44,166122,1,0,0:0:0:0:
120,12,166216,2,0,P|79:47|46:90,1,107.999996704102,0|2,1:0|0:0,0:0:0:0:
12,156,166497,1,0,0:0:0:0:
12,232,166591,6,0,L|120:252,1,107.999996704102,0|0,1:0|0:0,0:0:0:0:
340,236,166966,1,0,1:0:0:0:
156,324,167153,1,2,0:0:0:0:
416,208,167341,2,0,P|414:256|374:305,1,107.999996704102,0|2,1:0|0:0,0:0:0:0:
208,176,167716,1,0,1:0:0:0:
456,144,167903,2,0,P|472:160|488:192,1,53.9999983520508,2|0,0:0|0:0,0:0:0:0:
416,208,168091,6,0,P|360:216|312:240,1,107.999996704102,0|2,1:0|0:0,0:0:0:0:
252,280,168372,1,0,0:0:0:0:
208,344,168466,2,0,P|180:308|180:248,1,107.999996704102,0|2,1:0|0:0,0:0:0:0:
208,176,168747,1,0,0:0:0:0:
184,104,168841,6,0,L|208:40,1,53.9999983520508,0|0,1:0|0:0,0:0:0:0:
344,100,169028,2,0,P|356:124|362:150,1,53.9999983520508,2|0,1:2|0:0,0:0:0:0:
242,216,169216,2,0,P|222:197|206:174,1,53.9999983520508,0|0,1:0|0:0,0:0:0:0:
84,36,169403,1,2,0:0:0:0:
84,36,169497,1,0,0:0:0:0:
84,36,169591,6,0,B|56:72|56:72|64:144|64:144|100:168,1,161.999995056153,4|0,0:0|0:0,0:0:0:0:
206,175,169966,1,0,1:0:0:0:
242,216,170059,1,0,0:0:0:0:
244,272,170153,1,2,0:0:0:0:
384,128,170341,2,0,P|332:136|272:152,1,107.999996704102,0|2,1:0|0:0,0:0:0:0:
160,248,170622,1,0,0:0:0:0:
160,248,170716,2,0,P|107:234|54:226,1,107.999996704102,0|2,1:0|0:0,0:0:0:0:
16,148,170997,1,0,0:0:0:0:
16,148,171091,5,0,1:0:0:0:
228,196,171278,1,2,0:0:0:0:
272,224,171372,1,0,0:0:0:0:
324,228,171466,1,2,1:2:0:0:
376,204,171559,1,0,0:0:0:0:
408,160,171653,1,2,0:0:0:0:
460,152,171747,1,0,0:0:0:0:
508,180,171841,6,0,P|511:127|486:73,1,107.999996704102,0|2,1:0|0:0,0:0:0:0:
428,32,172122,1,0,0:0:0:0:
351,33,172216,2,0,P|318:75|308:128,1,107.999996704102,0|2,1:0|0:0,0:0:0:0:
324,204,172497,1,0,0:0:0:0:
292,272,172591,6,0,P|244:272|192:244,1,107.999996704102,0|2,1:0|0:0,0:0:0:0:
28,144,172966,1,0,1:0:0:0:
272,28,173153,1,2,0:0:0:0:
93,274,173341,2,0,P|146:272|192:244,1,107.999996704102,0|2,1:0|0:0,0:0:0:0:
328,88,173716,1,0,1:0:0:0:
100,196,173903,2,0,P|74:198|41:212,1,53.9999983520508,2|0,0:0|0:0,0:0:0:0:
191,244,174091,6,0,P|244:260|304:264,1,107.999996704102,0|2,1:0|0:0,0:0:0:0:
396,220,174372,1,0,0:0:0:0:
396,220,174466,2,0,P|424:228|448:232,1,53.9999983520508,8|0,1:2|0:0,0:0:0:0:
400,80,174653,2,0,P|373:84|347:92,1,53.9999983520508,8|0,1:2|0:0,0:0:0:0:
212,156,174841,1,8,0:0:0:0:
160,172,174934,1,0,0:0:0:0:
108,168,175028,1,8,0:0:0:0:
64,136,175122,1,8,0:0:0:0:
40,88,175216,6,8,P|24:60|4:40,1,53.9999983520508,8|8,3:3|0:3,0:3:0:0:
44,208,175403,2,0,P|68:228|94:240,1,53.9999983520508,8|8,0:3|0:3,0:0:0:0:
300,228,175591,5,6,1:2:0:0:
332,188,175684,1,0,0:0:0:0:
384,168,175778,1,2,0:0:0:0:
436,172,175872,1,0,0:0:0:0:
484,200,175966,2,0,L|504:144,3,53.9999983520508,2|0|2|0,1:2|0:0|0:0|0:0,0:0:0:0:
400,288,176341,5,2,1:2:0:0:
368,328,176434,1,0,0:0:0:0:
316,348,176528,1,2,0:0:0:0:
264,344,176622,1,0,0:0:0:0:
216,316,176716,2,0,L|196:372,3,53.9999983520508,2|0|2|0,1:2|0:0|0:0|0:0,0:0:0:0:
116,232,177091,6,0,L|136:176,1,53.9999983520508,2|0,1:2|0:0,0:0:0:0:
288,72,177278,1,2,0:0:0:0:
292,64,177372,1,2,0:0:0:0:
296,56,177466,6,0,L|326:107,1,53.9999983520508,2|0,1:2|0:0,0:0:0:0:
472,220,177653,1,2,0:0:0:0:
476,228,177747,1,2,0:0:0:0:
480,236,177841,6,0,L|428:248,1,53.9999983520508,0|0,1:0|0:0,0:0:0:0:
296,149,178028,2,0,L|322:102,1,53.9999983520508,2|0,0:0|0:0,0:0:0:0:
216,235,178216,2,0,L|189:281,1,53.9999983520508,0|0,1:0|0:0,0:0:0:0:
32,148,178403,2,0,L|84:136,1,53.9999983520508,2|0,0:0|0:0,0:0:0:0:
240,40,178591,5,4,1:2:0:0:
292,36,178684,1,0,0:0:0:0:
344,56,178778,1,2,0:0:0:0:
376,100,178872,1,0,0:0:0:0:
388,152,178966,2,0,P|384:184|376:208,3,53.9999983520508,2|0|2|0,1:2|0:0|0:0|0:0,0:0:0:0:
472,260,179341,5,2,1:2:0:0:
438,299,179434,1,0,0:0:0:0:
387,322,179528,1,2,0:0:0:0:
333,313,179622,1,0,0:0:0:0:
288,285,179716,2,0,P|268:259|256:236,3,53.9999983520508,2|0|2|0,1:2|0:0|0:0|0:0,0:0:0:0:
200,92,180091,5,2,1:2:0:0:
152,68,180184,1,0,0:0:0:0:
96,68,180278,1,2,0:0:0:0:
48,92,180372,1,0,0:0:0:0:
16,136,180466,1,2,1:2:0:0:
12,188,180559,1,0,0:0:0:0:
32,240,180653,1,2,0:0:0:0:
72,276,180747,1,0,0:0:0:0:
144,304,180841,5,2,1:2:0:0:
196,292,180934,1,0,0:0:0:0:
248,280,181028,1,2,0:0:0:0:
300,268,181122,1,0,0:0:0:0:
352,212,181216,5,2,1:2:0:0:
288,196,181309,1,0,0:0:0:0:
224,176,181403,1,2,0:0:0:0:
160,160,181497,1,0,0:0:0:0:
96,144,181591,6,0,P|68:152|40:168,1,53.9999983520508,6|0,1:2|0:0,0:0:0:0:
108,252,181778,2,0,P|91:276|80:306,1,53.9999983520508,2|0,0:0|0:0,0:0:0:0:
188,328,181966,2,0,P|191:356|201:387,3,53.9999983520508,2|0|2|0,1:2|0:0|0:0|0:0,0:0:0:0:
232,204,182341,6,0,P|224:175|224:143,1,53.9999983520508,2|0,1:2|0:0,0:0:0:0:
331,160,182528,2,0,P|343:133|364:109,1,53.9999983520508,2|0,0:0|0:0,0:0:0:0:
437,191,182716,2,0,P|463:179|495:173,3,53.9999983520508,2|0|2|0,1:2|0:0|0:0|0:0,0:0:0:0:
360,260,183091,5,2,1:2:0:0:
360,260,183184,1,0,0:0:0:0:
360,260,183278,2,0,P|348:288|336:316,1,53.9999983520508,2|0,0:0|0:0,0:0:0:0:
172,244,183466,1,2,1:2:0:0:
172,244,183559,1,0,0:0:0:0:
172,244,183653,2,0,P|162:222|150:194,1,53.9999983520508,2|0,0:0|0:0,0:0:0:0:
252,20,183841,5,2,1:2:0:0:
268,72,183934,1,0,0:0:0:0:
264,128,184028,1,2,0:0:0:0:
236,176,184122,1,0,0:0:0:0:
244,228,184216,1,2,1:2:0:0:
256,281,184309,1,0,0:0:0:0:
287,327,184403,1,2,0:0:0:0:
335,355,184497,1,0,0:0:0:0:
388,340,184591,6,0,P|416:336|444:328,1,53.9999983520508,6|0,1:2|0:0,0:0:0:0:
384,208,184778,2,0,P|402:186|419:162,1,53.9999983520508,2|0,0:0|0:0,0:0:0:0:
292,112,184966,2,0,P|292:83|289:54,3,53.9999983520508,2|0|2|0,1:2|0:0|1:2|0:0,0:0:0:0:
256,240,185341,6,0,P|243:265|226:289,1,53.9999983520508,2|0,1:2|0:0,0:0:0:0:
132,191,185528,2,0,P|105:201|77:209,1,53.9999983520508,2|0,0:0|0:0,0:0:0:0:
71,73,185716,2,0,P|43:64|17:52,3,53.9999983520508,2|0|2|0,1:2|0:0|1:2|0:0,0:0:0:0:
208,124,186091,5,0,1:0:0:0:
228,172,186184,1,0,0:0:0:0:
276,200,186278,1,0,1:0:0:0:
332,200,186372,1,0,0:0:0:0:
380,176,186466,2,0,L|408:156,6,26.9999991760254,2|0|2|0|2|0|2,0:0|0:0|0:0|0:0|0:0|0:0|0:0,0:0:0:0:
304,100,186841,6,0,L|292:32,1,53.9999983520508,2|0,1:2|0:0,0:0:0:0:
208,124,187028,2,0,L|198:70,1,53.9999983520508,2|0,1:2|1:0,0:0:0:0:
156,312,187216,2,0,L|146:365,1,53.9999983520508,8|2,1:1|0:0,0:0:0:0:
60,288,187403,2,0,L|48:356,1,53.9999983520508,2|2,0:2|0:0,0:0:0:0:
0,32,187591,5,4,1:0:0:0:
124,72,193591,6,0,L|214:93,1,90,4|2,0:0|0:0,0:0:0:0:
299,77,193872,1,0,0:0:0:0:
299,77,193966,2,0,L|377:127,1,90,8|2,0:0|0:0,0:0:0:0:
432,244,194341,1,8,0:0:0:0:
395,260,194434,1,0,0:0:0:0:
356,264,194528,1,2,0:0:0:0:
185,224,194716,2,0,L|239:206,1,45,8|0,0:0|0:0,0:0:0:0:
179,135,194903,2,0,L|233:117,1,45,2|0,0:0|0:0,0:0:0:0:
263,14,195091,6,0,L|219:28,1,45,8|0,0:0|0:0,0:0:0:0:
135,59,195278,1,2,0:0:0:0:
336,108,195466,2,0,L|432:88,1,90,8|2,0:0|0:0,0:0:0:0:
476,156,195747,1,0,0:0:0:0:
476,156,195841,2,0,L|384:176,1,90,8|2,0:0|0:0,0:0:0:0:
228,228,196216,1,8,0:0:0:0:
190,231,196309,1,0,0:0:0:0:
153,216,196403,1,2,0:0:0:0:
122,188,196497,1,0,0:0:0:0:
112,148,196591,6,0,L|168:64,1,90,4|2,0:0|0:0,0:0:0:0:
336,24,196966,1,8,0:0:0:0:
204,148,197153,1,2,0:0:0:0:
376,100,197341,2,0,L|424:84,2,45,8|0|2,0:0|0:0|0:0,0:0:0:0:
260,222,197716,2,0,P|239:231|218:239,1,45,8|0,0:0|0:0,0:0:0:0:
204,148,197903,2,0,P|181:145|159:142,1,45,2|0,0:0|0:0,0:0:0:0:
187,57,198091,2,0,P|168:43|151:29,2,45,8|0|2,0:0|0:0|0:0,0:0:0:0:
376,100,198466,2,0,P|424:80|480:68,1,90,8|2,0:0|0:0,0:0:0:0:
456,184,198747,2,0,L|452:212,2,22.5,2|0|8,0:0|0:0|0:0,0:0:0:0:
357,204,198934,2,0,L|336:224,2,22.5,2|0|2,0:0|0:0|0:0,0:0:0:0:
276,143,199122,1,10,0:0:0:0:
260,148,199216,6,0,L|245:175,1,22.5,10|0,0:0|0:0,0:0:0:0:
240,156,199309,2,0,L|225:183,1,22.5,2|0,0:0|0:0,0:0:0:0:
220,164,199403,2,0,L|205:191,1,22.5,2|0,0:0|0:0,0:0:0:0:
200,172,199497,2,0,L|185:199,1,22.5,2|0,0:0|0:0,0:0:0:0:
176,184,199591,6,0,P|128:176|88:160,1,90,6|2,0:0|0:0,0:0:0:0:
132,24,199966,2,0,P|180:32|220:48,1,90,2|2,0:0|0:0,0:0:0:0:
340,192,200341,1,2,0:0:0:0:
340,192,200434,1,0,0:0:0:0:
340,192,200528,1,2,0:0:0:0:
256,224,200716,1,2,0:0:0:0:
176,184,200903,1,2,0:0:0:0:
218,47,201091,6,0,L|280:24,2,45,2|0|2,0:0|0:0|0:0,0:0:0:0:
128,164,201466,2,0,L|66:141,2,45,2|0|2,0:0|0:0|0:0,0:0:0:0:
340,248,201841,2,0,L|402:225,2,45,2|0|2,0:0|0:0|0:0,0:0:0:0:
108,248,202216,2,0,L|224:296,1,90,2|2,0:0|0:0,0:0:0:0:
332,316,202591,5,6,0:0:0:0:
368,308,202684,1,0,0:0:0:0:
400,288,202778,1,2,0:0:0:0:
500,152,202966,1,2,0:0:0:0:
464,160,203059,1,0,0:0:0:0:
432,180,203153,1,2,0:0:0:0:
253,322,203341,1,2,0:0:0:0:
258,284,203435,1,0,0:0:0:0:
276,252,203528,1,2,0:0:0:0:
380,116,203716,2,0,L|368:48,1,45,2|0,0:0|0:0,0:0:0:0:
292,96,203903,2,0,L|280:28,1,45,2|0,0:0|0:0,0:0:0:0:
204,80,204091,6,0,P|192:124|184:172,1,90,2|2,0:0|0:0,0:0:0:0:
253,322,204466,2,0,L|261:370,2,45,2|0|2,0:0|0:0|0:0,0:0:0:0:
332,200,204841,2,0,P|342:177|347:155,1,45,2|0,0:0|0:0,0:0:0:0:
219,243,205028,2,0,P|196:241|175:236,1,45,2|0,0:0|0:0,0:0:0:0:
120,104,205216,2,0,P|142:115|158:131,1,45,2|0,0:0|0:0,0:0:0:0:
320,80,205403,2,0,P|297:91|281:107,1,45,2|0,0:0|0:0,0:0:0:0:
96,212,205591,6,0,P|127:259|160:280,1,99.0000030212403,4|0,0:0|0:0,0:0:0:0:
230,376,205872,1,8,0:0:0:0:
228,376,205966,2,0,P|283:360|314:334,1,99.0000030212403,8|0,0:0|0:0,0:0:0:0:
427,300,206247,1,8,0:0:0:0:
427,300,206341,2,0,P|430:242|414:205,1,99.0000030212403,8|0,0:0|0:0,0:0:0:0:
415,88,206622,1,8,0:0:0:0:
415,88,206716,2,0,P|360:67|321:69,1,99.0000030212403,8|0,0:0|0:0,0:0:0:0:
161,47,206997,1,8,0:0:0:0:
161,47,207091,6,0,P|210:74|235:105,1,99.0000030212403,8|0,0:0|0:0,0:0:0:0:
336,166,207372,1,8,0:0:0:0:
336,165,207466,2,0,P|325:221|302:254,1,99.0000030212403,8|0,0:0|0:0,0:0:0:0:
276,369,207747,1,8,0:0:0:0:
276,369,207841,2,0,P|219:377|181:364,1,99.0000030212403,8|0,0:0|0:0,0:0:0:0:
64,376,208122,1,8,0:0:0:0:
64,376,208216,2,0,P|38:323|37:284,1,99.0000030212403,8|0,0:0|0:0,0:0:0:0:
22,114,208497,1,8,0:0:0:0:
22,114,208591,5,2,0:0:0:0:
136,224,208778,1,2,0:0:0:0:
284,124,208966,1,2,0:0:0:0:
404,280,209153,1,2,0:0:0:0:
472,76,209341,5,2,0:0:0:0:
336,206,209528,1,2,0:0:0:0:
161,87,209716,1,2,0:0:0:0:
19,272,209903,1,2,0:0:0:0:
92,96,210091,5,2,0:0:0:0:
157,272,210278,1,2,0:0:0:0:
189,47,210466,1,2,0:0:0:0:
275,295,210653,1,2,0:0:0:0:
330,37,210841,1,2,0:0:0:0:
388,328,211028,1,2,0:0:0:0:
431,8,211216,1,2,0:0:0:0:
500,368,211403,1,2,0:0:0:0:
292,112,211591,5,4,0:0:0:0:
278,105,211684,1,0,0:0:0:0:
264,99,211778,1,2,0:0:0:0:
250,95,211872,1,0,0:0:0:0:
236,93,211966,1,2,0:0:0:0:
221,92,212059,1,0,0:0:0:0:
206,92,212153,1,2,0:0:0:0:
191,94,212247,1,0,0:0:0:0:
177,97,212341,1,2,0:0:0:0:
163,102,212434,1,0,0:0:0:0:
149,108,212528,1,2,0:0:0:0:
136,116,212622,1,0,0:0:0:0:
124,124,212716,6,0,P|100:144|80:168,1,49.5000015106202,2|0,0:0|0:0,0:0:0:0:
168,216,212903,2,0,P|177:242|188:272,1,49.5000015106202,2|0,0:0|0:0,0:0:0:0:
268,204,213091,5,2,0:0:0:0:
284,210,213184,1,0,0:0:0:0:
301,214,213278,1,2,0:0:0:0:
319,217,213372,1,0,0:0:0:0:
337,217,213466,1,2,0:0:0:0:
355,216,213559,1,0,0:0:0:0:
372,212,213653,1,2,0:0:0:0:
389,207,213747,1,0,0:0:0:0:
405,199,213841,1,2,0:0:0:0:
421,191,213934,1,0,0:0:0:0:
435,180,214028,1,2,0:0:0:0:
448,168,214122,1,0,0:0:0:0:
460,154,214216,5,2,0:0:0:0:
476,120,214309,1,0,0:0:0:0:
472,80,214403,1,2,0:0:0:0:
448,48,214497,1,0,0:0:0:0:
412,32,214591,6,0,P|384:36|352:48,1,49.5000015106202,2|0,0:0|0:0,0:0:0:0:
272,8,214778,2,0,P|267:35|268:70,1,49.5000015106202,2|0,0:0|0:0,0:0:0:0:
204,132,214966,2,0,P|229:145|261:154,1,49.5000015106202,2|0,0:0|0:0,0:0:0:0:
304,236,215153,2,0,P|324:216|343:187,1,49.5000015106202,2|0,0:0|0:0,0:0:0:0:
432,172,215341,5,2,0:0:0:0:
405,130,215434,1,0,0:0:0:0:
363,106,215528,2,0,L|368:72,1,24.7500007553101,2|0,0:0|0:0,0:0:0:0:
314,104,215622,2,0,L|309:69,1,24.7500007553101,2|0,0:0|0:0,0:0:0:0:
270,126,215716,2,0,L|256:94,1,24.7500007553101,2|0,0:0|0:0,0:0:0:0:
241,166,215809,2,0,L|220:138,1,24.7500007553101,2|0,0:0|0:0,0:0:0:0:
196,184,215903,2,0,L|182:152,1,24.7500007553101,2|0,0:0|0:0,0:0:0:0:
148,180,215997,2,0,L|134:148,1,24.7500007553101,2|0,0:0|0:0,0:0:0:0:
108,152,216091,5,2,0:0:0:0:
92,96,216184,1,0,0:0:0:0:
116,44,216278,1,2,0:0:0:0:
172,20,216372,1,0,0:0:0:0:
228,40,216466,6,0,L|280:24,2,33.0000010070801,2|0|0,0:0|0:0|0:0,0:0:0:0:
260,64,216653,6,0,L|313:76,2,33.0000010070801,2|0|0,0:0|0:0|0:0,0:0:0:0:
108,152,216841,5,2,0:0:0:0:
404,232,217216,1,2,0:0:0:0:
162,350,217591,6,0,B|104:304|84:230|57:178|77:106|136:37|213:-38|296:-26|326:-34|484:64|518:138|532:255|439:338|307:442|276:394|199:355|147:297|102:216|109:124|202:17|346:85|355:179|312:229|312:229|306:236,1,1305,2|0,0:0|0:0,0:0:0:0:
256,192,220403,5,2,0:0:0:0:
252,200,220497,1,2,0:0:0:0:
252,208,220591,1,2,0:0:0:0:
