osu file format v14

[General]
AudioFilename: audio.mp3
AudioLeadIn: 0
PreviewTime: 27674
Countdown: 0
SampleSet: Soft
StackLeniency: 0.7
Mode: 0
LetterboxInBreaks: 0
WidescreenStoryboard: 1

[Editor]
Bookmarks: 5370,16533,27695,35022,40603,51766,78277,100602,111765,134090,145253,156416,167579,181532,201066,223391,234554
DistanceSpacing: 1.2
BeatDivisor: 4
GridSize: 32
TimelineZoom: 1.7

[Metadata]
Title:Tozaseshi Kumo no Kayoiji -Stormy Extended-
TitleUnicode:閉ざせし雲の通い路 -Stormy Extended-
Artist:Kanpyohgo
ArtistUnicode:干瓢碁
Creator:Halfslashed
Version:Akari's Lunatic
Source:東方星蓮船 ~ Undefined Fantastic Object.
Tags:touhou seireisen th12 ~ 東方Project 多々良 小傘 tatara kogasa mapper's guild mpg featured artist the sealed cloud route celektus jasontime12345 mizunashi akari electronic instrumental
BeatmapID:3664739
BeatmapSetID:1783062

[Difficulty]
HPDrainRate:5
CircleSize:4
OverallDifficulty:8
ApproachRate:8.5
SliderMultiplier:1.8
SliderTickRate:1

[Events]
//Background and Video events
0,0,"kogasa bg.png",0,0
//Break Periods
2,11238,13067
2,51966,53881
2,57547,58765
2,71501,73416
2,74378,76207
2,156410,165508
2,192894,194810
//Storyboard Layer 0 (Background)
//Storyboard Layer 1 (Fail)
//Storyboard Layer 2 (Pass)
//Storyboard Layer 3 (Foreground)
//Storyboard Layer 4 (Overlay)
//Storyboard Sound Samples

[TimingPoints]
-211,348.837209302326,4,2,1,50,1,0
10951,-100,4,2,2,50,0,0
15137,-1000,4,2,2,50,0,0
16533,-1000,4,2,2,85,0,0
18800,-1000,4,2,4,85,0,0
19323,-1000,4,2,2,85,0,0
21416,-1000,4,2,4,85,0,0
21765,-1000,4,2,2,85,0,0
21940,-1000,4,2,3,85,0,0
22114,-1000,4,2,2,85,0,0
24033,-1000,4,2,4,85,0,0
24905,-1000,4,2,2,85,0,0
26300,-1000,4,2,1,85,0,0
27695,-100,4,2,2,94,0,0
33161,-100,4,2,1,94,0,0
35022,348.837209302326,4,2,3,85,1,0
35196,-100,4,2,1,85,0,0
35894,-100,4,2,3,85,0,0
36068,-100,4,2,1,85,0,0
36242,-100,4,2,4,85,0,0
36766,-100,4,2,1,85,0,0
37289,-100,4,2,3,85,0,0
37463,-100,4,2,1,85,0,0
37638,-100,4,2,3,85,0,0
37987,-100,4,2,1,85,0,0
38684,-100,4,2,3,85,0,0
38859,-100,4,2,1,85,0,0
39033,-100,4,2,4,85,0,0
39208,-100,4,2,4,65,0,0
40603,-133.333333333333,4,2,3,85,0,0
40777,-133.333333333333,4,2,1,85,0,0
41475,-133.333333333333,4,2,3,85,0,0
41649,-133.333333333333,4,2,1,85,0,0
41998,-133.333333333333,4,2,3,85,0,0
42346,-133.333333333333,4,2,1,85,0,0
42870,-133.333333333333,4,2,3,85,0,0
43044,-133.333333333333,4,2,1,85,0,0
43394,-133.333333333333,4,2,3,85,0,0
43742,-133.333333333333,4,2,1,85,0,0
44265,-133.333333333333,4,2,3,85,0,0
44440,-133.333333333333,4,2,1,85,0,0
44615,-133.333333333333,4,2,4,85,0,0
45138,-133.333333333333,4,2,1,85,0,0
45487,-133.333333333333,4,2,3,85,0,0
45835,-133.333333333333,4,2,1,85,0,0
46184,-133.333333333333,4,2,3,85,0,0
46532,-133.333333333333,4,2,1,85,0,0
47056,-133.333333333333,4,2,3,85,0,0
47231,-133.333333333333,4,2,1,85,0,0
47405,-133.333333333333,4,2,3,85,0,0
47753,-133.333333333333,4,2,1,85,0,0
48451,-133.333333333333,4,2,4,85,0,0
48626,-133.333333333333,4,2,1,85,0,0
48975,-133.333333333333,4,2,3,85,0,0
49323,-133.333333333333,4,2,2,85,0,0
49847,-133.333333333333,4,2,3,85,0,0
50021,-133.333333333333,4,2,1,85,0,0
50196,-133.333333333333,4,2,3,85,0,0
50718,-133.333333333333,4,2,2,85,0,0
51242,-133.333333333333,4,2,3,85,0,0
51766,-133.333333333333,4,2,3,65,0,0
54556,-133.333333333333,4,2,4,65,0,0
59440,-133.333333333333,4,2,4,30,0,0
59527,-133.333333333333,4,2,4,30,0,0
59702,-133.333333333333,4,2,4,40,0,0
59789,-133.333333333333,4,2,4,40,0,0
59963,-133.333333333333,4,2,4,60,0,0
60051,-133.333333333333,4,2,4,60,0,0
60138,-133.333333333333,4,2,4,85,0,0
60487,-133.333333333333,4,2,1,85,0,0
60661,-133.333333333333,4,2,3,85,0,0
61184,-133.333333333333,4,2,1,85,0,0
61359,-133.333333333333,4,2,4,85,0,0
62928,-133.333333333333,4,2,5,85,0,0
63277,-133.333333333333,4,2,2,85,0,0
63452,-133.333333333333,4,2,5,85,0,0
63801,-133.333333333333,4,2,2,85,0,0
64149,-133.333333333333,4,2,5,85,0,0
64324,-133.333333333333,4,2,2,85,0,0
65022,-133.333333333333,4,2,4,85,0,0
65196,-133.333333333333,4,2,5,85,0,0
65370,-133.333333333333,4,2,2,85,0,0
65719,-133.333333333333,4,2,4,85,0,0
66068,-133.333333333333,4,2,1,85,0,0
66591,-133.333333333333,4,2,3,85,0,0
66766,-133.333333333333,4,2,1,85,0,0
66940,-133.333333333333,4,2,3,85,0,0
67463,-133.333333333333,4,2,1,85,0,0
67987,-133.333333333333,4,2,3,85,0,0
68161,-133.333333333333,4,2,1,85,0,0
68335,-133.333333333333,4,2,3,85,0,0
68510,-133.333333333333,4,2,5,85,0,0
68859,-133.333333333333,4,2,2,85,0,0
69033,-133.333333333333,4,2,5,85,0,0
69382,-133.333333333333,4,2,2,85,0,0
69731,-133.333333333333,4,2,5,85,0,0
69905,-133.333333333333,4,2,2,85,0,0
70603,-133.333333333333,4,2,4,85,0,0
70777,-133.333333333333,4,2,5,85,0,0
70952,-133.333333333333,4,2,2,85,0,0
71301,-133.333333333333,4,2,1,85,0,0
76882,-133.333333333333,4,2,5,50,0,0
77231,-133.333333333333,4,2,2,50,0,0
77405,-133.333333333333,4,2,5,50,0,0
77492,-133.333333333333,4,2,1,50,0,0
77580,-133.333333333333,4,2,5,50,0,0
77623,-133.333333333333,4,2,1,50,0,0
78277,348.837209302326,4,2,3,100,1,0
78451,-100,4,2,1,100,0,0
79149,-100,4,2,3,100,0,0
79323,-100,4,2,1,100,0,0
79497,-100,4,2,4,100,0,0
80021,-100,4,2,1,100,0,0
80544,-100,4,2,3,100,0,0
80718,-100,4,2,1,100,0,0
81067,-100,4,2,4,100,0,0
81416,-100,4,2,1,100,0,0
81939,-100,4,2,3,100,0,0
82114,-100,4,2,1,100,0,0
82288,-100,4,2,4,100,0,0
82811,-100,4,2,1,100,0,0
83160,-100,4,2,3,100,0,0
83509,-100,4,2,1,100,0,0
83858,-100,4,2,3,100,0,0
84032,-100,4,2,1,100,0,0
84730,-100,4,2,3,100,0,0
84904,-100,4,2,1,100,0,0
85079,-100,4,2,4,100,0,0
85602,-100,4,2,1,100,0,0
86125,-100,4,2,3,100,0,0
86300,-100,4,2,1,100,0,0
86649,-100,4,2,4,100,0,0
86997,-100,4,2,1,100,0,0
87521,-100,4,2,3,100,0,0
87695,-100,4,2,1,100,0,0
87870,-100,4,2,4,100,0,0
88393,-100,4,2,1,100,0,0
89439,-100,4,2,3,100,0,0
89614,-100,4,2,1,100,0,0
90311,-100,4,2,3,100,0,0
90486,-100,4,2,1,100,0,0
90660,-100,4,2,4,100,0,0
91183,-100,4,2,1,100,0,0
91707,-100,4,2,3,100,0,0
91881,-100,4,2,1,100,0,0
92230,-100,4,2,4,100,0,0
92579,-100,4,2,1,100,0,0
93102,-100,4,2,3,100,0,0
93277,-100,4,2,1,100,0,0
93451,-100,4,2,4,100,0,0
93974,-100,4,2,1,100,0,0
94323,-100,4,2,3,100,0,0
94672,-100,4,2,1,100,0,0
95021,-100,4,2,3,100,0,0
95195,-100,4,2,1,100,0,0
95893,-100,4,2,3,100,0,0
96067,-100,4,2,1,100,0,0
96242,-100,4,2,4,100,0,0
96765,-100,4,2,1,100,0,0
97288,-100,4,2,3,100,0,0
97463,-100,4,2,1,100,0,0
97811,-100,4,2,4,100,0,0
98160,-100,4,2,1,100,0,0
98683,-100,4,2,3,100,0,0
98858,-100,4,2,1,100,0,0
99032,-100,4,2,3,100,0,0
99381,-100,4,2,1,100,0,0
99556,-100,4,2,3,100,0,0
99730,-100,4,2,1,100,0,0
100602,-100,4,2,3,100,0,0
100718,-100,4,2,4,100,0,0
100951,-100,4,2,1,100,0,0
101300,-100,4,2,4,100,0,0
101649,-100,4,2,1,100,0,0
101997,-100,4,2,4,100,0,0
102346,-100,4,2,1,100,0,0
102695,-100,4,2,4,100,0,0
103044,-100,4,2,1,100,0,0
103160,-100,4,2,4,100,0,0
103393,-100,4,2,3,100,0,0
103509,-100,4,2,4,100,0,0
103741,-100,4,2,1,100,0,0
104090,-100,4,2,4,100,0,0
104439,-100,4,2,1,100,0,0
104788,-100,4,2,3,100,0,0
104904,-100,4,2,2,100,0,0
105486,-100,4,2,3,100,0,0
105602,-100,4,2,2,100,0,0
105951,-100,4,2,1,100,0,0
108974,-100,4,2,2,100,0,0
111765,-100,4,2,1,85,0,0
116997,-100,4,2,2,85,0,0
122928,-100,4,2,1,85,0,0
132695,-100,4,2,1,50,0,0
134090,-100,4,2,5,70,0,0
134439,-100,4,2,2,70,0,0
134614,-100,4,2,5,70,0,0
134963,-100,4,2,2,70,0,0
135224,-100,4,2,1,70,0,0
135311,-100,4,2,5,70,0,0
135486,-100,4,2,2,70,0,0
135747,-100,4,2,1,70,0,0
135835,-100,4,2,2,70,0,0
136271,-100,4,2,1,70,0,0
136358,-100,4,2,5,70,0,0
136532,-100,4,2,2,70,0,0
136794,-100,4,2,5,70,0,0
136881,-100,4,2,2,70,0,0
137143,-100,4,2,1,70,0,0
137230,-100,4,2,2,70,0,0
137492,-100,4,2,1,70,0,0
137753,-100,4,2,5,70,0,0
138102,-100,4,2,2,70,0,0
138538,-100,4,2,1,70,0,0
138800,-100,4,2,2,70,0,0
138887,-100,4,2,5,70,0,0
138974,-100,4,2,2,70,0,0
139323,-100,4,2,5,70,0,0
139497,-100,4,2,1,70,0,0
139672,-133.333333333333,4,2,5,70,0,0
140020,-133.333333333333,4,2,2,70,0,0
140370,-133.333333333333,4,2,5,70,0,0
140718,-133.333333333333,4,2,2,70,0,0
141067,-133.333333333333,4,2,5,70,0,0
141416,-133.333333333333,4,2,2,70,0,0
141590,-133.333333333333,4,2,5,70,0,0
141939,-133.333333333333,4,2,1,70,0,0
142114,-133.333333333333,4,2,2,70,0,0
142463,-133.333333333333,4,2,5,70,0,0
142811,-133.333333333333,4,2,2,70,0,0
143160,-133.333333333333,4,2,5,70,0,0
143508,-133.333333333333,4,2,2,70,0,0
143858,-133.333333333333,4,2,5,70,0,0
143902,-133.333333333333,4,2,2,5,0,0
143945,-133.333333333333,4,2,2,10,0,0
143989,-133.333333333333,4,2,2,15,0,0
144032,-133.333333333333,4,2,2,20,0,0
144076,-133.333333333333,4,2,2,25,0,0
144120,-133.333333333333,4,2,2,30,0,0
144163,-133.333333333333,4,2,2,35,0,0
144206,-133.333333333333,4,2,2,40,0,0
144250,-133.333333333333,4,2,2,45,0,0
144294,-133.333333333333,4,2,2,50,0,0
144338,-133.333333333333,4,2,2,55,0,0
144381,-133.333333333333,4,2,2,60,0,0
144425,-133.333333333333,4,2,2,65,0,0
144468,-133.333333333333,4,2,2,70,0,0
144512,-133.333333333333,4,2,2,75,0,0
144555,-133.333333333333,4,2,2,80,0,0
144904,-133.333333333333,4,2,2,60,0,0
145253,-100,4,2,2,85,0,0
166183,-100,4,2,5,70,0,0
166532,-100,4,2,2,70,0,0
166794,-100,4,2,5,70,0,0
166968,-100,4,2,1,70,0,0
167579,-100,4,2,5,85,0,0
167928,-100,4,2,2,85,0,0
168102,-100,4,2,5,85,0,0
168451,-100,4,2,2,85,0,0
168800,-100,4,2,5,85,0,0
168974,-100,4,2,2,85,0,0
169236,-100,4,2,1,85,0,0
169323,-100,4,2,2,85,0,0
169672,-100,4,2,4,85,0,0
169846,-100,4,2,5,85,0,0
170021,-100,4,2,2,85,0,0
170370,-100,4,2,4,85,0,0
170718,-100,4,2,2,85,0,0
171242,-100,4,2,5,85,0,0
171590,-100,4,2,2,85,0,0
172027,-100,4,2,1,85,0,0
172114,-100,4,2,2,85,0,0
172375,-100,4,2,5,85,0,0
172463,-100,4,2,2,85,0,0
172811,-100,4,2,5,85,0,0
172986,-100,4,2,1,85,0,0
173160,-100,4,2,5,85,0,0
173335,-100,4,2,2,85,0,0
173509,-100,4,2,5,85,0,0
173683,-100,4,2,2,85,0,0
173858,-100,4,2,5,85,0,0
174032,-100,4,2,2,85,0,0
174207,-100,4,2,5,85,0,0
174381,-100,4,2,2,85,0,0
174556,-100,4,2,5,85,0,0
174730,-100,4,2,2,85,0,0
175253,-100,4,2,4,85,0,0
175428,-100,4,2,5,85,0,0
175602,-100,4,2,2,85,0,0
175951,-100,4,2,5,85,0,0
176125,-100,4,2,2,85,0,0
176300,-100,4,2,5,85,0,0
176474,-100,4,2,2,85,0,0
177172,-100,4,2,4,85,0,0
177346,-100,4,2,5,85,0,0
177695,-100,4,2,2,65,0,0
177870,-100,4,2,2,35,0,0
178044,-100,4,2,2,85,0,0
178567,-100,4,2,2,55,0,0
178742,-100,4,2,1,55,0,0
181532,348.837209302326,4,2,3,85,1,0
181880,-100,4,2,1,85,0,0
182404,-100,4,2,3,85,0,0
182578,-100,4,2,1,85,0,0
182752,-100,4,2,4,85,0,0
183276,-100,4,2,1,85,0,0
183625,-100,4,2,4,85,0,0
183973,-100,4,2,1,85,0,0
184322,-100,4,2,4,85,0,0
184671,-100,4,2,1,85,0,0
185194,-100,4,2,3,85,0,0
185369,-100,4,2,1,85,0,0
185543,-100,4,2,3,85,0,0
186066,-100,4,2,1,85,0,0
186415,-100,4,2,3,85,0,0
186764,-100,4,2,1,85,0,0
187113,-100,4,2,4,85,0,0
187462,-100,4,2,1,85,0,0
187985,-100,4,2,3,85,0,0
188159,-100,4,2,1,85,0,0
188334,-100,4,2,3,85,0,0
188857,-100,4,2,1,85,0,0
189206,-100,4,2,4,85,0,0
189555,-100,4,2,1,85,0,0
189904,-100,4,2,4,85,0,0
190252,-100,4,2,2,85,0,0
190776,-100,4,2,3,85,0,0
190950,-100,4,2,1,85,0,0
191125,-100,4,2,3,85,0,0
191647,-100,4,2,2,85,0,0
192171,-100,4,2,3,85,0,0
192345,-100,4,2,1,85,0,0
192520,-100,4,2,3,85,0,0
192694,-100,4,2,3,65,0,0
195485,-100,4,2,4,65,0,0
198276,-100,4,2,3,65,0,0
200369,-100,4,2,4,20,0,0
200456,-100,4,2,4,40,0,0
200630,-100,4,2,4,80,0,0
200718,-100,4,2,4,20,0,0
200892,-100,4,2,4,60,0,0
200979,-100,4,2,4,80,0,0
201066,348.837209302326,4,2,3,100,1,0
201240,-100,4,2,1,100,0,0
201938,-100,4,2,3,100,0,0
202112,-100,4,2,1,100,0,0
202286,-100,4,2,4,100,0,0
202810,-100,4,2,1,100,0,0
203333,-100,4,2,3,100,0,0
203507,-100,4,2,1,100,0,0
203856,-100,4,2,4,100,0,0
204205,-100,4,2,1,100,0,0
204728,-100,4,2,3,100,0,0
204903,-100,4,2,1,100,0,0
205077,-100,4,2,4,100,0,0
205600,-100,4,2,1,100,0,0
205949,-100,4,2,3,100,0,0
206298,-100,4,2,1,100,0,0
206647,-100,4,2,3,100,0,0
206821,-100,4,2,1,100,0,0
207519,-100,4,2,3,100,0,0
207693,-100,4,2,1,100,0,0
207868,-100,4,2,4,100,0,0
208391,-100,4,2,1,100,0,0
208914,-100,4,2,3,100,0,0
209089,-100,4,2,1,100,0,0
209438,-100,4,2,4,100,0,0
209786,-100,4,2,1,100,0,0
210310,-100,4,2,3,100,0,0
210484,-100,4,2,1,100,0,0
210659,-100,4,2,4,100,0,0
211182,-100,4,2,1,100,0,0
212228,-100,4,2,3,100,0,0
212403,-100,4,2,1,100,0,0
213100,-100,4,2,3,100,0,0
213275,-100,4,2,1,100,0,0
213449,-100,4,2,4,100,0,0
213972,-100,4,2,1,100,0,0
214496,-100,4,2,3,100,0,0
214670,-100,4,2,1,100,0,0
215019,-100,4,2,4,100,0,0
215368,-100,4,2,1,100,0,0
215891,-100,4,2,3,100,0,0
216066,-100,4,2,1,100,0,0
216240,-100,4,2,4,100,0,0
216763,-100,4,2,1,100,0,0
217112,-100,4,2,3,100,0,0
217461,-100,4,2,1,100,0,0
217810,-100,4,2,3,100,0,0
217984,-100,4,2,1,100,0,0
218682,-100,4,2,3,100,0,0
218856,-100,4,2,1,100,0,0
219031,-100,4,2,4,100,0,0
219554,-100,4,2,1,100,0,0
220077,-100,4,2,3,100,0,0
220252,-100,4,2,1,100,0,0
220600,-100,4,2,4,100,0,0
220949,-100,4,2,1,100,0,0
221472,-100,4,2,3,100,0,0
221647,-100,4,2,1,100,0,0
221821,-100,4,2,3,100,0,0
221996,-100,4,2,3,30,0,0
222170,-100,4,2,1,35,0,0
222345,-100,4,2,3,40,0,0
222519,-100,4,2,2,45,0,0
222693,-100,4,2,2,50,0,0
222868,-100,4,2,2,60,0,0
223042,-100,4,2,2,80,0,0
223217,-100,4,2,2,90,0,0
223391,-100,4,2,2,35,0,0
230949,-100,4,2,2,30,0,0
231066,-100,4,2,2,25,0,0
231298,-100,4,2,2,20,0,0
231414,-100,4,2,2,15,0,0
231850,-100,4,2,2,8,0,0
231938,-100,4,2,2,10,0,0
232025,-100,4,2,2,11,0,0
232112,-100,4,2,2,12,0,0
232199,-100,4,2,2,15,0,0
232286,-100,4,2,2,19,0,0
232374,-100,4,2,2,23,0,0
232461,-100,4,2,2,26,0,0
232548,-100,4,2,2,28,0,0
232635,-100,4,2,2,30,0,0
232722,-100,4,2,2,32,0,0
232810,-100,4,2,2,35,0,0
232897,-100,4,2,2,38,0,0
232984,-100,4,2,2,41,0,0
233071,-100,4,2,2,45,0,0
233159,-100,4,2,2,47,0,0
233246,-100,4,2,2,49,0,0
233333,-100,4,2,2,53,0,0
233420,-100,4,2,2,56,0,0
233507,-100,4,2,2,59,0,0
233595,-100,4,2,2,62,0,0
233682,-100,4,2,2,65,0,0
233769,-100,4,2,2,68,0,0
233856,-100,4,2,2,71,0,0
233943,-100,4,2,2,75,0,0
234031,-100,4,2,2,77,0,0
234118,-100,4,2,2,79,0,0
234205,-100,4,2,2,82,0,0
234292,-100,4,2,2,86,0,0
234379,-100,4,2,2,5,0,0
234467,-100,4,2,2,96,0,0
234554,-100,4,2,0,100,0,0

[Colours]
Combo1 : 249,0,255
Combo2 : 83,194,255
Combo3 : 255,17,23
Combo4 : 39,219,228

[HitObjects]
48,323,5370,6,1,L|36:277,1,45,6|0,3:2|2:0,2:0:0:0:
124,355,5544,1,2,2:0:0:0:
186,303,5719,1,2,2:0:0:0:
255,329,5893,5,2,2:0:0:0:
261,335,5980,1,0,2:0:0:0:
264,341,6068,1,2,2:0:0:0:
267,349,6155,1,0,2:0:0:0:
267,358,6242,1,2,2:0:0:0:
342,343,6416,1,2,2:0:0:0:
408,375,6591,1,2,2:0:0:0:
415,381,6678,1,0,2:0:0:0:
423,380,6765,1,2,2:0:0:0:
352,335,6940,5,2,2:0:0:0:
318,268,7114,1,2,2:0:0:0:
244,286,7289,1,2,2:0:0:0:
189,234,7463,1,2,2:0:0:0:
184,227,7550,1,0,2:0:0:0:
177,223,7637,1,2,2:0:0:0:
103,225,7812,1,2,2:0:0:0:
21,167,7986,1,2,2:0:0:0:
15,162,8073,1,0,2:0:0:0:
16,152,8161,6,1,L|66:170,1,45,2|0,3:2|2:0,2:0:0:0:
75,95,8335,1,2,2:0:0:0:
144,57,8509,1,2,2:0:0:0:
192,118,8684,1,2,2:0:0:0:
266,101,8858,1,2,2:0:0:0:
324,150,9033,1,2,2:0:0:0:
445,139,9207,1,2,2:0:0:0:
436,138,9294,1,0,2:0:0:0:
428,134,9382,1,2,2:0:0:0:
423,126,9469,1,0,2:0:0:0:
422,118,9556,6,1,L|373:93,1,45,2|0,3:2|2:0,2:0:0:0:
360,175,9730,1,2,2:0:0:0:
279,194,9905,1,2,2:0:0:0:
251,271,10079,1,2,2:0:0:0:
173,302,10254,1,2,3:2:0:0:
181,308,10341,1,0,3:0:0:0:
187,318,10428,1,2,3:2:0:0:
304,348,10602,1,2,3:2:0:0:
335,225,10777,1,2,3:2:0:0:
199,197,10951,2,1,L|184:142,1,45,6|0,3:2|2:0,2:0:0:0:
41,381,13742,5,6,3:2:0:0:
31,350,13916,1,2,2:0:0:0:
41,381,14091,1,2,2:0:0:0:
31,350,14265,1,2,2:0:0:0:
144,297,14440,5,2,3:2:0:0:
164,219,14614,1,2,2:0:0:0:
144,297,14789,1,2,2:0:0:0:
164,219,14963,1,2,2:0:0:0:
30,136,15137,6,1,L|19:76,1,58.5,6|0,3:2|2:0,2:0:0:0:
141,7,16533,5,6,3:2:0:0:
112,78,16707,1,2,2:0:0:0:
156,140,16882,1,2,3:2:0:0:
160,147,16969,1,0,2:0:0:0:
164,154,17056,1,2,2:0:0:0:
106,219,17230,1,2,3:2:0:0:
103,231,17318,1,0,2:0:0:0:
100,241,17405,1,2,3:2:0:0:
151,310,17579,1,2,2:0:0:0:
94,371,17754,5,2,3:2:0:0:
164,305,17928,1,0,2:0:0:0:
141,223,18102,1,2,2:0:0:0:
223,182,18277,1,0,2:0:0:0:
200,107,18451,1,2,2:0:0:0:
197,96,18539,1,0,2:0:0:0:
196,86,18626,1,2,2:0:0:0:
272,61,18800,1,2,3:2:0:0:
376,0,18975,1,2,1:2:0:0:
440,44,19149,1,2,1:2:0:0:
366,6,19323,5,6,3:2:0:0:
351,85,19498,1,0,2:0:0:0:
399,150,19672,1,2,3:2:0:0:
341,206,19847,1,2,2:0:0:0:
383,270,20021,1,2,3:2:0:0:
385,279,20108,1,0,2:0:0:0:
386,287,20195,1,2,3:2:0:0:
321,336,20370,1,2,2:0:0:0:
380,384,20544,5,2,3:2:0:0:
312,342,20719,1,0,2:0:0:0:
337,268,20893,1,2,3:2:0:0:
261,257,21068,1,0,2:0:0:0:
277,184,21242,1,2,2:0:0:0:
196,168,21416,1,0,1:0:0:0:
192,162,21504,1,0,1:0:0:0:
189,155,21591,1,0,3:0:0:0:
220,81,21765,1,4,2:0:0:0:
160,32,21940,1,0,3:0:0:0:
150,28,22027,1,0,2:0:0:0:
138,24,22114,5,6,3:2:0:0:
80,64,22289,1,0,2:0:0:0:
118,125,22463,1,2,3:2:0:0:
57,161,22637,1,2,2:0:0:0:
80,229,22812,1,2,3:2:0:0:
77,237,22899,1,0,2:0:0:0:
76,245,22986,1,2,3:2:0:0:
12,288,23161,1,2,2:0:0:0:
56,348,23335,5,2,3:2:0:0:
124,306,23509,1,0,2:0:0:0:
107,233,23684,1,2,3:2:0:0:
106,224,23771,1,2,2:0:0:0:
106,217,23858,1,2,2:0:0:0:
183,206,24033,1,2,3:2:0:0:
191,198,24120,1,0,3:0:0:0:
199,190,24207,1,2,1:2:0:0:
208,184,24294,1,0,2:0:0:0:
218,178,24382,1,2,3:2:0:0:
244,257,24556,1,2,1:2:0:0:
320,276,24730,1,2,1:2:0:0:
329,279,24818,1,0,2:0:0:0:
338,282,24905,5,6,3:2:0:0:
354,205,25079,1,2,2:0:0:0:
277,184,25254,1,2,3:2:0:0:
290,108,25428,1,2,2:0:0:0:
215,114,25602,1,2,3:2:0:0:
206,111,25690,1,0,2:0:0:0:
198,109,25777,1,2,3:2:0:0:
149,40,25951,1,2,2:0:0:0:
71,67,26126,1,2,3:2:0:0:
0,0,26300,5,0,1:0:0:0:
19,359,27695,6,1,P|10:349|41:361,1,120,6|2,3:2|2:0,2:0:0:0:
126,335,28044,2,1,P|91:319|137:320,1,120,2|2,3:2|2:0,2:0:0:0:
175,228,28393,5,2,3:2:0:0:
175,228,28509,2,1,P|126:238|155:209,2,120,2|2|2,2:0|3:2|2:0,2:0:0:0:
280,192,29091,6,1,P|258:153|287:172,1,120,2|2,3:2|2:0,2:0:0:0:
354,111,29440,2,1,P|334:152|360:132,1,120,2|2,3:2|2:0,2:0:0:0:
450,137,29789,5,2,3:2:0:0:
450,137,29905,2,1,P|413:161|447:129,1,120,2|6,2:0|3:2,2:0:0:0:
503,320,30370,5,2,3:2:0:0:
503,320,30486,2,1,L|492:235,2,60,6|2|2,3:2|2:0|2:0,2:0:0:0:
499,332,30835,6,1,L|429:367,2,60,2|2|2,3:2|2:0|2:0,2:0:0:0:
417,291,31184,5,2,3:2:0:0:
417,291,31300,2,1,L|341:283,1,60,2|2,2:0|3:2,2:0:0:0:
425,274,31533,6,1,L|397:200,2,60,2|2|2,3:2|2:0|2:0,2:0:0:0:
324,224,31882,6,1,L|242:216,2,60,2|2|2,3:2|2:0|3:2,2:0:0:0:
334,207,32230,6,1,L|296:155,1,60,2|2,3:2|3:2,2:0:0:0:
227,157,32463,5,2,3:2:0:0:
227,157,32579,2,1,L|167:112,1,60,2|2,3:2|3:2,2:0:0:0:
114,77,32812,5,2,3:2:0:0:
114,77,32928,2,1,L|57:34,1,60,2|2,3:2|2:0,2:0:0:0:
0,0,33161,5,6,3:2:0:0:
0,0,35022,5,6,3:2:0:0:
56,56,35196,1,2,2:0:0:0:
10,117,35370,1,10,2:0:0:0:
73,156,35545,1,2,2:0:0:0:
18,206,35719,1,2,2:0:0:0:
14,214,35806,1,0,2:0:0:0:
12,222,35894,1,2,3:2:0:0:
71,268,36068,1,10,2:0:0:0:
77,278,36155,1,2,2:0:0:0:
82,289,36242,1,2,3:2:0:0:
41,352,36417,5,2,3:2:0:0:
0,288,36591,1,2,2:0:0:0:
5,275,36678,1,2,2:0:0:0:
10,261,36766,1,10,2:0:0:0:
86,247,36940,1,2,2:0:0:0:
93,171,37115,1,2,2:0:0:0:
168,178,37289,1,2,3:2:0:0:
178,105,37463,1,10,2:0:0:0:
187,98,37551,1,2,2:0:0:0:
198,91,37638,1,2,3:2:0:0:
251,0,37812,5,6,3:2:0:0:
308,51,37987,1,2,2:0:0:0:
272,118,38161,1,10,2:0:0:0:
276,127,38248,1,2,2:0:0:0:
281,136,38335,1,2,2:0:0:0:
337,191,38510,1,2,2:0:0:0:
263,217,38684,1,2,3:2:0:0:
300,284,38859,1,10,2:0:0:0:
298,291,38946,1,2,2:0:0:0:
296,297,39033,1,2,3:2:0:0:
243,351,39208,5,2,3:2:0:0:
319,373,39382,1,2,2:0:0:0:
322,294,39556,1,2,2:0:0:0:
392,326,39731,1,2,2:0:0:0:
430,259,39905,1,2,1:2:0:0:
433,253,39992,1,0,1:0:0:0:
438,248,40080,1,2,2:0:0:0:
421,175,40254,1,2,1:2:0:0:
415,167,40341,1,0,1:0:0:0:
412,159,40428,1,2,1:2:0:0:
407,153,40516,1,0,1:0:0:0:
402,144,40603,6,1,P|424:75|478:10,1,135,6|8,3:2|2:0,2:0:0:0:
212,84,41301,2,1,P|181:64|156:35,1,67.5000000000002,0|0,2:0|3:0,2:0:0:0:
242,8,41649,1,10,2:0:0:0:
242,8,41998,6,1,P|215:69|142:97,1,135,2|8,3:2|2:0,2:0:0:0:
70,134,42522,2,1,P|46:162|34:214,1,67.5000000000002,0|2,2:0|2:0,2:0:0:0:
306,354,42870,2,1,P|299:309|273:276,1,67.5000000000002,2|8,3:2|2:0,2:0:0:0:
128,318,43219,1,2,2:0:0:0:
128,318,43394,6,1,P|162:248|233:214,1,135,6|8,3:2|2:0,2:0:0:0:
481,227,44091,2,1,P|452:208|412:196,1,67.5000000000002,0|0,2:0|3:0,2:0:0:0:
311,194,44440,1,8,2:0:0:0:
311,194,44615,6,1,P|322:159|355:120,1,67.5000000000002,0|2,3:0|3:2,2:0:0:0:
323,275,44963,1,2,2:0:0:0:
392,331,45138,2,1,P|428:349|469:356,1,67.5000000000002,10|0,2:0|2:0,2:0:0:0:
245,306,45487,6,1,L|221:266,1,33.7500000000001,0|0,3:0|2:0,2:0:0:0:
246,322,45661,2,1,L|268:361,1,33.7500000000001,0|0,3:0|3:0,2:0:0:0:
232,321,45835,1,8,2:0:0:0:
143,333,46010,1,0,2:0:0:0:
143,333,46097,1,0,2:0:0:0:
143,333,46184,6,1,P|94:269|35:246,1,135,2|8,3:2|2:0,2:0:0:0:
143,117,46882,2,1,P|95:115|60:142,1,67.5000000000002,0|0,2:0|3:0,2:0:0:0:
44,234,47231,5,8,2:0:0:0:
126,273,47405,2,1,P|190:240|204:170,2,135,2|2|2,3:2|2:0|2:0,2:0:0:0:
144,89,48277,6,1,P|159:30|184:6,1,67.5000000000002,2|0,2:0|3:0,2:0:0:0:
359,155,48626,2,1,P|336:198|288:207,1,101.25,8|0,2:0|2:0,2:0:0:0:
349,138,48975,6,1,P|322:77|264:39,1,135,2|12,3:2|2:0,2:0:0:0:
445,293,49498,2,1,P|497:321|522:323,1,67.5000000000002,0|4,2:0|2:0,2:0:0:0:
262,204,49847,2,1,P|213:210|170:233,1,67.5000000000002,2|10,3:2|2:0,2:0:0:0:
448,185,50196,1,2,3:2:0:0:
448,185,50370,6,1,P|482:134|504:43,1,135,2|4,3:2|2:0,2:0:0:0:
323,298,50894,2,1,P|306:349|309:384,1,67.5000000000002,0|4,2:0|2:0,2:0:0:0:
355,129,51242,2,1,P|335:89|300:56,1,67.5000000000002,2|2,3:2|3:2,2:0:0:0:
445,293,51591,1,2,3:2:0:0:
368,224,51766,5,6,3:2:0:0:
32,327,54556,5,6,3:2:0:0:
208,367,54905,1,0,1:0:0:0:
167,300,55080,1,0,3:0:0:0:
313,267,55254,1,0,1:0:0:0:
324,265,55341,1,0,1:0:0:0:
335,263,55428,1,0,1:0:0:0:
263,208,55603,1,0,1:0:0:0:
389,34,55952,5,2,3:2:0:0:
196,156,56301,1,2,1:2:0:0:
412,261,56649,1,0,1:0:0:0:
407,247,56737,1,0,1:0:0:0:
403,233,56824,1,0,1:0:0:0:
339,150,56998,1,0,1:0:0:0:
152,272,57260,5,0,2:0:0:0:
151,281,57347,1,6,3:2:0:0:
151,281,59440,5,6,1:2:0:0:
147,288,59527,1,0,1:0:0:0:
69,288,59702,1,0,1:0:0:0:
70,296,59789,1,2,1:2:0:0:
7,242,59963,1,0,1:0:0:0:
3,233,60051,1,0,1:0:0:0:
0,223,60138,5,6,3:2:0:0:
62,182,60312,1,2,2:0:0:0:
99,98,60487,1,8,2:0:0:0:
167,134,60661,1,0,2:0:0:0:
175,139,60748,1,0,2:0:0:0:
184,144,60835,1,0,2:0:0:0:
192,148,60923,1,0,2:0:0:0:
200,153,61010,1,0,2:0:0:0:
251,211,61184,1,8,2:0:0:0:
323,190,61359,1,0,3:0:0:0:
361,123,61533,1,0,3:0:0:0:
367,119,61620,1,0,2:0:0:0:
374,114,61708,1,0,3:0:0:0:
435,162,61882,1,0,1:0:0:0:
441,167,61969,1,0,2:0:0:0:
447,172,62056,1,2,2:0:0:0:
452,177,62144,1,0,1:0:0:0:
458,181,62231,1,0,2:0:0:0:
436,254,62405,1,2,3:2:0:0:
478,316,62580,1,2,2:0:0:0:
480,323,62667,1,0,2:0:0:0:
482,332,62754,1,2,2:0:0:0:
484,341,62841,1,0,2:0:0:0:
486,348,62928,5,6,3:2:0:0:
405,317,63103,1,0,3:0:0:0:
392,310,63190,1,0,2:0:0:0:
378,303,63277,1,0,1:0:0:0:
392,226,63452,1,0,3:0:0:0:
315,229,63626,1,0,3:0:0:0:
323,155,63801,1,0,1:0:0:0:
253,135,63975,1,0,2:0:0:0:
241,123,64062,1,0,2:0:0:0:
230,111,64149,1,2,3:2:0:0:
206,41,64324,1,0,1:0:0:0:
132,50,64498,1,2,2:0:0:0:
123,61,64585,1,0,2:0:0:0:
114,71,64673,1,0,1:0:0:0:
125,150,64847,1,2,1:2:0:0:
120,162,64934,1,0,2:0:0:0:
116,172,65022,1,6,2:0:0:0:
114,183,65109,1,0,2:0:0:0:
110,194,65196,1,2,3:2:0:0:
47,240,65370,1,2,1:2:0:0:
87,309,65545,1,0,1:0:0:0:
26,358,65719,5,6,3:2:0:0:
10,285,65894,1,0,3:0:0:0:
6,278,65981,1,0,3:0:0:0:
1,271,66068,1,8,2:0:0:0:
77,246,66242,1,0,2:0:0:0:
88,243,66330,1,8,2:0:0:0:
59,171,66504,1,0,2:0:0:0:
58,162,66591,1,0,3:0:0:0:
134,159,66766,1,8,2:0:0:0:
163,83,66940,1,2,3:2:0:0:
170,85,67027,1,0,2:0:0:0:
177,87,67115,1,2,3:2:0:0:
244,128,67289,1,0,3:0:0:0:
248,119,67376,1,0,3:0:0:0:
253,109,67463,1,8,2:0:0:0:
329,82,67638,1,0,2:0:0:0:
333,91,67725,1,8,2:0:0:0:
356,168,67899,1,0,2:0:0:0:
366,172,67987,1,0,3:0:0:0:
441,173,68161,1,10,2:0:0:0:
427,251,68335,1,2,3:2:0:0:
491,298,68510,5,6,3:2:0:0:
414,263,68684,1,0,3:0:0:0:
439,188,68859,1,0,1:0:0:0:
377,143,69033,1,0,3:0:0:0:
385,69,69208,1,0,3:0:0:0:
318,39,69382,1,0,1:0:0:0:
261,91,69556,1,2,2:0:0:0:
254,98,69644,1,0,2:0:0:0:
247,106,69731,1,2,3:2:0:0:
172,78,69905,1,0,1:0:0:0:
157,151,70080,1,2,2:0:0:0:
149,158,70167,1,0,2:0:0:0:
142,165,70254,1,0,1:0:0:0:
72,139,70428,1,2,1:2:0:0:
65,212,70603,1,6,2:0:0:0:
70,219,70690,1,0,2:0:0:0:
73,228,70777,1,2,3:2:0:0:
121,289,70952,1,2,1:2:0:0:
45,311,71126,1,2,1:2:0:0:
0,384,71301,5,6,2:0:0:0:
0,384,74091,6,1,L|34:365,1,33.7500000000001,0|0,2:0|2:0,2:0:0:0:
0,382,76882,6,1,L|20:347,1,33.7500000000001,4|0,3:2|2:0,2:0:0:0:
53,287,77056,2,1,L|21:246,1,33.7500000000001,0|0,3:0|2:0,2:0:0:0:
26,184,77231,1,0,1:0:0:0:
170,74,77405,6,1,L|145:115,1,33.7500000000001,0|0,3:0|1:0,2:0:0:0:
184,167,77580,2,1,L|210:205,1,33.7500000000001,0|0,3:0|2:0,2:0:0:0:
161,256,77754,1,0,2:0:0:0:
286,371,77928,6,1,L|274:332,1,33.7500000000001,0|0,2:0|2:0,2:0:0:0:
321,278,78103,2,1,L|338:237,1,33.7500000000001,0|0,2:0|1:0,2:0:0:0:
303,174,78277,5,6,3:2:0:0:
370,128,78451,1,2,2:0:0:0:
469,163,78625,1,10,2:0:0:0:
488,86,78800,1,2,2:0:0:0:
481,75,78887,1,0,2:0:0:0:
475,66,78974,1,2,2:0:0:0:
412,109,79149,1,2,3:2:0:0:
339,47,79323,1,10,2:0:0:0:
296,109,79497,1,2,3:2:0:0:
199,58,79672,5,2,3:2:0:0:
133,96,79846,1,2,2:0:0:0:
69,15,80021,1,10,2:0:0:0:
0,54,80195,1,0,2:0:0:0:
6,65,80282,1,0,2:0:0:0:
11,75,80370,1,2,2:0:0:0:
0,150,80544,1,2,3:2:0:0:
71,248,80718,1,10,2:0:0:0:
6,299,80893,1,2,2:0:0:0:
3,312,80980,1,0,2:0:0:0:
0,324,81067,5,2,3:2:0:0:
67,363,81242,1,2,2:0:0:0:
154,312,81416,1,10,2:0:0:0:
214,357,81590,1,2,2:0:0:0:
286,329,81765,1,2,2:0:0:0:
291,339,81852,1,0,2:0:0:0:
297,349,81939,1,2,3:2:0:0:
391,379,82114,1,10,2:0:0:0:
437,318,82288,1,2,3:2:0:0:
512,384,82463,5,2,3:2:0:0:
451,328,82637,1,2,2:0:0:0:
501,222,82811,1,10,2:0:0:0:
441,174,82986,1,2,2:0:0:0:
436,163,83073,1,0,2:0:0:0:
431,154,83160,1,2,3:2:0:0:
352,144,83335,1,2,3:2:0:0:
341,137,83422,1,0,3:0:0:0:
329,130,83509,1,10,2:0:0:0:
323,51,83683,1,10,2:0:0:0:
332,46,83771,1,0,2:0:0:0:
340,41,83858,5,6,3:2:0:0:
393,106,84032,1,2,2:0:0:0:
317,179,84207,1,10,2:0:0:0:
244,151,84381,1,2,2:0:0:0:
239,141,84468,1,0,2:0:0:0:
232,131,84556,1,2,2:0:0:0:
150,113,84730,1,2,3:2:0:0:
56,44,84904,1,10,2:0:0:0:
6,105,85079,1,2,3:2:0:0:
10,118,85166,1,0,2:0:0:0:
13,131,85253,1,2,3:2:0:0:
82,177,85428,1,2,2:0:0:0:
14,252,85602,1,10,2:0:0:0:
54,322,85777,1,0,2:0:0:0:
56,333,85864,1,0,2:0:0:0:
60,345,85951,1,2,2:0:0:0:
137,364,86125,1,2,3:2:0:0:
227,312,86300,1,10,2:0:0:0:
237,316,86387,1,0,2:0:0:0:
247,321,86474,1,2,2:0:0:0:
258,325,86561,1,0,2:0:0:0:
267,330,86649,5,2,3:2:0:0:
341,305,86823,1,2,2:0:0:0:
310,204,86997,1,10,2:0:0:0:
360,149,87172,1,2,2:0:0:0:
362,137,87259,1,0,2:0:0:0:
364,127,87346,1,2,2:0:0:0:
436,100,87521,1,2,3:2:0:0:
470,196,87695,1,10,2:0:0:0:
405,237,87870,1,2,3:2:0:0:
354,320,88044,5,2,3:2:0:0:
512,384,88393,5,10,2:0:0:0:
338,349,88742,5,10,2:0:0:0:
331,338,88829,1,8,2:0:0:0:
324,328,88916,1,10,2:0:0:0:
134,370,89090,5,10,2:0:0:0:
122,348,89178,1,8,2:0:0:0:
113,327,89265,1,10,2:0:0:0:
102,309,89352,1,0,2:0:0:0:
93,294,89439,6,1,P|68:305|46:287,1,45,6|0,3:2|2:0,2:0:0:0:
124,202,89614,2,1,B|135:178|135:178|100:203,1,45,2|0,2:0|2:0,2:0:0:0:
42,215,89788,5,10,2:0:0:0:
5,134,89963,2,1,B|-24:125|-12:123|-12:123|10:127,1,45,2|0,2:0|2:0,2:0:0:0:
79,82,90137,5,2,2:0:0:0:
79,82,90224,1,0,2:0:0:0:
79,82,90311,2,1,B|92:71|92:71|76:97,1,45,2|0,3:2|2:0,2:0:0:0:
113,165,90486,5,10,2:0:0:0:
133,158,90573,1,0,2:0:0:0:
154,151,90660,1,2,3:2:0:0:
219,65,90835,6,1,P|200:72|212:88,1,45,2|0,3:2|2:0,2:0:0:0:
244,202,91009,2,1,B|236:209|236:209|245:171,1,45,2|0,2:0|2:0,2:0:0:0:
304,101,91183,5,10,2:0:0:0:
386,102,91358,2,1,B|406:82|406:82|399:74|371:105,1,45,2|0,2:0|2:0,2:0:0:0:
345,193,91532,5,2,2:0:0:0:
345,193,91620,1,0,2:0:0:0:
345,193,91707,2,1,P|383:203|405:217,1,45,2|0,3:2|2:0,2:0:0:0:
456,156,91881,5,10,2:0:0:0:
469,169,91968,1,0,2:0:0:0:
478,186,92056,1,2,2:0:0:0:
481,204,92143,1,0,2:0:0:0:
479,224,92230,6,1,P|509:222|504:247,1,45,2|0,3:2|2:0,2:0:0:0:
418,289,92404,2,1,B|401:263|401:263|414:270,1,45,2|0,2:0|2:0,2:0:0:0:
506,316,92579,5,10,2:0:0:0:
440,366,92753,2,1,B|424:389|424:389|431:393|451:366,1,45,2|0,2:0|2:0,2:0:0:0:
351,339,92928,5,2,2:0:0:0:
333,333,93015,1,0,2:0:0:0:
316,326,93102,1,2,3:2:0:0:
265,241,93277,6,1,B|254:221|254:221|258:262,1,45,10|0,2:0|2:0,2:0:0:0:
227,335,93451,2,1,P|197:349|203:329,1,45,2|0,3:2|2:0,2:0:0:0:
169,258,93625,5,2,3:2:0:0:
120,183,93800,2,1,B|151:171|148:179|148:179|128:187,1,45,2|0,2:0|2:0,2:0:0:0:
86,261,93974,5,10,2:0:0:0:
86,261,94061,1,0,2:0:0:0:
86,261,94149,2,1,P|54:261|57:224,1,45,2|0,2:0|2:0,2:0:0:0:
0,352,94323,5,2,3:2:0:0:
0,352,94410,1,0,2:0:0:0:
0,352,94497,2,1,P|16:335|40:355,1,45,2|0,3:2|3:0,2:0:0:0:
109,380,94672,5,10,2:0:0:0:
121,346,94759,1,0,2:0:0:0:
141,312,94846,1,10,2:0:0:0:
174,290,94933,1,0,2:0:0:0:
212,281,95021,6,1,B|231:284|231:284|207:240,1,45,6|0,3:2|2:0,2:0:0:0:
141,216,95195,1,2,2:0:0:0:
61,183,95370,6,1,B|75:171|75:171|55:137,1,45,10|0,2:0|2:0,2:0:0:0:
5,92,95544,2,1,B|8:78|8:78|46:68,1,45,2|0,2:0|2:0,2:0:0:0:
118,90,95718,5,2,2:0:0:0:
228,41,95893,1,2,3:2:0:0:
313,74,96067,6,1,B|322:41|322:41|306:58,1,45,10|0,2:0|2:0,2:0:0:0:
242,149,96242,2,1,B|251:116|251:116|235:133,1,45,2|0,3:2|2:0,2:0:0:0:
183,199,96416,5,2,3:2:0:0:
283,265,96590,1,2,2:0:0:0:
280,256,96678,2,1,P|263:236|257:256,1,45,0|10,2:0|2:0,2:0:0:0:
170,327,96939,5,2,2:0:0:0:
237,363,97114,2,1,B|268:352|268:352|287:317,1,45,2|0,2:0|2:0,2:0:0:0:
353,335,97288,2,1,B|345:308|345:308|370:276,1,45,2|0,3:2|2:0,2:0:0:0:
421,239,97463,6,1,L|440:295,1,45,10|0,2:0|2:0,2:0:0:0:
491,339,97637,1,2,2:0:0:0:
502,228,97811,6,1,B|521:233|521:233|497:206,1,45,2|0,3:2|2:0,2:0:0:0:
440,157,97986,1,2,2:0:0:0:
463,57,98160,6,1,B|430:72|430:72|429:91,1,45,10|0,2:0|2:0,2:0:0:0:
362,122,98335,2,1,B|327:110|327:110|315:95,1,45,2|0,2:0|2:0,2:0:0:0:
308,27,98509,5,2,2:0:0:0:
180,66,98683,1,2,3:2:0:0:
104,40,98858,6,1,B|118:9|118:9|118:36,1,45,10|0,2:0|2:0,2:0:0:0:
25,109,99032,2,1,B|39:78|39:78|39:105,1,45,2|0,3:2|2:0,2:0:0:0:
84,167,99207,5,2,3:2:0:0:
27,262,99381,1,10,2:0:0:0:
27,262,99468,1,0,2:0:0:0:
27,262,99556,1,2,3:2:0:0:
101,290,99730,1,10,2:0:0:0:
73,362,99904,5,10,2:0:0:0:
140,323,100079,1,0,2:0:0:0:
119,244,100253,1,10,2:0:0:0:
192,213,100428,1,0,2:0:0:0:
194,129,100602,6,1,P|206:115|199:139,1,60,6|2,3:2|2:0,2:0:0:0:
251,154,100835,2,1,P|273:136|250:133,1,60,2|10,3:2|2:0,2:0:0:0:
300,208,101067,2,1,P|285:192|307:200,1,60,2|2,2:0|2:0,2:0:0:0:
364,276,101300,2,1,P|371:266|351:275,1,60,2|2,3:2|2:0,2:0:0:0:
458,268,101532,5,2,2:0:0:0:
458,268,101649,2,1,P|469:262|451:265,2,60,10|2|2,2:0|2:0|2:0,2:0:0:0:
398,180,101997,6,1,P|414:177|392:170,1,60,2|2,3:2|2:0,2:0:0:0:
359,138,102230,2,1,P|354:160|349:146,1,60,2|10,3:2|2:0,2:0:0:0:
295,169,102463,2,1,P|289:188|297:180,1,60,2|2,2:0|2:0,2:0:0:0:
236,227,102695,2,1,P|221:233|224:229,1,60,2|2,3:2|2:0,2:0:0:0:
136,251,102928,5,2,3:2:0:0:
136,251,103044,2,1,P|124:251|144:241,2,60,10|2|2,2:0|3:2|2:0,2:0:0:0:
70,169,103393,6,1,P|63:176|71:162,1,60,6|2,3:2|2:0,2:0:0:0:
90,74,103625,2,1,P|98:87|94:67,1,60,2|10,3:2|2:0,2:0:0:0:
196,45,103858,2,1,P|205:59|189:46,1,60,2|2,2:0|2:0,2:0:0:0:
272,88,104090,2,1,P|269:94|278:84,1,60,2|2,3:2|2:0,2:0:0:0:
362,48,104323,5,2,2:0:0:0:
362,48,104439,2,1,P|385:42|364:37,2,60,10|2|2,2:0|2:0|2:0,2:0:0:0:
446,103,104788,5,2,3:2:0:0:
446,103,104904,2,1,P|403:177|381:228,1,120,6|14,2:0|2:0,2:0:0:0:
250,297,105370,5,2,2:0:0:0:
250,297,105486,2,1,L|318:261,1,60,2|14,3:2|2:0,2:0:0:0:
116,348,105835,5,14,2:0:0:0:
94,318,105951,1,2,1:2:0:0:
71,301,106067,1,2,1:2:0:0:
43,288,106183,6,1,L|-4:226,1,60,6|2,3:2|2:0,2:0:0:0:
59,169,106416,1,2,2:0:0:0:
47,148,106532,2,1,L|85:73,1,60,2|2,3:2|2:0,2:0:0:0:
139,20,106765,1,2,2:0:0:0:
152,41,106881,2,1,L|237:18,1,60,2|2,3:2|2:0,2:0:0:0:
274,92,107114,1,2,2:0:0:0:
290,80,107230,2,1,L|360:120,1,60,2|2,3:2|2:0,2:0:0:0:
437,119,107463,1,2,2:0:0:0:
425,142,107579,2,1,L|443:214,1,60,2|2,3:2|2:0,2:0:0:0:
392,261,107811,1,2,2:0:0:0:
397,282,107928,2,1,L|344:330,1,60,2|2,3:2|2:0,2:0:0:0:
277,368,108160,1,2,2:0:0:0:
261,352,108277,2,1,L|190:324,1,60,2|2,3:2|2:0,2:0:0:0:
155,268,108509,1,2,2:0:0:0:
132,264,108625,2,1,L|114:193,1,60,2|2,3:2|2:0,2:0:0:0:
59,138,108858,1,2,3:2:0:0:
77,121,108974,6,1,P|83:86|98:49,1,60,6|2,3:2|2:0,2:0:0:0:
153,15,109207,1,2,2:0:0:0:
187,44,109323,5,2,3:2:0:0:
238,32,109439,1,2,2:0:0:0:
287,16,109556,1,2,2:0:0:0:
325,47,109672,6,1,P|313:73|306:116,1,60,2|2,3:2|2:0,2:0:0:0:
367,167,109904,1,2,3:2:0:0:
407,137,110021,5,2,3:2:0:0:
454,153,110137,1,2,2:0:0:0:
503,169,110253,1,2,2:0:0:0:
0,383,111765,1,6,2:0:0:0:
48,331,111939,1,0,2:0:0:0:
4,271,112114,1,0,2:0:0:0:
0,262,112201,1,0,2:0:0:0:
60,216,112375,1,0,2:0:0:0:
64,205,112463,1,0,2:0:0:0:
5,152,112637,1,0,2:0:0:0:
70,115,112811,1,2,2:0:0:0:
74,103,112899,1,0,2:0:0:0:
15,61,113073,1,0,2:0:0:0:
10,47,113160,1,0,2:0:0:0:
76,5,113335,5,2,2:0:0:0:
207,384,113683,1,0,2:0:0:0:
200,375,113771,1,2,2:0:0:0:
194,366,113858,1,2,2:0:0:0:
231,295,114032,1,2,2:0:0:0:
179,234,114207,1,2,2:0:0:0:
225,174,114381,1,2,2:0:0:0:
186,110,114556,1,2,2:0:0:0:
192,102,114643,1,2,2:0:0:0:
197,94,114730,1,2,2:0:0:0:
168,23,114904,5,2,2:0:0:0:
336,382,115253,1,2,2:0:0:0:
332,371,115340,1,2,2:0:0:0:
327,361,115428,1,2,2:0:0:0:
323,351,115515,1,2,2:0:0:0:
317,339,115602,1,2,2:0:0:0:
368,278,115777,1,2,2:0:0:0:
293,254,115951,1,2,2:0:0:0:
297,240,116038,1,2,2:0:0:0:
301,229,116125,1,2,2:0:0:0:
374,193,116300,1,2,2:0:0:0:
307,152,116474,1,2,2:0:0:0:
303,138,116561,1,2,2:0:0:0:
299,125,116649,1,2,2:0:0:0:
296,111,116736,1,2,2:0:0:0:
292,99,116823,1,2,2:0:0:0:
363,76,116997,1,6,2:0:0:0:
295,24,117172,1,2,2:0:0:0:
365,0,117346,5,6,2:0:0:0:
496,381,117695,1,2,2:0:0:0:
490,369,117782,1,0,2:0:0:0:
420,336,117957,1,0,2:0:0:0:
422,325,118044,1,2,2:0:0:0:
485,280,118218,1,2,2:0:0:0:
422,231,118393,1,2,2:0:0:0:
424,219,118480,1,0,2:0:0:0:
475,167,118654,1,0,2:0:0:0:
472,159,118742,5,2,2:0:0:0:
406,114,118916,1,2,2:0:0:0:
470,70,119090,1,2,2:0:0:0:
400,33,119265,1,2,2:0:0:0:
333,77,119439,1,2,2:0:0:0:
279,28,119614,1,2,2:0:0:0:
216,77,119788,1,2,2:0:0:0:
166,21,119963,1,2,2:0:0:0:
98,63,120137,5,2,2:0:0:0:
28,38,120311,1,2,2:0:0:0:
19,43,120399,1,2,2:0:0:0:
10,49,120486,1,2,2:0:0:0:
30,124,120660,1,2,2:0:0:0:
0,194,120835,1,2,2:0:0:0:
64,229,121009,1,2,2:0:0:0:
20,284,121183,1,2,2:0:0:0:
87,310,121358,1,2,2:0:0:0:
35,366,121532,5,2,2:0:0:0:
44,372,121620,1,2,2:0:0:0:
51,377,121707,1,2,2:0:0:0:
119,339,121881,1,2,2:0:0:0:
131,337,121968,1,2,2:0:0:0:
141,336,122056,1,2,2:0:0:0:
151,333,122143,1,2,2:0:0:0:
161,331,122230,1,2,2:0:0:0:
224,377,122404,1,2,2:0:0:0:
282,325,122579,1,2,3:2:0:0:
294,329,122666,1,0,2:0:0:0:
304,333,122753,1,2,3:2:0:0:
314,337,122840,1,2,3:2:0:0:
325,341,122928,5,6,3:2:0:0:
400,379,123102,1,2,2:0:0:0:
408,363,123189,1,2,2:0:0:0:
413,351,123277,1,2,2:0:0:0:
483,306,123451,1,2,2:0:0:0:
478,293,123538,1,2,2:0:0:0:
472,282,123625,1,2,2:0:0:0:
469,271,123713,1,2,2:0:0:0:
465,261,123800,1,2,2:0:0:0:
405,204,123974,1,2,2:0:0:0:
409,190,124061,1,2,2:0:0:0:
414,178,124149,1,2,2:0:0:0:
381,100,124323,1,2,2:0:0:0:
368,104,124410,1,2,2:0:0:0:
357,108,124497,1,2,2:0:0:0:
346,111,124585,1,2,2:0:0:0:
336,115,124672,1,2,2:0:0:0:
271,70,124846,1,2,2:0:0:0:
260,67,124933,1,2,2:0:0:0:
248,62,125021,1,2,2:0:0:0:
180,10,125195,1,2,2:0:0:0:
176,21,125282,1,2,2:0:0:0:
172,34,125370,1,2,2:0:0:0:
169,46,125457,1,2,2:0:0:0:
165,59,125544,1,2,2:0:0:0:
90,96,125718,1,2,2:0:0:0:
94,108,125806,1,2,2:0:0:0:
99,122,125893,1,2,2:0:0:0:
52,189,126067,1,2,2:0:0:0:
47,202,126154,1,2,2:0:0:0:
41,216,126242,1,2,2:0:0:0:
36,229,126329,1,2,2:0:0:0:
30,243,126416,1,2,2:0:0:0:
103,287,126590,1,2,2:0:0:0:
107,302,126678,1,2,2:0:0:0:
111,317,126765,1,2,2:0:0:0:
116,330,126852,1,2,2:0:0:0:
121,344,126939,1,2,2:0:0:0:
198,369,127114,1,2,2:0:0:0:
209,357,127201,1,2,2:0:0:0:
221,348,127288,1,2,2:0:0:0:
297,322,127463,1,2,2:0:0:0:
302,306,127550,1,2,2:0:0:0:
306,293,127637,1,2,2:0:0:0:
311,277,127724,1,2,2:0:0:0:
316,263,127811,1,2,2:0:0:0:
392,223,127986,1,2,2:0:0:0:
397,235,128073,1,2,2:0:0:0:
402,249,128160,1,2,2:0:0:0:
481,266,128335,1,2,2:0:0:0:
486,252,128422,1,2,2:0:0:0:
491,235,128509,1,6,2:0:0:0:
458,160,128683,1,2,2:0:0:0:
455,148,128771,1,2,2:0:0:0:
451,139,128858,1,2,2:0:0:0:
448,130,128945,1,2,2:0:0:0:
445,119,129032,1,2,2:0:0:0:
371,86,129207,1,2,2:0:0:0:
362,78,129294,1,2,2:0:0:0:
352,70,129381,1,2,2:0:0:0:
289,18,129556,1,2,2:0:0:0:
274,22,129643,1,2,2:0:0:0:
261,25,129730,1,2,2:0:0:0:
249,29,129817,1,2,2:0:0:0:
237,33,129904,1,0,2:0:0:0:
178,93,130079,1,2,2:0:0:0:
167,89,130166,1,2,2:0:0:0:
156,84,130253,1,2,2:0:0:0:
143,77,130340,1,2,2:0:0:0:
132,74,130428,1,2,2:0:0:0:
67,26,130602,1,2,2:0:0:0:
57,34,130689,1,2,2:0:0:0:
48,42,130777,1,2,2:0:0:0:
4,112,130951,1,2,2:0:0:0:
8,125,131038,1,2,2:0:0:0:
11,138,131125,1,2,2:0:0:0:
14,149,131213,1,2,2:0:0:0:
17,162,131300,1,2,2:0:0:0:
82,200,131474,1,2,2:0:0:0:
20,253,131649,1,2,2:0:0:0:
97,277,131823,1,2,2:0:0:0:
70,353,131997,1,2,2:0:0:0:
145,345,132172,1,2,2:0:0:0:
206,384,132346,1,2,2:0:0:0:
255,330,132521,1,2,2:0:0:0:
331,346,132695,5,2,2:0:0:0:
331,346,132870,1,0,2:0:0:0:
408,288,133044,1,0,2:0:0:0:
399,204,133218,1,0,2:0:0:0:
464,166,133393,1,0,2:0:0:0:
512,0,134090,5,2,3:0:0:0:
453,35,134265,1,0,3:0:0:0:
436,116,134439,1,0,1:0:0:0:
368,137,134614,1,0,3:0:0:0:
353,208,134788,1,0,3:0:0:0:
266,225,134963,1,0,1:0:0:0:
237,291,135137,1,0,2:0:0:0:
235,301,135224,1,0,1:0:0:0:
233,311,135311,1,0,3:0:0:0:
148,333,135486,1,0,1:0:0:0:
86,294,135660,1,0,2:0:0:0:
75,300,135747,1,0,1:0:0:0:
66,306,135835,1,0,1:0:0:0:
7,382,136009,1,0,1:0:0:0:
31,308,136183,1,0,2:0:0:0:
26,298,136271,1,0,1:0:0:0:
21,287,136358,1,0,3:0:0:0:
75,216,136532,1,0,1:0:0:0:
25,156,136707,1,0,1:0:0:0:
29,145,136794,1,0,3:0:0:0:
33,132,136881,5,2,1:3:0:0:
13,59,137056,1,0,1:0:0:0:
10,47,137143,1,0,1:0:0:0:
7,38,137230,5,0,1:0:0:0:
90,25,137404,1,0,2:0:0:0:
98,35,137492,1,0,1:0:0:0:
104,44,137579,1,0,2:0:0:0:
113,121,137753,1,0,3:0:0:0:
124,126,137840,1,0,3:0:0:0:
137,130,137928,1,0,3:0:0:0:
213,114,138102,1,0,1:0:0:0:
242,206,138277,1,2,1:3:0:0:
313,202,138451,1,0,2:0:0:0:
326,208,138538,1,0,1:0:0:0:
336,213,138625,1,0,2:0:0:0:
349,289,138800,1,0,1:0:0:0:
356,297,138887,1,0,3:0:0:0:
363,304,138974,1,0,1:0:0:0:
372,311,139061,1,0,1:0:0:0:
379,319,139149,1,2,2:0:0:0:
458,331,139323,1,2,3:2:0:0:
506,384,139497,1,0,2:0:0:0:
466,308,139672,6,1,P|469:239|510:170,1,135,2|0,3:0|1:0,2:0:0:0:
262,336,140370,2,1,P|188:356|149:340,1,101.25,0|0,3:0|2:0,2:0:0:0:
131,286,140718,2,1,P|154:274|201:283,1,67.5000000000002,2|0,1:2|2:0,2:0:0:0:
74,361,141067,1,0,3:0:0:0:
74,361,141242,2,1,P|21:334|12:243,1,135,2|2,3:2|3:2,2:0:0:0:
53,203,141765,2,1,P|82:167|86:136,1,67.5000000000002,2|2,3:2|2:0,2:0:0:0:
337,36,142114,2,1,P|313:63|306:96,1,67.5000000000002,2|0,1:2|1:0,2:0:0:0:
320,113,142375,1,0,1:0:0:0:
320,113,142463,2,1,P|371:154|452:132,1,135,2|0,3:0|1:0,2:0:0:0:
272,316,143160,2,1,P|202:314|144:383,1,135,2|0,3:2|1:0,2:0:0:0:
19,115,143858,6,1,P|79:122|131:192,3,135,2|0|0|0,3:2|1:0|1:0|3:0,2:0:0:0:
368,373,145253,6,1,L|384:332,1,45,6|0,3:2|2:0,2:0:0:0:
295,337,145602,6,1,L|250:308,1,45,0|0,3:0|2:0,2:0:0:0:
317,260,145951,6,1,L|365:237,1,45,0|0,3:0|2:0,2:0:0:0:
273,191,146300,6,1,L|241:135,1,45,0|0,3:0|2:0,2:0:0:0:
322,121,146649,6,1,L|345:78,1,45,0|0,3:0|2:0,2:0:0:0:
397,147,146997,6,1,L|453:159,1,45,0|0,3:0|2:0,2:0:0:0:
426,70,147346,6,1,L|467:32,1,45,0|0,3:0|2:0,2:0:0:0:
373,12,147521,6,1,L|330:1,1,45,0|0,3:0|2:0,2:0:0:0:
317,74,147695,6,1,L|268:113,1,45,2|0,3:2|2:0,2:0:0:0:
244,25,148044,6,1,L|185:8,1,45,2|0,3:2|2:0,2:0:0:0:
198,94,148393,6,1,L|157:146,1,45,0|0,3:0|2:0,2:0:0:0:
119,55,148742,6,1,L|99:2,1,45,2|0,3:2|2:0,2:0:0:0:
52,86,149090,6,1,L|34:140,1,45,0|0,3:0|2:0,2:0:0:0:
120,133,149439,6,1,L|169:186,1,45,2|0,3:2|2:0,2:0:0:0:
85,207,149614,6,1,L|71:265,1,45,0|0,3:0|2:0,2:0:0:0:
156,237,149788,6,1,L|209:260,1,45,0|0,3:0|2:0,2:0:0:0:
138,313,149963,6,1,L|151:371,1,45,0|0,3:0|2:0,2:0:0:0:
219,324,150137,6,1,L|300:326,1,45,0|0,3:0|2:0,2:0:0:0:
259,243,150486,6,1,L|298:216,1,45,2|0,3:2|2:0,2:0:0:0:
342,287,150835,6,1,L|380:334,1,45,2|0,3:2|2:0,2:0:0:0:
416,255,151183,6,1,L|452:207,1,45,0|0,3:0|2:0,2:0:0:0:
366,190,151532,6,1,L|338:126,1,45,0|0,3:0|2:0,2:0:0:0:
434,139,151881,6,1,L|457:84,1,45,0|0,3:0|2:0,2:0:0:0:
372,62,152230,6,1,L|338:15,1,45,0|0,3:0|2:0,2:0:0:0:
294,88,152579,6,1,L|234:107,1,45,0|0,3:0|2:0,2:0:0:0:
288,173,152928,6,1,L|266:226,1,45,0|0,3:0|2:0,2:0:0:0:
207,170,153102,6,1,L|162:198,1,45,0|0,3:0|2:0,2:0:0:0:
209,261,153277,6,1,L|226:348,1,45,0|0,3:0|2:0,2:0:0:0:
146,314,153625,6,1,L|103:351,1,45,0|0,3:0|2:0,2:0:0:0:
73,273,153974,6,1,L|30:254,1,45,0|0,3:0|2:0,2:0:0:0:
80,189,154323,6,1,L|41:128,1,45,0|0,3:0|2:0,2:0:0:0:
133,129,154672,6,1,L|167:68,1,45,0|0,3:0|2:0,2:0:0:0:
276,380,166183,5,0,3:0:0:0:
243,314,166358,1,0,3:0:0:0:
290,258,166532,1,0,1:0:0:0:
243,198,166707,1,2,2:0:0:0:
237,189,166794,1,2,3:2:0:0:
233,180,166881,1,0,2:0:0:0:
229,170,166968,1,0,2:0:0:0:
224,161,167056,1,0,2:0:0:0:
279,109,167230,1,0,2:0:0:0:
227,54,167404,1,0,2:0:0:0:
278,0,167579,5,6,3:2:0:0:
205,52,167753,1,0,3:0:0:0:
106,20,167928,1,0,1:0:0:0:
54,82,168102,1,0,3:0:0:0:
108,134,168277,1,0,3:0:0:0:
111,146,168364,1,0,2:0:0:0:
113,157,168451,1,0,1:0:0:0:
53,204,168625,1,0,2:0:0:0:
49,214,168713,1,0,2:0:0:0:
45,225,168800,1,2,3:2:0:0:
108,302,168974,1,0,1:0:0:0:
57,359,169149,1,2,2:0:0:0:
64,366,169236,1,0,1:0:0:0:
71,372,169323,1,0,1:0:0:0:
136,326,169497,1,2,1:2:0:0:
216,377,169672,1,6,2:0:0:0:
254,310,169846,1,2,3:2:0:0:
257,298,169933,1,0,2:0:0:0:
260,289,170021,1,2,1:2:0:0:
209,227,170195,1,0,1:0:0:0:
279,151,170370,5,6,2:0:0:0:
351,195,170544,1,0,2:0:0:0:
361,192,170631,1,0,2:0:0:0:
371,190,170718,1,0,1:0:0:0:
434,237,170893,1,0,2:0:0:0:
409,308,171067,1,0,2:0:0:0:
397,312,171154,1,0,2:0:0:0:
387,315,171242,1,0,3:0:0:0:
379,320,171329,1,0,3:0:0:0:
370,324,171416,1,0,3:0:0:0:
300,290,171590,1,2,1:2:0:0:
213,335,171765,1,2,1:2:0:0:
154,288,171939,1,0,2:0:0:0:
151,275,172027,1,0,1:0:0:0:
150,263,172114,1,0,1:0:0:0:
210,206,172288,1,0,1:0:0:0:
213,195,172375,1,0,3:0:0:0:
216,185,172463,1,0,1:0:0:0:
220,177,172550,1,0,1:0:0:0:
223,169,172637,1,0,2:0:0:0:
167,115,172811,1,2,3:2:0:0:
190,36,172986,5,2,2:0:0:0:
204,40,173073,1,0,2:0:0:0:
218,45,173160,1,6,3:2:0:0:
239,52,173247,1,2,3:2:0:0:
257,58,173335,1,2,1:2:0:0:
309,125,173509,1,0,3:0:0:0:
352,54,173683,1,0,1:0:0:0:
362,62,173771,1,0,2:0:0:0:
373,70,173858,1,0,3:0:0:0:
383,79,173945,1,0,3:0:0:0:
393,87,174032,1,0,1:0:0:0:
464,101,174207,1,2,3:2:0:0:
414,195,174381,1,2,1:2:0:0:
479,239,174556,1,0,3:0:0:0:
410,283,174730,1,2,2:0:0:0:
402,298,174817,1,0,2:0:0:0:
396,309,174904,1,0,1:0:0:0:
313,319,175079,1,2,2:0:0:0:
311,331,175166,1,0,2:0:0:0:
309,344,175253,1,6,2:0:0:0:
232,373,175428,1,2,3:2:0:0:
140,295,175602,1,2,1:2:0:0:
71,335,175777,1,2,1:2:0:0:
33,236,175951,5,6,3:2:0:0:
25,248,176038,1,0,3:0:0:0:
17,261,176125,1,0,1:0:0:0:
116,191,176300,1,0,3:0:0:0:
114,210,176387,1,0,3:0:0:0:
112,226,176474,1,0,1:0:0:0:
60,114,176649,1,0,1:0:0:0:
50,128,176736,1,0,2:0:0:0:
40,143,176823,1,0,2:0:0:0:
133,62,176997,1,0,1:0:0:0:
147,78,177085,1,0,1:0:0:0:
161,95,177172,1,6,2:0:0:0:
175,114,177259,1,0,2:0:0:0:
186,129,177346,5,2,3:2:0:0:
265,112,177521,1,0,2:0:0:0:
280,187,177695,1,0,1:0:0:0:
356,180,177870,1,0,1:0:0:0:
345,255,178044,1,0,1:0:0:0:
421,264,178218,1,0,1:0:0:0:
396,334,178393,1,0,2:0:0:0:
469,320,178567,1,2,2:0:0:0:
512,384,178742,5,4,2:0:0:0:
256,192,178829,12,1,180835,2:0:0:0:
314,353,181532,5,6,3:2:0:0:
250,315,181706,1,0,2:0:0:0:
223,205,181880,2,1,P|283:142|377:126,1,180,8|0,2:0|2:0,2:0:0:0:
431,188,182404,5,0,3:0:0:0:
319,101,182578,2,1,L|287:39,1,45,10|0,2:0|2:0,2:0:0:0:
224,26,182752,2,1,P|159:51|136:88,1,90,2|0,3:2|3:0,2:0:0:0:
117,236,183101,1,2,2:0:0:0:
233,283,183276,2,1,P|268:224|248:195,1,90,8|2,2:0|2:0,2:0:0:0:
79,158,183625,6,1,L|159:129,1,45,6|0,2:0|2:0,2:0:0:0:
220,105,183799,1,2,3:2:0:0:
306,0,183973,2,1,P|383:22|426:87,1,135,10|0,2:0|2:0,2:0:0:0:
477,115,184322,5,6,3:2:0:0:
410,153,184497,1,0,2:0:0:0:
435,247,184671,1,8,2:0:0:0:
427,252,184758,1,0,2:0:0:0:
332,269,184933,1,0,2:0:0:0:
335,278,185020,1,0,2:0:0:0:
302,345,185194,1,0,3:0:0:0:
192,303,185369,1,8,2:0:0:0:
132,355,185543,1,2,3:2:0:0:
36,305,185718,1,2,3:2:0:0:
43,231,185892,1,0,2:0:0:0:
0,170,186066,5,10,2:0:0:0:
2,159,186154,1,0,2:0:0:0:
108,123,186328,1,0,2:0:0:0:
117,115,186415,1,0,3:0:0:0:
16,16,186590,1,0,3:0:0:0:
26,35,186677,1,0,3:0:0:0:
35,52,186764,1,8,2:0:0:0:
110,28,186938,1,0,2:0:0:0:
234,82,187113,5,6,3:2:0:0:
305,50,187287,1,0,2:0:0:0:
375,138,187462,2,1,P|351:212|246:256,1,180,8|0,2:0|2:0,2:0:0:0:
192,210,187985,5,0,3:0:0:0:
197,198,188072,1,0,2:0:0:0:
203,186,188159,1,8,2:0:0:0:
309,273,188334,2,1,L|328:334,1,45,2|0,3:2|2:0,2:0:0:0:
411,367,188508,2,1,P|448:348|465:292,1,90,2|0,3:2|2:0,2:0:0:0:
378,178,188857,1,8,2:0:0:0:
331,97,189032,1,0,2:0:0:0:
408,38,189206,6,1,L|522:64,1,90,6|0,2:0|3:0,2:0:0:0:
275,239,189555,2,1,L|389:265,1,90,10|0,2:0|2:0,2:0:0:0:
162,276,189904,6,1,P|135:337|26:379,1,180,6|12,3:2|2:0,2:0:0:0:
245,104,190427,2,1,P|297:76|342:79,1,90,0|4,2:0|2:0,2:0:0:0:
87,184,190776,2,1,P|38:178|-15:138,1,90,0|8,3:0|2:0,2:0:0:0:
265,223,191125,1,0,3:0:0:0:
265,223,191299,6,1,P|312:270|320:394,1,180,0|12,3:0|2:0,2:0:0:0:
130,85,191822,2,1,P|113:34|120:-22,1,90,2|0,2:0|2:0,2:0:0:0:
155,273,192171,2,1,P|135:313|92:353,1,90,2|10,3:2|2:0,2:0:0:0:
246,110,192520,1,2,3:2:0:0:
173,173,192694,5,6,3:2:0:0:
410,324,195485,5,6,3:2:0:0:
223,273,195834,1,0,1:0:0:0:
152,308,196008,1,0,3:0:0:0:
15,206,196183,1,0,1:0:0:0:
13,195,196270,1,0,1:0:0:0:
11,184,196357,1,0,1:0:0:0:
75,116,196532,1,0,1:0:0:0:
55,328,196880,5,2,3:2:0:0:
174,170,197229,1,2,1:2:0:0:
357,230,197578,1,0,1:0:0:0:
371,226,197665,1,0,1:0:0:0:
385,221,197752,1,0,1:0:0:0:
426,143,197927,1,0,1:0:0:0:
331,10,198188,5,0,2:0:0:0:
332,1,198276,1,6,3:2:0:0:
512,298,200369,5,6,1:2:0:0:
508,291,200456,1,0,1:0:0:0:
430,291,200630,1,0,1:0:0:0:
431,283,200718,1,2,1:2:0:0:
368,337,200892,1,2,1:2:0:0:
364,346,200979,1,0,1:0:0:0:
360,353,201066,6,1,P|335:342|313:360,1,45,6|0,3:2|2:0,2:0:0:0:
253,291,201240,2,1,B|277:280|277:280|252:315,1,45,2|0,2:0|2:0,2:0:0:0:
219,366,201414,5,10,2:0:0:0:
143,338,201589,2,1,B|134:367|132:355|132:355|136:333,1,45,2|0,2:0|2:0,2:0:0:0:
171,263,201763,5,2,2:0:0:0:
171,263,201850,1,0,2:0:0:0:
171,263,201938,2,1,B|184:274|184:274|168:248,1,45,2|0,3:2|2:0,2:0:0:0:
89,224,202112,5,10,2:0:0:0:
69,231,202199,1,0,2:0:0:0:
48,238,202286,1,2,3:2:0:0:
14,149,202461,6,1,P|-5:156|7:172,1,45,2|0,3:2|2:0,2:0:0:0:
101,136,202635,2,1,B|93:143|93:143|102:105,1,45,2|0,2:0|2:0,2:0:0:0:
36,66,202810,5,10,2:0:0:0:
110,29,202984,2,1,B|130:9|130:9|123:1|95:32,1,45,0|0,2:0|2:0,2:0:0:0:
185,86,203159,5,2,2:0:0:0:
185,86,203246,1,0,2:0:0:0:
185,86,203333,2,1,P|223:96|245:110,1,45,2|0,3:2|2:0,2:0:0:0:
287,153,203507,5,10,2:0:0:0:
300,140,203595,1,0,2:0:0:0:
309,123,203682,1,2,2:0:0:0:
312,105,203769,1,0,2:0:0:0:
310,85,203856,6,1,P|340:87|335:62,1,45,2|0,3:2|2:0,2:0:0:0:
409,36,204031,2,1,B|392:10|392:10|405:17,1,45,2|0,2:0|2:0,2:0:0:0:
486,69,204205,5,10,2:0:0:0:
408,140,204379,2,1,B|424:117|424:117|417:113|397:140,1,45,2|0,2:0|2:0,2:0:0:0:
355,207,204554,5,2,2:0:0:0:
362,224,204641,1,0,2:0:0:0:
368,242,204728,1,2,3:2:0:0:
459,210,204903,6,1,B|481:207|481:207|461:218,1,45,10|0,2:0|2:0,2:0:0:0:
429,298,205077,2,1,P|399:312|405:292,1,45,2|0,3:2|2:0,2:0:0:0:
315,302,205252,5,2,3:2:0:0:
259,356,205426,2,1,B|271:387|263:384|263:384|255:364,1,45,2|0,2:0|2:0,2:0:0:0:
237,284,205600,5,10,2:0:0:0:
237,284,205688,1,0,2:0:0:0:
237,284,205775,2,1,P|205:284|208:247,1,45,2|0,2:0|2:0,2:0:0:0:
158,352,205949,5,2,3:2:0:0:
158,352,206036,1,0,2:0:0:0:
158,352,206124,2,1,P|142:369|118:349,1,45,2|0,3:2|3:0,2:0:0:0:
41,312,206298,5,10,2:0:0:0:
75,300,206385,1,0,2:0:0:0:
109,280,206472,1,10,2:0:0:0:
131,247,206560,1,0,2:0:0:0:
142,204,206647,6,1,P|117:193|95:211,1,45,6|0,3:2|2:0,2:0:0:0:
7,214,206821,2,1,B|31:225|31:225|6:190,1,45,2|0,2:0|2:0,2:0:0:0:
46,135,206996,5,10,2:0:0:0:
134,98,207170,2,1,B|125:127|123:115|123:115|127:93,1,45,2|0,2:0|2:0,2:0:0:0:
63,33,207345,5,2,2:0:0:0:
63,33,207432,1,0,2:0:0:0:
63,33,207519,2,1,B|50:22|50:22|66:48,1,45,2|0,3:2|2:0,2:0:0:0:
144,13,207693,5,10,2:0:0:0:
164,20,207781,1,0,2:0:0:0:
185,27,207868,1,2,3:2:0:0:
224,122,208042,6,1,P|213:106|232:99,1,45,2|0,3:2|2:0,2:0:0:0:
271,24,208217,2,1,B|264:32|264:32|302:23,1,45,2|0,2:0|2:0,2:0:0:0:
317,106,208391,5,10,2:0:0:0:
382,46,208566,2,1,B|402:26|402:26|395:18|367:49,1,45,2|0,2:0|2:0,2:0:0:0:
409,136,208740,5,2,2:0:0:0:
409,136,208827,1,0,2:0:0:0:
409,136,208914,2,1,P|447:146|469:160,1,45,2|0,3:2|2:0,2:0:0:0:
495,217,209089,5,10,2:0:0:0:
482,230,209176,1,0,2:0:0:0:
473,247,209263,1,2,2:0:0:0:
470,265,209350,1,0,2:0:0:0:
472,285,209438,6,1,P|442:283|447:308,1,45,2|0,3:2|2:0,2:0:0:0:
374,233,209612,2,1,B|357:207|357:207|370:214,1,45,2|0,2:0|2:0,2:0:0:0:
365,315,209786,5,10,2:0:0:0:
283,298,209961,2,1,B|299:275|299:275|292:271|272:298,1,45,2|0,2:0|2:0,2:0:0:0:
239,362,210135,5,2,2:0:0:0:
222,355,210222,1,0,2:0:0:0:
204,349,210310,1,2,3:2:0:0:
161,277,210484,6,1,B|183:274|183:274|163:285,1,45,10|0,2:0|2:0,2:0:0:0:
119,351,210659,2,1,P|89:365|95:345,1,45,2|0,3:2|2:0,2:0:0:0:
82,280,210833,5,2,3:2:0:0:
15,332,211007,2,1,B|27:363|19:360|19:360|11:340,1,45,2|0,1:2|2:0,2:0:0:0:
10,248,211182,5,10,2:0:0:0:
10,248,211269,1,0,2:0:0:0:
10,248,211356,2,1,P|10:216|-27:219,1,45,2|0,2:0|2:0,2:0:0:0:
97,197,211531,5,10,2:0:0:0:
97,197,211618,1,8,2:0:0:0:
97,197,211705,2,1,P|80:181|100:157,1,45,10|0,2:0|2:0,2:0:0:0:
0,122,211879,5,10,2:0:0:0:
34,110,211967,1,8,2:0:0:0:
68,90,212054,1,10,2:0:0:0:
90,57,212141,1,0,2:0:0:0:
92,14,212228,6,1,B|89:-5|89:-5|133:19,1,45,6|0,3:2|2:0,2:0:0:0:
173,64,212403,1,2,2:0:0:0:
255,60,212577,6,1,B|268:82|268:82|254:94,1,45,10|0,2:0|2:0,2:0:0:0:
324,147,212752,2,1,B|327:133|327:133|365:123,1,45,2|0,2:0|2:0,2:0:0:0:
426,173,212926,5,2,2:0:0:0:
355,217,213100,1,2,3:2:0:0:
274,257,213275,6,1,B|283:224|283:224|267:241,1,45,10|0,2:0|2:0,2:0:0:0:
193,300,213449,2,1,B|202:267|202:267|186:284,1,45,2|0,3:2|2:0,2:0:0:0:
124,343,213624,5,2,3:2:0:0:
61,290,213798,1,2,2:0:0:0:
58,281,213885,2,1,P|41:261|35:281,1,45,0|10,2:0|2:0,2:0:0:0:
104,203,214147,5,2,2:0:0:0:
80,128,214321,2,1,B|111:117|111:117|130:82,1,45,2|0,2:0|2:0,2:0:0:0:
182,62,214496,2,1,B|174:35|174:35|199:3,1,45,2|0,3:2|2:0,2:0:0:0:
259,8,214670,6,1,L|278:64,1,45,10|0,2:0|2:0,2:0:0:0:
347,68,214845,1,2,2:0:0:0:
331,158,215019,6,1,B|350:163|350:163|326:136,1,45,2|0,3:2|2:0,2:0:0:0:
417,199,215193,1,2,2:0:0:0:
388,272,215368,6,1,B|355:287|355:287|354:306,1,45,10|0,2:0|2:0,2:0:0:0:
299,354,215542,2,1,B|264:342|264:342|252:327,1,45,2|0,2:0|2:0,2:0:0:0:
249,263,215717,5,2,2:0:0:0:
186,220,215891,1,2,3:2:0:0:
99,221,216066,6,1,B|113:252|113:252|113:225,1,45,10|0,2:0|2:0,2:0:0:0:
11,166,216240,2,1,B|25:197|25:197|25:170,1,45,2|0,3:2|2:0,2:0:0:0:
68,113,216414,5,2,3:2:0:0:
146,137,216589,1,2,2:0:0:0:
146,137,216676,1,0,2:0:0:0:
146,137,216763,1,10,2:0:0:0:
203,85,216938,1,2,2:0:0:0:
272,118,217112,6,1,L|350:92,1,45,2|0,3:2|2:0,2:0:0:0:
391,111,217286,2,1,L|465:85,1,45,2|0,3:2|3:0,2:0:0:0:
454,168,217461,6,1,L|521:146,1,45,10|0,2:0|2:0,2:0:0:0:
427,259,217635,2,1,L|477:244,1,45,10|0,2:0|2:0,2:0:0:0:
390,350,217810,6,1,B|409:353|409:353|385:309,1,45,6|0,3:2|2:0,2:0:0:0:
326,303,217984,1,2,2:0:0:0:
244,244,218159,6,1,B|257:266|257:266|243:278,1,45,10|0,2:0|2:0,2:0:0:0:
168,243,218333,2,1,B|165:229|165:229|127:219,1,45,2|0,2:0|2:0,2:0:0:0:
81,167,218507,5,2,2:0:0:0:
24,113,218682,1,2,3:2:0:0:
88,69,218856,6,1,B|97:36|97:36|81:53,1,45,10|0,2:0|2:0,2:0:0:0:
174,46,219031,2,1,B|183:13|183:13|167:30,1,45,2|0,3:2|2:0,2:0:0:0:
259,23,219205,5,2,3:2:0:0:
333,108,219379,1,2,2:0:0:0:
330,99,219467,2,1,P|313:79|307:99,1,45,0|10,2:0|2:0,2:0:0:0:
383,172,219728,5,2,2:0:0:0:
463,218,219903,2,1,B|458:229|458:229|427:240,1,45,2|0,2:0|2:0,2:0:0:0:
351,249,220077,2,1,B|340:262|340:262|348:289,1,45,2|0,3:2|2:0,2:0:0:0:
426,314,220252,6,1,L|445:370,1,45,10|0,2:0|2:0,2:0:0:0:
359,373,220426,1,2,2:0:0:0:
259,335,220600,6,1,B|278:340|278:340|254:313,1,45,2|0,3:2|2:0,2:0:0:0:
180,307,220775,1,2,2:0:0:0:
108,275,220949,6,1,B|75:290|75:290|74:309,1,45,10|0,2:0|2:0,2:0:0:0:
39,365,221124,2,1,B|4:353|4:353|-8:338,1,45,2|0,2:0|2:0,2:0:0:0:
4,264,221298,5,2,2:0:0:0:
66,201,221472,1,2,3:2:0:0:
173,180,221647,6,1,B|187:149|187:149|187:176,1,45,10|0,2:0|2:0,2:0:0:0:
248,79,221821,2,1,B|262:110|262:110|262:83,1,45,2|0,3:2|2:0,2:0:0:0:
257,0,221996,5,2,3:2:0:0:
335,54,222170,1,10,2:0:0:0:
335,54,222257,1,0,2:0:0:0:
335,54,222345,1,2,3:2:0:0:
414,66,222519,1,10,2:0:0:0:
364,131,222693,1,10,2:0:0:0:
347,219,222868,1,0,2:0:0:0:
280,162,223042,1,10,2:0:0:0:
189,150,223217,1,0,2:0:0:0:
253,79,223391,1,6,2:0:0:0:
256,192,223478,12,2,225833,2:0:0:0:
256,192,226182,12,2,228624,2:0:0:0:
256,192,228972,12,1,231414,2:0:0:0:
256,192,231763,12,0,234554,2:0:0:0:
