osu file format v14

[General]
AudioFilename: seirensen_mannen.mp3
AudioLeadIn: 2000
PreviewTime: 82675
Countdown: 0
SampleSet: Soft
StackLeniency: 0.3
Mode: 0
LetterboxInBreaks: 0
WidescreenStoryboard: 1

[Editor]
Bookmarks: 2639,20845,84330,100883,109572,117020,118262,131503,144744,167917,169572,171227,184468,210951,217572,230813,244055,270537,283779,297020
DistanceSpacing: 1
BeatDivisor: 4
GridSize: 32
TimelineZoom: 2.4

[Metadata]
Title:Mannen Okigasa ni Gochui o -Festive extended
TitleUnicode:万年置き傘にご注意を -Festive extended
Artist:Kanpyohgo
ArtistUnicode:干瓢碁
Creator:wring
Version:Extra Umbrella
Source:東方星蓮船 ~ Undefined Fantastic Object.
Tags:Kan Dance Japanese Folk touhou tatara kogasa video game instrumental 東方Project zun 2010 Beware the Umbrella Left There Forever
BeatmapID:676802
BeatmapSetID:301879

[Difficulty]
HPDrainRate:5
CircleSize:4.3
OverallDifficulty:9
ApproachRate:8.8
SliderMultiplier:1.8
SliderTickRate:1

[Events]
//Background and Video events
0,0,"kogasa.jpg",0,0
//Break Periods
//Storyboard Layer 0 (Background)
//Storyboard Layer 1 (Fail)
//Storyboard Layer 2 (Pass)
//Storyboard Layer 3 (Foreground)
//Storyboard Layer 4 (Overlay)
//Storyboard Sound Samples

[TimingPoints]
2639,413.793103448276,4,2,1,80,1,0
5121,-133.333333333333,4,2,1,45,0,0
5328,-133.333333333333,4,2,1,30,0,0
5535,-133.333333333333,4,2,1,35,0,0
6156,-133.333333333333,4,2,1,45,0,0
6776,-133.333333333333,4,2,1,40,0,0
7604,-133.333333333333,4,2,1,45,0,0
8018,-133.333333333333,4,2,1,65,0,0
8432,-133.333333333333,4,2,1,55,0,0
8845,-133.333333333333,4,2,1,45,0,0
9259,-133.333333333333,4,2,1,50,0,0
10914,-133.333333333333,4,2,1,55,0,0
14018,-133.333333333333,4,2,1,40,0,0
14225,-133.333333333333,4,2,1,60,0,0
17535,-133.333333333333,4,2,2,60,0,0
17742,-133.333333333333,4,2,1,60,0,0
17949,-133.333333333333,4,2,2,60,0,0
18156,-133.333333333333,4,2,1,60,0,0
18363,-133.333333333333,4,2,2,60,0,0
18570,-133.333333333333,4,2,1,60,0,0
18776,-133.333333333333,4,2,2,60,0,0
18983,-133.333333333333,4,2,1,60,0,0
19811,-133.333333333333,4,2,1,60,0,0
20018,-133.333333333333,4,2,4,60,0,0
20225,-133.333333333333,4,2,2,60,0,0
27259,-133.333333333333,4,2,2,50,0,0
27466,-133.333333333333,4,2,2,50,0,0
32225,-133.333333333333,4,2,1,60,0,0
32432,-133.333333333333,4,2,3,60,0,0
32639,-133.333333333333,4,2,1,60,0,0
34087,-133.333333333333,4,2,3,60,0,0
34501,-133.333333333333,4,2,2,60,0,0
35742,-133.333333333333,4,2,3,60,0,0
36156,-133.333333333333,4,2,2,60,0,0
37397,-133.333333333333,4,2,3,60,0,0
37604,-133.333333333333,4,2,1,60,0,0
39880,-133.333333333333,4,2,2,60,0,0
47328,-133.333333333333,4,2,2,70,0,0
50018,-133.333333333333,4,2,3,70,0,0
50121,-133.333333333333,4,2,2,70,0,0
53121,-181.818181818182,4,2,1,80,0,0
53949,-125,4,2,2,80,0,0
59845,-125,4,2,1,80,0,0
60156,-125,4,2,2,80,0,0
60570,-100,4,1,1,80,0,0
63880,-100,4,1,3,80,0,0
65949,-100,4,1,1,70,0,0
66363,-100,4,1,3,70,0,0
66466,-100,4,1,1,70,0,0
67190,-125,4,2,2,60,0,0
69570,-125,4,2,3,60,0,0
69673,-125,4,2,2,60,0,0
69880,-125,4,2,3,60,0,0
69983,-125,4,2,2,60,0,0
71639,-125,4,2,3,60,0,0
71742,-125,4,2,2,60,0,0
71949,-125,4,2,3,60,0,0
72156,-125,4,2,2,60,0,0
73811,-125,4,1,1,70,0,0
78363,444.444444444444,4,1,1,70,1,0
78777,466.926070038911,4,1,1,70,1,0
79710,474.308300395257,4,1,3,60,1,0
80176,600,4,1,1,35,1,0
80776,533.333333333333,4,1,1,35,1,0
81831,433.212996389892,4,1,1,45,1,0
82276,600,4,1,1,45,1,0
82675,413.793103448276,4,1,1,80,1,0
82985,-100,4,2,4,80,0,0
83295,-100,4,2,1,80,0,0
83916,-100,4,2,4,80,0,0
84123,-100,4,2,3,80,0,0
84330,-100,4,1,2,80,0,1
100883,413.793103448276,3,1,4,80,1,0
106469,-100,3,1,3,80,0,0
107503,-100,3,1,4,80,0,0
108538,-86.9565217391304,3,1,1,80,0,0
108951,-100,3,1,3,70,0,0
110814,-111.111111111111,3,1,1,60,0,0
112055,-125,3,1,1,50,0,0
113296,-142.857142857143,3,1,3,40,0,0
113917,-142.857142857143,3,1,3,30,0,0
114538,-133.333333333333,3,1,1,40,0,0
115779,-133.333333333333,3,1,4,50,0,0
117020,-133.333333333333,3,1,1,60,0,0
117641,-133.333333333333,3,1,1,70,0,0
118262,413.793103448276,4,1,1,80,1,0
118262,-200,4,2,2,65,0,0
119917,-200,4,2,3,50,0,0
120020,-200,4,2,2,65,0,0
122606,-200,4,2,3,65,0,0
122917,-200,4,2,2,65,0,0
125917,-200,4,2,3,65,0,0
126330,-200,4,2,2,65,0,0
129434,-200,4,1,0,30,0,0
129848,-200,4,2,2,65,0,0
130675,-400,4,2,1,50,0,0
131089,-200,4,2,1,40,0,0
131503,-133.333333333333,4,2,2,65,0,0
141848,-133.333333333333,4,2,1,65,0,0
142055,-133.333333333333,4,2,2,65,0,0
142675,-133.333333333333,4,2,3,65,0,0
144641,-133.333333333333,4,3,4,60,0,0
145779,-133.333333333333,4,2,2,60,0,0
145882,-133.333333333333,4,3,4,60,0,0
146089,-133.333333333333,4,2,2,60,0,0
146296,-133.333333333333,4,3,4,60,0,0
149089,-133.333333333333,4,2,2,60,0,0
149193,-133.333333333333,4,3,4,60,0,0
149399,-133.333333333333,4,2,2,60,0,0
149606,-133.333333333333,4,3,4,60,0,0
154055,-133.333333333333,4,2,2,60,0,0
154158,-133.333333333333,4,3,4,60,0,0
159020,-133.333333333333,4,2,2,60,0,0
159124,-133.333333333333,4,3,4,60,0,0
159330,-133.333333333333,4,2,2,60,0,0
159537,-133.333333333333,4,3,4,60,0,0
160675,-133.333333333333,4,2,2,60,0,0
160779,-133.333333333333,4,3,4,60,0,0
163882,-133.333333333333,4,2,2,60,0,0
164193,-133.333333333333,4,3,4,60,0,0
164399,-133.333333333333,4,2,2,60,0,0
164503,-133.333333333333,4,3,4,60,0,0
167917,-117.647058823529,4,1,1,60,0,0
169365,-117.647058823529,4,1,3,60,0,0
169572,-117.647058823529,4,1,4,60,0,0
170089,-117.647058823529,4,1,1,60,0,0
170813,-117.647058823529,4,1,2,60,0,0
171020,-117.647058823529,4,1,1,60,0,0
171227,-100,4,1,2,75,0,1
180641,-100,4,3,4,75,0,1
181158,-100,4,1,2,75,0,1
184468,-100,4,3,4,75,0,1
184882,-100,4,2,2,75,0,1
187779,-100,4,3,4,75,0,1
187882,-100,4,2,2,75,0,1
194606,-100,4,2,3,65,0,1
196262,-100,4,2,4,65,0,1
196882,-66.6666666666667,4,1,3,70,0,1
197296,-100,4,1,3,75,0,1
197710,-133.333333333333,4,2,2,60,0,0
198330,-133.333333333333,4,2,3,60,0,0
198848,-133.333333333333,4,2,2,60,0,0
203917,-100,4,2,1,60,0,0
204330,-133.333333333333,4,2,2,65,0,0
205158,-133.333333333333,4,2,4,65,0,0
206606,-133.333333333333,4,2,2,65,0,0
206813,-133.333333333333,4,2,4,65,0,0
207020,-133.333333333333,4,2,2,65,0,0
207227,-133.333333333333,4,2,4,65,0,0
207641,-133.333333333333,4,2,2,65,0,0
209296,-133.333333333333,4,1,1,70,0,0
209606,-133.333333333333,4,1,4,70,0,0
210744,-133.333333333333,4,2,2,70,0,0
210951,-133.333333333333,4,1,2,70,0,0
211055,-133.333333333333,4,3,4,70,0,0
215503,-114.942528735632,4,1,2,70,0,0
215917,-114.942528735632,4,1,1,75,0,0
216744,-114.942528735632,4,1,3,75,0,0
217572,-100,4,1,2,75,0,1
217986,-100,4,1,2,75,0,0
228951,-76.9230769230769,4,1,2,75,0,0
229158,-100,4,1,2,75,0,0
230193,-100,4,1,1,75,0,0
230262,-100,4,1,2,75,0,0
230813,-90.9090909090909,4,1,2,75,0,1
231227,-90.9090909090909,4,1,2,80,0,0
241158,-111.111111111111,4,1,2,80,0,0
241572,-90.9090909090909,4,1,2,80,0,0
242503,-90.9090909090909,4,1,4,80,0,0
242606,-90.9090909090909,4,1,2,80,0,0
244055,-83.3333333333333,4,1,2,80,0,1
261744,-74.0740740740741,4,1,2,80,0,1
262468,-83.3333333333333,4,1,2,80,0,1
269917,-83.3333333333333,4,1,1,80,0,1
270124,-83.3333333333333,4,1,2,80,0,1
270537,-111.111111111111,4,2,3,70,0,0
277158,-125,4,2,3,70,0,0
279537,-125,4,2,1,70,0,0
279848,-125,4,2,3,70,0,0
282951,-125,4,2,1,55,0,0
283158,-125,4,2,1,60,0,0
283365,-125,4,2,1,65,0,0
283572,-125,4,2,1,70,0,0
283779,-142.857142857143,4,2,3,60,0,0
290399,-166.666666666667,4,2,3,55,0,0
293710,-166.666666666667,4,2,3,50,0,0
297020,-200,4,2,4,45,0,0
297434,-200,4,2,3,45,0,0
298882,-200,4,2,1,45,0,0
299193,-200,4,2,3,45,0,0
299503,-200,4,2,1,40,0,0
300330,-200,4,2,1,35,0,0
303641,-200,4,2,1,25,0,0
306951,-200,4,2,1,10,0,0

[Colours]
Combo1 : 154,82,207
Combo2 : 109,163,134
Combo3 : 197,224,167
Combo4 : 83,255,255

[HitObjects]
120,92,5121,5,8,0:0:0:0:
215,126,5328,2,0,L|253:115,3,22.5000008583069,8|8|8|2,0:0|0:0|0:0|0:0,0:0:0:0:
133,187,5742,1,0,0:0:0:0:
255,213,5949,1,2,0:0:0:0:
114,291,6156,5,0,0:0:0:0:
99,299,6259,1,0,0:0:0:0:
84,307,6363,1,0,0:0:0:0:
281,307,6570,2,0,P|314:292|337:266,1,67.5000025749208,0|2,0:0|0:0,0:0:0:0:
364,117,6984,1,0,0:0:0:0:
498,207,7190,2,0,P|488:236|466:266,1,67.5000025749208,0|2,0:0|0:0,0:0:0:0:
380,336,7604,5,2,0:0:0:0:
356,244,7811,1,0,0:0:0:0:
332,152,8018,1,2,0:0:0:0:
304,60,8225,1,0,0:0:0:0:
96,104,8432,5,0,0:0:0:0:
192,108,8639,1,0,0:0:0:0:
288,112,8846,1,2,0:0:0:0:
384,116,9052,1,2,0:0:0:0:
148,199,9259,5,2,0:0:0:0:
189,284,9466,1,2,0:0:0:0:
188,304,9570,1,0,0:0:0:0:
192,323,9673,1,0,0:0:0:0:
297,233,9880,1,0,0:0:0:0:
226,126,10087,2,0,L|221:59,1,67.5000025749208,2|0,0:0|0:0,0:0:0:0:
398,216,10501,2,0,L|393:283,1,67.5000025749208,2|0,0:0|0:0,0:0:0:0:
327,141,10915,5,0,0:0:0:0:
144,242,11121,2,0,L|65:254,1,67.5000025749208,2|2,0:0|0:0,0:0:0:0:
268,299,11535,2,0,L|344:307,1,67.5000025749208,0|2,0:0|0:0,0:0:0:0:
327,141,11949,1,2,0:0:0:0:
235,205,12156,1,0,0:0:0:0:
412,248,12363,1,2,0:0:0:0:
99,188,12570,5,2,0:0:0:0:
166,117,12777,2,0,L|153:69,2,33.7500012874604,0|0|2,0:0|0:0|0:0,0:0:0:0:
189,215,13190,2,0,L|181:295,1,67.5000025749208,0|2,0:0|0:0,0:0:0:0:
273,152,13604,2,0,P|282:121|282:86,1,67.5000025749208,0|2,0:0|0:0,0:0:0:0:
380,319,14018,2,0,L|409:315,2,22.5000008583069,8|0|0,2:3|3:3|3:3,0:0:0:0:
344,300,14225,6,0,P|333:268|331:232,1,67.5000025749208,4|2,2:3|0:0,0:0:0:0:
419,39,14639,2,0,P|431:73|431:113,1,67.5000025749208,0|2,0:0|0:0,0:0:0:0:
432,210,15052,1,0,0:0:0:0:
272,154,15259,1,0,0:0:0:0:
331,236,15466,1,2,0:0:0:0:
333,74,15673,1,2,0:0:0:0:
58,233,15880,5,0,0:0:0:0:
138,197,16087,1,2,0:0:0:0:
138,197,16190,1,2,0:0:0:0:
138,197,16294,1,2,0:0:0:0:
126,109,16501,1,2,0:0:0:0:
40,90,16708,1,0,0:0:0:0:
1,169,16915,1,2,0:0:0:0:
196,143,17121,5,2,0:0:0:0:
71,160,17328,1,2,0:0:0:0:
99,29,17535,2,0,P|136:30|183:37,1,67.5000025749208,2|2,0:0|0:0,0:0:0:0:
395,33,17949,2,0,P|375:64|346:101,1,67.5000025749208,2|2,0:0|0:0,0:0:0:0:
240,281,18363,2,0,P|222:248|204:204,1,67.5000025749208,2|2,0:0|0:0,0:0:0:0:
469,307,18777,6,0,P|440:320|404:332,1,67.5000025749208,2|2,0:0|0:0,0:0:0:0:
166,315,19190,2,0,P|132:318|88:320,1,67.5000025749208,2|0,0:0|0:0,0:0:0:0:
77,307,19501,1,2,0:0:0:0:
57,293,19604,1,2,0:0:0:0:
240,281,19811,1,2,0:0:0:0:
134,134,20018,6,0,P|137:98|142:43,1,67.5000025749208,4|0,0:0|0:0,0:0:0:0:
268,220,20432,2,0,L|264:264,1,33.7500012874604,2|0,0:0|0:0,0:0:0:0:
334,278,20639,2,0,L|329:324,1,33.7500012874604,2|0,0:0|0:0,0:0:0:0:
406,327,20846,6,0,L|494:318|494:318,1,67.5000025749208,2|0,0:0|0:0,0:0:0:0:
475,183,21259,2,0,L|387:192|387:192,1,67.5000025749208,2|0,0:0|0:0,0:0:0:0:
178,242,21673,2,0,L|266:251|266:251,1,67.5000025749208,2|0,0:0|0:0,0:0:0:0:
157,109,22087,2,0,L|245:118|245:118,1,67.5000025749208,2|0,0:0|0:0,0:0:0:0:
58,193,22501,6,0,L|42:117,1,67.5000025749208,2|0,0:0|0:0,0:0:0:0:
39,103,22811,1,2,0:0:0:0:
38,79,22915,2,0,P|42:44|62:8,1,67.5000025749208,2|0,0:0|0:0,0:0:0:0:
208,198,23328,2,0,L|211:274,1,67.5000025749208,2|0,0:0|0:0,0:0:0:0:
339,327,23742,2,0,L|336:251,1,67.5000025749208,2|0,0:0|0:0,0:0:0:0:
438,115,24156,6,0,P|392:67|315:58,1,135.000005149842,8|2,2:3|0:0,0:0:0:0:
249,121,24777,1,0,0:0:0:0:
341,163,24984,2,0,L|336:237,1,67.5000025749208,2|0,0:0|0:0,0:0:0:0:
227,318,25397,2,0,P|205:291|196:258,1,67.5000025749208,2|0,0:0|0:0,0:0:0:0:
462,293,25811,6,0,P|444:320|414:344,1,67.5000025749208,8|0,2:3|0:0,0:0:0:0:
394,347,26121,1,2,0:0:0:0:
370,349,26225,2,0,L|301:341,1,67.5000025749208,2|0,0:0|0:0,0:0:0:0:
56,296,26639,2,0,L|125:288,2,67.5000025749208,2|2|2,0:0|0:0|0:0,0:0:0:0:
27,273,27121,2,0,L|-5:277,4,22.5000008583069,2|2|4|0|2,0:0|0:0|0:0|0:0|0:0,0:0:0:0:
57,251,27466,6,0,L|64:170,1,67.5000025749208,4|8,0:0|0:0,0:0:0:0:
112,58,27880,1,2,0:0:0:0:
183,187,28087,1,8,0:0:0:0:
183,187,28294,2,0,L|196:120,1,67.5000025749208,8|0,0:0|0:0,0:0:0:0:
307,40,28708,1,0,0:0:0:0:
324,194,28915,2,0,L|358:121,1,67.5000025749208,8|0,0:0|0:0,0:0:0:0:
456,70,29328,5,8,0:0:0:0:
499,161,29535,1,2,0:0:0:0:
479,260,29742,1,8,0:0:0:0:
386,301,29949,6,0,P|396:280|401:256,1,33.7500012874604,2|0,0:0|0:0,0:0:0:0:
408,206,30156,2,0,P|405:184|398:162,1,33.7500012874604,2|0,0:0|0:0,0:0:0:0:
352,132,30363,2,0,P|357:180|328:229,1,101.250003862381,8|0,0:0|0:0,0:0:0:0:
310,241,30777,6,0,L|228:249,1,67.5000025749208,8|0,2:3|0:0,0:0:0:0:
65,292,31190,2,0,L|147:300,1,67.5000025749208,8|0,0:0|0:0,0:0:0:0:
288,200,31604,2,0,L|206:208,1,67.5000025749208,8|0,0:0|0:0,0:0:0:0:
62,331,32018,6,0,L|104:335,2,22.5000008583069,2|2|2,0:0|0:0|0:0,0:0:0:0:
138,337,32225,6,0,L|168:340,3,16.8750006437302,2|0|0|2,0:0|0:0|0:0|0:0,0:0:0:0:
194,309,32432,6,0,L|189:230,1,67.5000025749208,2|0,0:0|0:0,0:0:0:0:
186,214,32742,1,0,0:0:0:0:
184,186,32846,1,2,0:0:0:0:
69,116,33052,1,0,3:0:0:0:
175,44,33259,2,0,L|249:49,1,67.5000025749208,2|0,0:0|0:0,0:0:0:0:
426,130,33673,1,2,0:0:0:0:
332,143,33880,1,2,0:0:0:0:
189,240,34087,6,0,P|126:215|61:228,2,135.000005149842,4|2|0,0:0|0:0|0:0,0:0:0:0:
219,336,35121,1,2,0:0:0:0:
316,309,35328,2,0,L|396:316,1,67.5000025749208,8|0,0:0|0:0,0:0:0:0:
368,189,35742,6,0,P|347:122|360:59,2,135.000005149842,4|0|0,0:0|0:0|0:0,0:0:0:0:
451,246,36776,1,2,0:0:0:0:
160,190,36984,2,0,P|97:195|41:238,1,135.000005149842,8|4,0:0|0:0,0:0:0:0:
141,321,37604,1,2,0:0:0:0:
246,79,37811,2,0,P|250:44|243:4,1,67.5000025749208,2|0,0:0|0:0,0:0:0:0:
306,273,38225,2,0,P|300:307|305:342,1,67.5000025749208,2|0,0:0|0:0,0:0:0:0:
480,106,38639,2,0,P|445:111|415:131,1,67.5000025749208,2|0,0:0|0:0,0:0:0:0:
456,288,39052,6,0,L|462:256,3,22.5000008583069,8|8|8|0,0:0|0:0|0:0|0:0,0:0:0:0:
242,131,39673,6,0,L|237:91,2,33.7500012874604,0|0|2,0:0|0:0|0:0,0:0:0:0:
197,298,40087,6,0,L|191:331,2,22.5000008583069,8|8|8,0:0|0:0|0:0,0:0:0:0:
166,275,40294,2,0,L|97:280,1,67.5000025749208,2|0,2:1|0:0,0:0:0:0:
5,147,40708,6,0,P|39:150|74:151,1,67.5000025749208,8|0,0:0|0:0,0:0:0:0:
295,272,41328,1,2,0:0:0:0:
442,202,41535,2,0,P|408:205|368:209,1,67.5000025749208,0|2,0:0|0:0,0:0:0:0:
74,250,42156,1,2,0:0:0:0:
374,96,42570,6,0,L|296:102,1,67.5000025749208,0|2,0:0|0:0,0:0:0:0:
384,78,42984,1,0,0:0:0:0:
293,100,43190,5,2,0:0:0:0:
394,61,43397,1,0,0:0:0:0:
455,150,43604,2,0,P|455:222|423:270,1,101.250003862381,2|0,0:0|0:0,0:0:0:0:
419,280,44018,6,0,L|425:359,1,67.5000025749208,8|0,0:0|0:0,0:0:0:0:
133,228,44639,1,2,0:0:0:0:
215,181,44845,2,0,L|221:102,1,67.5000025749208,8|0,0:0|0:0,0:0:0:0:
228,19,45259,2,0,L|206:17,6,16.8750006437302,2|0|0|0|0|0|0,2:1|0:0|0:0|0:0|0:0|0:0|0:0,0:0:0:0:
254,34,45673,6,0,P|289:37|325:40,1,67.5000025749208,8|0,0:0|0:0,0:0:0:0:
383,81,45984,2,0,L|420:62,1,33.7500012874604,2|2,0:0|0:0,0:0:0:0:
410,186,46294,1,2,0:0:0:0:
227,53,46501,5,8,0:0:0:0:
289,190,46708,2,0,L|302:152,1,33.7500012874604,2|2,0:0|0:0,0:0:0:0:
215,181,46915,2,0,P|178:186|138:191,1,67.5000025749208,2|8,0:0|0:0,0:0:0:0:
100,340,47328,5,4,0:0:0:0:
27,268,47535,2,0,L|33:195,1,67.5000025749208,8|0,0:0|0:0,0:0:0:0:
196,293,47949,5,2,0:0:0:0:
111,174,48156,2,0,P|131:144|160:121,1,67.5000025749208,8|2,0:0|2:1,0:0:0:0:
215,87,48466,2,0,P|247:75|285:76,1,67.5000025749208,2|2,0:0|0:0,0:0:0:0:
350,92,48777,1,10,0:0:0:0:
381,104,48880,1,0,0:0:0:0:
411,118,48983,6,0,L|398:184,1,67.5000025749208,8|0,0:0|0:0,0:0:0:0:
372,316,49397,1,8,0:0:0:0:
165,85,49604,5,2,0:0:0:0:
111,174,49811,2,0,L|98:240,1,67.5000025749208,8|2,0:0|0:0,0:0:0:0:
147,293,50121,2,0,L|215:285,1,67.5000025749208,2|2,0:0|0:0,0:0:0:0:
264,233,50432,1,10,0:0:0:0:
276,201,50535,1,2,0:0:0:0:
284,168,50639,6,0,P|287:132|282:99,1,67.5000025749208,8|0,0:0|0:0,0:0:0:0:
154,29,51052,1,8,0:0:0:0:
71,150,51259,1,2,0:0:0:0:
91,161,51363,1,2,0:0:0:0:
111,173,51466,6,0,P|146:168|186:158,1,67.5000025749208,8|2,0:0|2:1,0:0:0:0:
300,66,51880,1,2,0:0:0:0:
323,61,51984,1,2,0:0:0:0:
346,67,52087,1,2,2:1:0:0:
470,292,52294,6,0,P|404:299|346:268,1,135.000005149842,8|8,0:0|0:0,0:0:0:0:
319,169,52915,1,2,0:0:0:0:
206,328,53121,2,0,P|131:285|38:305,1,173.250005287171,8|2,0:0|0:0,0:0:0:0:
33,308,53949,6,0,L|26:228,1,72,2|2,2:1|0:0,0:0:0:0:
57,132,54363,1,0,0:0:0:0:
178,210,54570,1,2,0:0:0:0:
53,128,54776,6,0,P|75:102|108:80,1,72,0|2,0:0|0:0,0:0:0:0:
178,209,55190,1,0,0:0:0:0:
276,104,55397,1,2,0:0:0:0:
180,215,55604,6,0,P|207:240|241:251,1,72,0|2,0:0|0:0,0:0:0:0:
276,104,56018,1,0,0:0:0:0:
374,209,56225,1,2,0:0:0:0:
278,98,56432,6,0,P|308:75|341:65,1,72,0|2,0:0|0:0,0:0:0:0:
365,63,56742,1,0,0:0:0:0:
390,63,56845,2,0,P|429:72|461:89,1,72,0|2,0:0|0:0,0:0:0:0:
298,274,57259,6,0,P|259:265|227:248,1,72,8|2,0:0|0:0,0:0:0:0:
211,97,57673,1,0,0:0:0:0:
330,370,57880,1,2,0:0:0:0:
354,134,58087,2,0,L|365:57,1,72,2|2,0:0|0:0,0:0:0:0:
112,223,58501,2,0,L|123:300,1,72,8|2,0:0|0:0,0:0:0:0:
400,294,58914,6,0,P|350:270|295:276,1,108,8|2,3:2|0:0,0:0:0:0:
266,292,59328,2,0,L|185:296,1,72,2|2,0:0|0:0,0:0:0:0:
39,220,59742,5,2,0:0:0:0:
39,220,59845,2,0,L|-5:223,2,36,8|0|8,0:0|0:0|0:0,0:0:0:0:
72,205,60156,2,0,P|96:153|91:98,1,108,2|0,0:0|0:0,0:0:0:0:
69,64,60570,6,0,L|176:71,1,90,4|0,1:2|3:0,0:0:0:0:
392,22,60983,2,0,L|285:15,1,90,0|0,1:2|3:0,0:0:0:0:
276,159,61397,2,0,P|300:214|285:294,1,135,2|0,1:2|3:0,0:0:0:0:
253,313,61811,2,0,L|357:308,1,90,0|0,0:0|3:0,0:0:0:0:
365,331,62121,1,8,0:2:0:0:
388,309,62225,6,0,P|436:313|482:315,1,90,2|0,1:2|3:0,0:0:0:0:
198,235,62639,2,0,P|152:239|104:241,1,90,0|2,0:0|1:2,0:0:0:0:
34,14,63052,2,0,P|5:69|24:139,1,135,2|0,1:2|3:0,0:0:0:0:
52,146,63466,2,0,L|146:140,1,90,0|0,0:0|3:0,0:0:0:0:
395,76,63880,5,8,1:2:0:0:
296,83,64087,1,0,0:0:0:0:
305,181,64294,1,0,0:0:0:0:
403,173,64501,1,0,0:0:0:0:
198,33,64707,6,0,L|188:128,1,90,8|0,1:2|0:0,0:0:0:0:
315,270,65121,2,0,L|305:175,1,90,8|0,1:2|0:0,0:0:0:0:
326,156,65432,1,0,0:0:0:0:
346,132,65535,6,0,L|444:142,1,90,2|0,1:2|0:0,0:0:0:0:
175,250,65949,1,2,0:0:0:0:
175,250,66156,2,0,L|77:240,1,90,0|2,0:0|3:2,0:0:0:0:
40,247,66466,1,2,0:0:0:0:
18,207,66570,1,2,0:0:0:0:
22,162,66673,1,2,0:0:0:0:
50,127,66776,2,0,L|28:28,1,90,2|0,0:0|3:0,0:0:0:0:
248,217,67190,6,0,P|287:222|331:225,1,72,2|0,0:0|3:0,0:0:0:0:
368,321,67604,1,2,0:0:0:0:
429,232,67811,1,0,3:0:0:0:
166,101,68018,2,0,P|174:140|187:190,1,72,2|0,0:0|3:0,0:0:0:0:
81,326,68432,1,2,0:0:0:0:
81,326,68535,1,2,0:0:0:0:
81,326,68639,1,0,3:0:0:0:
94,40,68845,5,2,0:0:0:0:
3,131,69052,2,0,P|42:133|86:133,1,72,0|2,3:0|0:0,0:0:0:0:
301,117,69466,5,0,3:0:0:0:
305,92,69570,1,2,2:1:0:0:
305,66,69673,1,2,0:0:0:0:
284,241,69880,1,2,3:2:0:0:
309,242,69983,1,0,0:0:0:0:
333,250,70087,1,2,0:0:0:0:
188,164,70294,1,8,3:2:0:0:
164,171,70397,1,0,0:0:0:0:
144,187,70501,2,0,L|151:263,1,72,2|0,0:0|3:0,0:0:0:0:
292,337,70914,5,2,0:0:0:0:
54,315,71121,2,0,P|45:279|47:239,1,72,8|2,0:0|0:0,0:0:0:0:
114,56,71535,1,0,3:0:0:0:
139,53,71639,1,2,2:1:0:0:
158,36,71742,2,0,L|128:109,1,72,2|2,0:0|2:1,0:0:0:0:
342,155,72156,6,0,P|377:163|412:161,1,72,8|0,0:0|3:0,0:0:0:0:
48,279,72776,1,2,0:0:0:0:
201,314,72983,2,0,L|112:324,1,72,8|0,0:0|3:0,0:0:0:0:
382,334,73397,2,0,L|471:324,1,72,8|2,0:0|0:0,0:0:0:0:
301,256,73811,6,0,P|244:208|176:207,1,144,4|0,1:2|3:0,0:0:0:0:
48,279,74432,1,0,0:0:0:0:
268,168,74639,2,0,B|274:118|274:118|298:85|298:85|303:32,1,144,4|0,1:2|3:0,0:0:0:0:
173,44,75259,1,0,0:0:0:0:
195,329,75466,6,0,P|226:273|311:261,1,144,4|0,1:2|3:0,0:0:0:0:
196,355,76087,1,0,0:0:0:0:
494,270,76294,2,0,B|491:215|491:215|479:196|479:196|478:160,1,108,4|2,1:2|3:0,0:0:0:0:
497,90,76707,2,0,B|461:97|461:97|417:94,1,72
154,46,77121,6,0,P|131:108|149:185,1,144,4|0,1:2|3:0,0:0:0:0:
389,332,77742,1,0,0:0:0:0:
103,353,77949,6,0,P|64:355|22:360,1,72,2|0,0:3|3:0,0:0:0:0:
265,261,78363,2,0,P|310:256|355:254,1,90,2|0,0:3|3:0,0:0:0:0:
466,47,78777,6,0,P|424:32|378:33,1,90
59,154,79243,2,0,P|103:153|147:135,1,90
327,171,79710,6,0,L|340:218,3,45,8|8|8|8,0:2|1:2|1:2|1:2,0:0:0:0:
204,351,80176,6,0,L|211:307,3,45,8|8|8|8,3:2|3:2|3:2|3:2,0:0:0:0:
256,192,80776,12,4,82675,0:0:0:0:
136,87,82985,6,0,L|142:135,1,45,8|8,0:0|0:0,0:0:0:0:
72,246,83295,1,8,2:3:0:0:
270,166,83502,1,8,2:3:0:0:
199,283,83709,1,0,3:0:0:0:
228,302,83812,1,0,3:0:0:0:
263,310,83916,1,8,0:0:0:0:
298,308,84019,1,8,0:0:0:0:
332,296,84123,2,0,L|343:244,1,45,2|0,0:0|0:0,0:0:0:0:
374,108,84330,6,0,P|297:57|206:66,1,180,2|8,1:2|0:0,0:0:0:0:
72,99,84950,1,0,0:0:0:0:
63,243,85157,2,0,P|61:286|57:334,1,90,8|0,0:0|0:0,0:0:0:0:
77,363,85468,1,0,0:0:0:0:
104,339,85571,2,0,P|143:326|193:331,1,90,8|0,0:0|0:0,0:0:0:0:
424,198,85985,6,0,P|483:137|489:46,1,180,8|8,0:0|0:0,0:0:0:0:
488,45,86606,1,0,0:0:0:0:
425,243,86812,2,0,P|379:240|333:257,1,90,8|0,0:0|0:0,0:0:0:0:
250,140,87226,1,8,0:0:0:0:
310,286,87433,1,0,0:0:0:0:
144,256,87640,5,8,1:2:0:0:
124,225,87743,1,8,1:2:0:0:
117,189,87847,2,0,P|120:142|123:100,1,90,2|8,1:2|0:0,0:0:0:0:
222,14,88261,1,0,0:0:0:0:
11,167,88468,6,0,B|2:200|10:233|30:257|30:257|25:309,1,135,4|0,1:2|0:0,0:0:0:0:
17,335,88881,2,0,L|106:341,1,90,8|8,0:0|1:2,0:0:0:0:
143,336,89192,1,8,1:2:0:0:
156,369,89295,6,0,P|201:372|245:375,1,90
444,210,89709,2,0,P|397:212|355:216,1,90,8|0,0:0|0:0,0:0:0:0:
260,53,90123,1,8,0:0:0:0:
295,48,90226,1,8,1:2:0:0:
330,56,90330,1,8,1:2:0:0:
357,78,90433,1,8,1:2:0:0:
371,111,90537,1,8,0:0:0:0:
409,300,90743,1,0,0:0:0:0:
229,235,90950,6,0,P|153:225|89:256,1,135,8|0,0:0|0:0,0:0:0:0:
70,280,91364,2,0,L|74:172,1,90,8|0,0:0|0:0,0:0:0:0:
333,212,91778,1,8,0:0:0:0:
202,102,91985,1,0,0:0:0:0:
177,336,92192,2,0,P|220:349|268:350,1,90,8|0,0:0|0:0,0:0:0:0:
107,107,92606,6,0,P|95:59|102:3,1,90,8|0,0:0|0:0,0:0:0:0:
383,112,93019,2,0,P|340:128|294:126,1,90,8|0,0:0|0:0,0:0:0:0:
202,102,93433,5,8,0:0:0:0:
174,270,93640,1,0,0:0:0:0:
174,270,93847,1,10,0:0:0:0:
333,213,94054,1,2,0:0:0:0:
341,215,94157,1,0,0:0:0:0:
349,217,94261,1,8,0:0:0:0:
357,219,94364,1,0,0:0:0:0:
365,221,94468,1,2,0:0:0:0:
102,223,94675,6,0,P|36:245|13:308,1,135,4|0,1:2|0:0,0:0:0:0:
37,338,95088,2,0,L|134:341,1,90,8|0,0:0|0:0,0:0:0:0:
272,48,95502,2,0,L|175:51,1,90,8|0,0:0|0:0,0:0:0:0:
80,113,95812,1,0,0:0:0:0:
99,143,95916,6,0,L|196:146,1,90,12|0,0:0|0:0,0:0:0:0:
295,210,96226,1,0,0:0:0:0:
276,240,96330,6,0,L|179:243,1,90,8|0,0:0|0:0,0:0:0:0:
72,302,96640,1,0,0:0:0:0:
91,332,96744,6,0,L|188:335,1,90,8|2,0:0|3:2,0:0:0:0:
223,318,97054,1,2,1:2:0:0:
265,333,97157,1,8,0:0:0:0:
309,326,97261,1,2,3:2:0:0:
345,299,97364,2,0,L|360:254,1,45,10|0,0:0|0:0,0:0:0:0:
368,115,97571,6,0,B|356:68|386:29|386:29|437:11|479:31,1,180,4|8,1:2|0:0,0:0:0:0:
497,202,98192,1,8,1:2:0:0:
497,237,98295,1,8,1:2:0:0:
476,266,98399,2,0,L|464:369,1,90,8|0,0:0|0:0,0:0:0:0:
276,240,98812,2,0,L|264:137,1,90,8|8,0:0|1:2,0:0:0:0:
243,121,99123,1,8,1:2:0:0:
240,85,99226,6,0,P|174:27|85:35,1,180,8|8,0:0|0:0,0:0:0:0:
7,132,99847,1,0,0:0:0:0:
322,92,100054,2,0,P|370:84|420:86,1,90,8|0,0:0|0:0,0:0:0:0:
158,233,100468,2,0,P|133:228|106:224,1,45,8|8,1:2|1:2,0:0:0:0:
17,308,100675,2,0,P|39:307|66:303,1,45,8|8,1:2|1:2,0:0:0:0:
148,108,100883,5,4,0:0:0:0:
240,208,101089,1,0,0:0:0:0:
332,308,101296,1,0,0:0:0:0:
328,77,101503,6,0,L|292:157,1,45,4|8,0:0|1:2,0:0:0:0:
264,217,101710,1,0,0:0:0:0:
200,357,101917,1,0,0:0:0:0:
44,256,102124,5,4,0:0:0:0:
256,192,102331,1,0,0:0:0:0:
468,128,102538,1,0,0:0:0:0:
400,312,102745,5,4,0:0:0:0:
264,308,102951,1,0,0:0:0:0:
128,300,103158,1,0,0:0:0:0:
112,72,103365,5,4,0:0:0:0:
248,76,103571,1,0,0:0:0:0:
384,84,103778,1,0,0:0:0:0:
448,208,103986,5,4,0:0:0:0:
316,120,104193,1,0,0:0:0:0:
184,32,104400,1,0,0:0:0:0:
64,176,104607,6,0,L|131:180,1,45,4|0,0:0|0:0,0:0:0:0:
196,264,104814,2,0,L|263:266,1,45,8|0,1:2|0:0,0:0:0:0:
328,352,105020,2,0,L|401:354,1,45,8|0,1:2|0:0,0:0:0:0:
440,116,105227,5,4,0:0:0:0:
316,120,105434,1,0,0:0:0:0:
192,128,105641,1,0,0:0:0:0:
72,268,105848,6,0,L|132:265,1,45,4|8,0:0|1:2,0:0:0:0:
196,264,106055,1,0,0:0:0:0:
320,256,106262,1,0,0:0:0:0:
232,28,106469,5,4,1:2:0:0:
120,116,106676,1,0,0:0:0:0:
8,204,106883,1,0,0:0:0:0:
280,356,107089,5,4,0:0:0:0:
392,268,107296,1,0,0:0:0:0:
504,180,107503,2,0,P|474:177|449:169,1,45,4|0,1:2|0:0,0:0:0:0:
128,44,107710,5,4,0:0:0:0:
116,184,107917,1,0,0:0:0:0:
104,324,108124,1,0,0:0:0:0:
384,340,108331,5,4,0:0:0:0:
396,199,108538,2,0,P|396:178|399:152,1,34.5000006580353,8|0,1:2|0:0,0:0:0:0:
399,123,108676,2,0,P|402:104|399:76,1,34.5000006580353,8|0,1:2|0:0,0:0:0:0:
232,83,108951,5,2,0:0:0:0:
198,105,109055,1,0,0:0:0:0:
176,138,109158,1,2,0:0:0:0:
166,177,109262,1,0,0:0:0:0:
172,216,109365,1,0,0:0:0:0:
190,252,109469,1,0,0:0:0:0:
221,276,109572,6,0,L|313:284,2,90,2|0|0,0:0|0:0|0:0,0:0:0:0:
118,80,110193,2,0,L|26:88,2,90
407,135,110814,6,0,P|451:136|492:150,2,80.9999975280763
113,249,111434,2,0,P|71:249|31:266,2,80.9999975280763
370,324,112055,6,0,P|391:354|430:375,2,72
189,46,112676,2,0,P|153:43|116:28,2,72
457,88,113296,6,0,L|467:19,2,62.9999980773926,2|0|0,0:0|0:0|0:0,0:0:0:0:
55,296,113917,2,0,L|65:365,2,62.9999980773926
340,136,114538,5,0,0:0:0:0:
244,136,114745,1,0,0:0:0:0:
148,136,114951,1,0,0:0:0:0:
172,248,115158,5,0,0:0:0:0:
268,248,115365,1,0,0:0:0:0:
364,248,115571,1,0,0:0:0:0:
452,172,115779,5,4,0:0:0:0:
360,104,115986,1,8,1:2:0:0:
268,36,116193,1,8,1:2:0:0:
60,212,116400,5,0,0:0:0:0:
152,280,116607,1,8,1:2:0:0:
244,348,116814,1,8,1:2:0:0:
412,288,117020,5,8,1:3:0:0:
404,152,117227,1,8,1:3:0:0:
396,16,117434,2,0,L|332:20,1,33.7500012874604,8|0,1:3|0:0,0:0:0:0:
100,96,117641,6,0,L|104:148,1,33.7500012874604,2|2,0:0|0:0,0:0:0:0:
108,232,117848,2,0,L|112:288,1,33.7500012874604,2|0,0:0|0:0,0:0:0:0:
116,368,118055,2,0,L|180:364,1,33.7500012874604,2|2,0:0|0:0,0:0:0:0:
276,288,118262,6,0,P|272:263|274:239,2,45,4|0|8,0:0|0:0|0:0,0:0:0:0:
332,348,118882,1,8,0:0:0:0:
355,270,119089,2,0,P|402:260|458:277,1,90,2|2,0:0|0:0,0:0:0:0:
497,79,119917,6,0,L|462:75,3,22.5,2|8|8|8,2:1|0:0|0:0|0:0,0:0:0:0:
440,54,120330,2,0,L|379:58,1,45,8|2,0:0|0:0,0:0:0:0:
255,28,120744,1,2,0:0:0:0:
241,108,120951,1,8,0:0:0:0:
300,164,121158,2,0,P|296:199|295:244,1,67.5,10|0,0:0|0:0,0:0:0:0:
310,269,121572,6,0,P|286:281|255:286,1,45,8|0,0:0|0:0,0:0:0:0:
102,343,121986,2,0,P|131:341|162:347,1,45,2|0,0:0|0:0,0:0:0:0:
171,231,122399,1,2,0:0:0:0:
103,139,122606,2,0,P|75:143|51:143,1,45,8|8,0:0|0:0,0:0:0:0:
38,132,122917,1,2,0:0:0:0:
154,26,123124,1,0,0:0:0:0:
154,26,123227,1,4,0:0:0:0:
288,111,123434,5,8,0:0:0:0:
305,125,123537,1,8,0:0:0:0:
322,139,123641,2,0,P|346:137|379:132,1,45,8|0,0:0|0:0,0:0:0:0:
451,329,124262,1,8,0:0:0:0:
343,309,124468,6,0,L|315:314,3,22.5,2|2|2|2,0:0|0:0|0:0|0:0,0:0:0:0:
283,296,124882,2,0,P|256:301|220:301,1,45,12|0,0:0|0:0,0:0:0:0:
85,191,125503,2,0,P|80:164|81:135,1,45,2|0,0:0|0:0,0:0:0:0:
148,106,125917,2,0,P|185:108|230:106,1,67.5,8|8,0:0|0:0,0:0:0:0:
237,101,126330,1,2,0:0:0:0:
414,86,126537,6,0,P|410:111|410:142,1,45,8|2,0:0|0:0,0:0:0:0:
309,256,126951,1,2,0:0:0:0:
474,225,127158,1,10,0:0:0:0:
389,278,127365,5,0,0:0:0:0:
254,88,127572,1,0,0:0:0:0:
368,200,127779,5,8,0:0:0:0:
239,331,127986,1,2,0:0:0:0:
112,199,128193,6,0,P|160:190|206:204,1,90,2|8,0:0|2:1,0:0:0:0:
264,252,128813,1,8,2:1:0:0:
141,104,129020,2,0,P|135:79|134:49,1,45,2|0,0:0|0:0,0:0:0:0:
43,264,129434,2,2,P|51:300|53:339,1,67.5,2|0,2:1|2:0,0:0:0:0:
65,351,129848,5,8,0:0:0:0:
156,224,130055,1,2,0:0:0:0:
156,224,130158,1,2,0:0:0:0:
156,224,130262,1,8,2:1:0:0:
285,310,130468,1,8,0:0:0:0:
348,69,130675,6,0,P|344:90|343:114,1,45,8|8,2:3|0:0,0:0:0:0:
340,202,131503,6,0,P|306:192|263:194,1,67.5000025749208,4|2,0:0|0:0,0:0:0:0:
206,206,131813,1,0,0:0:0:0:
191,214,131917,1,8,2:1:0:0:
20,163,132124,1,2,0:0:0:0:
82,73,132330,1,2,0:0:0:0:
190,97,132537,1,2,0:0:0:0:
82,250,132744,2,0,P|61:282|48:323,1,67.5000025749208,8|0,2:1|0:0,0:0:0:0:
260,346,133158,6,0,P|246:315|240:277,1,67.5000025749208,0|2,0:0|0:0,0:0:0:0:
248,212,133468,1,0,0:0:0:0:
258,198,133572,1,8,2:1:0:0:
350,280,133779,1,2,0:0:0:0:
455,223,133986,1,2,0:0:0:0:
437,106,134193,1,2,0:0:0:0:
294,22,134399,2,0,P|306:58|314:98,1,67.5000025749208,8|0,2:1|0:0,0:0:0:0:
215,178,134813,6,0,P|181:166|131:166,1,67.5000025749208,8|2,2:1|0:0,0:0:0:0:
116,346,135227,2,0,P|136:321|168:302,1,67.5000025749208,8|2,2:1|0:0,0:0:0:0:
272,278,135641,5,2,0:0:0:0:
89,234,135848,1,2,0:0:0:0:
137,45,136055,1,8,2:1:0:0:
321,89,136262,1,2,0:0:0:0:
141,143,136468,6,0,P|109:138|75:120,1,67.5000025749208,8|8,2:3|0:0,0:0:0:0:
38,65,136779,1,8,0:0:0:0:
33,48,136882,1,8,2:1:0:0:
1,193,137089,1,2,0:0:0:0:
226,90,137296,6,0,P|238:126|238:170,1,67.5000025749208,2|2,0:0|0:0,0:0:0:0:
216,221,137606,1,2,0:0:0:0:
205,234,137710,1,8,0:0:0:0:
377,136,137917,1,2,0:0:0:0:
386,242,138124,5,8,2:1:0:0:
386,242,138227,1,2,0:0:0:0:
386,242,138330,2,0,L|431:258,1,33.7500012874604,2|0,0:0|0:0,0:0:0:0:
207,303,138537,1,10,0:0:0:0:
207,303,138641,1,2,0:0:0:0:
207,303,138744,2,0,L|194:346,1,33.7500012874604,2|0,0:0|0:0,0:0:0:0:
126,142,138951,1,2,0:0:0:0:
126,142,139055,1,2,0:0:0:0:
126,142,139158,2,0,L|81:126,1,33.7500012874604,2|0,0:0|0:0,0:0:0:0:
305,81,139365,1,10,0:0:0:0:
305,81,139468,1,2,0:0:0:0:
305,81,139572,2,0,L|318:38,1,33.7500012874604,2|0,0:0|0:0,0:0:0:0:
293,272,139779,6,0,L|324:342,1,67.5000025749208,8|2,0:0|0:0,0:0:0:0:
178,221,140193,1,2,0:0:0:0:
155,236,140296,1,2,0:0:0:0:
128,239,140399,1,2,0:0:0:0:
334,163,140606,1,2,0:0:0:0:
357,148,140709,1,2,0:0:0:0:
384,145,140812,1,2,0:0:0:0:
191,50,141020,2,0,L|219:112,1,67.5000025749208,8|2,0:0|0:0,0:0:0:0:
65,137,141434,5,4,0:0:0:0:
101,209,141641,1,0,0:0:0:0:
145,140,141848,1,8,0:0:0:0:
65,137,142055,5,2,0:0:0:0:
59,280,142262,1,4,0:0:0:0:
186,214,142468,1,0,0:0:0:0:
65,137,142675,5,8,0:0:0:0:
159,317,142882,1,8,0:0:0:0:
341,228,143089,1,4,2:1:0:0:
247,48,143296,1,8,0:0:0:0:
65,137,143503,5,2,2:1:0:0:
393,238,143710,1,2,2:1:0:0:
65,137,143917,6,0,P|78:157|94:180,1,33.7500012874604,0|0,1:0|0:0,0:0:0:0:
204,376,144124,2,0,P|225:366|251:354,1,33.7500012874604,0|0,1:0|0:0,0:0:0:0:
447,247,144330,2,0,P|434:227|418:204,1,33.7500012874604,0|0,1:0|0:0,0:0:0:0:
308,8,144537,2,0,P|288:21|265:37,1,33.7500012874604,0|2,1:0|0:0,0:0:0:0:
238,161,144744,5,4,3:2:0:0:
219,132,144848,1,0,0:0:0:0:
199,104,144951,1,0,0:0:0:0:
180,75,145055,1,0,0:0:0:0:
160,47,145158,5,2,0:0:0:0:
114,34,145262,1,0,0:0:0:0:
69,49,145365,1,0,0:0:0:0:
39,85,145468,1,0,0:0:0:0:
29,131,145572,5,2,0:0:0:0:
40,176,145675,1,0,0:0:0:0:
69,213,145779,1,2,2:1:0:0:
111,233,145882,1,0,0:0:0:0:
158,238,145986,1,2,0:0:0:0:
202,254,146089,1,2,2:1:0:0:
236,286,146193,1,2,2:1:0:0:
261,325,146296,1,0,0:0:0:0:
273,370,146399,6,0,P|287:358|300:342,1,33.7500012874604,2|0,0:0|0:0,0:0:0:0:
369,293,146606,2,0,P|381:272|388:253,1,33.7500012874604,8|0,0:0|0:0,0:0:0:0:
400,179,146813,2,0,P|403:155|403:126,1,33.7500012874604,2|0,0:0|0:0,0:0:0:0:
365,61,147020,2,0,P|359:42|349:24,1,33.7500012874604,8|0,0:0|0:0,0:0:0:0:
242,39,147227,5,2,0:0:0:0:
201,33,147330,1,0,0:0:0:0:
167,56,147434,1,8,0:0:0:0:
127,49,147537,1,2,0:0:0:0:
81,26,147641,5,2,0:0:0:0:
38,53,147744,1,0,0:0:0:0:
19,100,147848,1,8,0:0:0:0:
25,150,147951,1,0,0:0:0:0:
54,191,148055,6,0,L|40:232,1,33.7500012874604,2|0,0:0|0:0,0:0:0:0:
243,272,148262,2,0,L|284:285,1,33.7500012874604,8|2,0:0|0:0,0:0:0:0:
132,273,148468,2,0,L|151:311,1,33.7500012874604,2|0,0:0|0:0,0:0:0:0:
347,211,148675,2,0,L|385:191,1,33.7500012874604,8|0,0:0|0:0,0:0:0:0:
351,98,148882,5,2,0:0:0:0:
336,75,148986,1,0,0:0:0:0:
321,52,149089,2,0,L|268:56,1,33.7500012874604,2|0,2:1|0:0,0:0:0:0:
175,17,149296,2,0,L|122:21,1,33.7500012874604,2|2,0:0|2:1,0:0:0:0:
154,148,149503,1,2,2:1:0:0:
169,171,149607,1,0,0:0:0:0:
184,194,149710,6,0,P|209:193|237:190,1,33.7500012874604,2|2,0:0|0:0,0:0:0:0:
318,173,149917,2,0,P|345:178|367:191,1,33.7500012874604,8|8,0:0|0:0,0:0:0:0:
403,268,150124,2,0,P|396:289|382:313,1,33.7500012874604,2|0,0:0|0:0,0:0:0:0:
304,351,150330,2,0,P|276:351|251:355,1,33.7500012874604,2|2,0:0|0:0,0:0:0:0:
191,301,150537,5,2,0:0:0:0:
187,267,150641,1,0,0:0:0:0:
174,235,150744,1,8,0:0:0:0:
151,209,150848,1,0,0:0:0:0:
122,191,150951,1,4,3:2:0:0:
88,185,151055,1,0,0:0:0:0:
54,185,151158,1,8,0:0:0:0:
22,197,151262,1,0,0:0:0:0:
0,222,151365,6,0,L|56:234,1,33.7500012874604,2|0,0:0|0:0,0:0:0:0:
151,209,151572,2,0,L|188:189,1,33.7500012874604,8|0,0:0|0:0,0:0:0:0:
272,116,151779,6,0,L|293:80,1,33.7500012874604,2|0,0:0|0:0,0:0:0:0:
197,10,151986,2,0,L|155:32,1,33.7500012874604,8|2,0:0|0:0,0:0:0:0:
76,74,152193,5,2,0:0:0:0:
87,90,152296,1,0,0:0:0:0:
100,105,152399,2,0,L|145:114,1,33.7500012874604,8|8,0:0|0:0,0:0:0:0:
284,33,152606,1,10,0:0:0:0:
303,37,152710,1,0,0:0:0:0:
322,41,152813,2,0,L|350:84,1,33.7500012874604,8|0,0:0|0:0,0:0:0:0:
211,196,153020,6,0,L|228:224,1,33.7500012874604,2|0,0:0|0:0,0:0:0:0:
305,371,153227,2,0,L|299:337,1,33.7500012874604,8|0,0:0|0:0,0:0:0:0:
382,261,153434,2,0,L|349:270,1,33.7500012874604,2|0,0:0|0:0,0:0:0:0:
195,331,153641,2,0,L|219:308,1,33.7500012874604,8|0,0:0|0:0,0:0:0:0:
308,202,153848,5,2,0:0:0:0:
307,165,153951,1,0,0:0:0:0:
289,131,154055,1,2,2:1:0:0:
258,110,154158,1,0,0:0:0:0:
220,106,154262,1,2,0:0:0:0:
193,80,154365,1,0,0:0:0:0:
195,43,154468,1,2,0:0:0:0:
221,16,154572,1,0,0:0:0:0:
257,22,154675,6,0,L|298:19,3,33.7500012874604,4|0|8|2,3:2|0:0|0:0|0:0,0:0:0:0:
429,82,155089,2,0,L|481:88,3,33.7500012874604,2|0|8|0,0:0|0:0|0:0|0:0,0:0:0:0:
302,165,155503,2,0,L|262:169,3,33.7500012874604,2|0|8|0,0:0|0:0|0:0|0:0,0:0:0:0:
464,229,155917,2,0,L|507:235,3,33.7500012874604,2|0|8|2,0:0|0:0|0:0|0:0,0:0:0:0:
325,281,156330,5,2,0:0:0:0:
280,279,156434,1,0,0:0:0:0:
240,259,156537,1,8,0:0:0:0:
209,227,156641,1,8,0:0:0:0:
194,185,156744,5,10,0:0:0:0:
195,140,156848,1,8,0:0:0:0:
207,98,156951,1,2,0:0:0:0:
239,68,157055,1,0,0:0:0:0:
188,73,157158,5,4,3:2:0:0:
149,59,157262,1,0,0:0:0:0:
108,69,157365,1,2,0:0:0:0:
80,98,157468,1,0,0:0:0:0:
89,155,157572,5,10,0:0:0:0:
31,189,157675,1,8,0:0:0:0:
9,253,157779,1,8,0:0:0:0:
34,315,157882,1,8,0:0:0:0:
91,324,157986,5,4,3:2:0:0:
127,340,158089,1,0,0:0:0:0:
168,340,158193,1,0,0:0:0:0:
206,326,158296,1,0,0:0:0:0:
238,296,158399,1,2,0:0:0:0:
273,321,158503,1,0,0:0:0:0:
315,329,158606,1,0,0:0:0:0:
358,320,158710,1,0,0:0:0:0:
389,289,158813,6,0,L|395:245,1,33.7500012874604,2|0,0:0|0:0,0:0:0:0:
376,174,159020,1,2,2:1:0:0:
354,140,159124,1,0,0:0:0:0:
368,102,159227,6,0,L|375:52,1,33.7500012874604,2|2,0:0|2:1,0:0:0:0:
271,45,159434,1,2,2:1:0:0:
230,43,159537,1,0,0:0:0:0:
195,65,159641,6,0,L|202:115,1,33.7500012874604,2|0,0:0|0:0,0:0:0:0:
270,172,159848,2,0,L|263:222,1,33.7500012874604,8|0,0:0|0:0,0:0:0:0:
166,230,160055,5,2,0:0:0:0:
119,210,160158,1,8,0:0:0:0:
86,249,160262,1,8,0:0:0:0:
111,292,160365,1,0,0:0:0:0:
160,285,160468,5,2,0:0:0:0:
197,300,160572,1,0,0:0:0:0:
234,316,160675,1,2,2:1:0:0:
196,330,160779,1,2,0:0:0:0:
158,345,160882,2,0,L|109:361,1,33.7500012874604,2|0,0:0|0:0,0:0:0:0:
354,345,161089,2,0,L|403:361,1,33.7500012874604,2|0,0:0|0:0,0:0:0:0:
373,265,161296,5,2,0:0:0:0:
409,248,161399,1,0,0:0:0:0:
408,207,161503,1,8,0:0:0:0:
429,181,161606,1,0,0:0:0:0:
408,154,161710,1,2,0:0:0:0:
416,121,161813,1,0,0:0:0:0:
406,88,161917,1,8,0:0:0:0:
411,54,162020,1,2,0:0:0:0:
403,21,162124,6,0,L|358:34,1,33.7500012874604,2|0,0:0|0:0,0:0:0:0:
210,21,162330,2,0,L|255:34,1,33.7500012874604,8|0,0:0|0:0,0:0:0:0:
222,142,162537,6,0,L|177:155,1,33.7500012874604,2|0,0:0|0:0,0:0:0:0:
29,142,162744,2,0,L|72:154,1,33.7500012874604,8|0,0:0|0:0,0:0:0:0:
127,259,162951,5,2,0:0:0:0:
159,269,163055,1,0,0:0:0:0:
191,279,163158,1,8,0:0:0:0:
224,283,163262,1,0,0:0:0:0:
251,244,163365,5,2,0:0:0:0:
282,232,163468,1,0,0:0:0:0:
314,223,163572,1,8,0:0:0:0:
346,212,163675,1,2,0:0:0:0:
368,157,163779,5,2,0:0:0:0:
443,146,163882,5,2,2:1:0:0:
506,190,163986,5,2,2:1:0:0:
508,268,164089,5,2,2:1:0:0:
467,330,164193,6,0,L|490:372,1,33.7500012874604,2|0,0:0|0:0,0:0:0:0:
359,341,164399,2,0,L|353:377,1,33.7500012874604,2|0,2:1|0:0,0:0:0:0:
266,293,164606,6,0,L|222:318,3,33.7500012874604,4|0|8|2,3:2|0:0|0:0|0:0,0:0:0:0:
157,203,165020,2,0,L|143:252,3,33.7500012874604,2|0|8|2,0:0|0:0|0:0|0:0,0:0:0:0:
20,217,165434,2,0,L|36:260,3,33.7500012874604,2|0|8|0,0:0|0:0|0:0|0:0,0:0:0:0:
109,343,165848,5,2,0:0:0:0:
151,334,165951,1,0,0:0:0:0:
190,314,166055,1,10,0:0:0:0:
218,281,166158,1,0,0:0:0:0:
231,238,166262,6,0,L|235:187,1,33.7500012874604,2|0,0:0|0:0,0:0:0:0:
290,39,166468,2,0,L|293:6,1,33.7500012874604,8|0,0:0|0:0,0:0:0:0:
110,98,166675,6,0,L|168:108,1,33.7500012874604,2|0,0:0|0:0,0:0:0:0:
262,122,166882,2,0,L|320:132,1,33.7500012874604,2|0,0:0|0:0,0:0:0:0:
493,101,167089,5,2,0:0:0:0:
449,94,167193,1,2,0:0:0:0:
405,100,167296,2,0,L|399:149,1,33.7500012874604,8|0,0:0|0:0,0:0:0:0:
339,338,167503,5,2,0:0:0:0:
295,342,167607,1,2,0:0:0:0:
252,331,167710,2,0,L|246:282,1,33.7500012874604,8|0,0:0|0:0,0:0:0:0:
152,175,167917,6,0,P|112:178|56:180,1,76.5000014591217,0|0,0:0|3:0,0:0:0:0:
372,237,168330,2,0,P|416:238|468:242,1,76.5000014591217,0|0,0:0|3:0,0:0:0:0:
253,84,168744,5,2,1:2:0:0:
214,88,168848,1,2,1:2:0:0:
181,107,168951,1,2,1:2:0:0:
159,138,169055,1,2,1:2:0:0:
152,175,169158,1,2,1:2:0:0:
256,192,169365,1,4,1:2:0:0:
128,30,169572,6,0,P|71:23|15:57,1,114.750002188683,4|8,0:0|2:2,0:0:0:0:
8,98,169986,2,0,L|16:200,1,76.5000014591217,8|8,2:2|1:2,0:0:0:0:
103,348,170399,1,0,0:0:0:0:
262,232,170606,1,0,0:0:0:0:
304,213,170710,1,0,0:0:0:0:
323,171,170813,1,8,0:0:0:0:
319,125,170917,1,8,0:0:0:0:
338,83,171020,1,0,0:0:0:0:
375,55,171124,2,0,L|387:79,1,19.1250003647804,8|0,1:3|0:0,0:0:0:0:
419,55,171227,6,0,P|416:103|416:151,1,90,4|0,0:0|0:0,0:0:0:0:
500,213,171641,1,8,1:2:0:0:
333,215,171848,1,0,0:0:0:0:
166,67,172055,2,0,P|165:116|162:164,1,90,8|0,0:0|0:0,0:0:0:0:
258,148,172468,1,0,0:0:0:0:
68,101,172675,1,8,1:2:0:0:
207,258,172882,6,0,P|164:268|117:254,1,90,8|0,1:2|0:0,0:0:0:0:
81,244,173193,1,0,0:0:0:0:
64,207,173296,1,8,1:2:0:0:
163,157,173503,1,0,0:0:0:0:
50,337,173710,2,0,P|90:365|138:370,1,90,8|0,0:0|0:0,0:0:0:0:
413,117,174124,1,2,0:0:0:0:
382,90,174227,1,0,0:0:0:0:
343,77,174330,1,2,0:0:0:0:
302,83,174434,1,0,0:0:0:0:
270,108,174537,6,0,P|252:150|258:201,1,90,8|0,0:0|0:0,0:0:0:0:
340,339,174951,2,0,L|324:244,1,90,8|0,1:2|0:0,0:0:0:0:
349,215,175262,1,0,0:0:0:0:
342,175,175365,1,8,1:2:0:0:
120,256,175572,1,0,0:0:0:0:
139,31,175779,2,0,P|95:16|48:18,1,90,8|0,1:2|0:0,0:0:0:0:
353,90,176193,6,0,P|401:85|444:63,1,90,8|0,0:0|0:0,0:0:0:0:
471,44,176503,1,0,0:0:0:0:
496,12,176606,1,8,1:2:0:0:
306,167,176813,1,0,0:0:0:0:
281,198,176916,1,0,0:0:0:0:
269,236,177020,2,0,P|259:281|268:326,1,90,8|0,1:2|0:0,0:0:0:0:
438,282,177434,1,8,1:2:0:0:
115,271,177641,1,8,1:2:0:0:
306,167,177848,6,0,P|347:179|398:169,1,90,8|0,0:0|0:0,0:0:0:0:
174,17,178262,2,0,P|130:8|82:22,1,90,8|0,1:2|0:0,0:0:0:0:
8,201,178675,1,0,0:0:0:0:
6,241,178779,1,0,0:0:0:0:
29,274,178882,2,0,P|73:283|121:269,1,90,8|0,1:2|0:0,0:0:0:0:
265,107,179296,5,0,0:0:0:0:
302,93,179399,1,0,0:0:0:0:
341,101,179503,2,0,L|349:197,1,90,8|0,0:0|0:0,0:0:0:0:
363,228,179813,1,0,0:0:0:0:
380,264,179917,6,0,L|472:269,1,90,8|0,0:0|0:0,0:0:0:0:
258,359,180330,2,0,L|166:354,1,90,8|0,0:0|0:0,0:0:0:0:
128,343,180641,1,2,0:0:0:0:
100,313,180744,1,2,0:0:0:0:
93,272,180848,1,0,0:0:0:0:
101,232,180951,1,2,0:0:0:0:
223,53,181158,6,0,P|254:131|228:221,1,180,8|8,0:0|1:2,0:0:0:0:
228,220,181779,1,0,0:0:0:0:
330,31,181986,2,0,L|424:29,1,90,8|0,1:2|0:0,0:0:0:0:
114,139,182399,2,0,L|20:141,1,90,8|0,0:2|0:0,0:0:0:0:
306,263,182813,6,0,P|295:311|306:366,1,90,8|0,0:0|0:0,0:0:0:0:
300,350,183124,1,0,0:0:0:0:
300,350,183227,1,8,1:2:0:0:
76,272,183434,1,0,0:0:0:0:
69,34,183641,5,8,0:0:0:0:
69,34,183744,2,0,L|19:35,2,45,2|2|2,1:2|1:2|1:2,0:0:0:0:
131,73,184055,2,0,P|157:127|139:202,1,135,4|0,1:2|0:0,0:0:0:0:
76,272,184468,6,0,L|182:277,1,90,4|0,3:2|0:0,0:0:0:0:
375,223,184882,2,0,P|471:204|517:108,2,180,8|0|8,0:0|0:0|0:0,0:0:0:0:
303,115,185917,1,8,0:0:0:0:
165,276,186124,6,0,P|74:263|16:326,1,180,8|0,0:0|0:0,0:0:0:0:
230,352,186744,1,8,0:0:0:0:
239,207,186951,1,0,0:0:0:0:
144,126,187158,2,0,P|170:87|177:43,1,90,8|8,0:0|0:0,0:0:0:0:
18,154,187572,1,8,0:0:0:0:
317,282,187779,6,0,P|403:286|476:350,1,180,4|0,3:2|0:0,0:0:0:0:
504,195,188399,1,8,0:0:0:0:
378,61,188606,2,0,P|373:104|383:163,1,90,8|0,0:0|0:0,0:0:0:0:
177,248,189020,2,0,P|191:204|220:169,1,90,8|0,0:0|0:0,0:0:0:0:
240,135,189330,1,8,0:0:0:0:
240,94,189434,6,0,P|199:41|120:33,1,135,4|0,3:2|0:0,0:0:0:0:
96,41,189848,1,8,0:0:0:0:
15,263,190055,2,0,P|61:266|105:270,1,90,8|0,0:0|0:0,0:0:0:0:
142,132,190468,2,0,L|146:200,1,45,8|0,0:0|0:0,0:0:0:0:
255,349,190675,2,0,P|210:351|165:356,1,90,8|8,0:0|0:0,0:0:0:0:
307,209,191089,6,0,P|377:227|442:226,1,135,4|0,0:0|0:0,0:0:0:0:
487,215,191503,1,8,0:0:0:0:
399,73,191710,1,8,0:0:0:0:
271,332,191917,6,0,P|292:274|281:183,1,135
264,159,192330,1,8,0:0:0:0:
150,21,192537,1,8,0:0:0:0:
139,60,192640,1,0,0:0:0:0:
157,97,192744,5,8,0:0:0:0:
182,277,192951,1,2,0:0:0:0:
94,167,193158,1,2,0:0:0:0:
233,149,193365,1,0,0:0:0:0:
5,53,193572,1,2,0:0:0:0:
284,19,193779,1,2,0:0:0:0:
160,319,193986,2,0,B|126:288|82:288|82:288|94:250|90:218,1,135,2|0,0:0|0:0,0:0:0:0:
57,180,194399,1,2,0:0:0:0:
236,192,194606,6,0,L|233:210,9,15,2|0|0|0|0|0|0|0|0|0,0:0|0:0|0:0|0:0|0:0|0:0|0:0|0:0|0:0|0:0,0:0:0:0:
297,121,195020,2,0,L|293:101,9,15,2|0|0|0|0|0|0|0|0|0,0:0|0:0|0:0|0:0|0:0|0:0|0:0|0:0|0:0|0:0,0:0:0:0:
364,183,195434,2,0,L|362:206,9,15,2|0|0|0|0|0|0|0|0|0,0:0|0:0|0:0|0:0|0:0|0:0|0:0|0:0|0:0|0:0,0:0:0:0:
430,120,195848,2,0,L|424:98,4,15,2|0|0|0|0,0:0|0:0|0:0|0:0|0:0,0:0:0:0:
418,77,196055,6,0,P|382:60|332:59,1,90,8|8,0:0|0:0,0:0:0:0:
301,32,196365,1,8,0:0:0:0:
261,41,196468,1,8,0:0:0:0:
222,53,196572,1,8,0:0:0:0:
187,32,196675,1,8,0:0:0:0:
128,179,196882,6,0,L|89:178,6,33.7500012874604,2|0|0|0|0|0|0,0:0|0:0|0:0|0:0|0:0|0:0|0:0,0:0:0:0:
243,209,197296,6,0,L|250:261,1,45,8|0,1:2|0:0,0:0:0:0:
366,294,197503,2,0,L|410:291,1,45,8|0,1:2|0:0,0:0:0:0:
263,372,197710,6,0,L|177:380,1,67.5000025749208,4|0,0:0|0:0,0:0:0:0:
81,305,198124,1,2,2:3:0:0:
128,179,198330,1,0,0:0:0:0:
128,179,198537,6,0,L|214:187,1,67.5000025749208,2|2,2:3|2:1,0:0:0:0:
229,188,198848,1,2,0:0:0:0:
314,31,199055,1,2,0:0:0:0:
280,29,199158,1,2,0:0:0:0:
246,27,199262,1,2,0:0:0:0:
212,25,199365,6,0,L|222:112,1,67.5000025749208,2|0,2:3|0:0,0:0:0:0:
229,188,199779,1,2,2:3:0:0:
128,179,199986,1,0,0:0:0:0:
122,145,200089,1,8,2:3:0:0:
119,111,200193,6,0,L|75:119,1,33.7500012874604,10|0,2:3|0:0,0:0:0:0:
8,219,200399,2,0,L|18:241,1,16.8750006437302,8|0,2:3|0:0,0:0:0:0:
17,257,200503,1,8,2:3:0:0:
23,291,200606,6,0,L|72:284,1,33.7500012874604,2|0,2:3|0:0,0:0:0:0:
185,299,200813,1,2,0:0:0:0:
218,294,200917,1,2,0:0:0:0:
251,290,201020,6,0,L|327:301,1,67.5000025749208,2|0,2:3|0:0,0:0:0:0:
494,277,201434,1,2,2:3:0:0:
391,177,201641,1,0,0:0:0:0:
391,177,201848,6,0,P|387:142|387:98,1,67.5000025749208,2|0,2:3|0:0,0:0:0:0:
200,16,202262,2,0,P|199:52|196:95,1,67.5000025749208,2|0,2:3|0:0,0:0:0:0:
269,163,202675,5,8,2:3:0:0:
224,173,202779,1,8,2:3:0:0:
185,194,202882,1,8,2:3:0:0:
151,164,202986,1,2,0:0:0:0:
110,147,203089,6,0,P|79:154|26:153,1,67.5000025749208,8|2,2:3|2:3,0:0:0:0:
18,188,203399,1,8,2:3:0:0:
28,230,203503,1,2,2:3:0:0:
142,281,203710,6,0,L|161:292,1,16.8750006437302,8|0,2:3|0:0,0:0:0:0:
158,321,203813,1,8,2:3:0:0:
146,363,203917,2,0,P|172:355|202:350,1,45,2|0,0:0|0:0,0:0:0:0:
301,367,204124,2,0,P|323:364|352:354,1,45,2|0,0:0|0:0,0:0:0:0:
391,250,204330,6,0,P|338:256|294:236,1,101.250003862381,4|0,0:0|0:0,0:0:0:0:
280,198,204744,2,0,L|291:112,1,67.5000025749208,8|0,2:3|0:0,0:0:0:0:
305,14,205158,1,8,2:3:0:0:
490,194,205365,1,0,0:0:0:0:
284,351,205572,2,0,P|236:370|182:359,1,101.250003862381,8|0,2:3|0:0,0:0:0:0:
154,339,205986,6,0,L|80:347,1,67.5000025749208,2|0,2:3|0:0,0:0:0:0:
9,211,206399,2,0,L|83:203,1,67.5000025749208,8|0,2:3|0:0,0:0:0:0:
108,193,206710,1,8,2:3:0:0:
131,169,206813,2,0,P|130:131|118:87,1,67.5000025749208,8|8,2:3|2:3,0:0:0:0:
117,57,207124,2,0,L|122:34,1,16.8750006437302,8|0,2:3|0:0,0:0:0:0:
143,30,207227,2,0,P|177:26|217:22,1,67.5000025749208,8|2,2:3|0:0,0:0:0:0:
346,73,207641,5,8,2:2:0:0:
212,174,207848,1,0,3:0:0:0:
69,125,208055,1,8,2:2:0:0:
255,176,208262,1,0,3:0:0:0:
397,71,208468,1,8,2:2:0:0:
215,229,208675,1,0,3:0:0:0:
25,158,208882,1,8,2:2:0:0:
264,240,209089,1,0,3:0:0:0:
430,24,209296,6,0,P|429:58|434:101,1,67.5000025749208,4|0,0:0|0:0,0:0:0:0:
501,126,209606,1,8,1:2:0:0:
497,167,209710,1,8,1:2:0:0:
284,108,209917,1,0,0:0:0:0:
456,351,210123,1,0,0:0:0:0:
263,299,210330,5,8,1:2:0:0:
232,326,210434,1,8,1:2:0:0:
193,337,210537,1,8,1:2:0:0:
152,336,210641,1,8,1:2:0:0:
114,321,210744,2,0,P|101:299|96:278,1,33.7500012874604,8|0,0:0|0:0,0:0:0:0:
11,165,210951,6,0,P|71:135|139:145,1,135.000005149842,4|8,1:2|0:0,0:0:0:0:
88,252,211572,1,0,0:0:0:0:
206,36,211779,1,8,0:0:0:0:
235,52,211882,1,0,0:0:0:0:
254,79,211986,1,0,0:0:0:0:
265,110,212089,1,0,0:0:0:0:
265,143,212193,1,8,0:0:0:0:
137,144,212399,1,0,0:0:0:0:
198,254,212606,5,8,0:0:0:0:
231,253,212710,1,0,0:0:0:0:
261,267,212813,1,0,0:0:0:0:
407,301,213020,1,8,0:0:0:0:
394,269,213124,1,0,0:0:0:0:
398,235,213227,1,0,0:0:0:0:
456,120,213434,2,0,P|407:102|359:108,1,101.250003862381,2|8,2:2|0:0,0:0:0:0:
288,85,213848,2,0,L|296:3,1,67.5000025749208,8|0,0:0|0:0,0:0:0:0:
159,107,214262,5,8,0:0:0:0:
129,90,214365,1,0,0:0:0:0:
95,86,214468,1,0,0:0:0:0:
62,94,214572,1,0,0:0:0:0:
35,115,214675,1,8,0:0:0:0:
105,219,214882,1,0,0:0:0:0:
294,17,215089,2,0,P|301:68|283:122,1,101.250003862381,8|0,0:0|0:0,0:0:0:0:
338,170,215503,2,0,P|379:165|432:161,1,78.3000006571198,8|0,0:0|0:0,0:0:0:0:
193,331,215917,6,0,P|152:324|91:316,1,78.3000006571198,4|0,0:0|0:0,0:0:0:0:
397,298,216330,1,2,1:2:0:0:
205,162,216537,1,2,1:2:0:0:
443,107,216744,1,8,1:2:0:0:
283,247,216951,1,8,1:2:0:0:
244,21,217158,1,8,1:2:0:0:
106,178,217365,1,0,0:0:0:0:
84,203,217468,1,0,0:0:0:0:
65,228,217572,6,0,P|44:146|102:71,1,180,0|8,0:0|0:0,0:0:0:0:
96,73,218193,1,0,0:0:0:0:
172,345,218399,2,0,P|165:299|178:248,1,90
198,217,218710,1,2,1:2:0:0:
239,238,218813,2,0,P|284:247|330:232,1,90,8|0,0:0|0:0,0:0:0:0:
438,48,219227,6,0,P|370:42|308:73,1,135,2|0,0:0|0:0,0:0:0:0:
310,146,219641,2,0,P|317:193|327:241,1,90,8|2,0:0|0:0,0:0:0:0:
271,52,220055,1,0,0:0:0:0:
328,352,220262,1,2,1:2:0:0:
201,223,220468,1,8,0:0:0:0:
399,187,220675,1,2,1:2:0:0:
44,35,220882,5,2,2:0:0:0:
86,12,220986,1,2,1:2:0:0:
132,25,221089,2,0,L|128:121,1,90,2|8,0:0|0:0,0:0:0:0:
23,228,221503,1,0,1:3:0:0:
211,349,221710,6,0,L|207:253,1,90,8|0,0:0|0:0,0:0:0:0:
241,229,222020,1,2,1:2:0:0:
254,185,222124,1,2,1:2:0:0:
481,49,222330,1,2,1:2:0:0:
436,45,222434,1,2,1:2:0:0:
401,18,222537,6,0,P|357:7|305:13,1,90,8|0,0:0|0:0,0:0:0:0:
165,177,222951,2,0,P|209:188|261:182,1,90,8|0,0:0|0:0,0:0:0:0:
475,312,223365,5,8,1:2:0:0:
436,335,223468,1,8,1:2:0:0:
390,335,223572,1,8,1:2:0:0:
350,314,223675,1,8,1:2:0:0:
320,281,223779,2,0,P|309:333|290:371,1,90,8|0,0:0|0:0,0:0:0:0:
410,200,224193,6,0,P|367:147|359:82,1,135,2|0,0:0|0:0,0:0:0:0:
378,35,224606,1,8,0:0:0:0:
143,32,224813,2,0,P|185:15|233:12,1,90,0|8,0:0|0:0,0:0:0:0:
44,152,225227,1,0,0:0:0:0:
341,170,225434,2,0,P|297:192|269:232,1,90,8|0,0:0|0:0,0:0:0:0:
244,372,225848,6,0,P|181:345|100:344,1,135,2|0,0:0|0:0,0:0:0:0:
67,360,226262,1,8,0:0:0:0:
167,202,226468,2,0,P|178:157|174:113,1,90,0|8,0:0|0:0,0:0:0:0:
22,258,226882,5,0,0:0:0:0:
97,55,227089,1,8,0:0:0:0:
238,238,227296,1,8,1:2:0:0:
442,314,227503,6,0,L|429:217,1,90,8|0,1:2|0:0,0:0:0:0:
400,192,227813,1,0,0:0:0:0:
430,159,227917,2,0,L|441:69,1,90,8|0,0:0|0:0,0:0:0:0:
292,46,228330,5,8,0:0:0:0:
260,42,228434,1,0,0:0:0:0:
233,58,228537,1,0,0:0:0:0:
201,55,228641,1,0,0:0:0:0:
174,71,228744,1,8,0:0:0:0:
142,69,228848,1,0,0:0:0:0:
113,82,228951,2,0,B|39:74|39:74|63:130,1,116.999994644165,2|4,0:0|0:0,0:0:0:0:
123,334,229365,6,0,P|150:335|184:330,1,45,8|0,1:2|0:0,0:0:0:0:
263,223,229572,1,2,0:0:0:0:
117,216,229779,6,0,P|123:242|143:284,1,45,8|0,1:2|0:0,0:0:0:0:
287,234,229986,1,2,0:0:0:0:
194,143,230193,6,0,P|182:160|175:183,2,30,8|0|0,2:2|0:0|0:0,0:0:0:0:
303,214,230399,6,0,P|330:204|351:184,1,45,10|0,1:2|0:0,0:0:0:0:
344,56,230606,2,0,P|321:39|295:34,1,45,8|0,1:2|0:0,0:0:0:0:
277,131,230813,6,0,B|292:164|329:175|329:175|359:243|299:298,1,198.000006042481,2|8,0:0|0:0,0:0:0:0:
201,347,231434,1,0,0:0:0:0:
209,229,231641,2,0,L|103:238,1,99.0000030212403,8|0,1:2|0:0,0:0:0:0:
72,213,231951,1,8,1:2:0:0:
75,168,232055,1,8,1:2:0:0:
79,123,232158,1,8,1:2:0:0:
57,83,232262,2,0,L|116:76,1,49.5000015106202,8|0,1:2|0:0,0:0:0:0:
246,39,232468,6,0,B|351:50|351:50|394:43,1,148.50000453186,2|0,0:0|0:0,0:0:0:0:
464,18,232882,2,0,P|473:67|464:117,1,99.0000030212403,8|0,0:0|0:0,0:0:0:0:
463,160,233193,1,0,0:0:0:0:
484,199,233296,1,8,1:2:0:0:
292,131,233503,1,2,1:2:0:0:
284,331,233710,1,8,0:0:0:0:
92,263,233917,1,2,1:2:0:0:
210,198,234124,5,8,1:2:0:0:
188,158,234227,1,8,1:2:0:0:
167,118,234330,2,0,P|117:105|60:114,1,99.0000030212403
233,22,234744,1,0,0:0:0:0:
228,298,234951,6,0,P|296:275|371:282,1,148.50000453186,2|0,0:0|0:0,0:0:0:0:
437,308,235365,2,0,P|433:261|434:194,1,99.0000030212403,8|0,0:0|0:0,0:0:0:0:
458,171,235675,1,2,1:2:0:0:
483,134,235779,6,0,L|385:129,1,99.0000030212403,8|0,1:2|0:0,0:0:0:0:
134,27,236193,2,0,L|232:22,1,99.0000030212403,8|0,0:0|0:0,0:0:0:0:
275,242,236606,1,8,1:2:0:0:
255,207,236710,1,8,1:2:0:0:
222,184,236813,1,8,1:2:0:0:
182,178,236917,1,8,1:2:0:0:
144,189,237020,1,8,0:0:0:0:
169,323,237227,1,0,0:0:0:0:
381,151,237434,6,0,P|369:219|405:289,1,148.50000453186,2|0,0:0|0:0,0:0:0:0:
371,331,237848,2,0,P|420:327|474:344,1,99.0000030212403,8|0,0:0|0:0,0:0:0:0:
474,204,238262,1,8,1:2:0:0:
278,292,238468,1,0,0:0:0:0:
288,104,238675,1,8,0:0:0:0:
104,192,238882,1,0,0:0:0:0:
175,309,239089,5,8,1:2:0:0:
172,105,239296,1,0,0:0:0:0:
372,248,239503,1,8,0:0:0:0:
368,45,239710,1,0,0:0:0:0:
54,271,239917,5,8,1:2:0:0:
443,134,240124,1,0,0:0:0:0:
98,52,240330,1,8,0:0:0:0:
400,360,240537,2,0,P|351:354|300:329,1,99.0000030212403,8|0,1:2|0:0,0:0:0:0:
254,231,240951,1,0,0:0:0:0:
346,155,241158,6,0,P|370:157|392:153,1,40.4999987640381,2|2,1:2|0:0,0:0:0:0:
443,134,241365,2,0,P|461:122|476:111,1,40.4999987640381,2|0,1:2|0:0,0:0:0:0:
509,48,241572,5,8,0:0:0:0:
470,39,241675,1,0,0:0:0:0:
434,56,241778,1,0,0:0:0:0:
406,26,241882,1,0,0:0:0:0:
368,13,241985,1,0,0:0:0:0:
348,47,242089,1,0,0:0:0:0:
346,86,242192,1,0,0:0:0:0:
307,97,242296,1,0,0:0:0:0:
279,125,242399,6,0,P|274:152|276:181,1,49.5000015106202,8|8,0:0|3:2,0:0:0:0:
363,259,242606,1,8,0:0:0:0:
262,336,242813,6,0,P|275:357|299:378,1,49.5000015106202,8|0,1:2|0:0,0:0:0:0:
371,230,243020,2,0,P|358:209|334:188,1,49.5000015106202,8|0,1:2|0:0,0:0:0:0:
416,329,243227,6,0,L|473:326,1,49.5000015106202,8|0,0:0|0:0,0:0:0:0:
307,171,243434,2,0,L|268:174,2,33.0000010070801
448,159,243641,6,0,P|468:142|485:119,1,49.5000015106202,2|0,1:2|0:0,0:0:0:0:
286,57,243848,2,0,P|292:33|290:5,1,49.5000015106202,2|0,1:2|0:0,0:0:0:0:
92,62,244055,6,0,P|77:149|116:220,1,161.999995056153,2|0,0:0|0:0,0:0:0:0:
93,258,244468,2,0,P|146:271|197:254,1,107.999996704102,8|0,0:0|0:0,0:0:0:0:
263,126,244882,1,8,0:0:0:0:
424,244,245089,1,0,0:0:0:0:
462,214,245193,1,0,0:0:0:0:
476,167,245296,2,0,P|485:112|473:61,1,107.999996704102,8|0,0:0|0:0,0:0:0:0:
218,25,245710,6,0,P|299:22|362:71,1,161.999995056153,2|0,0:0|0:0,0:0:0:0:
377,115,246124,1,8,0:0:0:0:
249,214,246330,1,0,0:0:0:0:
107,134,246537,1,10,0:0:0:0:
63,157,246641,1,0,0:0:0:0:
37,198,246744,1,0,0:0:0:0:
29,246,246848,1,0,0:0:0:0:
41,292,246951,1,8,0:0:0:0:
252,311,247158,1,0,0:0:0:0:
419,140,247365,5,10,0:0:0:0:
377,115,247468,1,0,0:0:0:0:
329,126,247572,1,0,0:0:0:0:
403,373,247779,1,8,0:0:0:0:
426,330,247882,1,0,0:0:0:0:
426,281,247986,1,0,0:0:0:0:
406,236,248089,1,0,0:0:0:0:
363,211,248193,6,0,P|296:244|201:232,1,161.999995056153,10|0,0:0|0:0,0:0:0:0:
176,203,248606,2,0,B|159:205|159:205|200:176|192:122,1,107.999996704102,8|0,0:0|0:0,0:0:0:0:
176,78,248917,1,0,0:0:0:0:
194,33,249020,6,0,P|250:21|313:16,1,107.999996704102,8|0,0:0|0:0,0:0:0:0:
107,134,249434,2,0,P|53:146|-12:151,1,107.999996704102,8|0,0:0|0:0,0:0:0:0:
240,184,249848,5,8,0:0:0:0:
254,230,249951,1,2,1:2:0:0:
248,278,250055,1,2,1:2:0:0:
217,315,250158,1,2,1:2:0:0:
170,330,250262,6,0,L|58:349,1,107.999996704102,8|0,0:0|0:0,0:0:0:0:
145,228,250675,1,10,0:0:0:0:
350,247,250882,2,0,L|462:228,1,107.999996704102,0|8,0:0|0:0,0:0:0:0:
343,137,251296,1,0,0:0:0:0:
329,29,251503,6,0,P|280:47|242:97,1,107.999996704102,8|0,0:0|0:0,0:0:0:0:
444,178,251917,2,0,P|452:126|428:68,1,107.999996704102,10|0,0:0|0:0,0:0:0:0:
257,205,252330,2,0,P|297:238|359:246,1,107.999996704102,10|0,0:0|0:0,0:0:0:0:
343,137,252744,5,8,0:0:0:0:
246,293,252951,1,0,0:0:0:0:
159,132,253158,1,8,0:0:0:0:
350,247,253365,5,0,0:0:0:0:
93,215,253572,1,8,0:0:0:0:
248,8,253779,1,0,0:0:0:0:
153,329,253986,6,0,P|218:279|231:201,1,161.999995056153,10|0,0:0|0:0,0:0:0:0:
213,159,254399,2,0,P|198:105|208:55,1,107.999996704102,8|0,0:0|0:0,0:0:0:0:
368,212,254813,6,0,L|302:204,1,53.9999983520508,10|0,0:0|0:0,0:0:0:0:
124,54,255020,2,0,L|55:46,1,53.9999983520508,2|0,0:0|0:0,0:0:0:0:
300,11,255227,2,0,P|293:38|290:68,1,53.9999983520508,10|0,0:0|0:0,0:0:0:0:
142,261,255434,6,0,P|154:237|161:211,1,53.9999983520508,2|0,0:0|0:0,0:0:0:0:
56,134,255641,1,8,0:0:0:0:
115,298,255848,6,0,P|141:290|164:276,1,53.9999983520508,2|0,0:0|0:0,0:0:0:0:
102,119,256055,1,8,0:0:0:0:
75,314,256262,6,0,P|99:326|126:330,1,53.9999983520508,2|0,0:0|0:0,0:0:0:0:
150,105,256468,1,8,0:0:0:0:
39,312,256675,6,0,P|46:328|58:343,2,35.9999989013672
19,179,256882,6,0,P|18:150|23:110,1,53.9999983520508,10|0,0:0|0:0,0:0:0:0:
198,91,257089,2,0,P|209:60|228:31,1,53.9999983520508,2|0,0:0|0:0,0:0:0:0:
388,60,257296,6,0,B|407:42|436:37|436:37|401:58|385:96|393:138,1,161.999995056153,10|0,0:0|0:0,0:0:0:0:
402,184,257710,1,8,0:0:0:0:
211,271,257917,1,0,0:0:0:0:
409,323,258124,5,8,0:0:0:0:
458,337,258227,1,0,0:0:0:0:
405,349,258330,1,0,0:0:0:0:
355,327,258434,1,0,0:0:0:0:
327,280,258537,1,10,0:0:0:0:
488,123,258744,1,2,0:0:0:0:
306,159,258951,6,0,L|254:146,1,53.9999983520508,10|0,0:0|0:0,0:0:0:0:
153,214,259158,2,0,L|83:225,1,53.9999983520508,2|0,0:0|0:0,0:0:0:0:
15,169,259365,1,8,0:0:0:0:
258,274,259572,1,0,0:0:0:0:
90,112,259779,6,0,B|78:37|78:37|101:47|126:45,1,107.999996704102,8|0,0:0|0:0,0:0:0:0:
156,55,260089,1,0,0:0:0:0:
204,47,260193,1,8,0:0:0:0:
252,41,260296,1,0,0:0:0:0:
299,33,260399,1,0,0:0:0:0:
446,272,260606,5,10,0:0:0:0:
397,269,260710,1,0,0:0:0:0:
349,261,260813,1,0,0:0:0:0:
72,310,261020,6,0,P|101:333|121:367,1,53.9999983520508,8|0,0:0|0:0,0:0:0:0:
139,196,261227,2,0,P|104:210|64:210,1,53.9999983520508
220,337,261434,6,0,P|218:281|240:232,1,107.999996704102,10|0,0:0|0:0,0:0:0:0:
316,138,261744,1,0,0:0:0:0:
356,133,261848,2,0,B|459:124|459:124|438:109,1,121.500000463486,8|0,0:0|0:0,0:0:0:0:
236,40,262158,1,0,0:0:0:0:
197,45,262262,2,0,B|94:54|94:54|115:69,1,121.500000463486,8|0,0:0|0:0,0:0:0:0:
145,276,262675,1,8,0:0:0:0:
75,183,262882,5,0,0:0:0:0:
120,164,262986,1,0,0:0:0:0:
168,163,263089,2,0,P|198:167|224:181,1,53.9999983520508,8|0,0:0|0:0,0:0:0:0:
436,187,263296,2,0,P|405:204|379:211,1,53.9999983520508,2|0,0:0|0:0,0:0:0:0:
266,334,263503,6,0,P|278:304|280:270,1,53.9999983520508,8|0,0:0|0:0,0:0:0:0:
318,48,263710,2,0,P|319:83|328:113,1,53.9999983520508,2|0,0:0|0:0,0:0:0:0:
151,28,263917,6,0,P|95:27|44:49,1,107.999996704102,10|0,0:0|0:0,0:0:0:0:
139,231,264330,1,8,0:0:0:0:
387,209,264537,1,0,0:0:0:0:
409,165,264641,1,0,0:0:0:0:
418,117,264744,2,0,P|417:64|391:15,1,107.999996704102,8|0,0:0|0:0,0:0:0:0:
54,272,265158,6,0,P|22:281|3:299,1,53.9999983520508,8|0,0:0|0:0,0:0:0:0:
210,289,265365,2,0,P|234:311|259:319,1,53.9999983520508,2|0,0:0|0:0,0:0:0:0:
147,137,265572,6,0,B|166:101|129:34|129:34|145:49|177:54,1,161.999995056153,10|0,0:0|0:0,0:0:0:0:
107,13,265986,1,8,0:0:0:0:
334,80,266193,2,0,P|392:79|439:62,1,107.999996704102,0|8,0:0|0:0,0:0:0:0:
480,124,266503,5,8,1:2:0:0:
452,192,266606,1,8,1:2:0:0:
480,260,266710,1,8,1:2:0:0:
438,321,266813,2,0,P|387:304|334:304,1,107.999996704102,8|0,0:0|0:0,0:0:0:0:
108,251,267227,1,10,0:0:0:0:
404,251,267434,1,0,0:0:0:0:
73,321,267641,2,0,P|124:304|178:304,1,107.999996704102,8|0,0:0|0:0,0:0:0:0:
115,50,268055,5,8,0:0:0:0:
71,71,268158,1,0,0:0:0:0:
45,112,268262,1,0,0:0:0:0:
41,160,268365,1,0,0:0:0:0:
59,204,268468,1,8,0:0:0:0:
248,20,268675,1,0,0:0:0:0:
141,145,268882,5,8,0:0:0:0:
326,82,269089,1,0,0:0:0:0:
372,66,269193,1,0,0:0:0:0:
417,50,269296,1,8,0:0:0:0:
141,145,269503,5,0,0:0:0:0:
187,130,269606,1,0,0:0:0:0:
233,116,269710,2,0,L|214:184,1,53.9999983520508,8|0,0:0|3:0,0:0:0:0:
287,321,269917,6,0,L|298:278,2,35.9999989013672,8|8|8,1:2|1:2|1:2,0:0:0:0:
152,373,270124,6,0,P|123:369|95:353,1,53.9999983520508,2|0,1:2|0:0,0:0:0:0:
325,178,270330,2,0,P|354:182|382:198,1,53.9999983520508,2|0,1:2|0:0,0:0:0:0:
192,268,270537,5,4,0:0:0:0:
96,252,270744,2,0,L|44:280,1,40.4999987640381,2|8,0:0|0:0,0:0:0:0:
0,236,270951,1,8,0:0:0:0:
64,164,271158,5,0,0:0:0:0:
160,180,271365,2,0,L|189:153,1,40.4999987640381
256,196,271572,1,10,0:0:0:0:
96,252,271779,6,0,L|144:220,1,40.4999987640381,2|0,0:0|0:0,0:0:0:0:
160,180,271986,2,0,L|208:148,1,40.4999987640381,2|0,0:0|0:0,0:0:0:0:
224,108,272193,5,8,0:0:0:0:
368,112,272399,1,0,3:0:0:0:
344,104,272502,1,0,0:0:0:0:
320,96,272606,1,8,0:0:0:0:
148,52,272813,1,0,3:0:0:0:
320,96,273020,6,0,L|256:72,1,40.4999987640381,8|0,0:0|0:0,0:0:0:0:
148,52,273227,2,0,L|204:68,1,40.4999987640381,8|0,0:0|0:0,0:0:0:0:
320,96,273434,6,0,L|376:112,1,40.4999987640381,2|0,0:0|0:0,0:0:0:0:
109,40,273641,2,0,L|165:56,1,40.4999987640381,2|0,0:0|0:0,0:0:0:0:
248,16,273848,5,0,3:0:0:0:
268,112,274055,1,2,0:0:0:0:
288,208,274262,1,8,0:0:0:0:
308,304,274468,1,2,0:0:0:0:
384,240,274675,6,0,L|400:312,1,40.4999987640381
288,188,274882,2,0,L|361:195,1,40.4999987640381,2|0,0:0|0:0,0:0:0:0:
212,268,275089,2,0,L|241:200,1,40.4999987640381
268,364,275296,2,0,L|212:315,1,40.4999987640381,0|0,0:0|3:0,0:0:0:0:
352,352,275503,5,2,3:2:0:0:
296,264,275710,1,8,0:0:0:0:
284,244,275813,1,8,0:0:0:0:
272,224,275917,1,8,0:0:0:0:
352,352,276124,1,0,0:0:0:0:
260,204,276330,5,0,3:0:0:0:
248,184,276434,1,0,3:0:0:0:
236,164,276537,1,0,3:0:0:0:
224,144,276641,1,0,3:0:0:0:
216,96,276744,1,8,0:0:0:0:
176,88,276848,1,8,0:0:0:0:
136,96,276951,1,8,0:0:0:0:
332,144,277158,6,0,P|364:152|412:144,1,72,4|0,0:0|0:0,0:0:0:0:
368,60,277572,1,8,0:0:0:0:
216,96,277779,6,0,P|204:120|200:148,1,36,2|0,0:0|0:0,0:0:0:0:
248,236,277986,2,0,P|268:244|288:248,1,36,8|0,0:0|0:0,0:0:0:0:
400,232,278193,1,0,3:0:0:0:
412,256,278296,1,0,3:0:0:0:
420,280,278399,2,0,P|424:320|412:360,1,72,8|0,0:0|3:0,0:0:0:0:
95,350,278813,6,0,P|87:315|92:280,1,72,0|8,3:0|0:0,0:0:0:0:
100,256,279124,1,8,0:0:0:0:
112,236,279227,2,0,P|136:204|168:184,1,72,8|0,0:0|0:0,0:0:0:0:
188,180,279537,5,2,0:0:0:0:
208,196,279641,1,2,0:0:0:0:
220,172,279744,1,2,0:0:0:0:
228,148,279848,1,2,0:0:0:0:
236,124,279951,1,0,0:0:0:0:
244,100,280055,2,0,P|264:108|284:112,1,36,2|0,0:0|0:0,0:0:0:0:
432,84,280262,2,0,P|456:72|468:56,1,36,2|0,0:0|0:0,0:0:0:0:
340,40,280468,1,8,0:0:0:0:
360,168,280675,6,0,L|361:179,9,12,2|0|0|0|0|0|0|0|0|0,0:0|0:0|0:0|0:0|0:0|0:0|0:0|0:0|0:0|0:0,0:0:0:0:
416,248,281089,2,0,L|412:268,9,12,2|0|0|0|0|0|0|0|0|0,0:0|0:0|0:0|0:0|0:0|0:0|0:0|0:0|0:0|0:0,0:0:0:0:
344,320,281503,2,0,L|324:324,9,12,0|0|0|0|0|0|0|0|0|8,0:0|0:0|0:0|0:0|0:0|0:0|0:0|0:0|0:0|0:0,0:0:0:0:
268,276,281917,2,0,L|248:272,4,12,8|0|0|0|0,0:0|0:0|0:0|0:0|0:0,0:0:0:0:
232,268,282124,6,0,P|220:228|224:192,1,72,8|0,0:0|0:0,0:0:0:0:
232,176,282434,1,8,0:0:0:0:
232,152,282537,1,8,0:0:0:0:
16,128,282744,1,2,0:0:0:0:
136,56,282951,2,0,L|153:53,3,18,8|0|0|0,0:0|0:0|0:0|0:0,0:0:0:0:
200,64,283158,2,0,L|218:60,3,18,8|0|0|0,0:0|0:0|0:0|0:0,0:0:0:0:
264,72,283365,2,0,L|281:68,3,18,8|0|0|0,0:0|0:0|0:0|0:0,0:0:0:0:
328,80,283572,2,0,L|355:74,3,18,8|0|0|0,0:0|0:0|0:0|0:0,0:0:0:0:
388,96,283779,6,0,L|464:76,1,62.9999980773926,4|0,0:0|0:0,0:0:0:0:
320,8,284193,1,2,0:0:0:0:
328,232,284399,2,0,P|332:268|328:304,1,62.9999980773926
132,140,284813,2,0,B|208:156|208:156|184:176,1,94.499997116089,8|8,0:0|0:0,0:0:0:0:
104,136,285227,1,8,0:0:0:0:
60,316,285434,6,0,L|33:229,1,62.9999980773926,2|0,0:0|0:0,0:0:0:0:
35,234,285744,1,0,0:0:0:0:
28,212,285848,1,0,0:0:0:0:
192,300,286055,1,2,0:0:0:0:
24,192,286262,6,0,P|20:156|32:104,1,62.9999980773926,2|8,0:0|0:0,0:0:0:0:
116,74,286572,2,0,P|138:52|169:34,1,62.9999980773926,0|8,0:0|0:0,0:0:0:0:
273,38,286882,1,8,0:0:0:0:
84,48,287089,6,0,P|88:84|108:128,1,62.9999980773926,2|0,0:0|0:0,0:0:0:0:
256,208,287503,1,2,0:0:0:0:
440,108,287710,1,0,0:0:0:0:
340,212,287917,5,2,0:0:0:0:
356,104,288124,1,0,0:0:0:0:
372,288,288330,5,2,0:0:0:0:
324,28,288537,1,0,0:0:0:0:
120,196,288744,2,0,P|76:192|40:180,1,62.9999980773926
40,178,289055,1,0,0:0:0:0:
23,169,289158,5,0,0:0:0:0:
146,314,289365,1,2,0:0:0:0:
326,250,289572,1,2,0:0:0:0:
306,62,289779,1,8,0:0:0:0:
306,62,289882,1,0,0:0:0:0:
124,9,290089,1,8,0:0:0:0:
124,9,290193,1,8,0:0:0:0:
198,201,290399,5,2,0:0:0:0:
229,125,290606,1,0,0:0:0:0:
152,138,290813,2,0,L|82:112,1,53.9999983520508
206,254,291227,6,0,L|198:201,1,53.9999983520508,0|8,0:0|0:0,0:0:0:0:
229,125,291537,2,0,L|286:78,1,53.9999983520508,0|8,0:0|0:0,0:0:0:0:
281,188,291848,1,8,0:0:0:0:
178,60,292055,5,2,0:0:0:0:
281,188,292262,1,0,0:0:0:0:
301,195,292365,1,0,0:0:0:0:
321,203,292468,1,2,0:0:0:0:
118,216,292675,1,2,0:0:0:0:
341,212,292882,6,0,L|351:283,1,53.9999983520508,8|0,0:0|0:0,0:0:0:0:
69,106,293296,2,0,L|79:35,1,53.9999983520508,2|0,0:0|0:0,0:0:0:0:
118,216,293710,5,0,0:0:0:0:
290,97,293917,1,0,0:0:0:0:
226,294,294124,1,0,0:0:0:0:
182,19,294330,1,0,0:0:0:0:
205,156,294537,5,0,0:0:0:0:
343,285,294744,1,8,0:0:0:0:
352,294,294848,1,0,0:0:0:0:
386,101,295055,1,8,0:0:0:0:
398,97,295158,1,8,0:0:0:0:
306,184,295365,5,2,0:0:0:0:
216,273,295572,1,2,0:0:0:0:
201,280,295675,1,0,0:0:0:0:
185,286,295779,1,2,0:0:0:0:
264,43,295986,1,0,0:0:0:0:
439,228,296193,2,0,P|409:220|368:218,1,53.9999983520508,2|0,0:0|0:0,0:0:0:0:
256,348,296606,1,2,0:0:0:0:
126,217,296813,6,0,P|108:224|88:236,2,26.9999991760254,2|2|4,0:0|0:0|0:0,0:0:0:0:
72,108,297227,1,0,0:0:0:0:
300,240,297434,1,2,0:0:0:0:
324,40,297641,1,0,0:0:0:0:
212,240,297848,1,0,0:0:0:0:
188,40,298055,1,0,0:0:0:0:
386,217,298262,1,2,0:0:0:0:
440,108,298468,1,2,0:0:0:0:
372,340,298675,5,2,0:0:0:0:
256,312,298882,2,0,L|256:344,2,22.5,2|2|2,0:0|0:0|0:0,0:0:0:0:
140,340,299296,1,0,0:0:0:0:
256,216,299503,6,0,L|256:248,1,22.5,8|0,0:0|0:0,0:0:0:0:
256,132,299710,2,0,L|256:160,2,15,8|8|8,0:0|0:0|0:0,0:0:0:0:
256,48,299917,1,8,0:0:0:0:
162,56,300124,1,2,0:0:0:0:
391,73,300330,6,0,P|373:63|348:56,1,45,2|0,0:0|0:0,0:0:0:0:
162,56,300744,2,0,P|140:62|121:73,1,45,2|0,0:0|0:0,0:0:0:0:
339,135,301158,6,0,P|345:159|351:179,1,45,0|2,0:0|0:0,0:0:0:0:
382,213,301468,1,0,0:0:0:0:
411,247,301572,2,0,P|418:271|423:291,1,45,2|0,0:0|0:0,0:0:0:0:
162,104,301986,5,0,0:0:0:0:
80,182,302193,1,2,0:0:0:0:
104,179,302296,1,0,0:0:0:0:
128,176,302399,1,0,0:0:0:0:
42,252,302606,1,2,0:0:0:0:
260,68,302813,5,2,0:0:0:0:
244,170,303020,1,0,0:0:0:0:
230,272,303227,1,0,0:0:0:0:
214,374,303434,1,0,0:0:0:0:
256,192,303641,12,0,306951,0:0:0:0:
