osu file format v14

[General]
AudioFilename: audio.mp3
AudioLeadIn: 0
PreviewTime: -1
Countdown: 0
SampleSet: None
StackLeniency: 0.7
Mode: 0
LetterboxInBreaks: 0
WidescreenStoryboard: 0

[Editor]
DistanceSpacing: 0.8
BeatDivisor: 4
GridSize: 32
TimelineZoom: 1.9

[Metadata]
Title:killy killy JOKER
TitleUnicode:killy killy JOKER
Artist:Kanon Wakeshima
ArtistUnicode:分島花音
Creator:bite you death
Version:ideas
Source:selector infected WIXOSS
Tags:anime op opening card captor game
BeatmapID:1794661
BeatmapSetID:858739

[Difficulty]
HPDrainRate:6
CircleSize:3.6
OverallDifficulty:8.5
ApproachRate:9.2
SliderMultiplier:1.7
SliderTickRate:1

[Events]
//Background and Video events
//Break Periods
//Storyboard Layer 0 (Background)
//Storyboard Layer 1 (Fail)
//Storyboard Layer 2 (Pass)
//Storyboard Layer 3 (Foreground)
//Storyboard Sound Samples

[TimingPoints]
0,333.333333333333,4,2,1,60,1,0
833,-117.647058823529,4,2,1,60,0,0
9333,-100,4,2,1,60,0,0
41333,-90.9090909090909,4,2,1,60,0,0
45999,-133.333333333333,4,2,1,60,0,0
46333,-66.6666666666667,4,2,1,60,0,0
46666,-76.9230769230769,4,2,1,80,0,1

[Colours]
Combo1 : 106,0,0
Combo2 : 255,170,170
Combo3 : 255,102,102
Combo4 : 242,0,0

[HitObjects]
69,187,41333,6,0,P|112:159|175:164,1,93.5000028533936,6|0,3:2|0:0,0:0:0:0:
323,285,41666,5,8,0:0:0:0:
137,253,41833,1,0,0:0:0:0:
348,155,41999,1,0,3:0:0:0:
300,374,42166,1,0,3:0:0:0:
260,101,42333,5,10,0:0:0:0:
389,350,42499,2,0,L|476:370,1,46.7500014266968,2|0,0:0|0:0,0:0:0:0:
234,309,42666,5,0,0:0:0:0:
430,270,42833,1,0,0:0:0:0:
168,244,42999,1,8,0:0:0:0:
471,190,43166,1,0,0:0:0:0:
157,52,43333,5,0,3:0:0:0:
323,285,43499,1,2,0:0:0:0:
440,17,43666,1,10,0:0:0:0:
169,161,43833,1,2,0:0:0:0:
465,295,43999,5,6,3:2:0:0:
230,83,44166,5,8,0:0:0:0:
200,64,44249,1,8,0:0:0:0:
166,58,44333,1,8,0:0:0:0:
131,65,44416,1,8,0:0:0:0:
102,84,44499,1,8,0:0:0:0:
316,332,44666,5,8,0:0:0:0:
323,285,44749,1,8,0:0:0:0:
330,239,44832,1,8,0:0:0:0:
337,193,44916,1,8,0:0:0:0:
344,147,44999,1,8,0:0:0:0:
29,75,45166,5,8,0:0:0:0:
29,133,45249,1,8,0:0:0:0:
67,177,45333,2,0,P|92:176|120:165,1,46.7500014266968,0|0,3:0|0:0,0:0:0:0:
205,169,45499,6,0,P|110:172|82:258,1,187.000005706787,2|2,3:2|0:0,0:0:0:0:
185,323,45916,1,2,0:0:0:0:
185,323,45999,2,0,P|185:269|150:230,1,95.6250036478044,2|0,0:0|0:0,0:0:0:0:
98,374,46333,6,0,P|192:356|286:342,1,191.250007295609,12|0,3:0|0:0,0:0:0:0:
444,289,46666,5,6,3:2:0:0:
241,311,46833,1,0,1:0:0:0:
218,108,46999,1,10,0:0:0:0:
421,86,47166,1,0,1:0:0:0:
413,334,47333,5,2,3:2:0:0:
195,280,47500,1,2,1:2:0:0:
247,61,47666,1,10,0:0:0:0:
465,115,47833,1,2,1:2:0:0:
382,379,47999,5,2,3:2:0:0:
149,249,48166,1,2,1:2:0:0:
276,14,48333,1,10,0:0:0:0:
509,144,48499,1,2,1:2:0:0:
258,384,48666,5,2,3:2:0:0:
115,47,48833,1,2,1:2:0:0:
509,144,48999,1,10,0:0:0:0:
97,221,49166,1,2,1:2:0:0:
390,0,49333,6,0,B|458:118|343:94|430:235,1,220.999989883423,2|8,3:2|0:0,0:0:0:0:
491,345,49833,1,2,1:2:0:0:
297,188,49999,2,0,P|240:164|181:177,1,110.499994941712,2|0,3:2|1:0,0:0:0:0:
76,248,50333,1,8,0:0:0:0:
201,64,50499,1,0,1:0:0:0:
194,326,50666,5,0,3:0:0:0:
31,165,50833,2,0,P|91:153|145:186,1,110.499994941712,2|8,1:2|0:0,0:0:0:0:
423,38,51166,2,0,P|363:50|309:17,1,110.499994941712,2|0,1:2|3:0,0:0:0:0:
201,64,51499,1,0,1:0:0:0:
342,323,51666,2,0,L|360:198,1,110.499994941712,8|2,0:0|1:2,0:0:0:0:
424,157,51916,1,2,0:0:0:0:
427,129,51999,5,6,3:2:0:0:
148,238,52166,1,2,1:2:0:0:
342,323,52333,1,10,0:2:0:0:
233,44,52499,1,2,1:2:0:0:
428,97,52666,5,2,3:2:0:0:
146,269,52833,1,2,1:2:0:0:
373,324,53000,1,10,0:2:0:0:
201,42,53166,1,2,1:2:0:0:
429,65,53333,5,2,3:2:0:0:
144,300,53500,1,2,1:2:0:0:
404,325,53666,1,10,0:2:0:0:
169,40,53833,1,2,1:2:0:0:
